   0
SECTION
   2
HEADER
   9
$ACADVER
   1
AC1014
   9
$LIMMIN
  10
0.0
  20
0.0
   9
$LIMMAX
  10
 840.00000000000
  20
 594.00000000000
   9
$EXTMIN
  10
0.0
  20
0.0
  30
0.0
   9
$EXTMAX
  10
 840.00000000000
  20
 594.00000000000
  30
0.0
   9
$LTSCALE
  40
 16.800000000000
   9
$HANDSEED
   5
217
   0
ENDSEC
   0
SECTION
   2
TABLES
  0
TABLE
  2
VPORT
  5
8
100
AcDbSymbolTable
 70
     1
  0
VPORT
  5
216
100
AcDbSymbolTableRecord
100
AcDbViewportTableRecord
  2
*ACTIVE
 70
     0
 10
0.0
 20
0.0
 11
1.0
 21
1.0
  12
 420.00000000000
  22
 297.00000000000
 13
0.0
 23
0.0
 14
1.0
 24
1.0
 15
0.0
 25
0.0
 16
0.0
 26
0.0
 36
1.0
 17
0.0
 27
0.0
 37
0.0
  40
 840.00000000000
  41
 1.4787878787879
 42
50.0
 43
0.0
 44
0.0
 50
0.0
 51
0.0
 71
     0
 72
   100
 73
     1
 74
     1
 75
     0
 76
     0
 77
     0
 78
     0
  0
ENDTAB
  0
TABLE
  2
LTYPE
  5
5
100
AcDbSymbolTable
 70
    25
  0
LTYPE
  5
12
100
AcDbSymbolTableRecord
100
AcDbLinetypeTableRecord
  2
BYBLOCK
 70
     0
  3

 72
    65
 73
     0
 40
0.0
  0
LTYPE
  5
13
100
AcDbSymbolTableRecord
100
AcDbLinetypeTableRecord
  2
BYLAYER
 70
     0
  3

 72
    65
 73
     0
 40
0.0
  0
LTYPE
  5
14
100
AcDbSymbolTableRecord
100
AcDbLinetypeTableRecord
  2
CONTINUOUS
 70
     0
  3
Solid line
 72
    65
 73
     0
 40
0.0
  0
LTYPE
  5
20
100
AcDbSymbolTableRecord
100
AcDbLinetypeTableRecord
  2
BORDER
 70
     0
  3
__ __ . __ __ . __ __ . __ __ . __ __ . __ __ .
 72
    65
 73
     6
 40
1.75
 49
0.5
 74
     0
 49
-0.25
 74
     0
 49
0.5
 74
     0
 49
-0.25
 74
     0
 49
0.0
 74
     0
 49
-0.25
 74
     0
  0
LTYPE
  5
21
100
AcDbSymbolTableRecord
100
AcDbLinetypeTableRecord
  2
BORDER2
 70
     0
  3
__.__.__.__.__.__.__.__.__.__.__.__.__.__.__.__
 72
    65
 73
     6
 40
0.875
 49
0.25
 74
     0
 49
-0.125
 74
     0
 49
0.25
 74
     0
 49
-0.125
 74
     0
 49
0.0
 74
     0
 49
-0.125
 74
     0
  0
LTYPE
  5
22
100
AcDbSymbolTableRecord
100
AcDbLinetypeTableRecord
  2
BORDERX2
 70
     0
  3
____  ____  .  ____  ____  .  ____  ____  .  __
 72
    65
 73
     6
 40
3.5
 49
1.0
 74
     0
 49
-0.5
 74
     0
 49
1.0
 74
     0
 49
-0.5
 74
     0
 49
0.0
 74
     0
 49
-0.5
 74
     0
  0
LTYPE
  5
23
100
AcDbSymbolTableRecord
100
AcDbLinetypeTableRecord
  2
CENTER
 70
     0
  3
____ _ ____ _ ____ _ ____ _ ____ _ ____ _ ____ 
 72
    65
 73
     4
 40
2.0
 49
1.25
 74
     0
 49
-0.25
 74
     0
 49
0.25
 74
     0
 49
-0.25
 74
     0
  0
LTYPE
  5
24
100
AcDbSymbolTableRecord
100
AcDbLinetypeTableRecord
  2
CENTER2
 70
     0
  3
___ _ ___ _ ___ _ ___ _ ___ _ ___ _ ___ _ ___ _
 72
    65
 73
     4
 40
1.125
 49
0.75
 74
     0
 49
-0.125
 74
     0
 49
0.125
 74
     0
 49
-0.125
 74
     0
  0
LTYPE
  5
25
100
AcDbSymbolTableRecord
100
AcDbLinetypeTableRecord
  2
CENTERX2
 70
     0
  3
________  __  ________  __  ________  __  _____
 72
    65
 73
     4
 40
4.0
 49
2.5
 74
     0
 49
-0.5
 74
     0
 49
0.5
 74
     0
 49
-0.5
 74
     0
  0
LTYPE
  5
26
100
AcDbSymbolTableRecord
100
AcDbLinetypeTableRecord
  2
DASHDOT
 70
     0
  3
__ . __ . __ . __ . __ . __ . __ . __ . __ . __
 72
    65
 73
     4
 40
1.0
 49
0.5
 74
     0
 49
-0.25
 74
     0
 49
0.0
 74
     0
 49
-0.25
 74
     0
  0
LTYPE
  5
27
100
AcDbSymbolTableRecord
100
AcDbLinetypeTableRecord
  2
DASHDOT2
 70
     0
  3
_._._._._._._._._._._._._._._._._._._._._._._._
 72
    65
 73
     4
 40
0.5
 49
0.25
 74
     0
 49
-0.125
 74
     0
 49
0.0
 74
     0
 49
-0.125
 74
     0
  0
LTYPE
  5
28
100
AcDbSymbolTableRecord
100
AcDbLinetypeTableRecord
  2
DASHDOTX2
 70
     0
  3
____  .  ____  .  ____  .  ____  .  ____  .  __
 72
    65
 73
     4
 40
2.0
 49
1.0
 74
     0
 49
-0.5
 74
     0
 49
0.0
 74
     0
 49
-0.5
 74
     0
  0
LTYPE
  5
29
100
AcDbSymbolTableRecord
100
AcDbLinetypeTableRecord
  2
DASHED
 70
     0
  3
__ __ __ __ __ __ __ __ __ __ __ __ __ __ __ __
 72
    65
 73
     2
 40
0.75
 49
0.5
 74
     0
 49
-0.25
 74
     0
  0
LTYPE
  5
2A
100
AcDbSymbolTableRecord
100
AcDbLinetypeTableRecord
  2
DASHED2
 70
     0
  3
_ _ _ _ _ _ _ _ _ _ _ _ _ _ _ _ _ _ _ _ _ _ _ _
 72
    65
 73
     2
 40
0.375
 49
0.25
 74
     0
 49
-0.125
 74
     0
  0
LTYPE
  5
2B
100
AcDbSymbolTableRecord
100
AcDbLinetypeTableRecord
  2
DASHEDX2
 70
     0
  3
____  ____  ____  ____  ____  ____  ____  ____ 
 72
    65
 73
     2
 40
1.5
 49
1.0
 74
     0
 49
-0.5
 74
     0
  0
LTYPE
  5
2C
100
AcDbSymbolTableRecord
100
AcDbLinetypeTableRecord
  2
DIVIDE
 70
     0
  3
____ . . ____ . . ____ . . ____ . . ____ . . __
 72
    65
 73
     6
 40
1.25
 49
0.5
 74
     0
 49
-0.25
 74
     0
 49
0.0
 74
     0
 49
-0.25
 74
     0
 49
0.0
 74
     0
 49
-0.25
 74
     0
  0
LTYPE
  5
2D
100
AcDbSymbolTableRecord
100
AcDbLinetypeTableRecord
  2
DIVIDE2
 70
     0
  3
__..__..__..__..__..__..__..__..__..__..__..__.
 72
    65
 73
     6
 40
0.625
 49
0.25
 74
     0
 49
-0.125
 74
     0
 49
0.0
 74
     0
 49
-0.125
 74
     0
 49
0.0
 74
     0
 49
-0.125
 74
     0
  0
LTYPE
  5
2E
100
AcDbSymbolTableRecord
100
AcDbLinetypeTableRecord
  2
DIVIDEX2
 70
     0
  3
________  .  .  ________  .  .  ________  .  . 
 72
    65
 73
     6
 40
2.5
 49
1.0
 74
     0
 49
-0.5
 74
     0
 49
0.0
 74
     0
 49
-0.5
 74
     0
 49
0.0
 74
     0
 49
-0.5
 74
     0
  0
LTYPE
  5
2F
100
AcDbSymbolTableRecord
100
AcDbLinetypeTableRecord
  2
DOT
 70
     0
  3
. . . . . . . . . . . . . . . . . . . . . . . .
 72
    65
 73
     2
 40
0.25
 49
0.0
 74
     0
 49
-0.25
 74
     0
  0
LTYPE
  5
30
100
AcDbSymbolTableRecord
100
AcDbLinetypeTableRecord
  2
DOT2
 70
     0
  3
...............................................
 72
    65
 73
     2
 40
0.125
 49
0.0
 74
     0
 49
-0.125
 74
     0
  0
LTYPE
  5
31
100
AcDbSymbolTableRecord
100
AcDbLinetypeTableRecord
  2
DOTX2
 70
     0
  3
.  .  .  .  .  .  .  .  .  .  .  .  .  .  .  . 
 72
    65
 73
     2
 40
0.5
 49
0.0
 74
     0
 49
-0.5
 74
     0
  0
LTYPE
  5
32
100
AcDbSymbolTableRecord
100
AcDbLinetypeTableRecord
  2
HIDDEN
 70
     0
  3
__ __ __ __ __ __ __ __ __ __ __ __ __ __ __ __
 72
    65
 73
     2
 40
0.375
 49
0.25
 74
     0
 49
-0.125
 74
     0
  0
LTYPE
  5
33
100
AcDbSymbolTableRecord
100
AcDbLinetypeTableRecord
  2
HIDDEN2
 70
     0
  3
_ _ _ _ _ _ _ _ _ _ _ _ _ _ _ _ _ _ _ _ _ _ _ _
 72
    65
 73
     2
 40
0.1875
 49
0.125
 74
     0
 49
-0.0625
 74
     0
  0
LTYPE
  5
34
100
AcDbSymbolTableRecord
100
AcDbLinetypeTableRecord
  2
HIDDENX2
 70
     0
  3
____ ____ ____ ____ ____ ____ ____ ____ ____ __
 72
    65
 73
     2
 40
0.75
 49
0.5
 74
     0
 49
-0.25
 74
     0
  0
LTYPE
  5
35
100
AcDbSymbolTableRecord
100
AcDbLinetypeTableRecord
  2
PHANTOM
 70
     0
  3
______  __  __  ______  __  __  ______  __  __ 
 72
    65
 73
     6
 40
2.5
 49
1.25
 74
     0
 49
-0.25
 74
     0
 49
0.25
 74
     0
 49
-0.25
 74
     0
 49
0.25
 74
     0
 49
-0.25
 74
     0
  0
LTYPE
  5
36
100
AcDbSymbolTableRecord
100
AcDbLinetypeTableRecord
  2
PHANTOM2
 70
     0
  3
___ _ _ ___ _ _ ___ _ _ ___ _ _ ___ _ _ ___ _ _
 72
    65
 73
     6
 40
1.25
 49
0.625
 74
     0
 49
-0.125
 74
     0
 49
0.125
 74
     0
 49
-0.125
 74
     0
 49
0.125
 74
     0
 49
-0.125
 74
     0
  0
LTYPE
  5
37
100
AcDbSymbolTableRecord
100
AcDbLinetypeTableRecord
  2
PHANTOMX2
 70
     0
  3
____________    ____    ____    ____________   
 72
    65
 73
     6
 40
5.0
 49
2.5
 74
     0
 49
-0.5
 74
     0
 49
0.5
 74
     0
 49
-0.5
 74
     0
 49
0.5
 74
     0
 49
-0.5
 74
     0
  0
ENDTAB
   0
TABLE
   2
LAYER
   5
2
 100
AcDbSymbolTable
  70
6
   0
LAYER
   5
E
 100
AcDbSymbolTableRecord
 100
AcDbLayerTableRecord
   2
0
  70
0
  62
7
   6
CONTINUOUS
   0
LAYER
   5
39
 100
AcDbSymbolTableRecord
 100
AcDbLayerTableRecord
   2
LEVEL001
  70
0
  62
7
   6
CONTINUOUS
   0
LAYER
   5
3A
 100
AcDbSymbolTableRecord
 100
AcDbLayerTableRecord
   2
LEVEL003
  70
0
  62
7
   6
CONTINUOUS
   0
LAYER
   5
3B
 100
AcDbSymbolTableRecord
 100
AcDbLayerTableRecord
   2
LEVEL020
  70
0
  62
7
   6
CONTINUOUS
   0
LAYER
   5
3C
 100
AcDbSymbolTableRecord
 100
AcDbLayerTableRecord
   2
LEVEL050
  70
0
  62
7
   6
CONTINUOUS
   0
LAYER
   5
3D
 100
AcDbSymbolTableRecord
 100
AcDbLayerTableRecord
   2
LEVEL110
  70
0
  62
7
   6
CONTINUOUS
   0
ENDTAB
  0
TABLE
  2
STYLE
  5
3
100
AcDbSymbolTable
  70
4
  0
STYLE
  5
F
100
AcDbSymbolTableRecord
100
AcDbTextStyleTableRecord
  2
STANDARD
 70
     0
 40
0.0
 41
1.0
 50
0.0
 71
     0
 42
0.2
  3
TXT
  4
BIGFONT
  0
STYLE
  5
38
100
AcDbSymbolTableRecord
100
AcDbTextStyleTableRecord
  2
STANDARD1
 70
     4
 40
0.0
 41
1.0
 50
0.0
 71
     0
 42
0.2
  3
TXT
  4
BIGFONT
   0
STYLE
   5
3E
 100
AcDbSymbolTableRecord
 100
AcDbTextStyleTableRecord
   2
GMM001
  70
0
  40
0.0
  41
 0.50000000000000
  50
0.0
  71
     0
  42
1.0
   3
txt.shx
   4
bigfont.shx
   0
STYLE
   5
3F
 100
AcDbSymbolTableRecord
 100
AcDbTextStyleTableRecord
   2
GMM002
  70
0
  40
0.0
  41
 1.0000000000000
  50
0.0
  71
     0
  42
1.0
   3
txt.shx
   4
bigfont.shx
   0
ENDTAB
  0
TABLE
  2
VIEW
  5
6
100
AcDbSymbolTable
 70
     0
  0
ENDTAB
  0
TABLE
  2
UCS
  5
7
100
AcDbSymbolTable
 70
     0
  0
ENDTAB
  0
TABLE
  2
APPID
  5
9
100
AcDbSymbolTable
 70
     1
  0
APPID
  5
10
100
AcDbSymbolTableRecord
100
AcDbRegAppTableRecord
  2
ACAD
 70
     0
  0
ENDTAB
   0
TABLE
   2
DIMSTYLE
   5
A
 100
AcDbSymbolTable
  70
10
  0
DIMSTYLE
105
1D
100
AcDbSymbolTableRecord
100
AcDbDimStyleTableRecord
  2
STANDARD
 70
     0
  3

  4

  5

  6

  7

 40
1.0
 41
0.18
 42
0.0625
 43
0.38
 44
0.18
 45
0.0
 46
0.0
 47
0.0
 48
0.0
140
0.18
141
0.09
142
0.0
143
25.4
144
1.0
145
0.0
146
1.0
147
0.09
 71
     0
 72
     0
 73
     1
 74
     1
 75
     0
 76
     0
 77
     0
 78
     0
170
     0
171
     2
172
     0
173
     0
174
     0
175
     0
176
     0
177
     0
178
     0
270
     2
271
     4
272
     4
273
     2
274
     2
340
F
275
     0
280
     0
281
     0
282
     0
283
     1
284
     0
285
     0
286
     0
287
     3
288
     0
   0
DIMSTYLE
 105
40
 100
AcDbSymbolTableRecord
 100
AcDbDimStyleTableRecord
   2
GMM001
  70
0
   3

   4

   5

   6
_OPEN
   7
_OPEN
  40
 1.0000000000000
  41
 6.0000000000000
  42
 2.0000000000000
  43
 0.10000000000000E-5
  44
 4.0000000000000
  45
0.0
  46
0.0
  47
0.0
  48
0.0
 140
 8.0000000000000
 141
 2.0000000000000
 142
0.0
 143
 0.39400000000000E-1
 144
 1.0000000000000
 145
0.0
 146
 0.62500000000000
 147
0.0
  71
0
  72
0
  73
0
  74
0
  75
0
  76
0
  77
1
  78
0
 170
0
 171
2
 172
1
 173
1
 174
0
 175
0
 176
3
 177
3
 178
7
 270
2
 271
2
 272
0
 273
2
 274
2
 340
F
 275
1
 280
0
 281
0
 282
0
 283
1
 284
0
 285
0
 286
0
 287
3
 288
1
   0
DIMSTYLE
 105
41
 100
AcDbSymbolTableRecord
 100
AcDbDimStyleTableRecord
   2
GMM002
  70
0
   3

   4

   5

   6
_OPEN
   7
_OPEN
  40
 1.0000000000000
  41
 6.0000000000000
  42
 2.0000000000000
  43
 0.10000000000000E-5
  44
 4.0000000000000
  45
0.0
  46
0.0
  47
0.0
  48
0.0
 140
 9.6000003814697
 141
 2.0000000000000
 142
0.0
 143
 0.39400000000000E-1
 144
 1.0000000000000
 145
0.0
 146
 0.62500000000000
 147
0.0
  71
0
  72
0
  73
0
  74
0
  75
0
  76
0
  77
0
  78
0
 170
0
 171
2
 172
1
 173
1
 174
0
 175
0
 176
3
 177
3
 178
7
 270
2
 271
0
 272
0
 273
2
 274
2
 340
F
 275
1
 280
0
 281
0
 282
0
 283
1
 284
0
 285
0
 286
0
 287
3
 288
1
   0
DIMSTYLE
 105
42
 100
AcDbSymbolTableRecord
 100
AcDbDimStyleTableRecord
   2
GMM003
  70
0
   3

   4

   5

   6
_OPEN
   7
_OPEN
  40
 1.0000000000000
  41
 6.0000000000000
  42
 2.0000000000000
  43
 0.10000000000000E-5
  44
 4.0000000000000
  45
0.0
  46
0.0
  47
0.0
  48
0.0
 140
 8.0000000000000
 141
 2.0000000000000
 142
0.0
 143
 0.39400000000000E-1
 144
 1.0000000000000
 145
0.0
 146
 0.62500000000000
 147
 1.5999755859375
  71
0
  72
0
  73
0
  74
0
  75
0
  76
1
  77
3
  78
0
 170
0
 171
2
 172
1
 173
1
 174
0
 175
0
 176
3
 177
3
 178
3
 270
2
 271
0
 272
0
 273
2
 274
2
 340
3F
 275
1
 280
0
 281
0
 282
0
 283
1
 284
0
 285
0
 286
0
 287
3
 288
1
   0
DIMSTYLE
 105
43
 100
AcDbSymbolTableRecord
 100
AcDbDimStyleTableRecord
   2
GMM004
  70
0
   3

   4

   5

   6
_OPEN
   7
_OPEN
  40
 1.0000000000000
  41
 6.0000000000000
  42
 2.0000000000000
  43
 0.10000000000000E-5
  44
 4.0000000000000
  45
0.0
  46
0.0
  47
0.0
  48
0.0
 140
 8.0000000000000
 141
 2.0000000000000
 142
0.0
 143
 0.39400000000000E-1
 144
 1.0000000000000
 145
0.0
 146
 0.62500000000000
 147
 1.5999755859375
  71
0
  72
0
  73
0
  74
0
  75
0
  76
0
  77
3
  78
0
 170
0
 171
2
 172
1
 173
1
 174
0
 175
0
 176
3
 177
3
 178
3
 270
2
 271
0
 272
0
 273
2
 274
2
 340
3F
 275
1
 280
0
 281
0
 282
0
 283
1
 284
0
 285
0
 286
0
 287
3
 288
1
   0
DIMSTYLE
 105
44
 100
AcDbSymbolTableRecord
 100
AcDbDimStyleTableRecord
   2
GMM005
  70
0
   3

   4

   5

   6
_OPEN
   7
_OPEN
  40
 1.0000000000000
  41
 6.0000000000000
  42
 2.0000000000000
  43
 0.10000000000000E-5
  44
 4.0000000000000
  45
0.0
  46
0.0
  47
0.0
  48
0.0
 140
 8.0000000000000
 141
 2.0000000000000
 142
0.0
 143
 0.39400000000000E-1
 144
 1.0000000000000
 145
0.0
 146
 0.62500000000000
 147
 1.5999984741211
  71
0
  72
0
  73
0
  74
0
  75
0
  76
0
  77
3
  78
0
 170
0
 171
2
 172
1
 173
1
 174
0
 175
0
 176
3
 177
3
 178
3
 270
2
 271
0
 272
0
 273
2
 274
2
 340
3F
 275
1
 280
0
 281
0
 282
0
 283
1
 284
0
 285
0
 286
0
 287
3
 288
1
   0
DIMSTYLE
 105
45
 100
AcDbSymbolTableRecord
 100
AcDbDimStyleTableRecord
   2
GMM006
  70
0
   3

   4

   5

   6
_OPEN
   7
_OPEN
  40
 1.0000000000000
  41
 6.0000000000000
  42
 2.0000000000000
  43
 0.10000000000000E-5
  44
 4.0000000000000
  45
0.0
  46
0.0
  47
0.0
  48
0.0
 140
 8.0000000000000
 141
 2.0000000000000
 142
0.0
 143
 0.39400000000000E-1
 144
 1.0000000000000
 145
0.0
 146
 0.62500000000000
 147
 1.6000061035156
  71
0
  72
0
  73
0
  74
0
  75
0
  76
0
  77
3
  78
0
 170
0
 171
2
 172
1
 173
1
 174
0
 175
0
 176
3
 177
3
 178
3
 270
2
 271
0
 272
0
 273
2
 274
2
 340
3F
 275
1
 280
0
 281
0
 282
0
 283
1
 284
0
 285
0
 286
0
 287
3
 288
1
   0
DIMSTYLE
 105
46
 100
AcDbSymbolTableRecord
 100
AcDbDimStyleTableRecord
   2
GMM007
  70
0
   3

   4

   5

   6
_OPEN
   7
_OPEN
  40
 1.0000000000000
  41
 6.0000000000000
  42
 2.0000000000000
  43
 16.000000000000
  44
 4.0000000000000
  45
0.0
  46
0.0
  47
0.0
  48
0.0
 140
 8.0000000000000
 141
 2.0000000000000
 142
0.0
 143
 0.39400000000000E-1
 144
 1.0000000000000
 145
0.0
 146
 0.62500000000000
 147
 1.6000000000000
  71
0
  72
0
  73
0
  74
0
  75
0
  76
0
  77
3
  78
8
 170
0
 171
2
 172
1
 173
1
 174
0
 175
0
 176
3
 177
3
 178
3
 270
2
 271
2
 272
0
 273
2
 274
2
 340
3F
 275
0
 280
0
 281
0
 282
0
 283
1
 284
0
 285
0
 286
0
 287
3
 288
0
   0
DIMSTYLE
 105
47
 100
AcDbSymbolTableRecord
 100
AcDbDimStyleTableRecord
   2
GMM008
  70
0
   3

   4

   5

   6
_OPEN
   7
_OPEN
  40
 1.0000000000000
  41
 6.0000000000000
  42
 2.0000000000000
  43
 16.000000000000
  44
 4.0000000000000
  45
0.0
  46
0.0
  47
0.0
  48
0.0
 140
 8.0000000000000
 141
 2.0000000000000
 142
0.0
 143
 0.39400000000000E-1
 144
 1.0000000000000
 145
0.0
 146
 0.62500000000000
 147
 1.6000000000000
  71
0
  72
0
  73
0
  74
0
  75
1
  76
1
  77
3
  78
8
 170
0
 171
2
 172
1
 173
1
 174
0
 175
0
 176
3
 177
3
 178
3
 270
2
 271
2
 272
0
 273
2
 274
2
 340
3F
 275
0
 280
0
 281
0
 282
0
 283
1
 284
0
 285
0
 286
0
 287
3
 288
0
   0
ENDTAB
  0
TABLE
  2
BLOCK_RECORD
  5
1
100
AcDbSymbolTable
 70
     0
  0
BLOCK_RECORD
  5
18
100
AcDbSymbolTableRecord
100
AcDbBlockTableRecord
  2
*MODEL_SPACE
  0
BLOCK_RECORD
  5
15
100
AcDbSymbolTableRecord
100
AcDbBlockTableRecord
  2
*PAPER_SPACE
   0
BLOCK_RECORD
   5
48
 100
AcDbSymbolTableRecord
 100
AcDbBlockTableRecord
   2
*D5
   0
BLOCK_RECORD
   5
49
 100
AcDbSymbolTableRecord
 100
AcDbBlockTableRecord
   2
*D6
   0
BLOCK_RECORD
   5
4A
 100
AcDbSymbolTableRecord
 100
AcDbBlockTableRecord
   2
*D7
   0
BLOCK_RECORD
   5
4B
 100
AcDbSymbolTableRecord
 100
AcDbBlockTableRecord
   2
*D8
   0
BLOCK_RECORD
   5
4C
 100
AcDbSymbolTableRecord
 100
AcDbBlockTableRecord
   2
*D9
   0
BLOCK_RECORD
   5
4D
 100
AcDbSymbolTableRecord
 100
AcDbBlockTableRecord
   2
*D10
   0
BLOCK_RECORD
   5
4E
 100
AcDbSymbolTableRecord
 100
AcDbBlockTableRecord
   2
*D11
   0
BLOCK_RECORD
   5
4F
 100
AcDbSymbolTableRecord
 100
AcDbBlockTableRecord
   2
*D12
   0
BLOCK_RECORD
   5
50
 100
AcDbSymbolTableRecord
 100
AcDbBlockTableRecord
   2
*D13
   0
BLOCK_RECORD
   5
51
 100
AcDbSymbolTableRecord
 100
AcDbBlockTableRecord
   2
*D14
   0
BLOCK_RECORD
   5
52
 100
AcDbSymbolTableRecord
 100
AcDbBlockTableRecord
   2
*D15
   0
BLOCK_RECORD
   5
53
 100
AcDbSymbolTableRecord
 100
AcDbBlockTableRecord
   2
_ARCHTICK
   0
BLOCK_RECORD
   5
54
 100
AcDbSymbolTableRecord
 100
AcDbBlockTableRecord
   2
_BOXBLANK
   0
BLOCK_RECORD
   5
55
 100
AcDbSymbolTableRecord
 100
AcDbBlockTableRecord
   2
_BOXFILLED
   0
BLOCK_RECORD
   5
56
 100
AcDbSymbolTableRecord
 100
AcDbBlockTableRecord
   2
_CLOSED
   0
BLOCK_RECORD
   5
57
 100
AcDbSymbolTableRecord
 100
AcDbBlockTableRecord
   2
_CLOSEDBLANK
   0
BLOCK_RECORD
   5
58
 100
AcDbSymbolTableRecord
 100
AcDbBlockTableRecord
   2
_DATUMBLANK
   0
BLOCK_RECORD
   5
59
 100
AcDbSymbolTableRecord
 100
AcDbBlockTableRecord
   2
_DATUMFILLED
   0
BLOCK_RECORD
   5
5A
 100
AcDbSymbolTableRecord
 100
AcDbBlockTableRecord
   2
_DOT
   0
BLOCK_RECORD
   5
5B
 100
AcDbSymbolTableRecord
 100
AcDbBlockTableRecord
   2
_DOTBLANK
   0
BLOCK_RECORD
   5
5C
 100
AcDbSymbolTableRecord
 100
AcDbBlockTableRecord
   2
_DOTSMALL
   0
BLOCK_RECORD
   5
5D
 100
AcDbSymbolTableRecord
 100
AcDbBlockTableRecord
   2
_INTEGRAL
   0
BLOCK_RECORD
   5
5E
 100
AcDbSymbolTableRecord
 100
AcDbBlockTableRecord
   2
_NONE
   0
BLOCK_RECORD
   5
5F
 100
AcDbSymbolTableRecord
 100
AcDbBlockTableRecord
   2
_OBLIQUE
   0
BLOCK_RECORD
   5
60
 100
AcDbSymbolTableRecord
 100
AcDbBlockTableRecord
   2
_OPEN
   0
BLOCK_RECORD
   5
61
 100
AcDbSymbolTableRecord
 100
AcDbBlockTableRecord
   2
_OPEN30
   0
BLOCK_RECORD
   5
62
 100
AcDbSymbolTableRecord
 100
AcDbBlockTableRecord
   2
_OPEN90
   0
BLOCK_RECORD
   5
63
 100
AcDbSymbolTableRecord
 100
AcDbBlockTableRecord
   2
_ORIGIN
   0
ENDTAB
   0
ENDSEC
  0
SECTION
  2
BLOCKS
  0
BLOCK
  5
19
100
AcDbEntity
  8
0
100
AcDbBlockBegin
  2
*MODEL_SPACE
 70
     0
 10
0.0
 20
0.0
 30
0.0
  3
*MODEL_SPACE
  1

  0
ENDBLK
  5
1A
100
AcDbEntity
  8
0
100
AcDbBlockEnd
  0
BLOCK
  5
16
100
AcDbEntity
 67
     1
  8
0
100
AcDbBlockBegin
  2
*PAPER_SPACE
 70
     0
 10
0.0
 20
0.0
 30
0.0
  3
*PAPER_SPACE
  1

  0
ENDBLK
  5
17
100
AcDbEntity
 67
     1
  8
0
100
AcDbBlockEnd
   0
BLOCK
   5
64
 100
AcDbEntity
   8
0
 100
AcDbBlockBegin
   2
_ARCHTICK
  70
0
  10
0.0
  20
0.0
  30
0.0
   3
_ARCHTICK
   0
POLYLINE
   5
65
 100
AcDbEntity
   8
0
   6
BYBLOCK
  62
0
 100
AcDb2dPolyline
  66
1
  10
0.0
  20
0.0
  30
0.0
  70
1
  40
 0.15000000000000
  41
 0.15000000000000
   0
VERTEX
   5
66
 100
AcDbEntity
   8
0
   6
BYBLOCK
  62
0
 100
AcDbVertex
 100
AcDb2dVertex
  10
-0.50000000000000
  20
-0.50000000000000
  30
0.0
  40
 0.15000000000000
  41
 0.15000000000000
   0
VERTEX
   5
67
 100
AcDbEntity
   8
0
   6
BYBLOCK
  62
0
 100
AcDbVertex
 100
AcDb2dVertex
  10
 0.50000000000000
  20
 0.50000000000000
  30
0.0
  40
 0.15000000000000
  41
 0.15000000000000
   0
SEQEND
   5
68
 100
AcDbEntity
   8
0
   6
BYBLOCK
  62
0
   0
ENDBLK
   5
69
 100
AcDbEntity
   8
0
 100
AcDbBlockEnd
   0
BLOCK
   5
6A
 100
AcDbEntity
   8
0
 100
AcDbBlockBegin
   2
_OBLIQUE
  70
0
  10
0.0
  20
0.0
  30
0.0
   3
_OBLIQUE
   0
LINE
   5
6B
 100
AcDbEntity
   8
0
 100
AcDbLine
   6
BYBLOCK
  62
0
  10
-0.50000000000000
  20
-0.50000000000000
  30
0.0
  11
 0.50000000000000
  21
 0.50000000000000
  31
0.0
   0
ENDBLK
   5
6C
 100
AcDbEntity
   8
0
 100
AcDbBlockEnd
   0
BLOCK
   5
6D
 100
AcDbEntity
   8
0
 100
AcDbBlockBegin
   2
_BOXBLANK
  70
0
  10
0.0
  20
0.0
  30
0.0
   3
_BOXBLANK
   0
LINE
   5
6E
 100
AcDbEntity
   8
0
 100
AcDbLine
   6
BYBLOCK
  62
0
  10
-0.50000000000000
  20
-0.50000000000000
  30
0.0
  11
 0.50000000000000
  21
-0.50000000000000
  31
0.0
   0
LINE
   5
6F
 100
AcDbEntity
   8
0
 100
AcDbLine
   6
BYBLOCK
  62
0
  10
 0.50000000000000
  20
-0.50000000000000
  30
0.0
  11
 0.50000000000000
  21
 0.50000000000000
  31
0.0
   0
LINE
   5
70
 100
AcDbEntity
   8
0
 100
AcDbLine
   6
BYBLOCK
  62
0
  10
 0.50000000000000
  20
 0.50000000000000
  30
0.0
  11
-0.50000000000000
  21
 0.50000000000000
  31
0.0
   0
LINE
   5
71
 100
AcDbEntity
   8
0
 100
AcDbLine
   6
BYBLOCK
  62
0
  10
-0.50000000000000
  20
 0.50000000000000
  30
0.0
  11
-0.50000000000000
  21
-0.50000000000000
  31
0.0
   0
LINE
   5
72
 100
AcDbEntity
   8
0
 100
AcDbLine
   6
BYBLOCK
  62
0
  10
-0.50000000000000
  20
0.0
  30
0.0
  11
-1.0000000000000
  21
0.0
  31
0.0
   0
ENDBLK
   5
73
 100
AcDbEntity
   8
0
 100
AcDbBlockEnd
   0
BLOCK
   5
74
 100
AcDbEntity
   8
0
 100
AcDbBlockBegin
   2
_BOXFILLED
  70
0
  10
0.0
  20
0.0
  30
0.0
   3
_BOXFILLED
   0
SOLID
   5
75
 100
AcDbEntity
   8
0
 100
AcDbTrace
   6
BYBLOCK
  62
0
  10
-0.50000000000000
  20
 0.50000000000000
  30
0.0
  11
 0.50000000000000
  21
 0.50000000000000
  31
0.0
  12
-0.50000000000000
  22
-0.50000000000000
  32
0.0
  13
 0.50000000000000
  23
-0.50000000000000
  33
0.0
   0
LINE
   5
76
 100
AcDbEntity
   8
0
 100
AcDbLine
   6
BYBLOCK
  62
0
  10
-0.50000000000000
  20
0.0
  30
0.0
  11
-1.0000000000000
  21
0.0
  31
0.0
   0
ENDBLK
   5
77
 100
AcDbEntity
   8
0
 100
AcDbBlockEnd
   0
BLOCK
   5
78
 100
AcDbEntity
   8
0
 100
AcDbBlockBegin
   2
_CLOSED
  70
0
  10
0.0
  20
0.0
  30
0.0
   3
_CLOSED
   0
LINE
   5
79
 100
AcDbEntity
   8
0
 100
AcDbLine
   6
BYBLOCK
  62
0
  10
-1.0000000000000
  20
 0.16666666666667
  30
0.0
  11
0.0
  21
0.0
  31
0.0
   0
LINE
   5
7A
 100
AcDbEntity
   8
0
 100
AcDbLine
   6
BYBLOCK
  62
0
  10
0.0
  20
0.0
  30
0.0
  11
-1.0000000000000
  21
-0.16666666666667
  31
0.0
   0
LINE
   5
7B
 100
AcDbEntity
   8
0
 100
AcDbLine
   6
BYBLOCK
  62
0
  10
-1.0000000000000
  20
 0.16666666666667
  30
0.0
  11
-1.0000000000000
  21
-0.16666666666667
  31
0.0
   0
LINE
   5
7C
 100
AcDbEntity
   8
0
 100
AcDbLine
   6
BYBLOCK
  62
0
  10
0.0
  20
0.0
  30
0.0
  11
-1.0000000000000
  21
0.0
  31
0.0
   0
ENDBLK
   5
7D
 100
AcDbEntity
   8
0
 100
AcDbBlockEnd
   0
BLOCK
   5
7E
 100
AcDbEntity
   8
0
 100
AcDbBlockBegin
   2
_OPEN
  70
0
  10
0.0
  20
0.0
  30
0.0
   3
_OPEN
   0
LINE
   5
7F
 100
AcDbEntity
   8
0
 100
AcDbLine
   6
BYBLOCK
  62
0
  10
-1.0000000000000
  20
 0.16666666666667
  30
0.0
  11
0.0
  21
0.0
  31
0.0
   0
LINE
   5
80
 100
AcDbEntity
   8
0
 100
AcDbLine
   6
BYBLOCK
  62
0
  10
0.0
  20
0.0
  30
0.0
  11
-1.0000000000000
  21
-0.16666666666667
  31
0.0
   0
LINE
   5
81
 100
AcDbEntity
   8
0
 100
AcDbLine
   6
BYBLOCK
  62
0
  10
0.0
  20
0.0
  30
0.0
  11
-1.0000000000000
  21
0.0
  31
0.0
   0
ENDBLK
   5
82
 100
AcDbEntity
   8
0
 100
AcDbBlockEnd
   0
BLOCK
   5
83
 100
AcDbEntity
   8
0
 100
AcDbBlockBegin
   2
_OPEN30
  70
0
  10
0.0
  20
0.0
  30
0.0
   3
_OPEN30
   0
LINE
   5
84
 100
AcDbEntity
   8
0
 100
AcDbLine
   6
BYBLOCK
  62
0
  10
-1.0000000000000
  20
 0.26794919243110
  30
0.0
  11
0.0
  21
0.0
  31
0.0
   0
LINE
   5
85
 100
AcDbEntity
   8
0
 100
AcDbLine
   6
BYBLOCK
  62
0
  10
0.0
  20
0.0
  30
0.0
  11
-1.0000000000000
  21
-0.26794919243110
  31
0.0
   0
LINE
   5
86
 100
AcDbEntity
   8
0
 100
AcDbLine
   6
BYBLOCK
  62
0
  10
0.0
  20
0.0
  30
0.0
  11
-1.0000000000000
  21
0.0
  31
0.0
   0
ENDBLK
   5
87
 100
AcDbEntity
   8
0
 100
AcDbBlockEnd
   0
BLOCK
   5
88
 100
AcDbEntity
   8
0
 100
AcDbBlockBegin
   2
_OPEN90
  70
0
  10
0.0
  20
0.0
  30
0.0
   3
_OPEN90
   0
LINE
   5
89
 100
AcDbEntity
   8
0
 100
AcDbLine
   6
BYBLOCK
  62
0
  10
-0.50000000000000
  20
 0.50000000000000
  30
0.0
  11
0.0
  21
0.0
  31
0.0
   0
LINE
   5
8A
 100
AcDbEntity
   8
0
 100
AcDbLine
   6
BYBLOCK
  62
0
  10
0.0
  20
0.0
  30
0.0
  11
-0.50000000000000
  21
-0.50000000000000
  31
0.0
   0
LINE
   5
8B
 100
AcDbEntity
   8
0
 100
AcDbLine
   6
BYBLOCK
  62
0
  10
0.0
  20
0.0
  30
0.0
  11
-1.0000000000000
  21
0.0
  31
0.0
   0
ENDBLK
   5
8C
 100
AcDbEntity
   8
0
 100
AcDbBlockEnd
   0
BLOCK
   5
8D
 100
AcDbEntity
   8
0
 100
AcDbBlockBegin
   2
_CLOSEDBLANK
  70
0
  10
0.0
  20
0.0
  30
0.0
   3
_CLOSEDBLANK
   0
LINE
   5
8E
 100
AcDbEntity
   8
0
 100
AcDbLine
   6
BYBLOCK
  62
0
  10
-1.0000000000000
  20
 0.16666666666667
  30
0.0
  11
0.0
  21
0.0
  31
0.0
   0
LINE
   5
8F
 100
AcDbEntity
   8
0
 100
AcDbLine
   6
BYBLOCK
  62
0
  10
0.0
  20
0.0
  30
0.0
  11
-1.0000000000000
  21
-0.16666666666667
  31
0.0
   0
LINE
   5
90
 100
AcDbEntity
   8
0
 100
AcDbLine
   6
BYBLOCK
  62
0
  10
-1.0000000000000
  20
 0.16666666666667
  30
0.0
  11
-1.0000000000000
  21
-0.16666666666667
  31
0.0
   0
ENDBLK
   5
91
 100
AcDbEntity
   8
0
 100
AcDbBlockEnd
   0
BLOCK
   5
92
 100
AcDbEntity
   8
0
 100
AcDbBlockBegin
   2
_DOT
  70
0
  10
0.0
  20
0.0
  30
0.0
   3
_DOT
   0
POLYLINE
   5
93
 100
AcDbEntity
   8
0
   6
BYBLOCK
  62
0
 100
AcDb2dPolyline
  66
1
  10
0.0
  20
0.0
  30
0.0
  70
1
  40
 0.50000000000000
  41
 0.50000000000000
   0
VERTEX
   5
94
 100
AcDbEntity
   8
0
   6
BYBLOCK
  62
0
 100
AcDbVertex
 100
AcDb2dVertex
  10
-0.25000000000000
  20
0.0
  30
0.0
  42
 1.0000000000000
  40
 0.50000000000000
  41
 0.50000000000000
   0
VERTEX
   5
95
 100
AcDbEntity
   8
0
   6
BYBLOCK
  62
0
 100
AcDbVertex
 100
AcDb2dVertex
  10
 0.25000000000000
  20
0.0
  30
0.0
  42
 1.0000000000000
  40
 0.50000000000000
  41
 0.50000000000000
   0
SEQEND
   5
96
 100
AcDbEntity
   8
0
   6
BYBLOCK
  62
0
   0
LINE
   5
97
 100
AcDbEntity
   8
0
 100
AcDbLine
   6
BYBLOCK
  62
0
  10
-0.50000000000000
  20
0.0
  30
0.0
  11
-1.0000000000000
  21
0.0
  31
0.0
   0
ENDBLK
   5
98
 100
AcDbEntity
   8
0
 100
AcDbBlockEnd
   0
BLOCK
   5
99
 100
AcDbEntity
   8
0
 100
AcDbBlockBegin
   2
_DOTSMALL
  70
0
  10
0.0
  20
0.0
  30
0.0
   3
_DOTSMALL
   0
POLYLINE
   5
9A
 100
AcDbEntity
   8
0
   6
BYBLOCK
  62
0
 100
AcDb2dPolyline
  66
1
  10
0.0
  20
0.0
  30
0.0
  70
1
  40
 0.50000000000000
  41
 0.50000000000000
   0
VERTEX
   5
9B
 100
AcDbEntity
   8
0
   6
BYBLOCK
  62
0
 100
AcDbVertex
 100
AcDb2dVertex
  10
-0.62500000000000E-1
  20
0.0
  30
0.0
  42
 1.0000000000000
  40
 0.50000000000000
  41
 0.50000000000000
   0
VERTEX
   5
9C
 100
AcDbEntity
   8
0
   6
BYBLOCK
  62
0
 100
AcDbVertex
 100
AcDb2dVertex
  10
 0.62500000000000E-1
  20
0.0
  30
0.0
  42
 1.0000000000000
  40
 0.50000000000000
  41
 0.50000000000000
   0
SEQEND
   5
9D
 100
AcDbEntity
   8
0
   6
BYBLOCK
  62
0
   0
ENDBLK
   5
9E
 100
AcDbEntity
   8
0
 100
AcDbBlockEnd
   0
BLOCK
   5
9F
 100
AcDbEntity
   8
0
 100
AcDbBlockBegin
   2
_DATUMBLANK
  70
0
  10
0.0
  20
0.0
  30
0.0
   3
_DATUMBLANK
   0
LINE
   5
A0
 100
AcDbEntity
   8
0
 100
AcDbLine
   6
BYBLOCK
  62
0
  10
0.0
  20
 0.57735027000000
  30
0.0
  11
-1.0000000000000
  21
0.0
  31
0.0
   0
LINE
   5
A1
 100
AcDbEntity
   8
0
 100
AcDbLine
   6
BYBLOCK
  62
0
  10
-1.0000000000000
  20
0.0
  30
0.0
  11
0.0
  21
-0.57735027000000
  31
0.0
   0
LINE
   5
A2
 100
AcDbEntity
   8
0
 100
AcDbLine
   6
BYBLOCK
  62
0
  10
0.0
  20
-0.57735027000000
  30
0.0
  11
0.0
  21
 0.57735027000000
  31
0.0
   0
ENDBLK
   5
A3
 100
AcDbEntity
   8
0
 100
AcDbBlockEnd
   0
BLOCK
   5
A4
 100
AcDbEntity
   8
0
 100
AcDbBlockBegin
   2
_DATUMFILLED
  70
0
  10
0.0
  20
0.0
  30
0.0
   3
_DATUMFILLED
   0
SOLID
   5
A5
 100
AcDbEntity
   8
0
 100
AcDbTrace
   6
BYBLOCK
  62
0
  10
0.0
  20
 0.57735027000000
  30
0.0
  11
-1.0000000000000
  21
0.0
  31
0.0
  12
0.0
  22
-0.57735027000000
  32
0.0
  13
0.0
  23
-0.57735027000000
  33
0.0
   0
ENDBLK
   5
A6
 100
AcDbEntity
   8
0
 100
AcDbBlockEnd
   0
BLOCK
   5
A7
 100
AcDbEntity
   8
0
 100
AcDbBlockBegin
   2
_ORIGIN
  70
0
  10
0.0
  20
0.0
  30
0.0
   3
_ORIGIN
   0
CIRCLE
   5
A8
 100
AcDbEntity
   8
0
 100
AcDbCircle
   6
BYBLOCK
  62
0
  10
0.0
  20
0.0
  30
0.0
  40
 0.50000000000000
   0
LINE
   5
A9
 100
AcDbEntity
   8
0
 100
AcDbLine
   6
BYBLOCK
  62
0
  10
0.0
  20
0.0
  30
0.0
  11
-1.0000000000000
  21
0.0
  31
0.0
   0
ENDBLK
   5
AA
 100
AcDbEntity
   8
0
 100
AcDbBlockEnd
   0
BLOCK
   5
AB
 100
AcDbEntity
   8
0
 100
AcDbBlockBegin
   2
_NONE
  70
0
  10
0.0
  20
0.0
  30
0.0
   3
_NONE
   0
CIRCLE
   5
AC
 100
AcDbEntity
   8
0
 100
AcDbCircle
   6
BYBLOCK
  62
0
  10
0.0
  20
0.0
  30
0.0
  40
 0.25000000000000
   0
ENDBLK
   5
AD
 100
AcDbEntity
   8
0
 100
AcDbBlockEnd
   0
BLOCK
   5
AE
 100
AcDbEntity
   8
0
 100
AcDbBlockBegin
   2
_DOTBLANK
  70
0
  10
0.0
  20
0.0
  30
0.0
   3
_DOTBLANK
   0
CIRCLE
   5
AF
 100
AcDbEntity
   8
0
 100
AcDbCircle
   6
BYBLOCK
  62
0
  10
0.0
  20
0.0
  30
0.0
  40
 0.50000000000000
   0
LINE
   5
B0
 100
AcDbEntity
   8
0
 100
AcDbLine
   6
BYBLOCK
  62
0
  10
-0.50000000000000
  20
0.0
  30
0.0
  11
-1.0000000000000
  21
0.0
  31
0.0
   0
ENDBLK
   5
B1
 100
AcDbEntity
   8
0
 100
AcDbBlockEnd
   0
BLOCK
   5
B2
 100
AcDbEntity
   8
0
 100
AcDbBlockBegin
   2
_INTEGRAL
  70
0
  10
0.0
  20
0.0
  30
0.0
   3
_INTEGRAL
   0
ARC
   5
B3
 100
AcDbEntity
   8
0
   6
BYBLOCK
  62
0
 100
AcDbCircle
  10
 0.44488800000000
  20
-0.91335000000000E-1
  30
0.0
  40
 0.45416700000000
 100
AcDbArc
  50
 102.00000000000
  51
 168.00000000000
   0
ARC
   5
B4
 100
AcDbEntity
   8
0
   6
BYBLOCK
  62
0
 100
AcDbCircle
  10
-0.44488800000000
  20
 0.91335000000000E-1
  30
0.0
  40
 0.45416700000000
 100
AcDbArc
  50
 282.00000000000
  51
 348.00000000000
   0
ENDBLK
   5
B5
 100
AcDbEntity
   8
0
 100
AcDbBlockEnd
   0
BLOCK
   5
B6
 100
AcDbEntity
   8
0
 100
AcDbBlockBegin
   2
*D5
  70
65
  10
0.0
  20
0.0
  30
0.0
   3
*D5
   0
LINE
   5
B7
 100
AcDbEntity
   8
LEVEL003
 100
AcDbLine
   6
CONTINUOUS
  62
3
  10
 400.00000000000
  20
 119.99998474121
  30
0.0
  11
 524.00000000000
  21
 119.99998474121
  31
0.0
   0
LINE
   5
B8
 100
AcDbEntity
   8
LEVEL003
 100
AcDbLine
   6
CONTINUOUS
  62
3
  10
 520.00000000000
  20
 119.99998474121
  30
0.0
  11
 520.00000000000
  21
 131.44998474121
  31
0.0
   0
LINE
   5
B9
 100
AcDbEntity
   8
LEVEL003
 100
AcDbLine
   6
CONTINUOUS
  62
3
  10
 520.00000000000
  20
 158.99998474121
  30
0.0
  11
 520.00000000000
  21
 147.54998474121
  31
0.0
   0
INSERT
   5
BA
 100
AcDbEntity
   8
LEVEL003
   6
CONTINUOUS
  62
3
 100
AcDbBlockReference
   2
_OPEN
  10
 520.00000000000
  20
 119.99998474121
  30
0.0
  41
 6.0000000000000
  42
 6.0000000000000
  43
 6.0000000000000
  50
 270.00000000000
   0
INSERT
   5
BB
 100
AcDbEntity
   8
LEVEL003
   6
CONTINUOUS
  62
3
 100
AcDbBlockReference
   2
_OPEN
  10
 520.00000000000
  20
 158.99998474121
  30
0.0
  41
 6.0000000000000
  42
 6.0000000000000
  43
 6.0000000000000
  50
 90.000000000000
   0
MTEXT
   5
BC
 100
AcDbEntity
   8
LEVEL003
  62
3
 100
AcDbMText
  10
 518.40002441406
  20
 139.49998474121
  30
0.0
  40
 8.0000000000000
  41
0.0
  71
8
  72
1
   1
\A1;39
   7
GMM002
  11
0.0
  21
 1.0000000000000
  31
0.0
   0
ENDBLK
   5
BD
 100
AcDbEntity
   8
0
 100
AcDbBlockEnd
   0
BLOCK
   5
BE
 100
AcDbEntity
   8
0
 100
AcDbBlockBegin
   2
*D6
  70
65
  10
0.0
  20
0.0
  30
0.0
   3
*D6
   0
LINE
   5
BF
 100
AcDbEntity
   8
LEVEL003
 100
AcDbLine
   6
CONTINUOUS
  62
3
  10
 507.00000000000
  20
 158.99998474121
  30
0.0
  11
 524.00000000000
  21
 158.99998474121
  31
0.0
   0
LINE
   5
C0
 100
AcDbEntity
   8
LEVEL003
 100
AcDbLine
   6
CONTINUOUS
  62
3
  10
 507.00000000000
  20
 350.99996948242
  30
0.0
  11
 524.00000000000
  21
 350.99996948242
  31
0.0
   0
LINE
   5
C1
 100
AcDbEntity
   8
LEVEL003
 100
AcDbLine
   6
CONTINUOUS
  62
3
  10
 520.00000000000
  20
 158.99998474121
  30
0.0
  11
 520.00000000000
  21
 244.23746948242
  31
0.0
   0
LINE
   5
C2
 100
AcDbEntity
   8
LEVEL003
 100
AcDbLine
   6
CONTINUOUS
  62
3
  10
 520.00000000000
  20
 350.99996948242
  30
0.0
  11
 520.00000000000
  21
 265.76246948242
  31
0.0
   0
INSERT
   5
C3
 100
AcDbEntity
   8
LEVEL003
   6
CONTINUOUS
  62
3
 100
AcDbBlockReference
   2
_OPEN
  10
 520.00000000000
  20
 158.99998474121
  30
0.0
  41
 6.0000000000000
  42
 6.0000000000000
  43
 6.0000000000000
  50
 270.00000000000
   0
INSERT
   5
C4
 100
AcDbEntity
   8
LEVEL003
   6
CONTINUOUS
  62
3
 100
AcDbBlockReference
   2
_OPEN
  10
 520.00000000000
  20
 350.99996948242
  30
0.0
  41
 6.0000000000000
  42
 6.0000000000000
  43
 6.0000000000000
  50
 90.000000000000
   0
MTEXT
   5
C5
 100
AcDbEntity
   8
LEVEL003
  62
3
 100
AcDbMText
  10
 518.40002441406
  20
 254.99996948242
  30
0.0
  40
 8.0000000000000
  41
0.0
  71
8
  72
1
   1
\A1;192
   7
GMM002
  11
0.0
  21
 1.0000000000000
  31
0.0
   0
ENDBLK
   5
C6
 100
AcDbEntity
   8
0
 100
AcDbBlockEnd
   0
BLOCK
   5
C7
 100
AcDbEntity
   8
0
 100
AcDbBlockBegin
   2
*D7
  70
65
  10
0.0
  20
0.0
  30
0.0
   3
*D7
   0
LINE
   5
C8
 100
AcDbEntity
   8
LEVEL003
 100
AcDbLine
   6
CONTINUOUS
  62
3
  10
 200.00000000000
  20
 119.99998474121
  30
0.0
  11
 200.00000000000
  21
 66.000000000000
  31
0.0
   0
LINE
   5
C9
 100
AcDbEntity
   8
LEVEL003
 100
AcDbLine
   6
CONTINUOUS
  62
3
  10
 400.00000000000
  20
 119.99998474121
  30
0.0
  11
 400.00000000000
  21
 66.000000000000
  31
0.0
   0
LINE
   5
CA
 100
AcDbEntity
   8
LEVEL003
 100
AcDbLine
   6
CONTINUOUS
  62
3
  10
 200.00000000000
  20
 70.000000000000
  30
0.0
  11
 283.72500000000
  21
 70.000000000000
  31
0.0
   0
LINE
   5
CB
 100
AcDbEntity
   8
LEVEL003
 100
AcDbLine
   6
CONTINUOUS
  62
3
  10
 400.00000000000
  20
 70.000000000000
  30
0.0
  11
 316.27500000000
  21
 70.000000000000
  31
0.0
   0
INSERT
   5
CC
 100
AcDbEntity
   8
LEVEL003
   6
CONTINUOUS
  62
3
 100
AcDbBlockReference
   2
_OPEN
  10
 200.00000000000
  20
 70.000000000000
  30
0.0
  41
 6.0000000000000
  42
 6.0000000000000
  43
 6.0000000000000
  50
 180.00000000000
   0
INSERT
   5
CD
 100
AcDbEntity
   8
LEVEL003
   6
CONTINUOUS
  62
3
 100
AcDbBlockReference
   2
_OPEN
  10
 400.00000000000
  20
 70.000000000000
  30
0.0
  41
 6.0000000000000
  42
 6.0000000000000
  43
 6.0000000000000
  50
0.0
   0
MTEXT
   5
CE
 100
AcDbEntity
   8
LEVEL003
  62
3
 100
AcDbMText
  10
 300.00000000000
  20
 71.599998474121
  30
0.0
  40
 8.0000000000000
  41
0.0
  71
8
  72
1
   1
\A1;%%c200
   7
GMM002
   0
ENDBLK
   5
CF
 100
AcDbEntity
   8
0
 100
AcDbBlockEnd
   0
BLOCK
   5
D0
 100
AcDbEntity
   8
0
 100
AcDbBlockBegin
   2
*D8
  70
65
  10
0.0
  20
0.0
  30
0.0
   3
*D8
   0
LINE
   5
D1
 100
AcDbEntity
   8
LEVEL003
 100
AcDbLine
   6
CONTINUOUS
  62
3
  10
 200.00000000000
  20
 119.99998474121
  30
0.0
  11
 156.00000000000
  21
 119.99998474121
  31
0.0
   0
LINE
   5
D2
 100
AcDbEntity
   8
LEVEL003
 100
AcDbLine
   6
CONTINUOUS
  62
3
  10
 298.00000000000
  20
 330.00000000000
  30
0.0
  11
 156.00000000000
  21
 330.00000000000
  31
0.0
   0
LINE
   5
D3
 100
AcDbEntity
   8
LEVEL003
 100
AcDbLine
   6
CONTINUOUS
  62
3
  10
 160.00000000000
  20
 119.99998474121
  30
0.0
  11
 160.00000000000
  21
 241.93750000000
  31
0.0
   0
LINE
   5
D4
 100
AcDbEntity
   8
LEVEL003
 100
AcDbLine
   6
CONTINUOUS
  62
3
  10
 160.00000000000
  20
 330.00000000000
  30
0.0
  11
 160.00000000000
  21
 262.06250000000
  31
0.0
   0
INSERT
   5
D5
 100
AcDbEntity
   8
LEVEL003
   6
CONTINUOUS
  62
3
 100
AcDbBlockReference
   2
_OPEN
  10
 160.00000000000
  20
 119.99998474121
  30
0.0
  41
 6.0000000000000
  42
 6.0000000000000
  43
 6.0000000000000
  50
 270.00000000000
   0
INSERT
   5
D6
 100
AcDbEntity
   8
LEVEL003
   6
CONTINUOUS
  62
3
 100
AcDbBlockReference
   2
_OPEN
  10
 160.00000000000
  20
 330.00000000000
  30
0.0
  41
 6.0000000000000
  42
 6.0000000000000
  43
 6.0000000000000
  50
 90.000000000000
   0
MTEXT
   5
D7
 100
AcDbEntity
   8
LEVEL003
  62
3
 100
AcDbMText
  10
 158.39999389648
  20
 252.00000000000
  30
0.0
  40
 8.0000000000000
  41
0.0
  71
8
  72
1
   1
\A1;210
   7
GMM002
  11
0.0
  21
 1.0000000000000
  31
0.0
   0
ENDBLK
   5
D8
 100
AcDbEntity
   8
0
 100
AcDbBlockEnd
   0
BLOCK
   5
D9
 100
AcDbEntity
   8
0
 100
AcDbBlockBegin
   2
*D9
  70
65
  10
0.0
  20
0.0
  30
0.0
   3
*D9
   0
LINE
   5
DA
 100
AcDbEntity
   8
LEVEL003
 100
AcDbLine
   6
CONTINUOUS
  62
3
  10
 236.83975219727
  20
 465.00000000000
  30
0.0
  11
 136.00000000000
  21
 465.00000000000
  31
0.0
   0
LINE
   5
DB
 100
AcDbEntity
   8
LEVEL003
 100
AcDbLine
   6
CONTINUOUS
  62
3
  10
 200.00000000000
  20
 119.99998474121
  30
0.0
  11
 136.00000000000
  21
 119.99998474121
  31
0.0
   0
LINE
   5
DC
 100
AcDbEntity
   8
LEVEL003
 100
AcDbLine
   6
CONTINUOUS
  62
3
  10
 140.00000000000
  20
 465.00000000000
  30
0.0
  11
 140.00000000000
  21
 304.57500000000
  31
0.0
   0
LINE
   5
DD
 100
AcDbEntity
   8
LEVEL003
 100
AcDbLine
   6
CONTINUOUS
  62
3
  10
 140.00000000000
  20
 119.99998474121
  30
0.0
  11
 140.00000000000
  21
 280.42500000000
  31
0.0
   0
INSERT
   5
DE
 100
AcDbEntity
   8
LEVEL003
   6
CONTINUOUS
  62
3
 100
AcDbBlockReference
   2
_OPEN
  10
 140.00000000000
  20
 465.00000000000
  30
0.0
  41
 6.0000000000000
  42
 6.0000000000000
  43
 6.0000000000000
  50
 90.000000000000
   0
INSERT
   5
DF
 100
AcDbEntity
   8
LEVEL003
   6
CONTINUOUS
  62
3
 100
AcDbBlockReference
   2
_OPEN
  10
 140.00000000000
  20
 119.99998474121
  30
0.0
  41
 6.0000000000000
  42
 6.0000000000000
  43
 6.0000000000000
  50
 270.00000000000
   0
MTEXT
   5
E0
 100
AcDbEntity
   8
LEVEL003
  62
3
 100
AcDbMText
  10
 138.39999389648
  20
 292.50000000000
  30
0.0
  40
 8.0000000000000
  41
0.0
  71
8
  72
1
   1
\A1;345
   7
GMM002
  11
0.0
  21
 1.0000000000000
  31
0.0
   0
ENDBLK
   5
E1
 100
AcDbEntity
   8
0
 100
AcDbBlockEnd
   0
BLOCK
   5
E2
 100
AcDbEntity
   8
0
 100
AcDbBlockBegin
   2
*D10
  70
65
  10
0.0
  20
0.0
  30
0.0
   3
*D10
   0
LINE
   5
E3
 100
AcDbEntity
   8
LEVEL003
 100
AcDbLine
   6
CONTINUOUS
  62
3
  10
 236.83975219727
  20
 465.00000000000
  30
0.0
  11
 156.00000000000
  21
 465.00000000000
  31
0.0
   0
LINE
   5
E4
 100
AcDbEntity
   8
LEVEL003
 100
AcDbLine
   6
CONTINUOUS
  62
3
  10
 200.00000000000
  20
 460.00000000000
  30
0.0
  11
 156.00000000000
  21
 460.00000000000
  31
0.0
   0
LINE
   5
E5
 100
AcDbEntity
   8
LEVEL003
 100
AcDbLine
   6
CONTINUOUS
  62
3
  10
 160.00000000000
  20
 482.19111697394
  30
0.0
  11
 160.00000000000
  21
 482.19111697394
  31
0.0
   0
LINE
   5
E6
 100
AcDbEntity
   8
LEVEL003
 100
AcDbLine
   6
CONTINUOUS
  62
3
  10
 160.00000000000
  20
 452.50000000000
  30
0.0
  11
 160.00000000000
  21
 474.14111697394
  31
0.0
   0
INSERT
   5
E7
 100
AcDbEntity
   8
LEVEL003
   6
CONTINUOUS
  62
3
 100
AcDbBlockReference
   2
_OPEN
  10
 160.00000000000
  20
 465.00000000000
  30
0.0
  41
 6.0000000000000
  42
 6.0000000000000
  43
 6.0000000000000
  50
 270.00000000000
   0
INSERT
   5
E8
 100
AcDbEntity
   8
LEVEL003
   6
CONTINUOUS
  62
3
 100
AcDbBlockReference
   2
_OPEN
  10
 160.00000000000
  20
 460.00000000000
  30
0.0
  41
 6.0000000000000
  42
 6.0000000000000
  43
 6.0000000000000
  50
 90.000000000000
   0
MTEXT
   5
E9
 100
AcDbEntity
   8
LEVEL003
  62
3
 100
AcDbMText
  10
 158.39999389648
  20
 474.14111697394
  30
0.0
  40
 8.0000000000000
  41
0.0
  71
7
  72
1
   1
\A1;5
   7
GMM002
  11
0.0
  21
 1.0000000000000
  31
0.0
   0
ENDBLK
   5
EA
 100
AcDbEntity
   8
0
 100
AcDbBlockEnd
   0
BLOCK
   5
EB
 100
AcDbEntity
   8
0
 100
AcDbBlockBegin
   2
*D11
  70
65
  10
0.0
  20
0.0
  30
0.0
   3
*D11
   0
LINE
   5
EC
 100
AcDbEntity
   8
LEVEL003
 100
AcDbLine
   6
CONTINUOUS
  62
3
  10
 272.50000000000
  20
 462.00000000000
  30
0.0
  11
 272.50000000000
  21
 484.00000000000
  31
0.0
   0
LINE
   5
ED
 100
AcDbEntity
   8
LEVEL003
 100
AcDbLine
   6
CONTINUOUS
  62
3
  10
 327.50000000000
  20
 462.00000000000
  30
0.0
  11
 327.50000000000
  21
 484.00000000000
  31
0.0
   0
LINE
   5
EE
 100
AcDbEntity
   8
LEVEL003
 100
AcDbLine
   6
CONTINUOUS
  62
3
  10
 272.50000000000
  20
 480.00000000000
  30
0.0
  11
 286.35000000000
  21
 480.00000000000
  31
0.0
   0
LINE
   5
EF
 100
AcDbEntity
   8
LEVEL003
 100
AcDbLine
   6
CONTINUOUS
  62
3
  10
 327.50000000000
  20
 480.00000000000
  30
0.0
  11
 313.65000000000
  21
 480.00000000000
  31
0.0
   0
INSERT
   5
F0
 100
AcDbEntity
   8
LEVEL003
   6
CONTINUOUS
  62
3
 100
AcDbBlockReference
   2
_OPEN
  10
 272.50000000000
  20
 480.00000000000
  30
0.0
  41
 6.0000000000000
  42
 6.0000000000000
  43
 6.0000000000000
  50
 180.00000000000
   0
INSERT
   5
F1
 100
AcDbEntity
   8
LEVEL003
   6
CONTINUOUS
  62
3
 100
AcDbBlockReference
   2
_OPEN
  10
 327.50000000000
  20
 480.00000000000
  30
0.0
  41
 6.0000000000000
  42
 6.0000000000000
  43
 6.0000000000000
  50
0.0
   0
MTEXT
   5
F2
 100
AcDbEntity
   8
LEVEL003
  62
3
 100
AcDbMText
  10
 300.00000000000
  20
 481.60000000000
  30
0.0
  40
 8.0000000000000
  41
0.0
  71
8
  72
1
   1
\A1;%%c55
   7
GMM002
   0
ENDBLK
   5
F3
 100
AcDbEntity
   8
0
 100
AcDbBlockEnd
   0
BLOCK
   5
F4
 100
AcDbEntity
   8
0
 100
AcDbBlockBegin
   2
*D12
  70
65
  10
0.0
  20
0.0
  30
0.0
   3
*D12
   0
LINE
   5
F5
 100
AcDbEntity
   8
LEVEL003
 100
AcDbLine
   6
CONTINUOUS
  62
3
  10
 257.50000000000
  20
 250.00000000000
  30
0.0
  11
 286.35000000000
  21
 250.00000000000
  31
0.0
   0
LINE
   5
F6
 100
AcDbEntity
   8
LEVEL003
 100
AcDbLine
   6
CONTINUOUS
  62
3
  10
 342.50000000000
  20
 250.00000000000
  30
0.0
  11
 313.65000000000
  21
 250.00000000000
  31
0.0
   0
INSERT
   5
F7
 100
AcDbEntity
   8
LEVEL003
   6
CONTINUOUS
  62
3
 100
AcDbBlockReference
   2
_OPEN
  10
 257.50000000000
  20
 250.00000000000
  30
0.0
  41
 6.0000000000000
  42
 6.0000000000000
  43
 6.0000000000000
  50
 180.00000000000
   0
INSERT
   5
F8
 100
AcDbEntity
   8
LEVEL003
   6
CONTINUOUS
  62
3
 100
AcDbBlockReference
   2
_OPEN
  10
 342.50000000000
  20
 250.00000000000
  30
0.0
  41
 6.0000000000000
  42
 6.0000000000000
  43
 6.0000000000000
  50
0.0
   0
MTEXT
   5
F9
 100
AcDbEntity
   8
LEVEL003
  62
3
 100
AcDbMText
  10
 300.00000000000
  20
 251.60000000000
  30
0.0
  40
 8.0000000000000
  41
0.0
  71
8
  72
1
   1
\A1;%%c85
   7
GMM002
   0
ENDBLK
   5
FA
 100
AcDbEntity
   8
0
 100
AcDbBlockEnd
   0
BLOCK
   5
FB
 100
AcDbEntity
   8
0
 100
AcDbBlockBegin
   2
*D13
  70
65
  10
0.0
  20
0.0
  30
0.0
   3
*D13
   0
LINE
   5
FC
 100
AcDbEntity
   8
LEVEL003
 100
AcDbLine
   6
CONTINUOUS
  62
3
  10
 237.50000000000
  20
 230.00000000000
  30
0.0
  11
 283.63750000000
  21
 230.00000000000
  31
0.0
   0
LINE
   5
FD
 100
AcDbEntity
   8
LEVEL003
 100
AcDbLine
   6
CONTINUOUS
  62
3
  10
 362.50000000000
  20
 230.00000000000
  30
0.0
  11
 316.36250000000
  21
 230.00000000000
  31
0.0
   0
INSERT
   5
FE
 100
AcDbEntity
   8
LEVEL003
   6
CONTINUOUS
  62
3
 100
AcDbBlockReference
   2
_OPEN
  10
 237.50000000000
  20
 230.00000000000
  30
0.0
  41
 6.0000000000000
  42
 6.0000000000000
  43
 6.0000000000000
  50
 180.00000000000
   0
INSERT
   5
FF
 100
AcDbEntity
   8
LEVEL003
   6
CONTINUOUS
  62
3
 100
AcDbBlockReference
   2
_OPEN
  10
 362.50000000000
  20
 230.00000000000
  30
0.0
  41
 6.0000000000000
  42
 6.0000000000000
  43
 6.0000000000000
  50
0.0
   0
MTEXT
   5
100
 100
AcDbEntity
   8
LEVEL003
  62
3
 100
AcDbMText
  10
 300.00000000000
  20
 231.60000000000
  30
0.0
  40
 8.0000000000000
  41
0.0
  71
8
  72
1
   1
\A1;%%c125
   7
GMM002
   0
ENDBLK
   5
101
 100
AcDbEntity
   8
0
 100
AcDbBlockEnd
   0
BLOCK
   5
102
 100
AcDbEntity
   8
0
 100
AcDbBlockBegin
   2
*D14
  70
65
  10
0.0
  20
0.0
  30
0.0
   3
*D14
   0
LINE
   5
103
 100
AcDbEntity
   8
LEVEL003
 100
AcDbLine
   6
CONTINUOUS
  62
3
  10
 220.00000000000
  20
 210.00000000000
  30
0.0
  11
 284.33750000000
  21
 210.00000000000
  31
0.0
   0
LINE
   5
104
 100
AcDbEntity
   8
LEVEL003
 100
AcDbLine
   6
CONTINUOUS
  62
3
  10
 380.00000000000
  20
 210.00000000000
  30
0.0
  11
 315.66250000000
  21
 210.00000000000
  31
0.0
   0
INSERT
   5
105
 100
AcDbEntity
   8
LEVEL003
   6
CONTINUOUS
  62
3
 100
AcDbBlockReference
   2
_OPEN
  10
 220.00000000000
  20
 210.00000000000
  30
0.0
  41
 6.0000000000000
  42
 6.0000000000000
  43
 6.0000000000000
  50
 180.00000000000
   0
INSERT
   5
106
 100
AcDbEntity
   8
LEVEL003
   6
CONTINUOUS
  62
3
 100
AcDbBlockReference
   2
_OPEN
  10
 380.00000000000
  20
 210.00000000000
  30
0.0
  41
 6.0000000000000
  42
 6.0000000000000
  43
 6.0000000000000
  50
0.0
   0
MTEXT
   5
107
 100
AcDbEntity
   8
LEVEL003
  62
3
 100
AcDbMText
  10
 300.00000000000
  20
 211.60000000000
  30
0.0
  40
 8.0000000000000
  41
0.0
  71
8
  72
1
   1
\A1;%%c160
   7
GMM002
   0
ENDBLK
   5
108
 100
AcDbEntity
   8
0
 100
AcDbBlockEnd
   0
BLOCK
   5
109
 100
AcDbEntity
   8
0
 100
AcDbBlockBegin
   2
*D15
  70
65
  10
0.0
  20
0.0
  30
0.0
   3
*D15
   0
LINE
   5
10A
 100
AcDbEntity
   8
LEVEL003
 100
AcDbLine
   6
CONTINUOUS
  62
3
  10
 272.50000000000
  20
 123.00999450684
  30
0.0
  11
 272.50000000000
  21
 86.000000000000
  31
0.0
   0
LINE
   5
10B
 100
AcDbEntity
   8
LEVEL003
 100
AcDbLine
   6
CONTINUOUS
  62
3
  10
 327.50000000000
  20
 123.00999450684
  30
0.0
  11
 327.50000000000
  21
 86.000000000000
  31
0.0
   0
LINE
   5
10C
 100
AcDbEntity
   8
LEVEL003
 100
AcDbLine
   6
CONTINUOUS
  62
3
  10
 272.50000000000
  20
 90.000000000000
  30
0.0
  11
 286.35000000000
  21
 90.000000000000
  31
0.0
   0
LINE
   5
10D
 100
AcDbEntity
   8
LEVEL003
 100
AcDbLine
   6
CONTINUOUS
  62
3
  10
 327.50000000000
  20
 90.000000000000
  30
0.0
  11
 313.65000000000
  21
 90.000000000000
  31
0.0
   0
INSERT
   5
10E
 100
AcDbEntity
   8
LEVEL003
   6
CONTINUOUS
  62
3
 100
AcDbBlockReference
   2
_OPEN
  10
 272.50000000000
  20
 90.000000000000
  30
0.0
  41
 6.0000000000000
  42
 6.0000000000000
  43
 6.0000000000000
  50
 180.00000000000
   0
INSERT
   5
10F
 100
AcDbEntity
   8
LEVEL003
   6
CONTINUOUS
  62
3
 100
AcDbBlockReference
   2
_OPEN
  10
 327.50000000000
  20
 90.000000000000
  30
0.0
  41
 6.0000000000000
  42
 6.0000000000000
  43
 6.0000000000000
  50
0.0
   0
MTEXT
   5
110
 100
AcDbEntity
   8
LEVEL003
  62
3
 100
AcDbMText
  10
 300.00000000000
  20
 91.600000000000
  30
0.0
  40
 8.0000000000000
  41
0.0
  71
8
  72
1
   1
\A1;%%c55
   7
GMM002
   0
ENDBLK
   5
111
 100
AcDbEntity
   8
0
 100
AcDbBlockEnd
   0
ENDSEC
   0
SECTION
   2
ENTITIES
   0
LINE
   5
112
 100
AcDbEntity
   8
LEVEL001
 100
AcDbLine
   6
CONTINUOUS
  62
7
  10
 398.00000000000
  20
 460.00000000000
  30
0.0
  11
 400.00000000000
  21
 458.00000000000
  31
0.0
   0
LINE
   5
113
 100
AcDbEntity
   8
LEVEL001
 100
AcDbLine
   6
CONTINUOUS
  62
7
  10
 400.00000000000
  20
 121.99998474121
  30
0.0
  11
 398.00000000000
  21
 119.99998474121
  31
0.0
   0
LINE
   5
114
 100
AcDbEntity
   8
LEVEL001
 100
AcDbLine
   6
CONTINUOUS
  62
7
  10
 361.16024780273
  20
 465.00000000000
  30
0.0
  11
 362.50000000000
  21
 460.00000000000
  31
0.0
   0
LINE
   5
115
 100
AcDbEntity
   8
LEVEL001
 100
AcDbLine
   6
CONTINUOUS
  62
7
  10
 202.00000000000
  20
 460.00000000000
  30
0.0
  11
 200.00000000000
  21
 458.00000000000
  31
0.0
   0
LINE
   5
116
 100
AcDbEntity
   8
LEVEL001
 100
AcDbLine
   6
CONTINUOUS
  62
7
  10
 200.00000000000
  20
 458.00000000000
  30
0.0
  11
 200.00000000000
  21
 121.99998474121
  31
0.0
   0
LINE
   5
117
 100
AcDbEntity
   8
LEVEL001
 100
AcDbLine
   6
CONTINUOUS
  62
7
  10
 200.00000000000
  20
 121.99998474121
  30
0.0
  11
 202.00000000000
  21
 119.99998474121
  31
0.0
   0
LINE
   5
118
 100
AcDbEntity
   8
LEVEL001
 100
AcDbLine
   6
CONTINUOUS
  62
7
  10
 238.83975219727
  20
 465.00000000000
  30
0.0
  11
 237.50000000000
  21
 460.00000000000
  31
0.0
   0
LINE
   5
119
 100
AcDbEntity
   8
LEVEL001
 100
AcDbLine
   6
CONTINUOUS
  62
7
  10
 398.00000000000
  20
 119.99998474121
  30
0.0
  11
 202.00000000000
  21
 119.99998474121
  31
0.0
   0
LINE
   5
11A
 100
AcDbEntity
   8
LEVEL001
 100
AcDbLine
   6
CONTINUOUS
  62
7
  10
 361.16024780273
  20
 465.00000000000
  30
0.0
  11
 238.83975219727
  21
 465.00000000000
  31
0.0
   0
LINE
   5
11B
 100
AcDbEntity
   8
LEVEL001
 100
AcDbLine
   6
CONTINUOUS
  62
7
  10
 300.00000000000
  20
 460.00000000000
  30
0.0
  11
 202.00000000000
  21
 460.00000000000
  31
0.0
   0
LINE
   5
11C
 100
AcDbEntity
   8
LEVEL001
 100
AcDbLine
   6
CONTINUOUS
  62
7
  10
 200.00000000000
  20
 458.00000000000
  30
0.0
  11
 300.00000000000
  21
 458.00000000000
  31
0.0
   0
LINE
   5
11D
 100
AcDbEntity
   8
LEVEL001
 100
AcDbLine
   6
CONTINUOUS
  62
7
  10
 200.00000000000
  20
 121.99998474121
  30
0.0
  11
 300.00000000000
  21
 121.99998474121
  31
0.0
   0
ARC
   5
11E
 100
AcDbEntity
   8
LEVEL001
   6
DASHDOT
  62
1
 100
AcDbCircle
  10
 300.00000000000
  20
 298.00000000000
  30
0.0
  40
 32.000000000000
 100
AcDbArc
  50
 90.000000000000
  51
 270.00000000000
   0
ARC
   5
11F
 100
AcDbEntity
   8
LEVEL001
   6
CONTINUOUS
  62
7
 100
AcDbCircle
  10
 300.00000000000
  20
 330.00000000000
  30
0.0
  40
 11.500000000000
 100
AcDbArc
  50
 90.000000000000
  51
 270.00000000000
   0
ARC
   5
120
 100
AcDbEntity
   8
LEVEL001
   6
CONTINUOUS
  62
7
 100
AcDbCircle
  10
 300.00000000000
  20
 330.00000000000
  30
0.0
  40
 12.500000000000
 100
AcDbArc
  50
 90.000000000000
  51
 270.00000000000
   0
ARC
   5
121
 100
AcDbEntity
   8
LEVEL001
   6
CONTINUOUS
  62
7
 100
AcDbCircle
  10
 299.99999277935
  20
 298.00000000000
  30
0.0
  40
 36.500000000000
 100
AcDbArc
  50
 109.64719450945
  51
 270.00001133459
   0
ARC
   5
122
 100
AcDbEntity
   8
LEVEL001
   6
CONTINUOUS
  62
7
 100
AcDbCircle
  10
 299.99999493289
  20
 298.00000000000
  30
0.0
  40
 27.500000000000
 100
AcDbArc
  50
 112.67189532884
  51
 270.00001055724
   0
LINE
   5
123
 100
AcDbEntity
   8
LEVEL001
 100
AcDbLine
   6
CONTINUOUS
  62
3
  10
 410.00000000000
  20
 167.64347839355
  30
0.0
  11
 406.38366699219
  21
 166.67448425293
  31
0.0
   0
LINE
   5
124
 100
AcDbEntity
   8
LEVEL001
 100
AcDbLine
   6
CONTINUOUS
  62
3
  10
 410.00000000000
  20
 150.35649108887
  30
0.0
  11
 406.38363647461
  21
 151.32548522949
  31
0.0
   0
LINE
   5
125
 100
AcDbEntity
   8
LEVEL001
 100
AcDbLine
   6
CONTINUOUS
  62
3
  10
 406.38366699219
  20
 166.67448425293
  30
0.0
  11
 406.38354492188
  21
 151.32548522949
  31
0.0
   0
ARC
   5
126
 100
AcDbEntity
   8
LEVEL001
   6
CONTINUOUS
  62
7
 100
AcDbCircle
  10
 427.59900741642
  20
 175.18693763505
  30
0.0
  40
 17.600000381470
 100
AcDbArc
  50
 180.60862573870
  51
 203.25655861303
   0
ARC
   5
127
 100
AcDbEntity
   8
LEVEL001
   6
CONTINUOUS
  62
7
 100
AcDbCircle
  10
 427.59900741642
  20
 142.81303184738
  30
0.0
  40
 17.600000381470
 100
AcDbArc
  50
 156.74344138697
  51
 179.39137426130
   0
ARC
   5
128
 100
AcDbEntity
   8
LEVEL001
   6
CONTINUOUS
  62
7
 100
AcDbCircle
  10
 440.57096916888
  20
 158.99998474121
  30
0.0
  40
 30.570955276489
 100
AcDbArc
  50
 162.41204577941
  51
 197.58795422059
   0
LINE
   5
129
 100
AcDbEntity
   8
LEVEL001
 100
AcDbLine
   6
CONTINUOUS
  62
7
  10
 411.42907714844
  20
 177.47520446777
  30
0.0
  11
 410.00000000000
  21
 174.99998474121
  31
0.0
   0
LINE
   5
12A
 100
AcDbEntity
   8
LEVEL001
 100
AcDbLine
   6
CONTINUOUS
  62
7
  10
 410.00000000000
  20
 174.99998474121
  30
0.0
  11
 410.00000000000
  21
 142.99998474121
  31
0.0
   0
LINE
   5
12B
 100
AcDbEntity
   8
LEVEL001
 100
AcDbLine
   6
CONTINUOUS
  62
7
  10
 410.00000000000
  20
 142.99998474121
  30
0.0
  11
 411.42907714844
  21
 140.52476501465
  31
0.0
   0
LINE
   5
12C
 100
AcDbEntity
   8
LEVEL001
 100
AcDbLine
   6
CONTINUOUS
  62
7
  10
 411.42907714844
  20
 140.52476501465
  30
0.0
  11
 438.57092285156
  21
 140.52476501465
  31
0.0
   0
LINE
   5
12D
 100
AcDbEntity
   8
LEVEL001
 100
AcDbLine
   6
CONTINUOUS
  62
7
  10
 438.57092285156
  20
 140.52476501465
  30
0.0
  11
 440.00000000000
  21
 142.99998474121
  31
0.0
   0
LINE
   5
12E
 100
AcDbEntity
   8
LEVEL001
 100
AcDbLine
   6
CONTINUOUS
  62
7
  10
 440.00000000000
  20
 142.99998474121
  30
0.0
  11
 440.00000000000
  21
 174.99998474121
  31
0.0
   0
LINE
   5
12F
 100
AcDbEntity
   8
LEVEL001
 100
AcDbLine
   6
CONTINUOUS
  62
7
  10
 440.00000000000
  20
 174.99998474121
  30
0.0
  11
 438.57092285156
  21
 177.47520446777
  31
0.0
   0
LINE
   5
130
 100
AcDbEntity
   8
LEVEL001
 100
AcDbLine
   6
CONTINUOUS
  62
7
  10
 438.57092285156
  20
 177.47520446777
  30
0.0
  11
 411.42907714844
  21
 177.47520446777
  31
0.0
   0
ARC
   5
131
 100
AcDbEntity
   8
LEVEL001
   6
CONTINUOUS
  62
7
 100
AcDbCircle
  10
 422.40099258358
  20
 142.81303184738
  30
0.0
  40
 17.600000381470
 100
AcDbArc
  50
 0.60862573869931
  51
 23.256558613030
   0
ARC
   5
132
 100
AcDbEntity
   8
LEVEL001
   6
CONTINUOUS
  62
7
 100
AcDbCircle
  10
 422.40099258358
  20
 175.18693763505
  30
0.0
  40
 17.600000381470
 100
AcDbArc
  50
 336.74344138697
  51
 359.39137426130
   0
ARC
   5
133
 100
AcDbEntity
   8
LEVEL001
   6
CONTINUOUS
  62
7
 100
AcDbCircle
  10
 409.42903483289
  20
 158.99998474121
  30
0.0
  40
 30.570951461792
 100
AcDbArc
  50
 342.41204351312
  51
 17.587956486883
   0
LINE
   5
134
 100
AcDbEntity
   8
LEVEL001
 100
AcDbLine
   6
CONTINUOUS
  62
7
  10
 411.42907714844
  20
 168.23759460449
  30
0.0
  11
 438.57092285156
  21
 168.23759460449
  31
0.0
   0
LINE
   5
135
 100
AcDbEntity
   8
LEVEL001
 100
AcDbLine
   6
CONTINUOUS
  62
7
  10
 411.42907714844
  20
 149.76237487793
  30
0.0
  11
 438.57092285156
  21
 149.76237487793
  31
0.0
   0
LINE
   5
136
 100
AcDbEntity
   8
LEVEL001
 100
AcDbLine
   6
CONTINUOUS
  62
3
  10
 446.09069824219
  20
 149.49415588379
  30
0.0
  11
 446.09082031250
  21
 168.50584411621
  31
0.0
   0
LINE
   5
137
 100
AcDbEntity
   8
LEVEL001
 100
AcDbLine
   6
CONTINUOUS
  62
3
  10
 451.00000000000
  20
 169.82125854492
  30
0.0
  11
 446.09082031250
  21
 168.50584411621
  31
0.0
   0
LINE
   5
138
 100
AcDbEntity
   8
LEVEL001
 100
AcDbLine
   6
CONTINUOUS
  62
3
  10
 451.00000000000
  20
 148.17871093750
  30
0.0
  11
 446.09069824219
  21
 149.49415588379
  31
0.0
   0
ARC
   5
139
 100
AcDbEntity
   8
LEVEL001
   6
CONTINUOUS
  62
7
 100
AcDbCircle
  10
 471.20001220703
  20
 174.99998474121
  30
0.0
  40
 2.0000000000000
 100
AcDbArc
  50
 90.000000000000
  51
 180.00000000004
   0
LINE
   5
13A
 100
AcDbEntity
   8
LEVEL001
 100
AcDbLine
   6
CONTINUOUS
  62
7
  10
 471.20001220703
  20
 176.99998474121
  30
0.0
  11
 477.20001220703
  21
 176.99998474121
  31
0.0
   0
ARC
   5
13B
 100
AcDbEntity
   8
LEVEL001
   6
CONTINUOUS
  62
7
 100
AcDbCircle
  10
 493.20001220703
  20
 175.99998474121
  30
0.0
  40
 1.0000000000000
 100
AcDbArc
  50
 0.32568879938227E-11
  51
 90.000000000072
   0
LINE
   5
13C
 100
AcDbEntity
   8
LEVEL001
 100
AcDbLine
   6
CONTINUOUS
  62
7
  10
 487.20001220703
  20
 176.99998474121
  30
0.0
  11
 493.20001220703
  21
 176.99998474121
  31
0.0
   0
ARC
   5
13D
 100
AcDbEntity
   8
LEVEL001
   6
CONTINUOUS
  62
7
 100
AcDbCircle
  10
 471.20001220703
  20
 142.99998474121
  30
0.0
  40
 2.0000000000000
 100
AcDbArc
  50
 180.00000000000
  51
 269.99999999996
   0
LINE
   5
13E
 100
AcDbEntity
   8
LEVEL001
 100
AcDbLine
   6
CONTINUOUS
  62
7
  10
 471.20001220703
  20
 140.99998474121
  30
0.0
  11
 477.20001220703
  21
 140.99998474121
  31
0.0
   0
ARC
   5
13F
 100
AcDbEntity
   8
LEVEL001
   6
CONTINUOUS
  62
7
 100
AcDbCircle
  10
 493.20001220703
  20
 141.99998474121
  30
0.0
  40
 1.0000000000000
 100
AcDbArc
  50
 270.00000000000
  51
0.0
   0
LINE
   5
140
 100
AcDbEntity
   8
LEVEL001
 100
AcDbLine
   6
CONTINUOUS
  62
7
  10
 487.20001220703
  20
 140.99998474121
  30
0.0
  11
 493.20001220703
  21
 140.99998474121
  31
0.0
   0
LINE
   5
141
 100
AcDbEntity
   8
LEVEL001
 100
AcDbLine
   6
CONTINUOUS
  62
7
  10
 469.20001220703
  20
 142.99998474121
  30
0.0
  11
 469.20001220703
  21
 174.99998474121
  31
0.0
   0
LINE
   5
142
 100
AcDbEntity
   8
LEVEL001
 100
AcDbLine
   6
CONTINUOUS
  62
7
  10
 494.20001220703
  20
 175.99998474121
  30
0.0
  11
 494.20001220703
  21
 141.99998474121
  31
0.0
   0
LINE
   5
143
 100
AcDbEntity
   8
LEVEL001
 100
AcDbLine
   6
CONTINUOUS
  62
7
  10
 453.04162597656
  20
 170.99998474121
  30
0.0
  11
 453.04162597656
  21
 164.80946350098
  31
0.0
   0
LINE
   5
144
 100
AcDbEntity
   8
LEVEL001
 100
AcDbLine
   6
CONTINUOUS
  62
7
  10
 453.04162597656
  20
 153.19050598145
  30
0.0
  11
 453.04162597656
  21
 146.99998474121
  31
0.0
   0
LINE
   5
145
 100
AcDbEntity
   8
LEVEL001
 100
AcDbLine
   6
CONTINUOUS
  62
7
  10
 453.04162597656
  20
 153.19050598145
  30
0.0
  11
 462.00000000000
  21
 164.80946350098
  31
0.0
   0
LINE
   5
146
 100
AcDbEntity
   8
LEVEL001
 100
AcDbLine
   6
CONTINUOUS
  62
7
  10
 453.04162597656
  20
 164.80946350098
  30
0.0
  11
 462.00000000000
  21
 153.19050598145
  31
0.0
   0
LINE
   5
147
 100
AcDbEntity
   8
LEVEL001
 100
AcDbLine
   6
CONTINUOUS
  62
3
  10
 477.20001220703
  20
 142.49998474121
  30
0.0
  11
 487.20001220703
  21
 142.49998474121
  31
0.0
   0
LINE
   5
148
 100
AcDbEntity
   8
LEVEL001
 100
AcDbLine
   6
CONTINUOUS
  62
3
  10
 477.20001220703
  20
 144.49998474121
  30
0.0
  11
 487.20001220703
  21
 144.49998474121
  31
0.0
   0
LINE
   5
149
 100
AcDbEntity
   8
LEVEL001
 100
AcDbLine
   6
CONTINUOUS
  62
3
  10
 477.20001220703
  20
 146.49998474121
  30
0.0
  11
 487.20001220703
  21
 146.49998474121
  31
0.0
   0
LINE
   5
14A
 100
AcDbEntity
   8
LEVEL001
 100
AcDbLine
   6
CONTINUOUS
  62
3
  10
 477.20001220703
  20
 148.49998474121
  30
0.0
  11
 487.20001220703
  21
 148.49998474121
  31
0.0
   0
LINE
   5
14B
 100
AcDbEntity
   8
LEVEL001
 100
AcDbLine
   6
CONTINUOUS
  62
3
  10
 477.20001220703
  20
 150.49998474121
  30
0.0
  11
 487.20001220703
  21
 150.49998474121
  31
0.0
   0
LINE
   5
14C
 100
AcDbEntity
   8
LEVEL001
 100
AcDbLine
   6
CONTINUOUS
  62
3
  10
 477.20001220703
  20
 152.49998474121
  30
0.0
  11
 487.20001220703
  21
 152.49998474121
  31
0.0
   0
LINE
   5
14D
 100
AcDbEntity
   8
LEVEL001
 100
AcDbLine
   6
CONTINUOUS
  62
3
  10
 477.20001220703
  20
 154.49998474121
  30
0.0
  11
 487.20001220703
  21
 154.49998474121
  31
0.0
   0
LINE
   5
14E
 100
AcDbEntity
   8
LEVEL001
 100
AcDbLine
   6
CONTINUOUS
  62
3
  10
 477.20001220703
  20
 156.49998474121
  30
0.0
  11
 487.20001220703
  21
 156.49998474121
  31
0.0
   0
LINE
   5
14F
 100
AcDbEntity
   8
LEVEL001
 100
AcDbLine
   6
CONTINUOUS
  62
3
  10
 477.20001220703
  20
 158.49998474121
  30
0.0
  11
 487.20001220703
  21
 158.49998474121
  31
0.0
   0
LINE
   5
150
 100
AcDbEntity
   8
LEVEL001
 100
AcDbLine
   6
CONTINUOUS
  62
3
  10
 477.20001220703
  20
 160.49998474121
  30
0.0
  11
 487.20001220703
  21
 160.49998474121
  31
0.0
   0
LINE
   5
151
 100
AcDbEntity
   8
LEVEL001
 100
AcDbLine
   6
CONTINUOUS
  62
3
  10
 477.20001220703
  20
 162.49998474121
  30
0.0
  11
 487.20001220703
  21
 162.49998474121
  31
0.0
   0
LINE
   5
152
 100
AcDbEntity
   8
LEVEL001
 100
AcDbLine
   6
CONTINUOUS
  62
3
  10
 477.20001220703
  20
 164.49998474121
  30
0.0
  11
 487.20001220703
  21
 164.49998474121
  31
0.0
   0
LINE
   5
153
 100
AcDbEntity
   8
LEVEL001
 100
AcDbLine
   6
CONTINUOUS
  62
3
  10
 477.20001220703
  20
 166.49998474121
  30
0.0
  11
 487.20001220703
  21
 166.49998474121
  31
0.0
   0
LINE
   5
154
 100
AcDbEntity
   8
LEVEL001
 100
AcDbLine
   6
CONTINUOUS
  62
3
  10
 477.20001220703
  20
 168.49998474121
  30
0.0
  11
 487.20001220703
  21
 168.49998474121
  31
0.0
   0
LINE
   5
155
 100
AcDbEntity
   8
LEVEL001
 100
AcDbLine
   6
CONTINUOUS
  62
3
  10
 477.20001220703
  20
 170.49998474121
  30
0.0
  11
 487.20001220703
  21
 170.49998474121
  31
0.0
   0
LINE
   5
156
 100
AcDbEntity
   8
LEVEL001
 100
AcDbLine
   6
CONTINUOUS
  62
3
  10
 477.20001220703
  20
 172.49998474121
  30
0.0
  11
 487.20001220703
  21
 172.49998474121
  31
0.0
   0
LINE
   5
157
 100
AcDbEntity
   8
LEVEL001
 100
AcDbLine
   6
CONTINUOUS
  62
3
  10
 477.20001220703
  20
 174.49998474121
  30
0.0
  11
 487.20001220703
  21
 174.49998474121
  31
0.0
   0
LINE
   5
158
 100
AcDbEntity
   8
LEVEL001
 100
AcDbLine
   6
CONTINUOUS
  62
3
  10
 477.20001220703
  20
 176.49998474121
  30
0.0
  11
 487.20001220703
  21
 176.49998474121
  31
0.0
   0
LINE
   5
159
 100
AcDbEntity
   8
LEVEL001
 100
AcDbLine
   6
CONTINUOUS
  62
7
  10
 451.00000000000
  20
 169.82125854492
  30
0.0
  11
 440.00000000000
  21
 169.47747802734
  31
0.0
   0
LINE
   5
15A
 100
AcDbEntity
   8
LEVEL001
 100
AcDbLine
   6
CONTINUOUS
  62
7
  10
 451.00000000000
  20
 148.17871093750
  30
0.0
  11
 440.00000000000
  21
 148.52249145508
  31
0.0
   0
LINE
   5
15B
 100
AcDbEntity
   8
LEVEL001
 100
AcDbLine
   6
CONTINUOUS
  62
3
  10
 446.09082031250
  20
 168.50584411621
  30
0.0
  11
 440.00000000000
  21
 168.31549072266
  31
0.0
   0
LINE
   5
15C
 100
AcDbEntity
   8
LEVEL001
 100
AcDbLine
   6
CONTINUOUS
  62
3
  10
 446.09069824219
  20
 149.49415588379
  30
0.0
  11
 440.00000000000
  21
 149.68449401855
  31
0.0
   0
LINE
   5
15D
 100
AcDbEntity
   8
LEVEL001
 100
AcDbLine
   6
DASHDOT
  62
1
  10
 494.20001220703
  20
 175.99998474121
  30
0.0
  11
 494.20001220703
  21
 176.99998474121
  31
0.0
   0
LINE
   5
15E
 100
AcDbEntity
   8
LEVEL001
 100
AcDbLine
   6
DASHDOT
  62
1
  10
 494.20001220703
  20
 176.99998474121
  30
0.0
  11
 502.20001220703
  21
 176.99998474121
  31
0.0
   0
LINE
   5
15F
 100
AcDbEntity
   8
LEVEL001
 100
AcDbLine
   6
DASHDOT
  62
1
  10
 502.20001220703
  20
 176.99998474121
  30
0.0
  11
 502.20001220703
  21
 140.99998474121
  31
0.0
   0
LINE
   5
160
 100
AcDbEntity
   8
LEVEL001
 100
AcDbLine
   6
DASHDOT
  62
1
  10
 502.20001220703
  20
 140.99998474121
  30
0.0
  11
 494.20001220703
  21
 140.99998474121
  31
0.0
   0
LINE
   5
161
 100
AcDbEntity
   8
LEVEL001
 100
AcDbLine
   6
DASHDOT
  62
1
  10
 494.20001220703
  20
 140.99998474121
  30
0.0
  11
 494.20001220703
  21
 141.99998474121
  31
0.0
   0
LINE
   5
162
 100
AcDbEntity
   8
LEVEL001
 100
AcDbLine
   6
CONTINUOUS
  62
7
  10
 477.20001220703
  20
 140.49998474121
  30
0.0
  11
 477.20001220703
  21
 177.49998474121
  31
0.0
   0
LINE
   5
163
 100
AcDbEntity
   8
LEVEL001
 100
AcDbLine
   6
CONTINUOUS
  62
7
  10
 477.20001220703
  20
 177.49998474121
  30
0.0
  11
 487.20001220703
  21
 177.49998474121
  31
0.0
   0
LINE
   5
164
 100
AcDbEntity
   8
LEVEL001
 100
AcDbLine
   6
CONTINUOUS
  62
7
  10
 487.20001220703
  20
 177.49998474121
  30
0.0
  11
 487.20001220703
  21
 140.49998474121
  31
0.0
   0
LINE
   5
165
 100
AcDbEntity
   8
LEVEL001
 100
AcDbLine
   6
CONTINUOUS
  62
7
  10
 487.20001220703
  20
 140.49998474121
  30
0.0
  11
 477.20001220703
  21
 140.49998474121
  31
0.0
   0
LINE
   5
166
 100
AcDbEntity
   8
LEVEL001
 100
AcDbLine
   6
CONTINUOUS
  62
7
  10
 451.00000000000
  20
 161.61723327637
  30
0.0
  11
 453.04162597656
  21
 164.80946350098
  31
0.0
   0
LINE
   5
167
 100
AcDbEntity
   8
LEVEL001
 100
AcDbLine
   6
CONTINUOUS
  62
7
  10
 453.04162597656
  20
 164.80946350098
  30
0.0
  11
 462.00000000000
  21
 164.80946350098
  31
0.0
   0
LINE
   5
168
 100
AcDbEntity
   8
LEVEL001
 100
AcDbLine
   6
CONTINUOUS
  62
7
  10
 462.00000000000
  20
 164.80946350098
  30
0.0
  11
 462.00000000000
  21
 153.19050598145
  31
0.0
   0
LINE
   5
169
 100
AcDbEntity
   8
LEVEL001
 100
AcDbLine
   6
CONTINUOUS
  62
7
  10
 462.00000000000
  20
 153.19050598145
  30
0.0
  11
 453.04162597656
  21
 153.19050598145
  31
0.0
   0
LINE
   5
16A
 100
AcDbEntity
   8
LEVEL001
 100
AcDbLine
   6
CONTINUOUS
  62
7
  10
 453.04162597656
  20
 153.19050598145
  30
0.0
  11
 451.00000000000
  21
 156.38273620605
  31
0.0
   0
LINE
   5
16B
 100
AcDbEntity
   8
LEVEL001
 100
AcDbLine
   6
CONTINUOUS
  62
7
  10
 469.20001220703
  20
 146.99998474121
  30
0.0
  11
 453.04162597656
  21
 146.99998474121
  31
0.0
   0
LINE
   5
16C
 100
AcDbEntity
   8
LEVEL001
 100
AcDbLine
   6
CONTINUOUS
  62
7
  10
 453.04162597656
  20
 146.99998474121
  30
0.0
  11
 451.00000000000
  21
 148.17871093750
  31
0.0
   0
LINE
   5
16D
 100
AcDbEntity
   8
LEVEL001
 100
AcDbLine
   6
CONTINUOUS
  62
7
  10
 451.00000000000
  20
 148.17871093750
  30
0.0
  11
 451.00000000000
  21
 169.82125854492
  31
0.0
   0
LINE
   5
16E
 100
AcDbEntity
   8
LEVEL001
 100
AcDbLine
   6
CONTINUOUS
  62
7
  10
 451.00000000000
  20
 169.82125854492
  30
0.0
  11
 453.04162597656
  21
 170.99998474121
  31
0.0
   0
LINE
   5
16F
 100
AcDbEntity
   8
LEVEL001
 100
AcDbLine
   6
CONTINUOUS
  62
7
  10
 453.04162597656
  20
 170.99998474121
  30
0.0
  11
 469.20001220703
  21
 170.99998474121
  31
0.0
   0
LINE
   5
170
 100
AcDbEntity
   8
LEVEL001
 100
AcDbLine
   6
DASHDOT
  62
1
  10
 505.00000000000
  20
 158.99998474121
  30
0.0
  11
 380.00000000000
  21
 158.99998474121
  31
0.0
   0
LINE
   5
171
 100
AcDbEntity
   8
LEVEL001
 100
AcDbLine
   6
CONTINUOUS
  62
3
  10
 410.00000000000
  20
 359.64346313477
  30
0.0
  11
 406.38366699219
  21
 358.67446899414
  31
0.0
   0
LINE
   5
172
 100
AcDbEntity
   8
LEVEL001
 100
AcDbLine
   6
CONTINUOUS
  62
3
  10
 410.00000000000
  20
 342.35647583008
  30
0.0
  11
 406.38363647461
  21
 343.32546997070
  31
0.0
   0
LINE
   5
173
 100
AcDbEntity
   8
LEVEL001
 100
AcDbLine
   6
CONTINUOUS
  62
3
  10
 406.38366699219
  20
 358.67446899414
  30
0.0
  11
 406.38354492188
  21
 343.32546997070
  31
0.0
   0
ARC
   5
174
 100
AcDbEntity
   8
LEVEL001
   6
CONTINUOUS
  62
7
 100
AcDbCircle
  10
 427.59900741642
  20
 367.18692237626
  30
0.0
  40
 17.600000381470
 100
AcDbArc
  50
 180.60862573870
  51
 203.25655861303
   0
ARC
   5
175
 100
AcDbEntity
   8
LEVEL001
   6
CONTINUOUS
  62
7
 100
AcDbCircle
  10
 427.59900741642
  20
 334.81301658859
  30
0.0
  40
 17.600000381470
 100
AcDbArc
  50
 156.74344138697
  51
 179.39137426130
   0
ARC
   5
176
 100
AcDbEntity
   8
LEVEL001
   6
CONTINUOUS
  62
7
 100
AcDbCircle
  10
 440.57096916888
  20
 350.99996948242
  30
0.0
  40
 30.570955276489
 100
AcDbArc
  50
 162.41204577941
  51
 197.58795422059
   0
LINE
   5
177
 100
AcDbEntity
   8
LEVEL001
 100
AcDbLine
   6
CONTINUOUS
  62
7
  10
 411.42907714844
  20
 369.47518920898
  30
0.0
  11
 410.00000000000
  21
 366.99996948242
  31
0.0
   0
LINE
   5
178
 100
AcDbEntity
   8
LEVEL001
 100
AcDbLine
   6
CONTINUOUS
  62
7
  10
 410.00000000000
  20
 366.99996948242
  30
0.0
  11
 410.00000000000
  21
 334.99996948242
  31
0.0
   0
LINE
   5
179
 100
AcDbEntity
   8
LEVEL001
 100
AcDbLine
   6
CONTINUOUS
  62
7
  10
 410.00000000000
  20
 334.99996948242
  30
0.0
  11
 411.42907714844
  21
 332.52474975586
  31
0.0
   0
LINE
   5
17A
 100
AcDbEntity
   8
LEVEL001
 100
AcDbLine
   6
CONTINUOUS
  62
7
  10
 411.42907714844
  20
 332.52474975586
  30
0.0
  11
 438.57092285156
  21
 332.52474975586
  31
0.0
   0
LINE
   5
17B
 100
AcDbEntity
   8
LEVEL001
 100
AcDbLine
   6
CONTINUOUS
  62
7
  10
 438.57092285156
  20
 332.52474975586
  30
0.0
  11
 440.00000000000
  21
 334.99996948242
  31
0.0
   0
LINE
   5
17C
 100
AcDbEntity
   8
LEVEL001
 100
AcDbLine
   6
CONTINUOUS
  62
7
  10
 440.00000000000
  20
 334.99996948242
  30
0.0
  11
 440.00000000000
  21
 366.99996948242
  31
0.0
   0
LINE
   5
17D
 100
AcDbEntity
   8
LEVEL001
 100
AcDbLine
   6
CONTINUOUS
  62
7
  10
 440.00000000000
  20
 366.99996948242
  30
0.0
  11
 438.57092285156
  21
 369.47518920898
  31
0.0
   0
LINE
   5
17E
 100
AcDbEntity
   8
LEVEL001
 100
AcDbLine
   6
CONTINUOUS
  62
7
  10
 438.57092285156
  20
 369.47518920898
  30
0.0
  11
 411.42907714844
  21
 369.47518920898
  31
0.0
   0
ARC
   5
17F
 100
AcDbEntity
   8
LEVEL001
   6
CONTINUOUS
  62
7
 100
AcDbCircle
  10
 422.40099258358
  20
 334.81301658859
  30
0.0
  40
 17.600000381470
 100
AcDbArc
  50
 0.60862573869699
  51
 23.256558613027
   0
ARC
   5
180
 100
AcDbEntity
   8
LEVEL001
   6
CONTINUOUS
  62
7
 100
AcDbCircle
  10
 422.40099258358
  20
 367.18692237626
  30
0.0
  40
 17.600000381470
 100
AcDbArc
  50
 336.74344138697
  51
 359.39137426130
   0
ARC
   5
181
 100
AcDbEntity
   8
LEVEL001
   6
CONTINUOUS
  62
7
 100
AcDbCircle
  10
 409.42903483289
  20
 350.99996948242
  30
0.0
  40
 30.570951461792
 100
AcDbArc
  50
 342.41204351312
  51
 17.587956486882
   0
LINE
   5
182
 100
AcDbEntity
   8
LEVEL001
 100
AcDbLine
   6
CONTINUOUS
  62
7
  10
 411.42907714844
  20
 360.23757934570
  30
0.0
  11
 438.57092285156
  21
 360.23757934570
  31
0.0
   0
LINE
   5
183
 100
AcDbEntity
   8
LEVEL001
 100
AcDbLine
   6
CONTINUOUS
  62
7
  10
 411.42907714844
  20
 341.76235961914
  30
0.0
  11
 438.57092285156
  21
 341.76235961914
  31
0.0
   0
LINE
   5
184
 100
AcDbEntity
   8
LEVEL001
 100
AcDbLine
   6
CONTINUOUS
  62
3
  10
 446.09069824219
  20
 341.49414062500
  30
0.0
  11
 446.09082031250
  21
 360.50582885742
  31
0.0
   0
LINE
   5
185
 100
AcDbEntity
   8
LEVEL001
 100
AcDbLine
   6
CONTINUOUS
  62
3
  10
 451.00000000000
  20
 361.82122802734
  30
0.0
  11
 446.09082031250
  21
 360.50582885742
  31
0.0
   0
LINE
   5
186
 100
AcDbEntity
   8
LEVEL001
 100
AcDbLine
   6
CONTINUOUS
  62
3
  10
 451.00000000000
  20
 340.17871093750
  30
0.0
  11
 446.09069824219
  21
 341.49414062500
  31
0.0
   0
ARC
   5
187
 100
AcDbEntity
   8
LEVEL001
   6
CONTINUOUS
  62
7
 100
AcDbCircle
  10
 471.20001220703
  20
 366.99996948242
  30
0.0
  40
 2.0000000000000
 100
AcDbArc
  50
 90.000000000000
  51
 180.00000000010
   0
LINE
   5
188
 100
AcDbEntity
   8
LEVEL001
 100
AcDbLine
   6
CONTINUOUS
  62
7
  10
 471.20001220703
  20
 368.99996948242
  30
0.0
  11
 477.20001220703
  21
 368.99996948242
  31
0.0
   0
ARC
   5
189
 100
AcDbEntity
   8
LEVEL001
   6
CONTINUOUS
  62
7
 100
AcDbCircle
  10
 493.20001220703
  20
 367.99996948242
  30
0.0
  40
 1.0000000000000
 100
AcDbArc
  50
0.0
  51
 89.999999999967
   0
LINE
   5
18A
 100
AcDbEntity
   8
LEVEL001
 100
AcDbLine
   6
CONTINUOUS
  62
7
  10
 487.20001220703
  20
 368.99996948242
  30
0.0
  11
 493.20001220703
  21
 368.99996948242
  31
0.0
   0
ARC
   5
18B
 100
AcDbEntity
   8
LEVEL001
   6
CONTINUOUS
  62
7
 100
AcDbCircle
  10
 471.20001220703
  20
 334.99996948242
  30
0.0
  40
 2.0000000000000
 100
AcDbArc
  50
 180.00000000000
  51
 269.99999999991
   0
LINE
   5
18C
 100
AcDbEntity
   8
LEVEL001
 100
AcDbLine
   6
CONTINUOUS
  62
7
  10
 471.20001220703
  20
 332.99996948242
  30
0.0
  11
 477.20001220703
  21
 332.99996948242
  31
0.0
   0
ARC
   5
18D
 100
AcDbEntity
   8
LEVEL001
   6
CONTINUOUS
  62
7
 100
AcDbCircle
  10
 493.20001220703
  20
 333.99996948242
  30
0.0
  40
 1.0000000000000
 100
AcDbArc
  50
 270.00000000000
  51
 0.22798215956730E-9
   0
LINE
   5
18E
 100
AcDbEntity
   8
LEVEL001
 100
AcDbLine
   6
CONTINUOUS
  62
7
  10
 487.20001220703
  20
 332.99996948242
  30
0.0
  11
 493.20001220703
  21
 332.99996948242
  31
0.0
   0
LINE
   5
18F
 100
AcDbEntity
   8
LEVEL001
 100
AcDbLine
   6
CONTINUOUS
  62
7
  10
 469.20001220703
  20
 334.99996948242
  30
0.0
  11
 469.20001220703
  21
 366.99996948242
  31
0.0
   0
LINE
   5
190
 100
AcDbEntity
   8
LEVEL001
 100
AcDbLine
   6
CONTINUOUS
  62
7
  10
 494.20001220703
  20
 367.99996948242
  30
0.0
  11
 494.20001220703
  21
 333.99996948242
  31
0.0
   0
LINE
   5
191
 100
AcDbEntity
   8
LEVEL001
 100
AcDbLine
   6
CONTINUOUS
  62
7
  10
 453.04162597656
  20
 362.99996948242
  30
0.0
  11
 453.04162597656
  21
 356.80944824219
  31
0.0
   0
LINE
   5
192
 100
AcDbEntity
   8
LEVEL001
 100
AcDbLine
   6
CONTINUOUS
  62
7
  10
 453.04162597656
  20
 345.19049072266
  30
0.0
  11
 453.04162597656
  21
 338.99996948242
  31
0.0
   0
LINE
   5
193
 100
AcDbEntity
   8
LEVEL001
 100
AcDbLine
   6
CONTINUOUS
  62
7
  10
 453.04162597656
  20
 345.19049072266
  30
0.0
  11
 462.00000000000
  21
 356.80944824219
  31
0.0
   0
LINE
   5
194
 100
AcDbEntity
   8
LEVEL001
 100
AcDbLine
   6
CONTINUOUS
  62
7
  10
 453.04162597656
  20
 356.80944824219
  30
0.0
  11
 462.00000000000
  21
 345.19049072266
  31
0.0
   0
LINE
   5
195
 100
AcDbEntity
   8
LEVEL001
 100
AcDbLine
   6
CONTINUOUS
  62
3
  10
 477.20001220703
  20
 334.49996948242
  30
0.0
  11
 487.20001220703
  21
 334.49996948242
  31
0.0
   0
LINE
   5
196
 100
AcDbEntity
   8
LEVEL001
 100
AcDbLine
   6
CONTINUOUS
  62
3
  10
 477.20001220703
  20
 336.49996948242
  30
0.0
  11
 487.20001220703
  21
 336.49996948242
  31
0.0
   0
LINE
   5
197
 100
AcDbEntity
   8
LEVEL001
 100
AcDbLine
   6
CONTINUOUS
  62
3
  10
 477.20001220703
  20
 338.49996948242
  30
0.0
  11
 487.20001220703
  21
 338.49996948242
  31
0.0
   0
LINE
   5
198
 100
AcDbEntity
   8
LEVEL001
 100
AcDbLine
   6
CONTINUOUS
  62
3
  10
 477.20001220703
  20
 340.49996948242
  30
0.0
  11
 487.20001220703
  21
 340.49996948242
  31
0.0
   0
LINE
   5
199
 100
AcDbEntity
   8
LEVEL001
 100
AcDbLine
   6
CONTINUOUS
  62
3
  10
 477.20001220703
  20
 342.49996948242
  30
0.0
  11
 487.20001220703
  21
 342.49996948242
  31
0.0
   0
LINE
   5
19A
 100
AcDbEntity
   8
LEVEL001
 100
AcDbLine
   6
CONTINUOUS
  62
3
  10
 477.20001220703
  20
 344.49996948242
  30
0.0
  11
 487.20001220703
  21
 344.49996948242
  31
0.0
   0
LINE
   5
19B
 100
AcDbEntity
   8
LEVEL001
 100
AcDbLine
   6
CONTINUOUS
  62
3
  10
 477.20001220703
  20
 346.49996948242
  30
0.0
  11
 487.20001220703
  21
 346.49996948242
  31
0.0
   0
LINE
   5
19C
 100
AcDbEntity
   8
LEVEL001
 100
AcDbLine
   6
CONTINUOUS
  62
3
  10
 477.20001220703
  20
 348.49996948242
  30
0.0
  11
 487.20001220703
  21
 348.49996948242
  31
0.0
   0
LINE
   5
19D
 100
AcDbEntity
   8
LEVEL001
 100
AcDbLine
   6
CONTINUOUS
  62
3
  10
 477.20001220703
  20
 350.49996948242
  30
0.0
  11
 487.20001220703
  21
 350.49996948242
  31
0.0
   0
LINE
   5
19E
 100
AcDbEntity
   8
LEVEL001
 100
AcDbLine
   6
CONTINUOUS
  62
3
  10
 477.20001220703
  20
 352.49996948242
  30
0.0
  11
 487.20001220703
  21
 352.49996948242
  31
0.0
   0
LINE
   5
19F
 100
AcDbEntity
   8
LEVEL001
 100
AcDbLine
   6
CONTINUOUS
  62
3
  10
 477.20001220703
  20
 354.49996948242
  30
0.0
  11
 487.20001220703
  21
 354.49996948242
  31
0.0
   0
LINE
   5
1A0
 100
AcDbEntity
   8
LEVEL001
 100
AcDbLine
   6
CONTINUOUS
  62
3
  10
 477.20001220703
  20
 356.49996948242
  30
0.0
  11
 487.20001220703
  21
 356.49996948242
  31
0.0
   0
LINE
   5
1A1
 100
AcDbEntity
   8
LEVEL001
 100
AcDbLine
   6
CONTINUOUS
  62
3
  10
 477.20001220703
  20
 358.49996948242
  30
0.0
  11
 487.20001220703
  21
 358.49996948242
  31
0.0
   0
LINE
   5
1A2
 100
AcDbEntity
   8
LEVEL001
 100
AcDbLine
   6
CONTINUOUS
  62
3
  10
 477.20001220703
  20
 360.49996948242
  30
0.0
  11
 487.20001220703
  21
 360.49996948242
  31
0.0
   0
LINE
   5
1A3
 100
AcDbEntity
   8
LEVEL001
 100
AcDbLine
   6
CONTINUOUS
  62
3
  10
 477.20001220703
  20
 362.49996948242
  30
0.0
  11
 487.20001220703
  21
 362.49996948242
  31
0.0
   0
LINE
   5
1A4
 100
AcDbEntity
   8
LEVEL001
 100
AcDbLine
   6
CONTINUOUS
  62
3
  10
 477.20001220703
  20
 364.49996948242
  30
0.0
  11
 487.20001220703
  21
 364.49996948242
  31
0.0
   0
LINE
   5
1A5
 100
AcDbEntity
   8
LEVEL001
 100
AcDbLine
   6
CONTINUOUS
  62
3
  10
 477.20001220703
  20
 366.49996948242
  30
0.0
  11
 487.20001220703
  21
 366.49996948242
  31
0.0
   0
LINE
   5
1A6
 100
AcDbEntity
   8
LEVEL001
 100
AcDbLine
   6
CONTINUOUS
  62
3
  10
 477.20001220703
  20
 368.49996948242
  30
0.0
  11
 487.20001220703
  21
 368.49996948242
  31
0.0
   0
LINE
   5
1A7
 100
AcDbEntity
   8
LEVEL001
 100
AcDbLine
   6
CONTINUOUS
  62
7
  10
 451.00000000000
  20
 361.82122802734
  30
0.0
  11
 440.00000000000
  21
 361.47747802734
  31
0.0
   0
LINE
   5
1A8
 100
AcDbEntity
   8
LEVEL001
 100
AcDbLine
   6
CONTINUOUS
  62
7
  10
 451.00000000000
  20
 340.17871093750
  30
0.0
  11
 440.00000000000
  21
 340.52246093750
  31
0.0
   0
LINE
   5
1A9
 100
AcDbEntity
   8
LEVEL001
 100
AcDbLine
   6
CONTINUOUS
  62
3
  10
 446.09082031250
  20
 360.50582885742
  30
0.0
  11
 440.00000000000
  21
 360.31549072266
  31
0.0
   0
LINE
   5
1AA
 100
AcDbEntity
   8
LEVEL001
 100
AcDbLine
   6
CONTINUOUS
  62
3
  10
 446.09069824219
  20
 341.49414062500
  30
0.0
  11
 440.00000000000
  21
 341.68447875977
  31
0.0
   0
LINE
   5
1AB
 100
AcDbEntity
   8
LEVEL001
 100
AcDbLine
   6
DASHDOT
  62
1
  10
 494.20001220703
  20
 367.99996948242
  30
0.0
  11
 494.20001220703
  21
 368.99996948242
  31
0.0
   0
LINE
   5
1AC
 100
AcDbEntity
   8
LEVEL001
 100
AcDbLine
   6
DASHDOT
  62
1
  10
 494.20001220703
  20
 368.99996948242
  30
0.0
  11
 502.20001220703
  21
 368.99996948242
  31
0.0
   0
LINE
   5
1AD
 100
AcDbEntity
   8
LEVEL001
 100
AcDbLine
   6
DASHDOT
  62
1
  10
 502.20001220703
  20
 368.99996948242
  30
0.0
  11
 502.20001220703
  21
 332.99996948242
  31
0.0
   0
LINE
   5
1AE
 100
AcDbEntity
   8
LEVEL001
 100
AcDbLine
   6
DASHDOT
  62
1
  10
 502.20001220703
  20
 332.99996948242
  30
0.0
  11
 494.20001220703
  21
 332.99996948242
  31
0.0
   0
LINE
   5
1AF
 100
AcDbEntity
   8
LEVEL001
 100
AcDbLine
   6
DASHDOT
  62
1
  10
 494.20001220703
  20
 332.99996948242
  30
0.0
  11
 494.20001220703
  21
 333.99996948242
  31
0.0
   0
LINE
   5
1B0
 100
AcDbEntity
   8
LEVEL001
 100
AcDbLine
   6
CONTINUOUS
  62
7
  10
 477.20001220703
  20
 332.49996948242
  30
0.0
  11
 477.20001220703
  21
 369.49996948242
  31
0.0
   0
LINE
   5
1B1
 100
AcDbEntity
   8
LEVEL001
 100
AcDbLine
   6
CONTINUOUS
  62
7
  10
 477.20001220703
  20
 369.49996948242
  30
0.0
  11
 487.20001220703
  21
 369.49996948242
  31
0.0
   0
LINE
   5
1B2
 100
AcDbEntity
   8
LEVEL001
 100
AcDbLine
   6
CONTINUOUS
  62
7
  10
 487.20001220703
  20
 369.49996948242
  30
0.0
  11
 487.20001220703
  21
 332.49996948242
  31
0.0
   0
LINE
   5
1B3
 100
AcDbEntity
   8
LEVEL001
 100
AcDbLine
   6
CONTINUOUS
  62
7
  10
 487.20001220703
  20
 332.49996948242
  30
0.0
  11
 477.20001220703
  21
 332.49996948242
  31
0.0
   0
LINE
   5
1B4
 100
AcDbEntity
   8
LEVEL001
 100
AcDbLine
   6
CONTINUOUS
  62
7
  10
 451.00000000000
  20
 353.61721801758
  30
0.0
  11
 453.04162597656
  21
 356.80944824219
  31
0.0
   0
LINE
   5
1B5
 100
AcDbEntity
   8
LEVEL001
 100
AcDbLine
   6
CONTINUOUS
  62
7
  10
 453.04162597656
  20
 356.80944824219
  30
0.0
  11
 462.00000000000
  21
 356.80944824219
  31
0.0
   0
LINE
   5
1B6
 100
AcDbEntity
   8
LEVEL001
 100
AcDbLine
   6
CONTINUOUS
  62
7
  10
 462.00000000000
  20
 356.80944824219
  30
0.0
  11
 462.00000000000
  21
 345.19049072266
  31
0.0
   0
LINE
   5
1B7
 100
AcDbEntity
   8
LEVEL001
 100
AcDbLine
   6
CONTINUOUS
  62
7
  10
 462.00000000000
  20
 345.19049072266
  30
0.0
  11
 453.04162597656
  21
 345.19049072266
  31
0.0
   0
LINE
   5
1B8
 100
AcDbEntity
   8
LEVEL001
 100
AcDbLine
   6
CONTINUOUS
  62
7
  10
 453.04162597656
  20
 345.19049072266
  30
0.0
  11
 451.00000000000
  21
 348.38272094727
  31
0.0
   0
LINE
   5
1B9
 100
AcDbEntity
   8
LEVEL001
 100
AcDbLine
   6
CONTINUOUS
  62
7
  10
 469.20001220703
  20
 338.99996948242
  30
0.0
  11
 453.04162597656
  21
 338.99996948242
  31
0.0
   0
LINE
   5
1BA
 100
AcDbEntity
   8
LEVEL001
 100
AcDbLine
   6
CONTINUOUS
  62
7
  10
 453.04162597656
  20
 338.99996948242
  30
0.0
  11
 451.00000000000
  21
 340.17871093750
  31
0.0
   0
LINE
   5
1BB
 100
AcDbEntity
   8
LEVEL001
 100
AcDbLine
   6
CONTINUOUS
  62
7
  10
 451.00000000000
  20
 340.17871093750
  30
0.0
  11
 451.00000000000
  21
 361.82122802734
  31
0.0
   0
LINE
   5
1BC
 100
AcDbEntity
   8
LEVEL001
 100
AcDbLine
   6
CONTINUOUS
  62
7
  10
 451.00000000000
  20
 361.82122802734
  30
0.0
  11
 453.04162597656
  21
 362.99996948242
  31
0.0
   0
LINE
   5
1BD
 100
AcDbEntity
   8
LEVEL001
 100
AcDbLine
   6
CONTINUOUS
  62
7
  10
 453.04162597656
  20
 362.99996948242
  30
0.0
  11
 469.20001220703
  21
 362.99996948242
  31
0.0
   0
TEXT
   5
1BE
 100
AcDbEntity
   8
LEVEL003
  62
3
 100
AcDbText
  10
 420.00000000000
  20
 100.00000000000
  30
0.0
  40
 8.0000000000000
   1
ＮＰＴ３／８
   7
STANDARD
 100
AcDbText
   0
LEADER
   5
1BF
 100
AcDbEntity
   8
LEVEL003
   6
CONTINUOUS
  62
3
 100
AcDbLeader
   3
GMM001
  73
0
  74
1
  75
0
  40
 8.0000000000000
  41
0.0
  76
3
  10
 403.14309692383
  20
 150.57075500488
  30
0.0
  10
 420.00000000000
  20
 100.00000000000
  30
0.0
  10
 470.00000000000
  20
 100.00000000000
  30
0.0
  77
3
   0
TEXT
   5
1C0
 100
AcDbEntity
   8
LEVEL003
  62
3
 100
AcDbText
  10
 480.00000000000
  20
 100.00000000000
  30
0.0
  40
 8.0000000000000
   1
Ｒ　１／２
   7
STANDARD
 100
AcDbText
   0
LEADER
   5
1C1
 100
AcDbEntity
   8
LEVEL003
   6
CONTINUOUS
  62
3
 100
AcDbLeader
   3
GMM001
  73
0
  74
1
  75
0
  40
 8.0000000000000
  41
0.0
  76
3
  10
 447.15676879883
  20
 148.29882812500
  30
0.0
  10
 480.00000000000
  20
 100.00000000000
  30
0.0
  10
 530.00000000000
  20
 100.00000000000
  30
0.0
  77
3
   0
CIRCLE
   5
1C2
 100
AcDbEntity
   8
LEVEL003
 100
AcDbCircle
   6
CONTINUOUS
  62
3
  10
 470.00000000000
  20
 400.00000000000
  30
0.0
  40
 8.0000000000000
   0
MTEXT
   5
1C3
 100
AcDbEntity
   8
LEVEL003
  62
3
 100
AcDbMText
  10
 465.20001220703
  20
 395.20001220703
  30
0.0
  40
 8.2285717555455
  41
0.0
  71
7
  72
1
   1
50
   7
GMM001
   0
LEADER
   5
1C4
 100
AcDbEntity
   8
LEVEL003
   6
CONTINUOUS
  62
3
 100
AcDbLeader
   3
GMM002
  73
0
  74
1
  75
0
  40
 9.6000003814697
  41
0.0
  76
2
  10
 480.70608520508
  20
 369.49996948242
  30
0.0
  10
 472.64962768555
  20
 392.45153808594
  30
0.0
  77
3
   0
CIRCLE
   5
1C5
 100
AcDbEntity
   8
LEVEL003
 100
AcDbCircle
   6
CONTINUOUS
  62
3
  10
 180.00000000000
  20
 310.00000000000
  30
0.0
  40
 8.0000000000000
   0
MTEXT
   5
1C6
 100
AcDbEntity
   8
LEVEL003
  62
3
 100
AcDbMText
  10
 175.19999694824
  20
 305.20001220703
  30
0.0
  40
 8.2285717555455
  41
0.0
  71
7
  72
1
   1
40
   7
GMM001
   0
LEADER
   5
1C7
 100
AcDbEntity
   8
LEVEL003
   6
CONTINUOUS
  62
3
 100
AcDbLeader
   3
GMM002
  73
0
  74
1
  75
0
  40
 9.6000003814697
  41
0.0
  76
2
  10
 264.06369018555
  20
 296.40451049805
  30
0.0
  10
 187.89738464355
  20
 308.72277832031
  30
0.0
  77
3
   0
DIMENSION
   5
1C8
 100
AcDbEntity
   8
LEVEL003
   6
CONTINUOUS
  62
3
 100
AcDbDimension
   2
*D5
  10
 520.00000000000
  20
 158.99998474121
  30
0.0
  11
 520.00000000000
  21
 139.49998474121
  31
0.0
  70
128
   1
\A1;39
   3
GMM003
 100
AcDbAlignedDimension
  13
 398.00000000000
  23
 119.99998474121
  33
0.0
  14
 505.00000000000
  24
 158.99998474121
  34
0.0
  50
 90.000000000000
 100
AcDbRotatedDimension
   0
DIMENSION
   5
1CA
 100
AcDbEntity
   8
LEVEL003
   6
CONTINUOUS
  62
3
 100
AcDbDimension
   2
*D6
  10
 520.00000000000
  20
 350.99996948242
  30
0.0
  11
 520.00000000000
  21
 254.99996948242
  31
0.0
  70
128
   1
\A1;192
   3
GMM004
 100
AcDbAlignedDimension
  13
 505.00000000000
  23
 158.99998474121
  33
0.0
  14
 505.00000000000
  24
 350.99996948242
  34
0.0
  50
 90.000000000000
 100
AcDbRotatedDimension
   0
DIMENSION
   5
1CC
 100
AcDbEntity
   8
LEVEL003
   6
CONTINUOUS
  62
3
 100
AcDbDimension
   2
*D7
  10
 400.00000000000
  20
 70.000000000000
  30
0.0
  11
 300.00000000000
  21
 70.000000000000
  31
0.0
  70
128
   1
\A1;%%c200
   3
GMM005
 100
AcDbAlignedDimension
  13
 200.00000000000
  23
 121.99998474121
  33
0.0
  14
 400.00000000000
  24
 121.99998474121
  34
0.0
 100
AcDbRotatedDimension
   0
DIMENSION
   5
1CE
 100
AcDbEntity
   8
LEVEL003
   6
CONTINUOUS
  62
3
 100
AcDbDimension
   2
*D8
  10
 160.00000000000
  20
 330.00000000000
  30
0.0
  11
 160.00000000000
  21
 252.00000000000
  31
0.0
  70
128
   1
\A1;210
   3
GMM006
 100
AcDbAlignedDimension
  13
 202.00000000000
  23
 119.99998474121
  33
0.0
  14
 300.00000000000
  24
 330.00000000000
  34
0.0
  50
 90.000000000000
 100
AcDbRotatedDimension
   0
DIMENSION
   5
1D0
 100
AcDbEntity
   8
LEVEL003
   6
CONTINUOUS
  62
3
 100
AcDbDimension
   2
*D9
  10
 140.00000000000
  20
 119.99998474121
  30
0.0
  11
 140.00000000000
  21
 292.50000000000
  31
0.0
  70
128
   1
\A1;345
   3
GMM006
 100
AcDbAlignedDimension
  13
 238.83975219727
  23
 465.00000000000
  33
0.0
  14
 202.00000000000
  24
 119.99998474121
  34
0.0
  50
 270.00000000000
 100
AcDbRotatedDimension
   0
DIMENSION
   5
1D2
 100
AcDbEntity
   8
LEVEL003
   6
CONTINUOUS
  62
3
 100
AcDbDimension
   2
*D10
  10
 160.00000000000
  20
 460.00000000000
  30
0.0
  11
 160.00000000000
  21
 474.14111697394
  31
0.0
  70
128
   1
\A1;5
   3
GMM006
 100
AcDbAlignedDimension
  13
 238.83975219727
  23
 465.00000000000
  33
0.0
  14
 202.00000000000
  24
 460.00000000000
  34
0.0
  50
 270.00000000000
 100
AcDbRotatedDimension
   0
LINE
   5
1D4
 100
AcDbEntity
   8
LEVEL001
 100
AcDbLine
   6
CONTINUOUS
  62
7
  10
 400.00000000000
  20
 458.00000000000
  30
0.0
  11
 400.00000000000
  21
 121.99998474121
  31
0.0
   0
LINE
   5
1D5
 100
AcDbEntity
   8
LEVEL001
 100
AcDbLine
   6
DOT
  62
3
  10
 328.83975219727
  20
 119.99998474121
  30
0.0
  11
 327.50000000000
  21
 124.99998474121
  31
0.0
   0
LINE
   5
1D6
 100
AcDbEntity
   8
LEVEL001
 100
AcDbLine
   6
DOT
  62
3
  10
 342.50000000000
  20
 359.99996948242
  30
0.0
  11
 342.50000000000
  21
 140.99998474121
  31
0.0
   0
LINE
   5
1D7
 100
AcDbEntity
   8
LEVEL001
 100
AcDbLine
   6
DOT
  62
3
  10
 341.16024780273
  20
 364.99996948242
  30
0.0
  11
 342.50000000000
  21
 359.99996948242
  31
0.0
   0
LINE
   5
1D8
 100
AcDbEntity
   8
LEVEL001
 100
AcDbLine
   6
DOT
  62
3
  10
 327.50000000000
  20
 125.00999450684
  30
0.0
  11
 327.50000000000
  21
 359.98995971680
  31
0.0
   0
LINE
   5
1D9
 100
AcDbEntity
   8
LEVEL001
 100
AcDbLine
   6
DOT
  62
3
  10
 328.83975219727
  20
 364.99996948242
  30
0.0
  11
 327.50000000000
  21
 359.99996948242
  31
0.0
   0
ARC
   5
1DA
 100
AcDbEntity
   8
LEVEL001
   6
DOT
  62
3
 100
AcDbCircle
  10
 332.49999999999
  20
 404.05253024019
  30
0.0
  40
 5.0000000000000
 100
AcDbArc
  50
 180.00010872729
  51
 209.99972174250
   0
ARC
   5
1DB
 100
AcDbEntity
   8
LEVEL001
   6
DOT
  62
3
 100
AcDbCircle
  10
 338.50000000004
  20
 373.66023831443
  30
0.0
  40
 5.0000000000000
 100
AcDbArc
  50
0.0
  51
 29.999721743254
   0
LINE
   5
1DC
 100
AcDbEntity
   8
LEVEL001
 100
AcDbLine
   6
DOT
  62
3
  10
 342.83013916016
  20
 376.16021728516
  30
0.0
  11
 328.16986083984
  21
 401.55255126953
  31
0.0
   0
LINE
   5
1DD
 100
AcDbEntity
   8
LEVEL001
 100
AcDbLine
   6
DOT
  62
3
  10
 327.50000000000
  20
 459.98999023438
  30
0.0
  11
 327.50000000000
  21
 404.05252075195
  31
0.0
   0
LINE
   5
1DE
 100
AcDbEntity
   8
LEVEL001
 100
AcDbLine
   6
DOT
  62
3
  10
 328.83975219727
  20
 465.00000000000
  30
0.0
  11
 327.50000000000
  21
 460.00000000000
  31
0.0
   0
LINE
   5
1DF
 100
AcDbEntity
   8
LEVEL001
 100
AcDbLine
   6
DOT
  62
3
  10
 341.16024780273
  20
 364.99996948242
  30
0.0
  11
 328.83975219727
  21
 364.99996948242
  31
0.0
   0
LINE
   5
1E0
 100
AcDbEntity
   8
LEVEL001
 100
AcDbLine
   6
DOT
  62
3
  10
 362.50000000000
  20
 214.99996948242
  30
0.0
  11
 362.50000000000
  21
 460.00000000000
  31
0.0
   0
LINE
   5
1E1
 100
AcDbEntity
   8
LEVEL001
 100
AcDbLine
   6
DOT
  62
3
  10
 380.00000000000
  20
 341.99996948242
  30
0.0
  11
 380.00000000000
  21
 159.99998474121
  31
0.0
   0
LINE
   5
1E2
 100
AcDbEntity
   8
LEVEL001
 100
AcDbLine
   6
CONTINUOUS
  62
7
  10
 300.00000000000
  20
 460.00000000000
  30
0.0
  11
 398.00000000000
  21
 460.00000000000
  31
0.0
   0
LINE
   5
1E3
 100
AcDbEntity
   8
LEVEL001
 100
AcDbLine
   6
CONTINUOUS
  62
7
  10
 400.00000000000
  20
 458.00000000000
  30
0.0
  11
 300.00000000000
  21
 458.00000000000
  31
0.0
   0
ARC
   5
1E4
 100
AcDbEntity
   8
LEVEL001
   6
DASHDOT
  62
1
 100
AcDbCircle
  10
 300.00000000000
  20
 298.00000000000
  30
0.0
  40
 32.000000000000
 100
AcDbArc
  50
 270.00000000000
  51
 90.000000000000
   0
ARC
   5
1E5
 100
AcDbEntity
   8
LEVEL001
   6
CONTINUOUS
  62
7
 100
AcDbCircle
  10
 300.00000000000
  20
 330.00000000000
  30
0.0
  40
 11.500000000000
 100
AcDbArc
  50
 270.00000000000
  51
 90.000000000000
   0
ARC
   5
1E6
 100
AcDbEntity
   8
LEVEL001
   6
CONTINUOUS
  62
7
 100
AcDbCircle
  10
 300.00000000000
  20
 330.00000000000
  30
0.0
  40
 12.500000000000
 100
AcDbArc
  50
 270.00000000000
  51
 90.000000000000
   0
ARC
   5
1E7
 100
AcDbEntity
   8
LEVEL001
   6
CONTINUOUS
  62
7
 100
AcDbCircle
  10
 300.00000722065
  20
 298.00000000000
  30
0.0
  40
 36.500000000000
 100
AcDbArc
  50
 269.99998866541
  51
 70.352805490553
   0
ARC
   5
1E8
 100
AcDbEntity
   8
LEVEL001
   6
CONTINUOUS
  62
7
 100
AcDbCircle
  10
 300.00000506711
  20
 298.00000000000
  30
0.0
  40
 27.500000000000
 100
AcDbArc
  50
 269.99998944276
  51
 67.328104671161
   0
LINE
   5
1E9
 100
AcDbEntity
   8
LEVEL001
 100
AcDbLine
   6
DOT
  62
3
  10
 257.50000000000
  20
 359.99996948242
  30
0.0
  11
 257.50000000000
  21
 140.99998474121
  31
0.0
   0
LINE
   5
1EA
 100
AcDbEntity
   8
LEVEL001
 100
AcDbLine
   6
DOT
  62
3
  10
 258.83975219727
  20
 364.99996948242
  30
0.0
  11
 257.50000000000
  21
 359.99996948242
  31
0.0
   0
LINE
   5
1EB
 100
AcDbEntity
   8
LEVEL001
 100
AcDbLine
   6
DOT
  62
3
  10
 272.50000000000
  20
 125.00999450684
  30
0.0
  11
 272.50000000000
  21
 359.98995971680
  31
0.0
   0
LINE
   5
1EC
 100
AcDbEntity
   8
LEVEL001
 100
AcDbLine
   6
DOT
  62
3
  10
 271.16024780273
  20
 364.99996948242
  30
0.0
  11
 272.50000000000
  21
 359.99996948242
  31
0.0
   0
ARC
   5
1ED
 100
AcDbEntity
   8
LEVEL001
   6
DOT
  62
3
 100
AcDbCircle
  10
 267.50000000001
  20
 404.05253024020
  30
0.0
  40
 5.0000000000000
 100
AcDbArc
  50
 330.00027825750
  51
0.0
   0
ARC
   5
1EE
 100
AcDbEntity
   8
LEVEL001
   6
DOT
  62
3
 100
AcDbCircle
  10
 261.49999999996
  20
 373.66023831444
  30
0.0
  40
 5.0000000000000
 100
AcDbArc
  50
 150.00027825681
  51
 180.00024097782
   0
LINE
   5
1EF
 100
AcDbEntity
   8
LEVEL001
 100
AcDbLine
   6
DOT
  62
3
  10
 257.16986083984
  20
 376.16021728516
  30
0.0
  11
 271.83013916016
  21
 401.55255126953
  31
0.0
   0
LINE
   5
1F0
 100
AcDbEntity
   8
LEVEL001
 100
AcDbLine
   6
DOT
  62
3
  10
 272.50000000000
  20
 459.98999023438
  30
0.0
  11
 272.50000000000
  21
 404.05252075195
  31
0.0
   0
LINE
   5
1F1
 100
AcDbEntity
   8
LEVEL001
 100
AcDbLine
   6
DOT
  62
3
  10
 258.83975219727
  20
 364.99996948242
  30
0.0
  11
 271.16024780273
  21
 364.99996948242
  31
0.0
   0
LINE
   5
1F2
 100
AcDbEntity
   8
LEVEL001
 100
AcDbLine
   6
DOT
  62
3
  10
 237.50000000000
  20
 214.99996948242
  30
0.0
  11
 237.50000000000
  21
 460.00000000000
  31
0.0
   0
LINE
   5
1F3
 100
AcDbEntity
   8
LEVEL001
 100
AcDbLine
   6
DOT
  62
3
  10
 271.16024780273
  20
 465.00000000000
  30
0.0
  11
 272.50000000000
  21
 460.00000000000
  31
0.0
   0
LINE
   5
1F4
 100
AcDbEntity
   8
LEVEL001
 100
AcDbLine
   6
DOT
  62
3
  10
 220.00000000000
  20
 341.99996948242
  30
0.0
  11
 220.00000000000
  21
 159.99998474121
  31
0.0
   0
LINE
   5
1F5
 100
AcDbEntity
   8
LEVEL001
 100
AcDbLine
   6
CONTINUOUS
  62
7
  10
 400.00000000000
  20
 121.99998474121
  30
0.0
  11
 300.00000000000
  21
 121.99998474121
  31
0.0
   0
LINE
   5
1F6
 100
AcDbEntity
   8
LEVEL001
 100
AcDbLine
   6
DOT
  62
3
  10
 343.50000000000
  20
 364.99996948242
  30
0.0
  11
 343.50000000000
  21
 373.66021728516
  31
0.0
   0
LINE
   5
1F7
 100
AcDbEntity
   8
LEVEL001
 100
AcDbLine
   6
DOT
  62
3
  10
 256.50000000000
  20
 364.99996948242
  30
0.0
  11
 256.50000000000
  21
 373.66021728516
  31
0.0
   0
DIMENSION
   5
1F8
 100
AcDbEntity
   8
LEVEL003
   6
CONTINUOUS
  62
3
 100
AcDbDimension
   2
*D11
  10
 327.50000000000
  20
 480.00000000000
  30
0.0
  11
 300.00000000000
  21
 480.00000000000
  31
0.0
  70
0
   1
\A1;%%c55
   3
GMM007
 100
AcDbAlignedDimension
  13
 272.50000000000
  23
 460.00000000000
  33
0.0
  14
 327.50000000000
  24
 460.00000000000
  34
0.0
 100
AcDbRotatedDimension
   0
DIMENSION
   5
1FA
 100
AcDbEntity
   8
LEVEL003
   6
CONTINUOUS
  62
3
 100
AcDbDimension
   2
*D12
  10
 342.50000000000
  20
 250.00000000000
  30
0.0
  11
 300.00000000000
  21
 250.00000000000
  31
0.0
  70
0
   1
\A1;%%c85
   3
GMM008
 100
AcDbAlignedDimension
  13
 257.50000000000
  23
 250.00000000000
  33
0.0
  14
 342.50000000000
  24
 250.00000000000
  34
0.0
 100
AcDbRotatedDimension
   0
DIMENSION
   5
1FC
 100
AcDbEntity
   8
LEVEL003
   6
CONTINUOUS
  62
3
 100
AcDbDimension
   2
*D13
  10
 362.50000000000
  20
 230.00000000000
  30
0.0
  11
 300.00000000000
  21
 230.00000000000
  31
0.0
  70
0
   1
\A1;%%c125
   3
GMM008
 100
AcDbAlignedDimension
  13
 237.50000000000
  23
 230.00000000000
  33
0.0
  14
 362.50000000000
  24
 230.00000000000
  34
0.0
 100
AcDbRotatedDimension
   0
DIMENSION
   5
1FE
 100
AcDbEntity
   8
LEVEL003
   6
CONTINUOUS
  62
3
 100
AcDbDimension
   2
*D14
  10
 380.00000000000
  20
 210.00000000000
  30
0.0
  11
 300.00000000000
  21
 210.00000000000
  31
0.0
  70
0
   1
\A1;%%c160
   3
GMM008
 100
AcDbAlignedDimension
  13
 220.00000000000
  23
 210.00000000000
  33
0.0
  14
 380.00000000000
  24
 210.00000000000
  34
0.0
 100
AcDbRotatedDimension
   0
LINE
   5
200
 100
AcDbEntity
   8
LEVEL001
 100
AcDbLine
   6
DASHDOT
  62
1
  10
 300.00000000000
  20
 210.00000000000
  30
0.0
  11
 300.00000000000
  21
 109.99998474121
  31
0.0
   0
LINE
   5
201
 100
AcDbEntity
   8
LEVEL001
 100
AcDbLine
   6
DASHDOT
  62
1
  10
 300.00000000000
  20
 470.00000000000
  30
0.0
  11
 300.00000000000
  21
 260.00000000000
  31
0.0
   0
LINE
   5
202
 100
AcDbEntity
   8
LEVEL001
 100
AcDbLine
   6
DASHDOT
  62
1
  10
 505.00000000000
  20
 350.99996948242
  30
0.0
  11
 380.00000000000
  21
 350.99996948242
  31
0.0
   0
LINE
   5
203
 100
AcDbEntity
   8
LEVEL001
 100
AcDbLine
   6
CONTINUOUS
  62
7
  10
 410.00000000000
  20
 342.35647583008
  30
0.0
  11
 400.00000000000
  21
 342.66897248706
  31
0.0
   0
LINE
   5
204
 100
AcDbEntity
   8
LEVEL001
 100
AcDbLine
   6
CONTINUOUS
  62
3
  10
 406.38363647461
  20
 343.32546997070
  30
0.0
  11
 400.00000000000
  21
 343.52499547034
  31
0.0
   0
LINE
   5
205
 100
AcDbEntity
   8
LEVEL001
 100
AcDbLine
   6
CONTINUOUS
  62
3
  10
 406.38366699219
  20
 358.67446899414
  30
0.0
  11
 400.00000000000
  21
 358.47491824734
  31
0.0
   0
LINE
   5
206
 100
AcDbEntity
   8
LEVEL001
 100
AcDbLine
   6
CONTINUOUS
  62
7
  10
 410.00000000000
  20
 359.64346313477
  30
0.0
  11
 400.00000000000
  21
 359.33096647779
  31
0.0
   0
LINE
   5
207
 100
AcDbEntity
   8
LEVEL001
 100
AcDbLine
   6
CONTINUOUS
  62
7
  10
 410.00000000000
  20
 167.64347839355
  30
0.0
  11
 400.00000000000
  21
 167.33098173658
  31
0.0
   0
LINE
   5
208
 100
AcDbEntity
   8
LEVEL001
 100
AcDbLine
   6
CONTINUOUS
  62
3
  10
 406.38366699219
  20
 166.67448425293
  30
0.0
  11
 400.00000000000
  21
 166.47495947519
  31
0.0
   0
LINE
   5
209
 100
AcDbEntity
   8
LEVEL001
 100
AcDbLine
   6
CONTINUOUS
  62
7
  10
 410.00000000000
  20
 150.35649108887
  30
0.0
  11
 400.00000000000
  21
 150.66898774585
  31
0.0
   0
LINE
   5
20A
 100
AcDbEntity
   8
LEVEL001
 100
AcDbLine
   6
CONTINUOUS
  62
3
  10
 406.38363647461
  20
 151.32548522949
  30
0.0
  11
 400.00000000000
  21
 151.52498392200
  31
0.0
   0
DIMENSION
   5
20B
 100
AcDbEntity
   8
LEVEL003
   6
CONTINUOUS
  62
3
 100
AcDbDimension
   2
*D15
  10
 327.50000000000
  20
 90.000000000000
  30
0.0
  11
 300.00000000000
  21
 90.000000000000
  31
0.0
  70
0
   1
\A1;%%c55
   3
GMM007
 100
AcDbAlignedDimension
  13
 272.50000000000
  23
 125.00999450684
  33
0.0
  14
 327.50000000000
  24
 125.00999450684
  34
0.0
 100
AcDbRotatedDimension
   0
TEXT
   5
20D
 100
AcDbEntity
   8
LEVEL003
  62
7
 100
AcDbText
  10
 630.77806467662
  20
 30.657777611941
  30
0.0
  40
 10.000000000000
   1
ＯＳＡＫＡ ＪＡＣＫ
   7
STANDARD
 100
AcDbText
   0
CIRCLE
   5
20E
 100
AcDbEntity
   8
LEVEL003
 100
AcDbCircle
   6
CONTINUOUS
  62
7
  10
 610.33165082626
  20
 37.371749449472
  30
0.0
  40
 3.0000000000000
   0
LINE
   5
20F
 100
AcDbEntity
   8
LEVEL003
 100
AcDbLine
   6
CONTINUOUS
  62
7
  10
 616.21965082626
  20
 40.371749449472
  30
0.0
  11
 612.41065082626
  21
 33.771749449472
  31
0.0
   0
LINE
   5
210
 100
AcDbEntity
   8
LEVEL003
 100
AcDbLine
   6
CONTINUOUS
  62
7
  10
 612.41065082626
  20
 33.771749449472
  30
0.0
  11
 604.78965082626
  21
 33.771749449472
  31
0.0
   0
LINE
   5
211
 100
AcDbEntity
   8
LEVEL003
 100
AcDbLine
   6
CONTINUOUS
  62
7
  10
 603.92265082626
  20
 32.271749449472
  30
0.0
  11
 617.54365082626
  21
 32.271749449472
  31
0.0
   0
LINE
   5
212
 100
AcDbEntity
   8
LEVEL003
 100
AcDbLine
   6
CONTINUOUS
  62
7
  10
 617.54365082626
  20
 32.271749449472
  30
0.0
  11
 622.21965082626
  21
 40.371749449472
  31
0.0
   0
LINE
   5
213
 100
AcDbEntity
   8
LEVEL003
 100
AcDbLine
   6
CONTINUOUS
  62
7
  10
 622.21965082626
  20
 40.371749449472
  30
0.0
  11
 616.21965082626
  21
 40.371749449472
  31
0.0
   0
LINE
   5
214
 100
AcDbEntity
   8
LEVEL003
 100
AcDbLine
   6
CONTINUOUS
  62
7
  10
 604.78965082626
  20
 33.771749449472
  30
0.0
  11
 603.92265082626
  21
 32.271749449472
  31
0.0
   0
TEXT
   5
215
 100
AcDbEntity
   8
LEVEL003
  62
7
 100
AcDbText
  10
 633.68906467662
  20
 47.551177611941
  30
0.0
  40
 6.0000000000000
   1
Model : ＥＣ１００Ｈ１５
   7
STANDARD
 100
AcDbText
   0
ENDSEC
  0
SECTION
  2
OBJECTS
  0
DICTIONARY
  5
C
100
AcDbDictionary
  3
ACAD_GROUP
350
D
  3
ACAD_MLINESTYLE
350
1B
  0
DICTIONARY
  5
D
102
{ACAD_REACTORS
330
C
102
}
100
AcDbDictionary
  0
DICTIONARY
  5
1B
102
{ACAD_REACTORS
330
C
102
}
100
AcDbDictionary
  3
STANDARD
350
1C
  0
MLINESTYLE
  5
1C
102
{ACAD_REACTORS
330
1B
102
}
100
AcDbMlineStyle
  2
STANDARD
 70
     0
  3

 62
   256
 51
90.0
 52
90.0
 71
     2
 49
0.5
 62
   256
  6
BYLAYER
 49
-0.5
 62
   256
  6
BYLAYER
  0
ENDSEC
   0
EOF
