   0
SECTION
   2
HEADER
   9
$ACADVER
   1
AC1014
   9
$LIMMIN
  10
0.0
  20
0.0
   9
$LIMMAX
  10
 630.00000000000
  20
 446.00000000000
   9
$EXTMIN
  10
0.0
  20
0.0
  30
0.0
   9
$EXTMAX
  10
 630.00000000000
  20
 446.00000000000
  30
0.0
   9
$LTSCALE
  40
 12.600000000000
   9
$HANDSEED
   5
287
   0
ENDSEC
   0
SECTION
   2
TABLES
  0
TABLE
  2
VPORT
  5
8
100
AcDbSymbolTable
 70
     1
  0
VPORT
  5
286
100
AcDbSymbolTableRecord
100
AcDbViewportTableRecord
  2
*ACTIVE
 70
     0
 10
0.0
 20
0.0
 11
1.0
 21
1.0
  12
 315.00000000000
  22
 223.00000000000
 13
0.0
 23
0.0
 14
1.0
 24
1.0
 15
0.0
 25
0.0
 16
0.0
 26
0.0
 36
1.0
 17
0.0
 27
0.0
 37
0.0
  40
 630.00000000000
  41
 1.4787878787879
 42
50.0
 43
0.0
 44
0.0
 50
0.0
 51
0.0
 71
     0
 72
   100
 73
     1
 74
     1
 75
     0
 76
     0
 77
     0
 78
     0
  0
ENDTAB
  0
TABLE
  2
LTYPE
  5
5
100
AcDbSymbolTable
 70
    25
  0
LTYPE
  5
12
100
AcDbSymbolTableRecord
100
AcDbLinetypeTableRecord
  2
BYBLOCK
 70
     0
  3

 72
    65
 73
     0
 40
0.0
  0
LTYPE
  5
13
100
AcDbSymbolTableRecord
100
AcDbLinetypeTableRecord
  2
BYLAYER
 70
     0
  3

 72
    65
 73
     0
 40
0.0
  0
LTYPE
  5
14
100
AcDbSymbolTableRecord
100
AcDbLinetypeTableRecord
  2
CONTINUOUS
 70
     0
  3
Solid line
 72
    65
 73
     0
 40
0.0
  0
LTYPE
  5
20
100
AcDbSymbolTableRecord
100
AcDbLinetypeTableRecord
  2
BORDER
 70
     0
  3
__ __ . __ __ . __ __ . __ __ . __ __ . __ __ .
 72
    65
 73
     6
 40
1.75
 49
0.5
 74
     0
 49
-0.25
 74
     0
 49
0.5
 74
     0
 49
-0.25
 74
     0
 49
0.0
 74
     0
 49
-0.25
 74
     0
  0
LTYPE
  5
21
100
AcDbSymbolTableRecord
100
AcDbLinetypeTableRecord
  2
BORDER2
 70
     0
  3
__.__.__.__.__.__.__.__.__.__.__.__.__.__.__.__
 72
    65
 73
     6
 40
0.875
 49
0.25
 74
     0
 49
-0.125
 74
     0
 49
0.25
 74
     0
 49
-0.125
 74
     0
 49
0.0
 74
     0
 49
-0.125
 74
     0
  0
LTYPE
  5
22
100
AcDbSymbolTableRecord
100
AcDbLinetypeTableRecord
  2
BORDERX2
 70
     0
  3
____  ____  .  ____  ____  .  ____  ____  .  __
 72
    65
 73
     6
 40
3.5
 49
1.0
 74
     0
 49
-0.5
 74
     0
 49
1.0
 74
     0
 49
-0.5
 74
     0
 49
0.0
 74
     0
 49
-0.5
 74
     0
  0
LTYPE
  5
23
100
AcDbSymbolTableRecord
100
AcDbLinetypeTableRecord
  2
CENTER
 70
     0
  3
____ _ ____ _ ____ _ ____ _ ____ _ ____ _ ____ 
 72
    65
 73
     4
 40
2.0
 49
1.25
 74
     0
 49
-0.25
 74
     0
 49
0.25
 74
     0
 49
-0.25
 74
     0
  0
LTYPE
  5
24
100
AcDbSymbolTableRecord
100
AcDbLinetypeTableRecord
  2
CENTER2
 70
     0
  3
___ _ ___ _ ___ _ ___ _ ___ _ ___ _ ___ _ ___ _
 72
    65
 73
     4
 40
1.125
 49
0.75
 74
     0
 49
-0.125
 74
     0
 49
0.125
 74
     0
 49
-0.125
 74
     0
  0
LTYPE
  5
25
100
AcDbSymbolTableRecord
100
AcDbLinetypeTableRecord
  2
CENTERX2
 70
     0
  3
________  __  ________  __  ________  __  _____
 72
    65
 73
     4
 40
4.0
 49
2.5
 74
     0
 49
-0.5
 74
     0
 49
0.5
 74
     0
 49
-0.5
 74
     0
  0
LTYPE
  5
26
100
AcDbSymbolTableRecord
100
AcDbLinetypeTableRecord
  2
DASHDOT
 70
     0
  3
__ . __ . __ . __ . __ . __ . __ . __ . __ . __
 72
    65
 73
     4
 40
1.0
 49
0.5
 74
     0
 49
-0.25
 74
     0
 49
0.0
 74
     0
 49
-0.25
 74
     0
  0
LTYPE
  5
27
100
AcDbSymbolTableRecord
100
AcDbLinetypeTableRecord
  2
DASHDOT2
 70
     0
  3
_._._._._._._._._._._._._._._._._._._._._._._._
 72
    65
 73
     4
 40
0.5
 49
0.25
 74
     0
 49
-0.125
 74
     0
 49
0.0
 74
     0
 49
-0.125
 74
     0
  0
LTYPE
  5
28
100
AcDbSymbolTableRecord
100
AcDbLinetypeTableRecord
  2
DASHDOTX2
 70
     0
  3
____  .  ____  .  ____  .  ____  .  ____  .  __
 72
    65
 73
     4
 40
2.0
 49
1.0
 74
     0
 49
-0.5
 74
     0
 49
0.0
 74
     0
 49
-0.5
 74
     0
  0
LTYPE
  5
29
100
AcDbSymbolTableRecord
100
AcDbLinetypeTableRecord
  2
DASHED
 70
     0
  3
__ __ __ __ __ __ __ __ __ __ __ __ __ __ __ __
 72
    65
 73
     2
 40
0.75
 49
0.5
 74
     0
 49
-0.25
 74
     0
  0
LTYPE
  5
2A
100
AcDbSymbolTableRecord
100
AcDbLinetypeTableRecord
  2
DASHED2
 70
     0
  3
_ _ _ _ _ _ _ _ _ _ _ _ _ _ _ _ _ _ _ _ _ _ _ _
 72
    65
 73
     2
 40
0.375
 49
0.25
 74
     0
 49
-0.125
 74
     0
  0
LTYPE
  5
2B
100
AcDbSymbolTableRecord
100
AcDbLinetypeTableRecord
  2
DASHEDX2
 70
     0
  3
____  ____  ____  ____  ____  ____  ____  ____ 
 72
    65
 73
     2
 40
1.5
 49
1.0
 74
     0
 49
-0.5
 74
     0
  0
LTYPE
  5
2C
100
AcDbSymbolTableRecord
100
AcDbLinetypeTableRecord
  2
DIVIDE
 70
     0
  3
____ . . ____ . . ____ . . ____ . . ____ . . __
 72
    65
 73
     6
 40
1.25
 49
0.5
 74
     0
 49
-0.25
 74
     0
 49
0.0
 74
     0
 49
-0.25
 74
     0
 49
0.0
 74
     0
 49
-0.25
 74
     0
  0
LTYPE
  5
2D
100
AcDbSymbolTableRecord
100
AcDbLinetypeTableRecord
  2
DIVIDE2
 70
     0
  3
__..__..__..__..__..__..__..__..__..__..__..__.
 72
    65
 73
     6
 40
0.625
 49
0.25
 74
     0
 49
-0.125
 74
     0
 49
0.0
 74
     0
 49
-0.125
 74
     0
 49
0.0
 74
     0
 49
-0.125
 74
     0
  0
LTYPE
  5
2E
100
AcDbSymbolTableRecord
100
AcDbLinetypeTableRecord
  2
DIVIDEX2
 70
     0
  3
________  .  .  ________  .  .  ________  .  . 
 72
    65
 73
     6
 40
2.5
 49
1.0
 74
     0
 49
-0.5
 74
     0
 49
0.0
 74
     0
 49
-0.5
 74
     0
 49
0.0
 74
     0
 49
-0.5
 74
     0
  0
LTYPE
  5
2F
100
AcDbSymbolTableRecord
100
AcDbLinetypeTableRecord
  2
DOT
 70
     0
  3
. . . . . . . . . . . . . . . . . . . . . . . .
 72
    65
 73
     2
 40
0.25
 49
0.0
 74
     0
 49
-0.25
 74
     0
  0
LTYPE
  5
30
100
AcDbSymbolTableRecord
100
AcDbLinetypeTableRecord
  2
DOT2
 70
     0
  3
...............................................
 72
    65
 73
     2
 40
0.125
 49
0.0
 74
     0
 49
-0.125
 74
     0
  0
LTYPE
  5
31
100
AcDbSymbolTableRecord
100
AcDbLinetypeTableRecord
  2
DOTX2
 70
     0
  3
.  .  .  .  .  .  .  .  .  .  .  .  .  .  .  . 
 72
    65
 73
     2
 40
0.5
 49
0.0
 74
     0
 49
-0.5
 74
     0
  0
LTYPE
  5
32
100
AcDbSymbolTableRecord
100
AcDbLinetypeTableRecord
  2
HIDDEN
 70
     0
  3
__ __ __ __ __ __ __ __ __ __ __ __ __ __ __ __
 72
    65
 73
     2
 40
0.375
 49
0.25
 74
     0
 49
-0.125
 74
     0
  0
LTYPE
  5
33
100
AcDbSymbolTableRecord
100
AcDbLinetypeTableRecord
  2
HIDDEN2
 70
     0
  3
_ _ _ _ _ _ _ _ _ _ _ _ _ _ _ _ _ _ _ _ _ _ _ _
 72
    65
 73
     2
 40
0.1875
 49
0.125
 74
     0
 49
-0.0625
 74
     0
  0
LTYPE
  5
34
100
AcDbSymbolTableRecord
100
AcDbLinetypeTableRecord
  2
HIDDENX2
 70
     0
  3
____ ____ ____ ____ ____ ____ ____ ____ ____ __
 72
    65
 73
     2
 40
0.75
 49
0.5
 74
     0
 49
-0.25
 74
     0
  0
LTYPE
  5
35
100
AcDbSymbolTableRecord
100
AcDbLinetypeTableRecord
  2
PHANTOM
 70
     0
  3
______  __  __  ______  __  __  ______  __  __ 
 72
    65
 73
     6
 40
2.5
 49
1.25
 74
     0
 49
-0.25
 74
     0
 49
0.25
 74
     0
 49
-0.25
 74
     0
 49
0.25
 74
     0
 49
-0.25
 74
     0
  0
LTYPE
  5
36
100
AcDbSymbolTableRecord
100
AcDbLinetypeTableRecord
  2
PHANTOM2
 70
     0
  3
___ _ _ ___ _ _ ___ _ _ ___ _ _ ___ _ _ ___ _ _
 72
    65
 73
     6
 40
1.25
 49
0.625
 74
     0
 49
-0.125
 74
     0
 49
0.125
 74
     0
 49
-0.125
 74
     0
 49
0.125
 74
     0
 49
-0.125
 74
     0
  0
LTYPE
  5
37
100
AcDbSymbolTableRecord
100
AcDbLinetypeTableRecord
  2
PHANTOMX2
 70
     0
  3
____________    ____    ____    ____________   
 72
    65
 73
     6
 40
5.0
 49
2.5
 74
     0
 49
-0.5
 74
     0
 49
0.5
 74
     0
 49
-0.5
 74
     0
 49
0.5
 74
     0
 49
-0.5
 74
     0
  0
ENDTAB
   0
TABLE
   2
LAYER
   5
2
 100
AcDbSymbolTable
  70
6
   0
LAYER
   5
E
 100
AcDbSymbolTableRecord
 100
AcDbLayerTableRecord
   2
0
  70
0
  62
7
   6
CONTINUOUS
   0
LAYER
   5
39
 100
AcDbSymbolTableRecord
 100
AcDbLayerTableRecord
   2
LEVEL001
  70
0
  62
7
   6
CONTINUOUS
   0
LAYER
   5
3A
 100
AcDbSymbolTableRecord
 100
AcDbLayerTableRecord
   2
LEVEL003
  70
0
  62
7
   6
CONTINUOUS
   0
LAYER
   5
3B
 100
AcDbSymbolTableRecord
 100
AcDbLayerTableRecord
   2
LEVEL020
  70
0
  62
7
   6
CONTINUOUS
   0
LAYER
   5
3C
 100
AcDbSymbolTableRecord
 100
AcDbLayerTableRecord
   2
LEVEL050
  70
0
  62
7
   6
CONTINUOUS
   0
LAYER
   5
3D
 100
AcDbSymbolTableRecord
 100
AcDbLayerTableRecord
   2
LEVEL110
  70
0
  62
7
   6
CONTINUOUS
   0
ENDTAB
  0
TABLE
  2
STYLE
  5
3
100
AcDbSymbolTable
  70
4
  0
STYLE
  5
F
100
AcDbSymbolTableRecord
100
AcDbTextStyleTableRecord
  2
STANDARD
 70
     0
 40
0.0
 41
1.0
 50
0.0
 71
     0
 42
0.2
  3
TXT
  4
BIGFONT
  0
STYLE
  5
38
100
AcDbSymbolTableRecord
100
AcDbTextStyleTableRecord
  2
STANDARD1
 70
     4
 40
0.0
 41
1.0
 50
0.0
 71
     0
 42
0.2
  3
TXT
  4
BIGFONT
   0
STYLE
   5
3E
 100
AcDbSymbolTableRecord
 100
AcDbTextStyleTableRecord
   2
GMM001
  70
0
  40
0.0
  41
 0.50000000000000
  50
0.0
  71
     0
  42
1.0
   3
txt.shx
   4
bigfont.shx
   0
STYLE
   5
3F
 100
AcDbSymbolTableRecord
 100
AcDbTextStyleTableRecord
   2
GMM002
  70
0
  40
0.0
  41
 1.0000000000000
  50
0.0
  71
     0
  42
1.0
   3
txt.shx
   4
bigfont.shx
   0
ENDTAB
  0
TABLE
  2
VIEW
  5
6
100
AcDbSymbolTable
 70
     0
  0
ENDTAB
  0
TABLE
  2
UCS
  5
7
100
AcDbSymbolTable
 70
     0
  0
ENDTAB
  0
TABLE
  2
APPID
  5
9
100
AcDbSymbolTable
 70
     1
  0
APPID
  5
10
100
AcDbSymbolTableRecord
100
AcDbRegAppTableRecord
  2
ACAD
 70
     0
  0
ENDTAB
   0
TABLE
   2
DIMSTYLE
   5
A
 100
AcDbSymbolTable
  70
13
  0
DIMSTYLE
105
1D
100
AcDbSymbolTableRecord
100
AcDbDimStyleTableRecord
  2
STANDARD
 70
     0
  3

  4

  5

  6

  7

 40
1.0
 41
0.18
 42
0.0625
 43
0.38
 44
0.18
 45
0.0
 46
0.0
 47
0.0
 48
0.0
140
0.18
141
0.09
142
0.0
143
25.4
144
1.0
145
0.0
146
1.0
147
0.09
 71
     0
 72
     0
 73
     1
 74
     1
 75
     0
 76
     0
 77
     0
 78
     0
170
     0
171
     2
172
     0
173
     0
174
     0
175
     0
176
     0
177
     0
178
     0
270
     2
271
     4
272
     4
273
     2
274
     2
340
F
275
     0
280
     0
281
     0
282
     0
283
     1
284
     0
285
     0
286
     0
287
     3
288
     0
   0
DIMSTYLE
 105
40
 100
AcDbSymbolTableRecord
 100
AcDbDimStyleTableRecord
   2
GMM001
  70
0
   3

   4

   5

   6
_DOT
   7
_DOT
  40
 1.0000000000000
  41
 1.2000000000000
  42
 1.5000000000000
  43
 0.10000000000000E-5
  44
 3.0000000000000
  45
0.0
  46
0.0
  47
0.0
  48
0.0
 140
 7.2000002861023
 141
 1.5000000000000
 142
0.0
 143
 0.39400000000000E-1
 144
 1.0000000000000
 145
0.0
 146
 0.62500000000000
 147
0.0
  71
0
  72
0
  73
0
  74
0
  75
0
  76
0
  77
0
  78
0
 170
0
 171
2
 172
1
 173
1
 174
0
 175
0
 176
3
 177
3
 178
7
 270
2
 271
0
 272
0
 273
2
 274
2
 340
F
 275
1
 280
0
 281
0
 282
0
 283
1
 284
0
 285
0
 286
0
 287
3
 288
1
   0
DIMSTYLE
 105
41
 100
AcDbSymbolTableRecord
 100
AcDbDimStyleTableRecord
   2
GMM002
  70
0
   3

   4

   5

   6
_OPEN
   7
_OPEN
  40
 1.0000000000000
  41
 4.5000000000000
  42
 1.5000000000000
  43
 0.10000000000000E-5
  44
 3.0000000000000
  45
0.0
  46
0.0
  47
0.0
  48
0.0
 140
 7.2000002861023
 141
 1.5000000000000
 142
0.0
 143
 0.39400000000000E-1
 144
 1.0000000000000
 145
0.0
 146
 0.62500000000000
 147
0.0
  71
0
  72
0
  73
0
  74
0
  75
0
  76
0
  77
1
  78
0
 170
0
 171
2
 172
1
 173
1
 174
0
 175
0
 176
3
 177
3
 178
7
 270
2
 271
0
 272
0
 273
2
 274
2
 340
F
 275
1
 280
0
 281
0
 282
0
 283
1
 284
0
 285
0
 286
0
 287
3
 288
1
   0
DIMSTYLE
 105
42
 100
AcDbSymbolTableRecord
 100
AcDbDimStyleTableRecord
   2
GMM003
  70
0
   3

   4

   5

   6
_OPEN
   7
_OPEN
  40
 1.0000000000000
  41
 4.5000000000000
  42
 1.5000000000000
  43
 0.10000000000000E-5
  44
 3.0000000000000
  45
0.0
  46
0.0
  47
0.0
  48
0.0
 140
 6.0000000000000
 141
 1.5000000000000
 142
0.0
 143
 0.39400000000000E-1
 144
 1.0000000000000
 145
0.0
 146
 0.62500000000000
 147
0.0
  71
0
  72
0
  73
0
  74
0
  75
0
  76
0
  77
0
  78
0
 170
0
 171
2
 172
1
 173
1
 174
0
 175
0
 176
3
 177
3
 178
7
 270
2
 271
0
 272
0
 273
2
 274
2
 340
F
 275
1
 280
0
 281
0
 282
0
 283
1
 284
0
 285
0
 286
0
 287
3
 288
1
   0
DIMSTYLE
 105
43
 100
AcDbSymbolTableRecord
 100
AcDbDimStyleTableRecord
   2
GMM004
  70
0
   3

   4

   5

   6
_OPEN
   7
_OPEN
  40
 1.0000000000000
  41
 4.5000000000000
  42
 1.5000000000000
  43
 0.10000000000000E-5
  44
 3.0000000000000
  45
0.0
  46
0.0
  47
0.0
  48
0.0
 140
 6.0000000000000
 141
 1.5000000000000
 142
0.0
 143
 0.39400000000000E-1
 144
 1.0000000000000
 145
0.0
 146
 0.62500000000000
 147
 1.2000045776367
  71
0
  72
0
  73
0
  74
0
  75
0
  76
0
  77
3
  78
0
 170
0
 171
2
 172
1
 173
1
 174
0
 175
0
 176
3
 177
3
 178
3
 270
2
 271
0
 272
0
 273
2
 274
2
 340
3F
 275
1
 280
0
 281
0
 282
0
 283
1
 284
0
 285
0
 286
0
 287
3
 288
1
   0
DIMSTYLE
 105
44
 100
AcDbSymbolTableRecord
 100
AcDbDimStyleTableRecord
   2
GMM005
  70
0
   3

   4

   5

   6
_OPEN
   7
_OPEN
  40
 1.0000000000000
  41
 4.5000000000000
  42
 1.5000000000000
  43
 0.10000000000000E-5
  44
 3.0000000000000
  45
0.0
  46
0.0
  47
0.0
  48
0.0
 140
 6.0000000000000
 141
 1.5000000000000
 142
0.0
 143
 0.39400000000000E-1
 144
 1.0000000000000
 145
0.0
 146
 0.62500000000000
 147
 1.1999988555908
  71
0
  72
0
  73
0
  74
0
  75
0
  76
0
  77
3
  78
0
 170
0
 171
2
 172
1
 173
1
 174
0
 175
0
 176
3
 177
3
 178
3
 270
2
 271
0
 272
0
 273
2
 274
2
 340
3F
 275
1
 280
0
 281
0
 282
0
 283
1
 284
0
 285
0
 286
0
 287
3
 288
1
   0
DIMSTYLE
 105
45
 100
AcDbSymbolTableRecord
 100
AcDbDimStyleTableRecord
   2
GMM006
  70
0
   3

   4

   5

   6
_OPEN
   7
_OPEN
  40
 1.0000000000000
  41
 4.5000000000000
  42
 1.5000000000000
  43
 0.10000000000000E-5
  44
 3.0000000000000
  45
0.0
  46
0.0
  47
0.0
  48
0.0
 140
 6.0000000000000
 141
 1.5000000000000
 142
0.0
 143
 0.39400000000000E-1
 144
 1.0000000000000
 145
0.0
 146
 0.62500000000000
 147
 1.1999816894531
  71
0
  72
0
  73
0
  74
0
  75
0
  76
0
  77
3
  78
0
 170
0
 171
2
 172
1
 173
1
 174
0
 175
0
 176
3
 177
3
 178
3
 270
2
 271
0
 272
0
 273
2
 274
2
 340
3F
 275
1
 280
0
 281
0
 282
0
 283
1
 284
0
 285
0
 286
0
 287
3
 288
1
   0
DIMSTYLE
 105
46
 100
AcDbSymbolTableRecord
 100
AcDbDimStyleTableRecord
   2
GMM007
  70
0
   3

   4

   5

   6
_OPEN
   7
_OPEN
  40
 1.0000000000000
  41
 4.5000000000000
  42
 1.5000000000000
  43
 0.10000000000000E-5
  44
 3.0000000000000
  45
0.0
  46
0.0
  47
0.0
  48
0.0
 140
 7.2000002861023
 141
 1.5000000000000
 142
0.0
 143
 0.39400000000000E-1
 144
 1.0000000000000
 145
0.0
 146
 0.62500000000000
 147
 1.2000045776367
  71
0
  72
0
  73
0
  74
0
  75
0
  76
0
  77
3
  78
0
 170
0
 171
2
 172
1
 173
1
 174
0
 175
0
 176
3
 177
3
 178
3
 270
2
 271
0
 272
0
 273
2
 274
2
 340
3F
 275
1
 280
0
 281
0
 282
0
 283
1
 284
0
 285
0
 286
0
 287
3
 288
1
   0
DIMSTYLE
 105
47
 100
AcDbSymbolTableRecord
 100
AcDbDimStyleTableRecord
   2
GMM008
  70
0
   3

   4

   5

   6
_OPEN
   7
_OPEN
  40
 1.0000000000000
  41
 4.5000000000000
  42
 1.5000000000000
  43
 0.10000000000000E-5
  44
 3.0000000000000
  45
0.0
  46
0.0
  47
0.0
  48
0.0
 140
 6.0000000000000
 141
 1.5000000000000
 142
0.0
 143
 0.39400000000000E-1
 144
 1.0000000000000
 145
0.0
 146
 0.62500000000000
 147
 1.1999988555908
  71
0
  72
0
  73
0
  74
0
  75
0
  76
0
  77
3
  78
0
 170
0
 171
2
 172
1
 173
1
 174
0
 175
0
 176
3
 177
3
 178
3
 270
2
 271
0
 272
0
 273
2
 274
2
 340
3F
 275
1
 280
0
 281
0
 282
0
 283
1
 284
0
 285
0
 286
0
 287
3
 288
1
   0
DIMSTYLE
 105
48
 100
AcDbSymbolTableRecord
 100
AcDbDimStyleTableRecord
   2
GMM009
  70
0
   3

   4

   5

   6
_OPEN
   7
_OPEN
  40
 1.0000000000000
  41
 4.5000000000000
  42
 1.5000000000000
  43
 12.000000000000
  44
 3.0000000000000
  45
0.0
  46
0.0
  47
0.0
  48
0.0
 140
 6.0000000000000
 141
 1.5000000000000
 142
0.0
 143
 0.39400000000000E-1
 144
 1.0000000000000
 145
0.0
 146
 0.62500000000000
 147
 1.2000000000000
  71
0
  72
0
  73
0
  74
0
  75
0
  76
0
  77
3
  78
8
 170
0
 171
2
 172
1
 173
1
 174
0
 175
0
 176
3
 177
3
 178
3
 270
2
 271
2
 272
0
 273
2
 274
2
 340
3F
 275
0
 280
0
 281
0
 282
0
 283
1
 284
0
 285
0
 286
0
 287
3
 288
0
   0
DIMSTYLE
 105
49
 100
AcDbSymbolTableRecord
 100
AcDbDimStyleTableRecord
   2
GMM010
  70
0
   3

   4

   5

   6
_OPEN
   7
_OPEN
  40
 1.0000000000000
  41
 4.5000000000000
  42
 1.5000000000000
  43
 12.000000000000
  44
 3.0000000000000
  45
0.0
  46
0.0
  47
0.0
  48
0.0
 140
 6.0000000000000
 141
 1.5000000000000
 142
0.0
 143
 0.39400000000000E-1
 144
 1.0000000000000
 145
0.0
 146
 0.62500000000000
 147
 1.2000000000000
  71
0
  72
0
  73
0
  74
0
  75
1
  76
1
  77
3
  78
8
 170
0
 171
2
 172
1
 173
1
 174
0
 175
0
 176
3
 177
3
 178
3
 270
2
 271
2
 272
0
 273
2
 274
2
 340
3F
 275
0
 280
0
 281
0
 282
0
 283
1
 284
0
 285
0
 286
0
 287
3
 288
0
   0
DIMSTYLE
 105
4A
 100
AcDbSymbolTableRecord
 100
AcDbDimStyleTableRecord
   2
GMM011
  70
0
   3

   4

   5

   6
_OPEN
   7
_OPEN
  40
 1.0000000000000
  41
 4.5000000000000
  42
 1.5000000000000
  43
 12.000000000000
  44
 3.0000000000000
  45
0.0
  46
0.0
  47
0.0
  48
0.0
 140
 6.0000000000000
 141
 1.5000000000000
 142
0.0
 143
 0.39400000000000E-1
 144
 1.0000000000000
 145
0.0
 146
 0.62500000000000
 147
0.0
  71
0
  72
0
  73
0
  74
0
  75
0
  76
0
  77
1
  78
8
 170
0
 171
2
 172
1
 173
1
 174
0
 175
0
 176
3
 177
3
 178
7
 270
2
 271
2
 272
0
 273
2
 274
2
 340
F
 275
0
 280
0
 281
0
 282
0
 283
1
 284
0
 285
0
 286
0
 287
3
 288
1
   0
ENDTAB
  0
TABLE
  2
BLOCK_RECORD
  5
1
100
AcDbSymbolTable
 70
     0
  0
BLOCK_RECORD
  5
18
100
AcDbSymbolTableRecord
100
AcDbBlockTableRecord
  2
*MODEL_SPACE
  0
BLOCK_RECORD
  5
15
100
AcDbSymbolTableRecord
100
AcDbBlockTableRecord
  2
*PAPER_SPACE
   0
BLOCK_RECORD
   5
4B
 100
AcDbSymbolTableRecord
 100
AcDbBlockTableRecord
   2
*D6
   0
BLOCK_RECORD
   5
4C
 100
AcDbSymbolTableRecord
 100
AcDbBlockTableRecord
   2
*D7
   0
BLOCK_RECORD
   5
4D
 100
AcDbSymbolTableRecord
 100
AcDbBlockTableRecord
   2
*D8
   0
BLOCK_RECORD
   5
4E
 100
AcDbSymbolTableRecord
 100
AcDbBlockTableRecord
   2
*D9
   0
BLOCK_RECORD
   5
4F
 100
AcDbSymbolTableRecord
 100
AcDbBlockTableRecord
   2
*D10
   0
BLOCK_RECORD
   5
50
 100
AcDbSymbolTableRecord
 100
AcDbBlockTableRecord
   2
*D11
   0
BLOCK_RECORD
   5
51
 100
AcDbSymbolTableRecord
 100
AcDbBlockTableRecord
   2
*D12
   0
BLOCK_RECORD
   5
52
 100
AcDbSymbolTableRecord
 100
AcDbBlockTableRecord
   2
*D13
   0
BLOCK_RECORD
   5
53
 100
AcDbSymbolTableRecord
 100
AcDbBlockTableRecord
   2
*D14
   0
BLOCK_RECORD
   5
54
 100
AcDbSymbolTableRecord
 100
AcDbBlockTableRecord
   2
*D15
   0
BLOCK_RECORD
   5
55
 100
AcDbSymbolTableRecord
 100
AcDbBlockTableRecord
   2
*D16
   0
BLOCK_RECORD
   5
56
 100
AcDbSymbolTableRecord
 100
AcDbBlockTableRecord
   2
*D17
   0
BLOCK_RECORD
   5
57
 100
AcDbSymbolTableRecord
 100
AcDbBlockTableRecord
   2
*D18
   0
BLOCK_RECORD
   5
58
 100
AcDbSymbolTableRecord
 100
AcDbBlockTableRecord
   2
*D19
   0
BLOCK_RECORD
   5
59
 100
AcDbSymbolTableRecord
 100
AcDbBlockTableRecord
   2
*D20
   0
BLOCK_RECORD
   5
5A
 100
AcDbSymbolTableRecord
 100
AcDbBlockTableRecord
   2
_ARCHTICK
   0
BLOCK_RECORD
   5
5B
 100
AcDbSymbolTableRecord
 100
AcDbBlockTableRecord
   2
_BOXBLANK
   0
BLOCK_RECORD
   5
5C
 100
AcDbSymbolTableRecord
 100
AcDbBlockTableRecord
   2
_BOXFILLED
   0
BLOCK_RECORD
   5
5D
 100
AcDbSymbolTableRecord
 100
AcDbBlockTableRecord
   2
_CLOSED
   0
BLOCK_RECORD
   5
5E
 100
AcDbSymbolTableRecord
 100
AcDbBlockTableRecord
   2
_CLOSEDBLANK
   0
BLOCK_RECORD
   5
5F
 100
AcDbSymbolTableRecord
 100
AcDbBlockTableRecord
   2
_DATUMBLANK
   0
BLOCK_RECORD
   5
60
 100
AcDbSymbolTableRecord
 100
AcDbBlockTableRecord
   2
_DATUMFILLED
   0
BLOCK_RECORD
   5
61
 100
AcDbSymbolTableRecord
 100
AcDbBlockTableRecord
   2
_DOT
   0
BLOCK_RECORD
   5
62
 100
AcDbSymbolTableRecord
 100
AcDbBlockTableRecord
   2
_DOTBLANK
   0
BLOCK_RECORD
   5
63
 100
AcDbSymbolTableRecord
 100
AcDbBlockTableRecord
   2
_DOTSMALL
   0
BLOCK_RECORD
   5
64
 100
AcDbSymbolTableRecord
 100
AcDbBlockTableRecord
   2
_INTEGRAL
   0
BLOCK_RECORD
   5
65
 100
AcDbSymbolTableRecord
 100
AcDbBlockTableRecord
   2
_NONE
   0
BLOCK_RECORD
   5
66
 100
AcDbSymbolTableRecord
 100
AcDbBlockTableRecord
   2
_OBLIQUE
   0
BLOCK_RECORD
   5
67
 100
AcDbSymbolTableRecord
 100
AcDbBlockTableRecord
   2
_OPEN
   0
BLOCK_RECORD
   5
68
 100
AcDbSymbolTableRecord
 100
AcDbBlockTableRecord
   2
_OPEN30
   0
BLOCK_RECORD
   5
69
 100
AcDbSymbolTableRecord
 100
AcDbBlockTableRecord
   2
_OPEN90
   0
BLOCK_RECORD
   5
6A
 100
AcDbSymbolTableRecord
 100
AcDbBlockTableRecord
   2
_ORIGIN
   0
ENDTAB
   0
ENDSEC
  0
SECTION
  2
BLOCKS
  0
BLOCK
  5
19
100
AcDbEntity
  8
0
100
AcDbBlockBegin
  2
*MODEL_SPACE
 70
     0
 10
0.0
 20
0.0
 30
0.0
  3
*MODEL_SPACE
  1

  0
ENDBLK
  5
1A
100
AcDbEntity
  8
0
100
AcDbBlockEnd
  0
BLOCK
  5
16
100
AcDbEntity
 67
     1
  8
0
100
AcDbBlockBegin
  2
*PAPER_SPACE
 70
     0
 10
0.0
 20
0.0
 30
0.0
  3
*PAPER_SPACE
  1

  0
ENDBLK
  5
17
100
AcDbEntity
 67
     1
  8
0
100
AcDbBlockEnd
   0
BLOCK
   5
6B
 100
AcDbEntity
   8
0
 100
AcDbBlockBegin
   2
_ARCHTICK
  70
0
  10
0.0
  20
0.0
  30
0.0
   3
_ARCHTICK
   0
POLYLINE
   5
6C
 100
AcDbEntity
   8
0
   6
BYBLOCK
  62
0
 100
AcDb2dPolyline
  66
1
  10
0.0
  20
0.0
  30
0.0
  70
1
  40
 0.15000000000000
  41
 0.15000000000000
   0
VERTEX
   5
6D
 100
AcDbEntity
   8
0
   6
BYBLOCK
  62
0
 100
AcDbVertex
 100
AcDb2dVertex
  10
-0.50000000000000
  20
-0.50000000000000
  30
0.0
  40
 0.15000000000000
  41
 0.15000000000000
   0
VERTEX
   5
6E
 100
AcDbEntity
   8
0
   6
BYBLOCK
  62
0
 100
AcDbVertex
 100
AcDb2dVertex
  10
 0.50000000000000
  20
 0.50000000000000
  30
0.0
  40
 0.15000000000000
  41
 0.15000000000000
   0
SEQEND
   5
6F
 100
AcDbEntity
   8
0
   6
BYBLOCK
  62
0
   0
ENDBLK
   5
70
 100
AcDbEntity
   8
0
 100
AcDbBlockEnd
   0
BLOCK
   5
71
 100
AcDbEntity
   8
0
 100
AcDbBlockBegin
   2
_OBLIQUE
  70
0
  10
0.0
  20
0.0
  30
0.0
   3
_OBLIQUE
   0
LINE
   5
72
 100
AcDbEntity
   8
0
 100
AcDbLine
   6
BYBLOCK
  62
0
  10
-0.50000000000000
  20
-0.50000000000000
  30
0.0
  11
 0.50000000000000
  21
 0.50000000000000
  31
0.0
   0
ENDBLK
   5
73
 100
AcDbEntity
   8
0
 100
AcDbBlockEnd
   0
BLOCK
   5
74
 100
AcDbEntity
   8
0
 100
AcDbBlockBegin
   2
_BOXBLANK
  70
0
  10
0.0
  20
0.0
  30
0.0
   3
_BOXBLANK
   0
LINE
   5
75
 100
AcDbEntity
   8
0
 100
AcDbLine
   6
BYBLOCK
  62
0
  10
-0.50000000000000
  20
-0.50000000000000
  30
0.0
  11
 0.50000000000000
  21
-0.50000000000000
  31
0.0
   0
LINE
   5
76
 100
AcDbEntity
   8
0
 100
AcDbLine
   6
BYBLOCK
  62
0
  10
 0.50000000000000
  20
-0.50000000000000
  30
0.0
  11
 0.50000000000000
  21
 0.50000000000000
  31
0.0
   0
LINE
   5
77
 100
AcDbEntity
   8
0
 100
AcDbLine
   6
BYBLOCK
  62
0
  10
 0.50000000000000
  20
 0.50000000000000
  30
0.0
  11
-0.50000000000000
  21
 0.50000000000000
  31
0.0
   0
LINE
   5
78
 100
AcDbEntity
   8
0
 100
AcDbLine
   6
BYBLOCK
  62
0
  10
-0.50000000000000
  20
 0.50000000000000
  30
0.0
  11
-0.50000000000000
  21
-0.50000000000000
  31
0.0
   0
LINE
   5
79
 100
AcDbEntity
   8
0
 100
AcDbLine
   6
BYBLOCK
  62
0
  10
-0.50000000000000
  20
0.0
  30
0.0
  11
-1.0000000000000
  21
0.0
  31
0.0
   0
ENDBLK
   5
7A
 100
AcDbEntity
   8
0
 100
AcDbBlockEnd
   0
BLOCK
   5
7B
 100
AcDbEntity
   8
0
 100
AcDbBlockBegin
   2
_BOXFILLED
  70
0
  10
0.0
  20
0.0
  30
0.0
   3
_BOXFILLED
   0
SOLID
   5
7C
 100
AcDbEntity
   8
0
 100
AcDbTrace
   6
BYBLOCK
  62
0
  10
-0.50000000000000
  20
 0.50000000000000
  30
0.0
  11
 0.50000000000000
  21
 0.50000000000000
  31
0.0
  12
-0.50000000000000
  22
-0.50000000000000
  32
0.0
  13
 0.50000000000000
  23
-0.50000000000000
  33
0.0
   0
LINE
   5
7D
 100
AcDbEntity
   8
0
 100
AcDbLine
   6
BYBLOCK
  62
0
  10
-0.50000000000000
  20
0.0
  30
0.0
  11
-1.0000000000000
  21
0.0
  31
0.0
   0
ENDBLK
   5
7E
 100
AcDbEntity
   8
0
 100
AcDbBlockEnd
   0
BLOCK
   5
7F
 100
AcDbEntity
   8
0
 100
AcDbBlockBegin
   2
_CLOSED
  70
0
  10
0.0
  20
0.0
  30
0.0
   3
_CLOSED
   0
LINE
   5
80
 100
AcDbEntity
   8
0
 100
AcDbLine
   6
BYBLOCK
  62
0
  10
-1.0000000000000
  20
 0.16666666666667
  30
0.0
  11
0.0
  21
0.0
  31
0.0
   0
LINE
   5
81
 100
AcDbEntity
   8
0
 100
AcDbLine
   6
BYBLOCK
  62
0
  10
0.0
  20
0.0
  30
0.0
  11
-1.0000000000000
  21
-0.16666666666667
  31
0.0
   0
LINE
   5
82
 100
AcDbEntity
   8
0
 100
AcDbLine
   6
BYBLOCK
  62
0
  10
-1.0000000000000
  20
 0.16666666666667
  30
0.0
  11
-1.0000000000000
  21
-0.16666666666667
  31
0.0
   0
LINE
   5
83
 100
AcDbEntity
   8
0
 100
AcDbLine
   6
BYBLOCK
  62
0
  10
0.0
  20
0.0
  30
0.0
  11
-1.0000000000000
  21
0.0
  31
0.0
   0
ENDBLK
   5
84
 100
AcDbEntity
   8
0
 100
AcDbBlockEnd
   0
BLOCK
   5
85
 100
AcDbEntity
   8
0
 100
AcDbBlockBegin
   2
_OPEN
  70
0
  10
0.0
  20
0.0
  30
0.0
   3
_OPEN
   0
LINE
   5
86
 100
AcDbEntity
   8
0
 100
AcDbLine
   6
BYBLOCK
  62
0
  10
-1.0000000000000
  20
 0.16666666666667
  30
0.0
  11
0.0
  21
0.0
  31
0.0
   0
LINE
   5
87
 100
AcDbEntity
   8
0
 100
AcDbLine
   6
BYBLOCK
  62
0
  10
0.0
  20
0.0
  30
0.0
  11
-1.0000000000000
  21
-0.16666666666667
  31
0.0
   0
LINE
   5
88
 100
AcDbEntity
   8
0
 100
AcDbLine
   6
BYBLOCK
  62
0
  10
0.0
  20
0.0
  30
0.0
  11
-1.0000000000000
  21
0.0
  31
0.0
   0
ENDBLK
   5
89
 100
AcDbEntity
   8
0
 100
AcDbBlockEnd
   0
BLOCK
   5
8A
 100
AcDbEntity
   8
0
 100
AcDbBlockBegin
   2
_OPEN30
  70
0
  10
0.0
  20
0.0
  30
0.0
   3
_OPEN30
   0
LINE
   5
8B
 100
AcDbEntity
   8
0
 100
AcDbLine
   6
BYBLOCK
  62
0
  10
-1.0000000000000
  20
 0.26794919243110
  30
0.0
  11
0.0
  21
0.0
  31
0.0
   0
LINE
   5
8C
 100
AcDbEntity
   8
0
 100
AcDbLine
   6
BYBLOCK
  62
0
  10
0.0
  20
0.0
  30
0.0
  11
-1.0000000000000
  21
-0.26794919243110
  31
0.0
   0
LINE
   5
8D
 100
AcDbEntity
   8
0
 100
AcDbLine
   6
BYBLOCK
  62
0
  10
0.0
  20
0.0
  30
0.0
  11
-1.0000000000000
  21
0.0
  31
0.0
   0
ENDBLK
   5
8E
 100
AcDbEntity
   8
0
 100
AcDbBlockEnd
   0
BLOCK
   5
8F
 100
AcDbEntity
   8
0
 100
AcDbBlockBegin
   2
_OPEN90
  70
0
  10
0.0
  20
0.0
  30
0.0
   3
_OPEN90
   0
LINE
   5
90
 100
AcDbEntity
   8
0
 100
AcDbLine
   6
BYBLOCK
  62
0
  10
-0.50000000000000
  20
 0.50000000000000
  30
0.0
  11
0.0
  21
0.0
  31
0.0
   0
LINE
   5
91
 100
AcDbEntity
   8
0
 100
AcDbLine
   6
BYBLOCK
  62
0
  10
0.0
  20
0.0
  30
0.0
  11
-0.50000000000000
  21
-0.50000000000000
  31
0.0
   0
LINE
   5
92
 100
AcDbEntity
   8
0
 100
AcDbLine
   6
BYBLOCK
  62
0
  10
0.0
  20
0.0
  30
0.0
  11
-1.0000000000000
  21
0.0
  31
0.0
   0
ENDBLK
   5
93
 100
AcDbEntity
   8
0
 100
AcDbBlockEnd
   0
BLOCK
   5
94
 100
AcDbEntity
   8
0
 100
AcDbBlockBegin
   2
_CLOSEDBLANK
  70
0
  10
0.0
  20
0.0
  30
0.0
   3
_CLOSEDBLANK
   0
LINE
   5
95
 100
AcDbEntity
   8
0
 100
AcDbLine
   6
BYBLOCK
  62
0
  10
-1.0000000000000
  20
 0.16666666666667
  30
0.0
  11
0.0
  21
0.0
  31
0.0
   0
LINE
   5
96
 100
AcDbEntity
   8
0
 100
AcDbLine
   6
BYBLOCK
  62
0
  10
0.0
  20
0.0
  30
0.0
  11
-1.0000000000000
  21
-0.16666666666667
  31
0.0
   0
LINE
   5
97
 100
AcDbEntity
   8
0
 100
AcDbLine
   6
BYBLOCK
  62
0
  10
-1.0000000000000
  20
 0.16666666666667
  30
0.0
  11
-1.0000000000000
  21
-0.16666666666667
  31
0.0
   0
ENDBLK
   5
98
 100
AcDbEntity
   8
0
 100
AcDbBlockEnd
   0
BLOCK
   5
99
 100
AcDbEntity
   8
0
 100
AcDbBlockBegin
   2
_DOT
  70
0
  10
0.0
  20
0.0
  30
0.0
   3
_DOT
   0
POLYLINE
   5
9A
 100
AcDbEntity
   8
0
   6
BYBLOCK
  62
0
 100
AcDb2dPolyline
  66
1
  10
0.0
  20
0.0
  30
0.0
  70
1
  40
 0.50000000000000
  41
 0.50000000000000
   0
VERTEX
   5
9B
 100
AcDbEntity
   8
0
   6
BYBLOCK
  62
0
 100
AcDbVertex
 100
AcDb2dVertex
  10
-0.25000000000000
  20
0.0
  30
0.0
  42
 1.0000000000000
  40
 0.50000000000000
  41
 0.50000000000000
   0
VERTEX
   5
9C
 100
AcDbEntity
   8
0
   6
BYBLOCK
  62
0
 100
AcDbVertex
 100
AcDb2dVertex
  10
 0.25000000000000
  20
0.0
  30
0.0
  42
 1.0000000000000
  40
 0.50000000000000
  41
 0.50000000000000
   0
SEQEND
   5
9D
 100
AcDbEntity
   8
0
   6
BYBLOCK
  62
0
   0
LINE
   5
9E
 100
AcDbEntity
   8
0
 100
AcDbLine
   6
BYBLOCK
  62
0
  10
-0.50000000000000
  20
0.0
  30
0.0
  11
-1.0000000000000
  21
0.0
  31
0.0
   0
ENDBLK
   5
9F
 100
AcDbEntity
   8
0
 100
AcDbBlockEnd
   0
BLOCK
   5
A0
 100
AcDbEntity
   8
0
 100
AcDbBlockBegin
   2
_DOTSMALL
  70
0
  10
0.0
  20
0.0
  30
0.0
   3
_DOTSMALL
   0
POLYLINE
   5
A1
 100
AcDbEntity
   8
0
   6
BYBLOCK
  62
0
 100
AcDb2dPolyline
  66
1
  10
0.0
  20
0.0
  30
0.0
  70
1
  40
 0.50000000000000
  41
 0.50000000000000
   0
VERTEX
   5
A2
 100
AcDbEntity
   8
0
   6
BYBLOCK
  62
0
 100
AcDbVertex
 100
AcDb2dVertex
  10
-0.62500000000000E-1
  20
0.0
  30
0.0
  42
 1.0000000000000
  40
 0.50000000000000
  41
 0.50000000000000
   0
VERTEX
   5
A3
 100
AcDbEntity
   8
0
   6
BYBLOCK
  62
0
 100
AcDbVertex
 100
AcDb2dVertex
  10
 0.62500000000000E-1
  20
0.0
  30
0.0
  42
 1.0000000000000
  40
 0.50000000000000
  41
 0.50000000000000
   0
SEQEND
   5
A4
 100
AcDbEntity
   8
0
   6
BYBLOCK
  62
0
   0
ENDBLK
   5
A5
 100
AcDbEntity
   8
0
 100
AcDbBlockEnd
   0
BLOCK
   5
A6
 100
AcDbEntity
   8
0
 100
AcDbBlockBegin
   2
_DATUMBLANK
  70
0
  10
0.0
  20
0.0
  30
0.0
   3
_DATUMBLANK
   0
LINE
   5
A7
 100
AcDbEntity
   8
0
 100
AcDbLine
   6
BYBLOCK
  62
0
  10
0.0
  20
 0.57735027000000
  30
0.0
  11
-1.0000000000000
  21
0.0
  31
0.0
   0
LINE
   5
A8
 100
AcDbEntity
   8
0
 100
AcDbLine
   6
BYBLOCK
  62
0
  10
-1.0000000000000
  20
0.0
  30
0.0
  11
0.0
  21
-0.57735027000000
  31
0.0
   0
LINE
   5
A9
 100
AcDbEntity
   8
0
 100
AcDbLine
   6
BYBLOCK
  62
0
  10
0.0
  20
-0.57735027000000
  30
0.0
  11
0.0
  21
 0.57735027000000
  31
0.0
   0
ENDBLK
   5
AA
 100
AcDbEntity
   8
0
 100
AcDbBlockEnd
   0
BLOCK
   5
AB
 100
AcDbEntity
   8
0
 100
AcDbBlockBegin
   2
_DATUMFILLED
  70
0
  10
0.0
  20
0.0
  30
0.0
   3
_DATUMFILLED
   0
SOLID
   5
AC
 100
AcDbEntity
   8
0
 100
AcDbTrace
   6
BYBLOCK
  62
0
  10
0.0
  20
 0.57735027000000
  30
0.0
  11
-1.0000000000000
  21
0.0
  31
0.0
  12
0.0
  22
-0.57735027000000
  32
0.0
  13
0.0
  23
-0.57735027000000
  33
0.0
   0
ENDBLK
   5
AD
 100
AcDbEntity
   8
0
 100
AcDbBlockEnd
   0
BLOCK
   5
AE
 100
AcDbEntity
   8
0
 100
AcDbBlockBegin
   2
_ORIGIN
  70
0
  10
0.0
  20
0.0
  30
0.0
   3
_ORIGIN
   0
CIRCLE
   5
AF
 100
AcDbEntity
   8
0
 100
AcDbCircle
   6
BYBLOCK
  62
0
  10
0.0
  20
0.0
  30
0.0
  40
 0.50000000000000
   0
LINE
   5
B0
 100
AcDbEntity
   8
0
 100
AcDbLine
   6
BYBLOCK
  62
0
  10
0.0
  20
0.0
  30
0.0
  11
-1.0000000000000
  21
0.0
  31
0.0
   0
ENDBLK
   5
B1
 100
AcDbEntity
   8
0
 100
AcDbBlockEnd
   0
BLOCK
   5
B2
 100
AcDbEntity
   8
0
 100
AcDbBlockBegin
   2
_NONE
  70
0
  10
0.0
  20
0.0
  30
0.0
   3
_NONE
   0
CIRCLE
   5
B3
 100
AcDbEntity
   8
0
 100
AcDbCircle
   6
BYBLOCK
  62
0
  10
0.0
  20
0.0
  30
0.0
  40
 0.25000000000000
   0
ENDBLK
   5
B4
 100
AcDbEntity
   8
0
 100
AcDbBlockEnd
   0
BLOCK
   5
B5
 100
AcDbEntity
   8
0
 100
AcDbBlockBegin
   2
_DOTBLANK
  70
0
  10
0.0
  20
0.0
  30
0.0
   3
_DOTBLANK
   0
CIRCLE
   5
B6
 100
AcDbEntity
   8
0
 100
AcDbCircle
   6
BYBLOCK
  62
0
  10
0.0
  20
0.0
  30
0.0
  40
 0.50000000000000
   0
LINE
   5
B7
 100
AcDbEntity
   8
0
 100
AcDbLine
   6
BYBLOCK
  62
0
  10
-0.50000000000000
  20
0.0
  30
0.0
  11
-1.0000000000000
  21
0.0
  31
0.0
   0
ENDBLK
   5
B8
 100
AcDbEntity
   8
0
 100
AcDbBlockEnd
   0
BLOCK
   5
B9
 100
AcDbEntity
   8
0
 100
AcDbBlockBegin
   2
_INTEGRAL
  70
0
  10
0.0
  20
0.0
  30
0.0
   3
_INTEGRAL
   0
ARC
   5
BA
 100
AcDbEntity
   8
0
   6
BYBLOCK
  62
0
 100
AcDbCircle
  10
 0.44488800000000
  20
-0.91335000000000E-1
  30
0.0
  40
 0.45416700000000
 100
AcDbArc
  50
 102.00000000000
  51
 168.00000000000
   0
ARC
   5
BB
 100
AcDbEntity
   8
0
   6
BYBLOCK
  62
0
 100
AcDbCircle
  10
-0.44488800000000
  20
 0.91335000000000E-1
  30
0.0
  40
 0.45416700000000
 100
AcDbArc
  50
 282.00000000000
  51
 348.00000000000
   0
ENDBLK
   5
BC
 100
AcDbEntity
   8
0
 100
AcDbBlockEnd
   0
BLOCK
   5
BD
 100
AcDbEntity
   8
0
 100
AcDbBlockBegin
   2
*D6
  70
65
  10
0.0
  20
0.0
  30
0.0
   3
*D6
   0
LINE
   5
BE
 100
AcDbEntity
   8
LEVEL003
 100
AcDbLine
   6
CONTINUOUS
  62
3
  10
 242.50000762939
  20
 310.00003051758
  30
0.0
  11
 242.50000762939
  21
 348.00000000000
  31
0.0
   0
LINE
   5
BF
 100
AcDbEntity
   8
LEVEL003
 100
AcDbLine
   6
CONTINUOUS
  62
3
  10
 132.49999237061
  20
 310.00003051758
  30
0.0
  11
 132.49999237061
  21
 348.00000000000
  31
0.0
   0
LINE
   5
C0
 100
AcDbEntity
   8
LEVEL003
 100
AcDbLine
   6
CONTINUOUS
  62
3
  10
 242.50000762939
  20
 345.00000000000
  30
0.0
  11
 198.26250329584
  21
 345.00000000000
  31
0.0
   0
LINE
   5
C1
 100
AcDbEntity
   8
LEVEL003
 100
AcDbLine
   6
CONTINUOUS
  62
3
  10
 132.49999237061
  20
 345.00000000000
  30
0.0
  11
 176.73750329584
  21
 345.00000000000
  31
0.0
   0
INSERT
   5
C2
 100
AcDbEntity
   8
LEVEL003
   6
CONTINUOUS
  62
3
 100
AcDbBlockReference
   2
_OPEN
  10
 242.50000762939
  20
 345.00000000000
  30
0.0
  41
 4.5000000000000
  42
 4.5000000000000
  43
 4.5000000000000
  50
0.0
   0
INSERT
   5
C3
 100
AcDbEntity
   8
LEVEL003
   6
CONTINUOUS
  62
3
 100
AcDbBlockReference
   2
_OPEN
  10
 132.49999237061
  20
 345.00000000000
  30
0.0
  41
 4.5000000000000
  42
 4.5000000000000
  43
 4.5000000000000
  50
 180.00000000000
   0
MTEXT
   5
C4
 100
AcDbEntity
   8
LEVEL003
  62
3
 100
AcDbMText
  10
 187.50000329584
  20
 346.20000457764
  30
0.0
  40
 6.0000000000000
  41
0.0
  71
8
  72
1
   1
\A1;%%c110
   7
GMM002
   0
ENDBLK
   5
C5
 100
AcDbEntity
   8
0
 100
AcDbBlockEnd
   0
BLOCK
   5
C6
 100
AcDbEntity
   8
0
 100
AcDbBlockBegin
   2
*D7
  70
65
  10
0.0
  20
0.0
  30
0.0
   3
*D7
   0
LINE
   5
C7
 100
AcDbEntity
   8
LEVEL003
 100
AcDbLine
   6
CONTINUOUS
  62
3
  10
 186.00000000000
  20
 234.50001525879
  30
0.0
  11
 57.000000000000
  21
 234.50001525879
  31
0.0
   0
LINE
   5
C8
 100
AcDbEntity
   8
LEVEL003
 100
AcDbLine
   6
CONTINUOUS
  62
3
  10
 89.000003814697
  20
 119.50000762939
  30
0.0
  11
 57.000000000000
  21
 119.50000762939
  31
0.0
   0
LINE
   5
C9
 100
AcDbEntity
   8
LEVEL003
 100
AcDbLine
   6
CONTINUOUS
  62
3
  10
 60.000000000000
  20
 234.50001525879
  30
0.0
  11
 60.000000000000
  21
 184.08750000000
  31
0.0
   0
LINE
   5
CA
 100
AcDbEntity
   8
LEVEL003
 100
AcDbLine
   6
CONTINUOUS
  62
3
  10
 60.000000000000
  20
 119.50000762939
  30
0.0
  11
 60.000000000000
  21
 169.91250000000
  31
0.0
   0
INSERT
   5
CB
 100
AcDbEntity
   8
LEVEL003
   6
CONTINUOUS
  62
3
 100
AcDbBlockReference
   2
_OPEN
  10
 60.000000000000
  20
 234.50001525879
  30
0.0
  41
 4.5000000000000
  42
 4.5000000000000
  43
 4.5000000000000
  50
 90.000000000000
   0
INSERT
   5
CC
 100
AcDbEntity
   8
LEVEL003
   6
CONTINUOUS
  62
3
 100
AcDbBlockReference
   2
_OPEN
  10
 60.000000000000
  20
 119.50000762939
  30
0.0
  41
 4.5000000000000
  42
 4.5000000000000
  43
 4.5000000000000
  50
 270.00000000000
   0
MTEXT
   5
CD
 100
AcDbEntity
   8
LEVEL003
  62
3
 100
AcDbMText
  10
 58.800001144409
  20
 177.00000000000
  30
0.0
  40
 6.0000000000000
  41
0.0
  71
8
  72
1
   1
\A1;115
   7
GMM002
  11
0.0
  21
 1.0000000000000
  31
0.0
   0
ENDBLK
   5
CE
 100
AcDbEntity
   8
0
 100
AcDbBlockEnd
   0
BLOCK
   5
CF
 100
AcDbEntity
   8
0
 100
AcDbBlockBegin
   2
*D8
  70
65
  10
0.0
  20
0.0
  30
0.0
   3
*D8
   0
LINE
   5
D0
 100
AcDbEntity
   8
LEVEL003
 100
AcDbLine
   6
CONTINUOUS
  62
3
  10
 243.00000000000
  20
 309.50001525879
  30
0.0
  11
 423.00000000000
  21
 309.50001525879
  31
0.0
   0
LINE
   5
D1
 100
AcDbEntity
   8
LEVEL003
 100
AcDbLine
   6
CONTINUOUS
  62
3
  10
 286.00000762939
  20
 119.50000762939
  30
0.0
  11
 423.00000000000
  21
 119.50000762939
  31
0.0
   0
LINE
   5
D2
 100
AcDbEntity
   8
LEVEL003
 100
AcDbLine
   6
CONTINUOUS
  62
3
  10
 420.00000000000
  20
 309.50001525879
  30
0.0
  11
 420.00000000000
  21
 222.04687500000
  31
0.0
   0
LINE
   5
D3
 100
AcDbEntity
   8
LEVEL003
 100
AcDbLine
   6
CONTINUOUS
  62
3
  10
 420.00000000000
  20
 119.50000762939
  30
0.0
  11
 420.00000000000
  21
 206.95312500000
  31
0.0
   0
INSERT
   5
D4
 100
AcDbEntity
   8
LEVEL003
   6
CONTINUOUS
  62
3
 100
AcDbBlockReference
   2
_OPEN
  10
 420.00000000000
  20
 309.50001525879
  30
0.0
  41
 4.5000000000000
  42
 4.5000000000000
  43
 4.5000000000000
  50
 90.000000000000
   0
INSERT
   5
D5
 100
AcDbEntity
   8
LEVEL003
   6
CONTINUOUS
  62
3
 100
AcDbBlockReference
   2
_OPEN
  10
 420.00000000000
  20
 119.50000762939
  30
0.0
  41
 4.5000000000000
  42
 4.5000000000000
  43
 4.5000000000000
  50
 270.00000000000
   0
MTEXT
   5
D6
 100
AcDbEntity
   8
LEVEL003
  62
3
 100
AcDbMText
  10
 418.80001831055
  20
 214.50000000000
  30
0.0
  40
 6.0000000000000
  41
0.0
  71
8
  72
1
   1
\A1;190
   7
GMM002
  11
0.0
  21
 1.0000000000000
  31
0.0
   0
ENDBLK
   5
D7
 100
AcDbEntity
   8
0
 100
AcDbBlockEnd
   0
BLOCK
   5
D8
 100
AcDbEntity
   8
0
 100
AcDbBlockBegin
   2
*D9
  70
65
  10
0.0
  20
0.0
  30
0.0
   3
*D9
   0
LINE
   5
D9
 100
AcDbEntity
   8
LEVEL003
 100
AcDbLine
   6
CONTINUOUS
  62
3
  10
 395.11642456055
  20
 146.50000762939
  30
0.0
  11
 408.00000000000
  21
 146.50000762939
  31
0.0
   0
LINE
   5
DA
 100
AcDbEntity
   8
LEVEL003
 100
AcDbLine
   6
CONTINUOUS
  62
3
  10
 286.00000762939
  20
 119.50000762939
  30
0.0
  11
 408.00000000000
  21
 119.50000762939
  31
0.0
   0
LINE
   5
DB
 100
AcDbEntity
   8
LEVEL003
 100
AcDbLine
   6
CONTINUOUS
  62
3
  10
 405.00000000000
  20
 146.50000762939
  30
0.0
  11
 405.00000000000
  21
 139.03750762939
  31
0.0
   0
LINE
   5
DC
 100
AcDbEntity
   8
LEVEL003
 100
AcDbLine
   6
CONTINUOUS
  62
3
  10
 405.00000000000
  20
 119.50000762939
  30
0.0
  11
 405.00000000000
  21
 126.96250762939
  31
0.0
   0
INSERT
   5
DD
 100
AcDbEntity
   8
LEVEL003
   6
CONTINUOUS
  62
3
 100
AcDbBlockReference
   2
_OPEN
  10
 405.00000000000
  20
 146.50000762939
  30
0.0
  41
 4.5000000000000
  42
 4.5000000000000
  43
 4.5000000000000
  50
 90.000000000000
   0
INSERT
   5
DE
 100
AcDbEntity
   8
LEVEL003
   6
CONTINUOUS
  62
3
 100
AcDbBlockReference
   2
_OPEN
  10
 405.00000000000
  20
 119.50000762939
  30
0.0
  41
 4.5000000000000
  42
 4.5000000000000
  43
 4.5000000000000
  50
 270.00000000000
   0
MTEXT
   5
DF
 100
AcDbEntity
   8
LEVEL003
  62
3
 100
AcDbMText
  10
 403.80001831055
  20
 133.00000762939
  30
0.0
  40
 6.0000000000000
  41
0.0
  71
8
  72
1
   1
\A1;27
   7
GMM002
  11
0.0
  21
 1.0000000000000
  31
0.0
   0
ENDBLK
   5
E0
 100
AcDbEntity
   8
0
 100
AcDbBlockEnd
   0
BLOCK
   5
E1
 100
AcDbEntity
   8
0
 100
AcDbBlockBegin
   2
*D10
  70
65
  10
0.0
  20
0.0
  30
0.0
   3
*D10
   0
LINE
   5
E2
 100
AcDbEntity
   8
LEVEL003
 100
AcDbLine
   6
CONTINUOUS
  62
3
  10
 243.00000000000
  20
 309.50001525879
  30
0.0
  11
 408.00000000000
  21
 309.50001525879
  31
0.0
   0
LINE
   5
E3
 100
AcDbEntity
   8
LEVEL003
 100
AcDbLine
   6
CONTINUOUS
  62
3
  10
 286.00000762939
  20
 289.50002288818
  30
0.0
  11
 408.00000000000
  21
 289.50002288818
  31
0.0
   0
LINE
   5
E4
 100
AcDbEntity
   8
LEVEL003
 100
AcDbLine
   6
CONTINUOUS
  62
3
  10
 405.00000000000
  20
 309.50001525879
  30
0.0
  11
 405.00000000000
  21
 305.01253051758
  31
0.0
   0
LINE
   5
E5
 100
AcDbEntity
   8
LEVEL003
 100
AcDbLine
   6
CONTINUOUS
  62
3
  10
 405.00000000000
  20
 289.50002288818
  30
0.0
  11
 405.00000000000
  21
 293.98753051758
  31
0.0
   0
INSERT
   5
E6
 100
AcDbEntity
   8
LEVEL003
   6
CONTINUOUS
  62
3
 100
AcDbBlockReference
   2
_OPEN
  10
 405.00000000000
  20
 309.50001525879
  30
0.0
  41
 4.5000000000000
  42
 4.5000000000000
  43
 4.5000000000000
  50
 90.000000000000
   0
INSERT
   5
E7
 100
AcDbEntity
   8
LEVEL003
   6
CONTINUOUS
  62
3
 100
AcDbBlockReference
   2
_OPEN
  10
 405.00000000000
  20
 289.50002288818
  30
0.0
  41
 4.5000000000000
  42
 4.5000000000000
  43
 4.5000000000000
  50
 270.00000000000
   0
MTEXT
   5
E8
 100
AcDbEntity
   8
LEVEL003
  62
3
 100
AcDbMText
  10
 403.80001831055
  20
 299.50003051758
  30
0.0
  40
 6.0000000000000
  41
0.0
  71
8
  72
1
   1
\A1;20
   7
GMM002
  11
0.0
  21
 1.0000000000000
  31
0.0
   0
ENDBLK
   5
E9
 100
AcDbEntity
   8
0
 100
AcDbBlockEnd
   0
BLOCK
   5
EA
 100
AcDbEntity
   8
0
 100
AcDbBlockBegin
   2
*D11
  70
65
  10
0.0
  20
0.0
  30
0.0
   3
*D11
   0
LINE
   5
EB
 100
AcDbEntity
   8
LEVEL003
 100
AcDbLine
   6
CONTINUOUS
  62
3
  10
 243.00000000000
  20
 309.50001525879
  30
0.0
  11
 393.00000000000
  21
 309.50001525879
  31
0.0
   0
LINE
   5
EC
 100
AcDbEntity
   8
LEVEL003
 100
AcDbLine
   6
CONTINUOUS
  62
3
  10
 250.50000000000
  20
 294.50001525879
  30
0.0
  11
 393.00000000000
  21
 294.50001525879
  31
0.0
   0
LINE
   5
ED
 100
AcDbEntity
   8
LEVEL003
 100
AcDbLine
   6
CONTINUOUS
  62
3
  10
 390.00000000000
  20
 309.50001525879
  30
0.0
  11
 390.00000000000
  21
 307.05314025879
  31
0.0
   0
LINE
   5
EE
 100
AcDbEntity
   8
LEVEL003
 100
AcDbLine
   6
CONTINUOUS
  62
3
  10
 390.00000000000
  20
 294.50001525879
  30
0.0
  11
 390.00000000000
  21
 296.94689025879
  31
0.0
   0
INSERT
   5
EF
 100
AcDbEntity
   8
LEVEL003
   6
CONTINUOUS
  62
3
 100
AcDbBlockReference
   2
_OPEN
  10
 390.00000000000
  20
 309.50001525879
  30
0.0
  41
 4.5000000000000
  42
 4.5000000000000
  43
 4.5000000000000
  50
 90.000000000000
   0
INSERT
   5
F0
 100
AcDbEntity
   8
LEVEL003
   6
CONTINUOUS
  62
3
 100
AcDbBlockReference
   2
_OPEN
  10
 390.00000000000
  20
 294.50001525879
  30
0.0
  41
 4.5000000000000
  42
 4.5000000000000
  43
 4.5000000000000
  50
 270.00000000000
   0
MTEXT
   5
F1
 100
AcDbEntity
   8
LEVEL003
  62
3
 100
AcDbMText
  10
 388.80001831055
  20
 302.00001525879
  30
0.0
  40
 6.0000000000000
  41
0.0
  71
8
  72
1
   1
\A1;15
   7
GMM002
  11
0.0
  21
 1.0000000000000
  31
0.0
   0
ENDBLK
   5
F2
 100
AcDbEntity
   8
0
 100
AcDbBlockEnd
   0
BLOCK
   5
F3
 100
AcDbEntity
   8
0
 100
AcDbBlockBegin
   2
*D12
  70
65
  10
0.0
  20
0.0
  30
0.0
   3
*D12
   0
LINE
   5
F4
 100
AcDbEntity
   8
LEVEL003
 100
AcDbLine
   6
CONTINUOUS
  62
3
  10
 286.00000762939
  20
 289.50002288818
  30
0.0
  11
 408.00000000000
  21
 289.50002288818
  31
0.0
   0
LINE
   5
F5
 100
AcDbEntity
   8
LEVEL003
 100
AcDbLine
   6
CONTINUOUS
  62
3
  10
 395.11642456055
  20
 229.50000000000
  30
0.0
  11
 408.00000000000
  21
 229.50000000000
  31
0.0
   0
LINE
   5
F6
 100
AcDbEntity
   8
LEVEL003
 100
AcDbLine
   6
CONTINUOUS
  62
3
  10
 405.00000000000
  20
 289.50002288818
  30
0.0
  11
 405.00000000000
  21
 265.01250000000
  31
0.0
   0
LINE
   5
F7
 100
AcDbEntity
   8
LEVEL003
 100
AcDbLine
   6
CONTINUOUS
  62
3
  10
 405.00000000000
  20
 229.50000000000
  30
0.0
  11
 405.00000000000
  21
 253.98750000000
  31
0.0
   0
INSERT
   5
F8
 100
AcDbEntity
   8
LEVEL003
   6
CONTINUOUS
  62
3
 100
AcDbBlockReference
   2
_OPEN
  10
 405.00000000000
  20
 289.50002288818
  30
0.0
  41
 4.5000000000000
  42
 4.5000000000000
  43
 4.5000000000000
  50
 90.000000000000
   0
INSERT
   5
F9
 100
AcDbEntity
   8
LEVEL003
   6
CONTINUOUS
  62
3
 100
AcDbBlockReference
   2
_OPEN
  10
 405.00000000000
  20
 229.50000000000
  30
0.0
  41
 4.5000000000000
  42
 4.5000000000000
  43
 4.5000000000000
  50
 270.00000000000
   0
MTEXT
   5
FA
 100
AcDbEntity
   8
LEVEL003
  62
3
 100
AcDbMText
  10
 403.80001831055
  20
 259.50000000000
  30
0.0
  40
 6.0000000000000
  41
0.0
  71
8
  72
1
   1
\A1;60
   7
GMM002
  11
0.0
  21
 1.0000000000000
  31
0.0
   0
ENDBLK
   5
FB
 100
AcDbEntity
   8
0
 100
AcDbBlockEnd
   0
BLOCK
   5
FC
 100
AcDbEntity
   8
0
 100
AcDbBlockBegin
   2
*D13
  70
65
  10
0.0
  20
0.0
  30
0.0
   3
*D13
   0
LINE
   5
FD
 100
AcDbEntity
   8
LEVEL003
 100
AcDbLine
   6
CONTINUOUS
  62
3
  10
 228.49999237061
  20
 294.50001525879
  30
0.0
  11
 199.50000000000
  21
 294.50001525879
  31
0.0
   0
LINE
   5
FE
 100
AcDbEntity
   8
LEVEL003
 100
AcDbLine
   6
CONTINUOUS
  62
3
  10
 226.00000762939
  20
 249.50001525879
  30
0.0
  11
 199.50000000000
  21
 249.50001525879
  31
0.0
   0
LINE
   5
FF
 100
AcDbEntity
   8
LEVEL003
 100
AcDbLine
   6
CONTINUOUS
  62
3
  10
 202.50000000000
  20
 294.50001525879
  30
0.0
  11
 202.50000000000
  21
 279.24501554668
  31
0.0
   0
LINE
   5
100
 100
AcDbEntity
   8
LEVEL003
 100
AcDbLine
   6
CONTINUOUS
  62
3
  10
 202.50000000000
  20
 249.50001525879
  30
0.0
  11
 202.50000000000
  21
 264.75501497090
  31
0.0
   0
INSERT
   5
101
 100
AcDbEntity
   8
LEVEL003
   6
CONTINUOUS
  62
3
 100
AcDbBlockReference
   2
_OPEN
  10
 202.50000000000
  20
 294.50001525879
  30
0.0
  41
 4.5000000000000
  42
 4.5000000000000
  43
 4.5000000000000
  50
 90.000000000000
   0
INSERT
   5
102
 100
AcDbEntity
   8
LEVEL003
   6
CONTINUOUS
  62
3
 100
AcDbBlockReference
   2
_OPEN
  10
 202.50000000000
  20
 249.50001525879
  30
0.0
  41
 4.5000000000000
  42
 4.5000000000000
  43
 4.5000000000000
  50
 270.00000000000
   0
MTEXT
   5
103
 100
AcDbEntity
   8
LEVEL003
  62
3
 100
AcDbMText
  10
 201.29999542236
  20
 272.00001525879
  30
0.0
  40
 7.2000002861023
  41
0.0
  71
8
  72
1
   1
\A1;45
   7
GMM002
  11
0.0
  21
 1.0000000000000
  31
0.0
   0
ENDBLK
   5
104
 100
AcDbEntity
   8
0
 100
AcDbBlockEnd
   0
BLOCK
   5
105
 100
AcDbEntity
   8
0
 100
AcDbBlockBegin
   2
*D14
  70
65
  10
0.0
  20
0.0
  30
0.0
   3
*D14
   0
LINE
   5
106
 100
AcDbEntity
   8
LEVEL003
 100
AcDbLine
   6
CONTINUOUS
  62
3
  10
 87.499992370605
  20
 121.00000762939
  30
0.0
  11
 87.499992370605
  21
 64.500000000000
  31
0.0
   0
LINE
   5
107
 100
AcDbEntity
   8
LEVEL003
 100
AcDbLine
   6
CONTINUOUS
  62
3
  10
 287.50000762939
  20
 121.00000762939
  30
0.0
  11
 287.50000762939
  21
 64.500000000000
  31
0.0
   0
LINE
   5
108
 100
AcDbEntity
   8
LEVEL003
 100
AcDbLine
   6
CONTINUOUS
  62
3
  10
 87.499992370605
  20
 67.500000000000
  30
0.0
  11
 175.29375000000
  21
 67.500000000000
  31
0.0
   0
LINE
   5
109
 100
AcDbEntity
   8
LEVEL003
 100
AcDbLine
   6
CONTINUOUS
  62
3
  10
 287.50000762939
  20
 67.500000000000
  30
0.0
  11
 199.70625000000
  21
 67.500000000000
  31
0.0
   0
INSERT
   5
10A
 100
AcDbEntity
   8
LEVEL003
   6
CONTINUOUS
  62
3
 100
AcDbBlockReference
   2
_OPEN
  10
 87.499992370605
  20
 67.500000000000
  30
0.0
  41
 4.5000000000000
  42
 4.5000000000000
  43
 4.5000000000000
  50
 180.00000000000
   0
INSERT
   5
10B
 100
AcDbEntity
   8
LEVEL003
   6
CONTINUOUS
  62
3
 100
AcDbBlockReference
   2
_OPEN
  10
 287.50000762939
  20
 67.500000000000
  30
0.0
  41
 4.5000000000000
  42
 4.5000000000000
  43
 4.5000000000000
  50
0.0
   0
MTEXT
   5
10C
 100
AcDbEntity
   8
LEVEL003
  62
3
 100
AcDbMText
  10
 187.50000000000
  20
 68.699998855591
  30
0.0
  40
 6.0000000000000
  41
0.0
  71
8
  72
1
   1
\A1;%%c200
   7
GMM002
   0
ENDBLK
   5
10D
 100
AcDbEntity
   8
0
 100
AcDbBlockEnd
   0
BLOCK
   5
10E
 100
AcDbEntity
   8
0
 100
AcDbBlockBegin
   2
*D15
  70
65
  10
0.0
  20
0.0
  30
0.0
   3
*D15
   0
LINE
   5
10F
 100
AcDbEntity
   8
LEVEL003
 100
AcDbLine
   6
CONTINUOUS
  62
3
  10
 159.99998474121
  20
 123.49999237061
  30
0.0
  11
 159.99998474121
  21
 94.500000000000
  31
0.0
   0
LINE
   5
110
 100
AcDbEntity
   8
LEVEL003
 100
AcDbLine
   6
CONTINUOUS
  62
3
  10
 215.00001525879
  20
 123.49999237061
  30
0.0
  11
 215.00001525879
  21
 94.500000000000
  31
0.0
   0
LINE
   5
111
 100
AcDbEntity
   8
LEVEL003
 100
AcDbLine
   6
CONTINUOUS
  62
3
  10
 159.99998474121
  20
 97.500000000000
  30
0.0
  11
 177.26250000000
  21
 97.500000000000
  31
0.0
   0
LINE
   5
112
 100
AcDbEntity
   8
LEVEL003
 100
AcDbLine
   6
CONTINUOUS
  62
3
  10
 215.00001525879
  20
 97.500000000000
  30
0.0
  11
 197.73750000000
  21
 97.500000000000
  31
0.0
   0
INSERT
   5
113
 100
AcDbEntity
   8
LEVEL003
   6
CONTINUOUS
  62
3
 100
AcDbBlockReference
   2
_OPEN
  10
 159.99998474121
  20
 97.500000000000
  30
0.0
  41
 4.5000000000000
  42
 4.5000000000000
  43
 4.5000000000000
  50
 180.00000000000
   0
INSERT
   5
114
 100
AcDbEntity
   8
LEVEL003
   6
CONTINUOUS
  62
3
 100
AcDbBlockReference
   2
_OPEN
  10
 215.00001525879
  20
 97.500000000000
  30
0.0
  41
 4.5000000000000
  42
 4.5000000000000
  43
 4.5000000000000
  50
0.0
   0
MTEXT
   5
115
 100
AcDbEntity
   8
LEVEL003
  62
3
 100
AcDbMText
  10
 187.50000000000
  20
 98.700000000000
  30
0.0
  40
 6.0000000000000
  41
0.0
  71
8
  72
1
   1
\A1;%%c55
   7
GMM002
   0
ENDBLK
   5
116
 100
AcDbEntity
   8
0
 100
AcDbBlockEnd
   0
BLOCK
   5
117
 100
AcDbEntity
   8
0
 100
AcDbBlockBegin
   2
*D16
  70
65
  10
0.0
  20
0.0
  30
0.0
   3
*D16
   0
LINE
   5
118
 100
AcDbEntity
   8
LEVEL003
 100
AcDbLine
   6
CONTINUOUS
  62
3
  10
 104.99997711182
  20
 115.00000762939
  30
0.0
  11
 104.99997711182
  21
 79.500000000000
  31
0.0
   0
LINE
   5
119
 100
AcDbEntity
   8
LEVEL003
 100
AcDbLine
   6
CONTINUOUS
  62
3
  10
 270.00002288818
  20
 115.00000762939
  30
0.0
  11
 270.00002288818
  21
 79.500000000000
  31
0.0
   0
LINE
   5
11A
 100
AcDbEntity
   8
LEVEL003
 100
AcDbLine
   6
CONTINUOUS
  62
3
  10
 104.99997711182
  20
 82.500000000000
  30
0.0
  11
 175.22812500000
  21
 82.500000000000
  31
0.0
   0
LINE
   5
11B
 100
AcDbEntity
   8
LEVEL003
 100
AcDbLine
   6
CONTINUOUS
  62
3
  10
 270.00002288818
  20
 82.500000000000
  30
0.0
  11
 199.77187500000
  21
 82.500000000000
  31
0.0
   0
INSERT
   5
11C
 100
AcDbEntity
   8
LEVEL003
   6
CONTINUOUS
  62
3
 100
AcDbBlockReference
   2
_OPEN
  10
 104.99997711182
  20
 82.500000000000
  30
0.0
  41
 4.5000000000000
  42
 4.5000000000000
  43
 4.5000000000000
  50
 180.00000000000
   0
INSERT
   5
11D
 100
AcDbEntity
   8
LEVEL003
   6
CONTINUOUS
  62
3
 100
AcDbBlockReference
   2
_OPEN
  10
 270.00002288818
  20
 82.500000000000
  30
0.0
  41
 4.5000000000000
  42
 4.5000000000000
  43
 4.5000000000000
  50
0.0
   0
MTEXT
   5
11E
 100
AcDbEntity
   8
LEVEL003
  62
3
 100
AcDbMText
  10
 187.50000000000
  20
 83.700000000000
  30
0.0
  40
 6.0000000000000
  41
0.0
  71
8
  72
1
   1
\A1;%%c165
   7
GMM002
   0
ENDBLK
   5
11F
 100
AcDbEntity
   8
0
 100
AcDbBlockEnd
   0
BLOCK
   5
120
 100
AcDbEntity
   8
0
 100
AcDbBlockBegin
   2
*D17
  70
65
  10
0.0
  20
0.0
  30
0.0
   3
*D17
   0
LINE
   5
121
 100
AcDbEntity
   8
LEVEL003
 100
AcDbLine
   6
CONTINUOUS
  62
3
  10
 159.99998474121
  20
 306.00002288818
  30
0.0
  11
 159.99998474121
  21
 333.00000000000
  31
0.0
   0
LINE
   5
122
 100
AcDbEntity
   8
LEVEL003
 100
AcDbLine
   6
CONTINUOUS
  62
3
  10
 215.00001525879
  20
 306.00002288818
  30
0.0
  11
 215.00001525879
  21
 333.00000000000
  31
0.0
   0
LINE
   5
123
 100
AcDbEntity
   8
LEVEL003
 100
AcDbLine
   6
CONTINUOUS
  62
3
  10
 159.99998474121
  20
 330.00000000000
  30
0.0
  11
 177.26250000000
  21
 330.00000000000
  31
0.0
   0
LINE
   5
124
 100
AcDbEntity
   8
LEVEL003
 100
AcDbLine
   6
CONTINUOUS
  62
3
  10
 215.00001525879
  20
 330.00000000000
  30
0.0
  11
 197.73750000000
  21
 330.00000000000
  31
0.0
   0
INSERT
   5
125
 100
AcDbEntity
   8
LEVEL003
   6
CONTINUOUS
  62
3
 100
AcDbBlockReference
   2
_OPEN
  10
 159.99998474121
  20
 330.00000000000
  30
0.0
  41
 4.5000000000000
  42
 4.5000000000000
  43
 4.5000000000000
  50
 180.00000000000
   0
INSERT
   5
126
 100
AcDbEntity
   8
LEVEL003
   6
CONTINUOUS
  62
3
 100
AcDbBlockReference
   2
_OPEN
  10
 215.00001525879
  20
 330.00000000000
  30
0.0
  41
 4.5000000000000
  42
 4.5000000000000
  43
 4.5000000000000
  50
0.0
   0
MTEXT
   5
127
 100
AcDbEntity
   8
LEVEL003
  62
3
 100
AcDbMText
  10
 187.50000000000
  20
 331.20000000000
  30
0.0
  40
 6.0000000000000
  41
0.0
  71
8
  72
1
   1
\A1;%%c55
   7
GMM002
   0
ENDBLK
   5
128
 100
AcDbEntity
   8
0
 100
AcDbBlockEnd
   0
BLOCK
   5
129
 100
AcDbEntity
   8
0
 100
AcDbBlockBegin
   2
*D18
  70
65
  10
0.0
  20
0.0
  30
0.0
   3
*D18
   0
LINE
   5
12A
 100
AcDbEntity
   8
LEVEL003
 100
AcDbLine
   6
CONTINUOUS
  62
3
  10
 225.00000000000
  20
 210.00000000000
  30
0.0
  11
 197.73750000000
  21
 210.00000000000
  31
0.0
   0
LINE
   5
12B
 100
AcDbEntity
   8
LEVEL003
 100
AcDbLine
   6
CONTINUOUS
  62
3
  10
 150.00000000000
  20
 210.00000000000
  30
0.0
  11
 177.26250000000
  21
 210.00000000000
  31
0.0
   0
INSERT
   5
12C
 100
AcDbEntity
   8
LEVEL003
   6
CONTINUOUS
  62
3
 100
AcDbBlockReference
   2
_OPEN
  10
 225.00000000000
  20
 210.00000000000
  30
0.0
  41
 4.5000000000000
  42
 4.5000000000000
  43
 4.5000000000000
  50
0.0
   0
INSERT
   5
12D
 100
AcDbEntity
   8
LEVEL003
   6
CONTINUOUS
  62
3
 100
AcDbBlockReference
   2
_OPEN
  10
 150.00000000000
  20
 210.00000000000
  30
0.0
  41
 4.5000000000000
  42
 4.5000000000000
  43
 4.5000000000000
  50
 180.00000000000
   0
MTEXT
   5
12E
 100
AcDbEntity
   8
LEVEL003
  62
3
 100
AcDbMText
  10
 187.50000000000
  20
 211.20000000000
  30
0.0
  40
 6.0000000000000
  41
0.0
  71
8
  72
1
   1
\A1;%%c75
   7
GMM002
   0
ENDBLK
   5
12F
 100
AcDbEntity
   8
0
 100
AcDbBlockEnd
   0
BLOCK
   5
130
 100
AcDbEntity
   8
0
 100
AcDbBlockBegin
   2
*D19
  70
65
  10
0.0
  20
0.0
  30
0.0
   3
*D19
   0
LINE
   5
131
 100
AcDbEntity
   8
LEVEL003
 100
AcDbLine
   6
CONTINUOUS
  62
3
  10
 124.99999237061
  20
 195.00000000000
  30
0.0
  11
 175.22812500000
  21
 195.00000000000
  31
0.0
   0
LINE
   5
132
 100
AcDbEntity
   8
LEVEL003
 100
AcDbLine
   6
CONTINUOUS
  62
3
  10
 250.00000762939
  20
 195.00000000000
  30
0.0
  11
 199.77187500000
  21
 195.00000000000
  31
0.0
   0
INSERT
   5
133
 100
AcDbEntity
   8
LEVEL003
   6
CONTINUOUS
  62
3
 100
AcDbBlockReference
   2
_OPEN
  10
 124.99999237061
  20
 195.00000000000
  30
0.0
  41
 4.5000000000000
  42
 4.5000000000000
  43
 4.5000000000000
  50
 180.00000000000
   0
INSERT
   5
134
 100
AcDbEntity
   8
LEVEL003
   6
CONTINUOUS
  62
3
 100
AcDbBlockReference
   2
_OPEN
  10
 250.00000762939
  20
 195.00000000000
  30
0.0
  41
 4.5000000000000
  42
 4.5000000000000
  43
 4.5000000000000
  50
0.0
   0
MTEXT
   5
135
 100
AcDbEntity
   8
LEVEL003
  62
3
 100
AcDbMText
  10
 187.50000000000
  20
 196.20000000000
  30
0.0
  40
 6.0000000000000
  41
0.0
  71
8
  72
1
   1
\A1;%%c125
   7
GMM002
   0
ENDBLK
   5
136
 100
AcDbEntity
   8
0
 100
AcDbBlockEnd
   0
BLOCK
   5
137
 100
AcDbEntity
   8
0
 100
AcDbBlockBegin
   2
*D20
  70
65
  10
0.0
  20
0.0
  30
0.0
   3
*D20
   0
LINE
   5
138
 100
AcDbEntity
   8
LEVEL003
 100
AcDbLine
   6
CONTINUOUS
  62
3
  10
 265.00000762939
  20
 180.00000000000
  30
0.0
  11
 199.77187500000
  21
 180.00000000000
  31
0.0
   0
LINE
   5
139
 100
AcDbEntity
   8
LEVEL003
 100
AcDbLine
   6
CONTINUOUS
  62
3
  10
 109.99999237061
  20
 180.00000000000
  30
0.0
  11
 175.22812500000
  21
 180.00000000000
  31
0.0
   0
INSERT
   5
13A
 100
AcDbEntity
   8
LEVEL003
   6
CONTINUOUS
  62
3
 100
AcDbBlockReference
   2
_OPEN
  10
 265.00000762939
  20
 180.00000000000
  30
0.0
  41
 4.5000000000000
  42
 4.5000000000000
  43
 4.5000000000000
  50
0.0
   0
INSERT
   5
13B
 100
AcDbEntity
   8
LEVEL003
   6
CONTINUOUS
  62
3
 100
AcDbBlockReference
   2
_OPEN
  10
 109.99999237061
  20
 180.00000000000
  30
0.0
  41
 4.5000000000000
  42
 4.5000000000000
  43
 4.5000000000000
  50
 180.00000000000
   0
MTEXT
   5
13C
 100
AcDbEntity
   8
LEVEL003
  62
3
 100
AcDbMText
  10
 187.50000000000
  20
 181.20000000000
  30
0.0
  40
 6.0000000000000
  41
0.0
  71
8
  72
1
   1
\A1;%%c155
   7
GMM002
   0
ENDBLK
   5
13D
 100
AcDbEntity
   8
0
 100
AcDbBlockEnd
   0
ENDSEC
   0
SECTION
   2
ENTITIES
   0
ARC
   5
13E
 100
AcDbEntity
   8
LEVEL001
   6
CONTINUOUS
  62
7
 100
AcDbCircle
  10
 187.50000000000
  20
 234.50002670288
  30
0.0
  40
 12.500003814697
 100
AcDbArc
  50
 90.000000000000
  51
 270.00000000000
   0
ARC
   5
13F
 100
AcDbEntity
   8
LEVEL001
   6
DASHDOT
  62
1
 100
AcDbCircle
  10
 187.47656250123
  20
 202.50002288818
  30
0.0
  40
 32.000000953674
 100
AcDbArc
  50
 89.958035317443
  51
 270.04196468255
   0
ARC
   5
140
 100
AcDbEntity
   8
LEVEL001
   6
CONTINUOUS
  62
7
 100
AcDbCircle
  10
 187.50007002633
  20
 202.50003147119
  30
0.0
  40
 36.500000953674
 100
AcDbArc
  50
 109.64731001267
  51
 269.99989007635
   0
ARC
   5
141
 100
AcDbEntity
   8
LEVEL001
   6
CONTINUOUS
  62
7
 100
AcDbCircle
  10
 187.50005448115
  20
 202.50003147120
  30
0.0
  40
 27.500000953674
 100
AcDbArc
  50
 112.67202895657
  51
 269.99988648947
   0
ARC
   5
142
 100
AcDbEntity
   8
LEVEL001
   6
CONTINUOUS
  62
7
 100
AcDbCircle
  10
 187.50000000000
  20
 234.50001525879
  30
0.0
  40
 11.500007629395
 100
AcDbArc
  50
 90.000000000000
  51
 270.00000000000
   0
LEADER
   5
143
 100
AcDbEntity
   8
LEVEL003
   6
CONTINUOUS
  62
3
 100
AcDbLeader
   3
GMM001
  73
0
  74
1
  75
0
  40
 7.2000002861023
  41
0.0
  76
2
  10
 164.56875228882
  20
 228.14620971680
  30
0.0
  10
 80.958063125610
  20
 218.20818328857
  30
0.0
  77
3
   0
MTEXT
   5
144
 100
AcDbEntity
   8
LEVEL003
  62
3
 100
AcDbMText
  10
 71.700004577637
  20
 213.90000915527
  30
0.0
  40
 6.1714288166591
  41
0.0
  71
7
  72
1
   1
40
   7
GMM001
   0
CIRCLE
   5
145
 100
AcDbEntity
   8
LEVEL003
 100
AcDbCircle
   6
CONTINUOUS
  62
3
  10
 75.000000000000
  20
 217.50000000000
  30
0.0
  40
 6.0000000000000
   0
LINE
   5
146
 100
AcDbEntity
   8
LEVEL001
 100
AcDbLine
   6
CONTINUOUS
  62
7
  10
 242.50000762939
  20
 308.50003051758
  30
0.0
  11
 241.50000000000
  21
 309.50001525879
  31
0.0
   0
LINE
   5
147
 100
AcDbEntity
   8
LEVEL001
 100
AcDbLine
   6
CONTINUOUS
  62
7
  10
 242.50000762939
  20
 294.50001525879
  30
0.0
  11
 242.50000762939
  21
 308.50003051758
  31
0.0
   0
LINE
   5
148
 100
AcDbEntity
   8
LEVEL001
 100
AcDbLine
   6
CONTINUOUS
  62
7
  10
 249.00000000000
  20
 294.50001525879
  30
0.0
  11
 250.00000762939
  21
 291.50001525879
  31
0.0
   0
LINE
   5
149
 100
AcDbEntity
   8
LEVEL001
 100
AcDbLine
   6
CONTINUOUS
  62
7
  10
 287.50000762939
  20
 286.50002288818
  30
0.0
  11
 284.50000762939
  21
 289.50002288818
  31
0.0
   0
LINE
   5
14A
 100
AcDbEntity
   8
LEVEL001
 100
AcDbLine
   6
CONTINUOUS
  62
7
  10
 287.50000762939
  20
 122.50000762939
  30
0.0
  11
 284.50000762939
  21
 119.50000762939
  31
0.0
   0
LINE
   5
14B
 100
AcDbEntity
   8
LEVEL001
 100
AcDbLine
   6
DOT
  62
7
  10
 112.99996948242
  20
 119.50000762939
  30
0.0
  11
 111.99998474121
  21
 120.49999237061
  31
0.0
   0
LINE
   5
14C
 100
AcDbEntity
   8
LEVEL001
 100
AcDbLine
   6
DOT
  62
7
  10
 111.99998474121
  20
 120.49999237061
  30
0.0
  11
 111.99998474121
  21
 140.23205566406
  31
0.0
   0
LINE
   5
14D
 100
AcDbEntity
   8
LEVEL001
 100
AcDbLine
   6
DOT
  62
7
  10
 111.99998474121
  20
 140.23205566406
  30
0.0
  11
 97.999969482422
  21
 140.23205566406
  31
0.0
   0
LINE
   5
14E
 100
AcDbEntity
   8
LEVEL001
 100
AcDbLine
   6
DOT
  62
7
  10
 111.99998474121
  20
 120.49999237061
  30
0.0
  11
 97.999969482422
  21
 120.49999237061
  31
0.0
   0
LINE
   5
14F
 100
AcDbEntity
   8
LEVEL001
 100
AcDbLine
   6
DOT
  62
7
  10
 97.999969482422
  20
 140.23205566406
  30
0.0
  11
 97.999969482422
  21
 120.49999237061
  31
0.0
   0
LINE
   5
150
 100
AcDbEntity
   8
LEVEL001
 100
AcDbLine
   6
DOT
  62
7
  10
 97.999969482422
  20
 120.49999237061
  30
0.0
  11
 96.999984741211
  21
 119.50000762939
  31
0.0
   0
LINE
   5
151
 100
AcDbEntity
   8
LEVEL001
 100
AcDbLine
   6
CONTINUOUS
  62
7
  10
 90.500003814697
  20
 119.50000762939
  30
0.0
  11
 87.500003814697
  21
 122.50000762939
  31
0.0
   0
LINE
   5
152
 100
AcDbEntity
   8
LEVEL001
 100
AcDbLine
   6
CONTINUOUS
  62
7
  10
 284.50000762939
  20
 119.50000762939
  30
0.0
  11
 90.500003814697
  21
 119.50000762939
  31
0.0
   0
ARC
   5
153
 100
AcDbEntity
   8
LEVEL001
   6
CONTINUOUS
  62
7
 100
AcDbCircle
  10
 217.33855616278
  20
 120.50000001481
  30
0.0
  40
 0.50000001490116
 100
AcDbArc
  50
 201.80474457202
  51
 269.99892171132
   0
LINE
   5
154
 100
AcDbEntity
   8
LEVEL001
 100
AcDbLine
   6
CONTINUOUS
  62
7
  10
 87.499992370605
  20
 286.50002288818
  30
0.0
  11
 90.499992370605
  21
 289.50002288818
  31
0.0
   0
LINE
   5
155
 100
AcDbEntity
   8
LEVEL001
 100
AcDbLine
   6
CONTINUOUS
  62
7
  10
 87.499992370605
  20
 286.50002288818
  30
0.0
  11
 87.499992370605
  21
 122.50000762939
  31
0.0
   0
LINE
   5
156
 100
AcDbEntity
   8
LEVEL001
 100
AcDbLine
   6
CONTINUOUS
  62
7
  10
 132.49999237061
  20
 308.50003051758
  30
0.0
  11
 133.50000000000
  21
 309.50001525879
  31
0.0
   0
LINE
   5
157
 100
AcDbEntity
   8
LEVEL001
 100
AcDbLine
   6
CONTINUOUS
  62
7
  10
 132.49999237061
  20
 294.50001525879
  30
0.0
  11
 132.49999237061
  21
 308.50003051758
  31
0.0
   0
LINE
   5
158
 100
AcDbEntity
   8
LEVEL001
 100
AcDbLine
   6
CONTINUOUS
  62
7
  10
 126.00000000000
  20
 294.50001525879
  30
0.0
  11
 124.99999237061
  21
 291.50001525879
  31
0.0
   0
LINE
   5
159
 100
AcDbEntity
   8
LEVEL001
 100
AcDbLine
   6
CONTINUOUS
  62
7
  10
 124.99999237061
  20
 291.50001525879
  30
0.0
  11
 124.99999237061
  21
 289.50002288818
  31
0.0
   0
LINE
   5
15A
 100
AcDbEntity
   8
LEVEL001
 100
AcDbLine
   6
CONTINUOUS
  62
7
  10
 90.499992370605
  20
 289.50002288818
  30
0.0
  11
 187.50000000000
  21
 289.50002288818
  31
0.0
   0
LINE
   5
15B
 100
AcDbEntity
   8
LEVEL001
 100
AcDbLine
   6
CONTINUOUS
  62
7
  10
 126.00000000000
  20
 294.50001525879
  30
0.0
  11
 187.50000000000
  21
 294.50001525879
  31
0.0
   0
LINE
   5
15C
 100
AcDbEntity
   8
LEVEL001
 100
AcDbLine
   6
CONTINUOUS
  62
7
  10
 132.49999237061
  20
 308.50003051758
  30
0.0
  11
 187.50000000000
  21
 308.50003051758
  31
0.0
   0
LINE
   5
15D
 100
AcDbEntity
   8
LEVEL001
 100
AcDbLine
   6
CONTINUOUS
  62
7
  10
 124.99999237061
  20
 291.50001525879
  30
0.0
  11
 187.50000000000
  21
 291.50001525879
  31
0.0
   0
LINE
   5
15E
 100
AcDbEntity
   8
LEVEL001
 100
AcDbLine
   6
CONTINUOUS
  62
7
  10
 87.499992370605
  20
 286.50002288818
  30
0.0
  11
 187.50000000000
  21
 286.50002288818
  31
0.0
   0
LINE
   5
15F
 100
AcDbEntity
   8
LEVEL001
 100
AcDbLine
   6
CONTINUOUS
  62
7
  10
 87.499992370605
  20
 122.50000762939
  30
0.0
  11
 187.50000000000
  21
 122.50000762939
  31
0.0
   0
LINE
   5
160
 100
AcDbEntity
   8
LEVEL001
 100
AcDbLine
   6
DASHDOT
  62
1
  10
 104.99997711182
  20
 116.50000762939
  30
0.0
  11
 104.99997711182
  21
 144.50001525879
  31
0.0
   0
LINE
   5
161
 100
AcDbEntity
   8
LEVEL001
 100
AcDbLine
   6
DASHDOT
  62
1
  10
 104.99997711182
  20
 146.50000762939
  30
0.0
  11
 104.99997711182
  21
 147.27351379395
  31
0.0
   0
LINE
   5
162
 100
AcDbEntity
   8
LEVEL001
 100
AcDbLine
   6
DOT
  62
3
  10
 112.99996948242
  20
 119.50000762939
  30
0.0
  11
 112.99996948242
  21
 136.50000000000
  31
0.0
   0
LINE
   5
163
 100
AcDbEntity
   8
LEVEL001
 100
AcDbLine
   6
DOT
  62
3
  10
 112.99996948242
  20
 136.50000000000
  30
0.0
  11
 111.99998474121
  21
 140.23205566406
  31
0.0
   0
LINE
   5
164
 100
AcDbEntity
   8
LEVEL001
 100
AcDbLine
   6
DOT
  62
3
  10
 112.99996948242
  20
 136.50000000000
  30
0.0
  11
 96.999984741211
  21
 136.50000000000
  31
0.0
   0
LINE
   5
165
 100
AcDbEntity
   8
LEVEL001
 100
AcDbLine
   6
DOT
  62
3
  10
 97.999969482422
  20
 140.23205566406
  30
0.0
  11
 96.999984741211
  21
 136.50000000000
  31
0.0
   0
LINE
   5
166
 100
AcDbEntity
   8
LEVEL001
 100
AcDbLine
   6
DOT
  62
3
  10
 96.999984741211
  20
 136.50000000000
  30
0.0
  11
 96.999984741211
  21
 119.50000762939
  31
0.0
   0
LINE
   5
167
 100
AcDbEntity
   8
LEVEL001
 100
AcDbLine
   6
CONTINUOUS
  62
7
  10
 133.50000000000
  20
 309.50001525879
  30
0.0
  11
 241.50000000000
  21
 309.50001525879
  31
0.0
   0
LINE
   5
168
 100
AcDbEntity
   8
LEVEL001
 100
AcDbLine
   6
CONTINUOUS
  62
3
  10
 297.50001525879
  20
 238.14349365234
  30
0.0
  11
 293.88368225098
  21
 237.17449951172
  31
0.0
   0
LINE
   5
169
 100
AcDbEntity
   8
LEVEL001
 100
AcDbLine
   6
CONTINUOUS
  62
3
  10
 297.50001525879
  20
 220.85650634766
  30
0.0
  11
 293.88363647461
  21
 221.82550048828
  31
0.0
   0
LINE
   5
16A
 100
AcDbEntity
   8
LEVEL001
 100
AcDbLine
   6
CONTINUOUS
  62
3
  10
 293.88368225098
  20
 237.17449951172
  30
0.0
  11
 293.88356781006
  21
 221.82550048828
  31
0.0
   0
ARC
   5
16B
 100
AcDbEntity
   8
LEVEL001
   6
CONTINUOUS
  62
7
 100
AcDbCircle
  10
 315.09902361463
  20
 245.68687206894
  30
0.0
  40
 17.600000381470
 100
AcDbArc
  50
 180.60833776465
  51
 203.25629925574
   0
ARC
   5
16C
 100
AcDbEntity
   8
LEVEL001
   6
CONTINUOUS
  62
7
 100
AcDbCircle
  10
 315.09902361463
  20
 213.31312793106
  30
0.0
  40
 17.600000381470
 100
AcDbArc
  50
 156.74370074426
  51
 179.39166223535
   0
ARC
   5
16D
 100
AcDbEntity
   8
LEVEL001
   6
CONTINUOUS
  62
7
 100
AcDbCircle
  10
 328.07095832939
  20
 229.50000000000
  30
0.0
  40
 30.570957183838
 100
AcDbArc
  50
 162.41206191268
  51
 197.58793808732
   0
LINE
   5
16E
 100
AcDbEntity
   8
LEVEL001
 100
AcDbLine
   6
CONTINUOUS
  62
7
  10
 298.92906188965
  20
 247.97522735596
  30
0.0
  11
 297.50001525879
  21
 245.50000762939
  31
0.0
   0
LINE
   5
16F
 100
AcDbEntity
   8
LEVEL001
 100
AcDbLine
   6
CONTINUOUS
  62
7
  10
 297.50001525879
  20
 245.50000762939
  30
0.0
  11
 297.50001525879
  21
 213.49999237061
  31
0.0
   0
LINE
   5
170
 100
AcDbEntity
   8
LEVEL001
 100
AcDbLine
   6
CONTINUOUS
  62
7
  10
 297.50001525879
  20
 213.49999237061
  30
0.0
  11
 298.92906188965
  21
 211.02477264404
  31
0.0
   0
LINE
   5
171
 100
AcDbEntity
   8
LEVEL001
 100
AcDbLine
   6
CONTINUOUS
  62
7
  10
 298.92906188965
  20
 211.02477264404
  30
0.0
  11
 326.07094573975
  21
 211.02477264404
  31
0.0
   0
LINE
   5
172
 100
AcDbEntity
   8
LEVEL001
 100
AcDbLine
   6
CONTINUOUS
  62
7
  10
 326.07094573975
  20
 211.02477264404
  30
0.0
  11
 327.50001525879
  21
 213.49999237061
  31
0.0
   0
LINE
   5
173
 100
AcDbEntity
   8
LEVEL001
 100
AcDbLine
   6
CONTINUOUS
  62
7
  10
 327.50001525879
  20
 213.49999237061
  30
0.0
  11
 327.50001525879
  21
 245.50000762939
  31
0.0
   0
LINE
   5
174
 100
AcDbEntity
   8
LEVEL001
 100
AcDbLine
   6
CONTINUOUS
  62
7
  10
 327.50001525879
  20
 245.50000762939
  30
0.0
  11
 326.07094573975
  21
 247.97522735596
  31
0.0
   0
LINE
   5
175
 100
AcDbEntity
   8
LEVEL001
 100
AcDbLine
   6
CONTINUOUS
  62
7
  10
 326.07094573975
  20
 247.97522735596
  30
0.0
  11
 298.92906188965
  21
 247.97522735596
  31
0.0
   0
ARC
   5
176
 100
AcDbEntity
   8
LEVEL001
   6
CONTINUOUS
  62
7
 100
AcDbCircle
  10
 309.90100748284
  20
 213.31307332444
  30
0.0
  40
 17.600000381470
 100
AcDbArc
  50
 0.60851554334380
  51
 23.256492746054
   0
ARC
   5
177
 100
AcDbEntity
   8
LEVEL001
   6
CONTINUOUS
  62
7
 100
AcDbCircle
  10
 309.90100748284
  20
 245.68692667556
  30
0.0
  40
 17.600000381470
 100
AcDbArc
  50
 336.74350725394
  51
 359.39148445665
   0
ARC
   5
178
 100
AcDbEntity
   8
LEVEL001
   6
CONTINUOUS
  62
7
 100
AcDbCircle
  10
 296.92905530265
  20
 229.50000000000
  30
0.0
  40
 30.570951461792
 100
AcDbArc
  50
 342.41205851325
  51
 17.587941486753
   0
LINE
   5
179
 100
AcDbEntity
   8
LEVEL001
 100
AcDbLine
   6
CONTINUOUS
  62
7
  10
 298.92906188965
  20
 238.73760223389
  30
0.0
  11
 326.07094573975
  21
 238.73760223389
  31
0.0
   0
LINE
   5
17A
 100
AcDbEntity
   8
LEVEL001
 100
AcDbLine
   6
CONTINUOUS
  62
7
  10
 298.92906188965
  20
 220.26239776611
  30
0.0
  11
 326.07094573975
  21
 220.26239776611
  31
0.0
   0
LINE
   5
17B
 100
AcDbEntity
   8
LEVEL001
 100
AcDbLine
   6
CONTINUOUS
  62
3
  10
 297.50001525879
  20
 155.14350128174
  30
0.0
  11
 293.88368225098
  21
 154.17450714111
  31
0.0
   0
LINE
   5
17C
 100
AcDbEntity
   8
LEVEL001
 100
AcDbLine
   6
CONTINUOUS
  62
3
  10
 297.50001525879
  20
 137.85651397705
  30
0.0
  11
 293.88363647461
  21
 138.82550811768
  31
0.0
   0
LINE
   5
17D
 100
AcDbEntity
   8
LEVEL001
 100
AcDbLine
   6
CONTINUOUS
  62
3
  10
 293.88368225098
  20
 154.17450714111
  30
0.0
  11
 293.88356781006
  21
 138.82550811768
  31
0.0
   0
ARC
   5
17E
 100
AcDbEntity
   8
LEVEL001
   6
CONTINUOUS
  62
7
 100
AcDbCircle
  10
 315.09902336543
  20
 162.68689172227
  30
0.0
  40
 17.600000381470
 100
AcDbArc
  50
 180.60841416776
  51
 203.25630131033
   0
ARC
   5
17F
 100
AcDbEntity
   8
LEVEL001
   6
CONTINUOUS
  62
7
 100
AcDbCircle
  10
 315.09902336543
  20
 130.31312353652
  30
0.0
  40
 17.600000381470
 100
AcDbArc
  50
 156.74369868967
  51
 179.39158583224
   0
ARC
   5
180
 100
AcDbEntity
   8
LEVEL001
   6
CONTINUOUS
  62
7
 100
AcDbCircle
  10
 328.07095470176
  20
 146.50000762939
  30
0.0
  40
 30.570957183838
 100
AcDbArc
  50
 162.41203941249
  51
 197.58796058751
   0
LINE
   5
181
 100
AcDbEntity
   8
LEVEL001
 100
AcDbLine
   6
CONTINUOUS
  62
7
  10
 298.92906188965
  20
 164.97522354126
  30
0.0
  11
 297.50001525879
  21
 162.50000381470
  31
0.0
   0
LINE
   5
182
 100
AcDbEntity
   8
LEVEL001
 100
AcDbLine
   6
CONTINUOUS
  62
7
  10
 297.50001525879
  20
 162.50000381470
  30
0.0
  11
 297.50001525879
  21
 130.50001144409
  31
0.0
   0
LINE
   5
183
 100
AcDbEntity
   8
LEVEL001
 100
AcDbLine
   6
CONTINUOUS
  62
7
  10
 297.50001525879
  20
 130.50001144409
  30
0.0
  11
 298.92906188965
  21
 128.02479171753
  31
0.0
   0
LINE
   5
184
 100
AcDbEntity
   8
LEVEL001
 100
AcDbLine
   6
CONTINUOUS
  62
7
  10
 298.92906188965
  20
 128.02479171753
  30
0.0
  11
 326.07094573975
  21
 128.02479171753
  31
0.0
   0
LINE
   5
185
 100
AcDbEntity
   8
LEVEL001
 100
AcDbLine
   6
CONTINUOUS
  62
7
  10
 326.07094573975
  20
 128.02479171753
  30
0.0
  11
 327.50001525879
  21
 130.50001144409
  31
0.0
   0
LINE
   5
186
 100
AcDbEntity
   8
LEVEL001
 100
AcDbLine
   6
CONTINUOUS
  62
7
  10
 327.50001525879
  20
 130.50001144409
  30
0.0
  11
 327.50001525879
  21
 162.50000381470
  31
0.0
   0
LINE
   5
187
 100
AcDbEntity
   8
LEVEL001
 100
AcDbLine
   6
CONTINUOUS
  62
7
  10
 327.50001525879
  20
 162.50000381470
  30
0.0
  11
 326.07094573975
  21
 164.97522354126
  31
0.0
   0
LINE
   5
188
 100
AcDbEntity
   8
LEVEL001
 100
AcDbLine
   6
CONTINUOUS
  62
7
  10
 326.07094573975
  20
 164.97522354126
  30
0.0
  11
 298.92906188965
  21
 164.97522354126
  31
0.0
   0
ARC
   5
189
 100
AcDbEntity
   8
LEVEL001
   6
CONTINUOUS
  62
7
 100
AcDbCircle
  10
 309.90100773211
  20
 130.31306892973
  30
0.0
  40
 17.600000381470
 100
AcDbArc
  50
 0.60859194700857
  51
 23.256494801247
   0
ARC
   5
18A
 100
AcDbEntity
   8
LEVEL001
   6
CONTINUOUS
  62
7
 100
AcDbCircle
  10
 309.90100773211
  20
 162.68694632906
  30
0.0
  40
 17.600000381470
 100
AcDbArc
  50
 336.74350519875
  51
 359.39140805299
   0
ARC
   5
18B
 100
AcDbEntity
   8
LEVEL001
   6
CONTINUOUS
  62
7
 100
AcDbCircle
  10
 296.92905893028
  20
 146.50000762939
  30
0.0
  40
 30.570951461792
 100
AcDbArc
  50
 342.41203601305
  51
 17.587963986946
   0
LINE
   5
18C
 100
AcDbEntity
   8
LEVEL001
 100
AcDbLine
   6
CONTINUOUS
  62
7
  10
 298.92906188965
  20
 155.73762130737
  30
0.0
  11
 326.07094573975
  21
 155.73762130737
  31
0.0
   0
LINE
   5
18D
 100
AcDbEntity
   8
LEVEL001
 100
AcDbLine
   6
CONTINUOUS
  62
7
  10
 298.92906188965
  20
 137.26239395142
  30
0.0
  11
 326.07094573975
  21
 137.26239395142
  31
0.0
   0
MTEXT
   5
18E
 100
AcDbEntity
   8
LEVEL003
  62
3
 100
AcDbMText
  10
 379.20000457764
  20
 188.25489807129
  30
0.0
  40
 6.1714288166591
  41
0.0
  71
7
  72
1
   1
50
   7
GMM001
   0
CIRCLE
   5
18F
 100
AcDbEntity
   8
LEVEL003
 100
AcDbCircle
   6
CONTINUOUS
  62
3
  10
 382.50000000000
  20
 191.85488891602
  30
0.0
  40
 6.0000000000000
   0
TEXT
   5
190
 100
AcDbEntity
   8
LEVEL003
  62
3
 100
AcDbText
  10
 307.50000000000
  20
 97.500000000000
  30
0.0
  40
 6.0000000000000
   1
ＮＰＴ３／８
   7
STANDARD
 100
AcDbText
   0
LEADER
   5
191
 100
AcDbEntity
   8
LEVEL003
   6
CONTINUOUS
  62
3
 100
AcDbLeader
   3
GMM002
  73
0
  74
1
  75
0
  40
 7.2000002861023
  41
0.0
  76
3
  10
 290.14391326904
  20
 138.08638000488
  30
0.0
  10
 307.50000000000
  20
 97.500000000000
  30
0.0
  10
 345.00000000000
  20
 97.500000000000
  30
0.0
  77
3
   0
TEXT
   5
192
 100
AcDbEntity
   8
LEVEL003
  62
3
 100
AcDbText
  10
 352.50000000000
  20
 97.500000000000
  30
0.0
  40
 6.0000000000000
   1
Ｒ　１／２
   7
STANDARD
 100
AcDbText
   0
LINE
   5
193
 100
AcDbEntity
   8
LEVEL001
 100
AcDbLine
   6
CONTINUOUS
  62
3
  10
 333.59069824219
  20
 219.99417114258
  30
0.0
  11
 333.59081268311
  21
 239.00585174561
  31
0.0
   0
LINE
   5
194
 100
AcDbEntity
   8
LEVEL001
 100
AcDbLine
   6
CONTINUOUS
  62
3
  10
 338.49998474121
  20
 240.32128143311
  30
0.0
  11
 333.59081268311
  21
 239.00585174561
  31
0.0
   0
LINE
   5
195
 100
AcDbEntity
   8
LEVEL001
 100
AcDbLine
   6
CONTINUOUS
  62
3
  10
 338.49998474121
  20
 218.67871856689
  30
0.0
  11
 333.59069824219
  21
 219.99417114258
  31
0.0
   0
ARC
   5
196
 100
AcDbEntity
   8
LEVEL001
   6
CONTINUOUS
  62
7
 100
AcDbCircle
  10
 358.70000463723
  20
 245.49999994041
  30
0.0
  40
 2.0000000596046
 100
AcDbArc
  50
 90.000220273174
  51
 179.99977972688
   0
LINE
   5
197
 100
AcDbEntity
   8
LEVEL001
 100
AcDbLine
   6
CONTINUOUS
  62
7
  10
 358.69999694824
  20
 247.50000000000
  30
0.0
  11
 364.69999694824
  21
 247.50000000000
  31
0.0
   0
ARC
   5
198
 100
AcDbEntity
   8
LEVEL001
   6
CONTINUOUS
  62
7
 100
AcDbCircle
  10
 380.70001217725
  20
 246.49999997023
  30
0.0
  40
 1.0000000298023
 100
AcDbArc
  50
0.0
  51
 90.000435425804
   0
LINE
   5
199
 100
AcDbEntity
   8
LEVEL001
 100
AcDbLine
   6
CONTINUOUS
  62
7
  10
 374.70000457764
  20
 247.50000000000
  30
0.0
  11
 380.70000457764
  21
 247.50000000000
  31
0.0
   0
ARC
   5
19A
 100
AcDbEntity
   8
LEVEL001
   6
CONTINUOUS
  62
7
 100
AcDbCircle
  10
 358.70000463723
  20
 213.50000005959
  30
0.0
  40
 2.0000000596046
 100
AcDbArc
  50
 180.00022027317
  51
 269.99977972682
   0
LINE
   5
19B
 100
AcDbEntity
   8
LEVEL001
 100
AcDbLine
   6
CONTINUOUS
  62
7
  10
 358.69999694824
  20
 211.50000000000
  30
0.0
  11
 364.69999694824
  21
 211.50000000000
  31
0.0
   0
ARC
   5
19C
 100
AcDbEntity
   8
LEVEL001
   6
CONTINUOUS
  62
7
 100
AcDbCircle
  10
 380.70001217726
  20
 212.50000002977
  30
0.0
  40
 1.0000000298023
 100
AcDbArc
  50
 269.99956457380
  51
 0.43542627113801E-3
   0
LINE
   5
19D
 100
AcDbEntity
   8
LEVEL001
 100
AcDbLine
   6
CONTINUOUS
  62
7
  10
 374.70000457764
  20
 211.50000000000
  30
0.0
  11
 380.70000457764
  21
 211.50000000000
  31
0.0
   0
LINE
   5
19E
 100
AcDbEntity
   8
LEVEL001
 100
AcDbLine
   6
CONTINUOUS
  62
7
  10
 356.70000457764
  20
 213.49999237061
  30
0.0
  11
 356.70000457764
  21
 245.50000762939
  31
0.0
   0
LINE
   5
19F
 100
AcDbEntity
   8
LEVEL001
 100
AcDbLine
   6
CONTINUOUS
  62
7
  10
 381.70001220703
  20
 246.49999237061
  30
0.0
  11
 381.70001220703
  21
 212.50000762939
  31
0.0
   0
LINE
   5
1A0
 100
AcDbEntity
   8
LEVEL001
 100
AcDbLine
   6
CONTINUOUS
  62
7
  10
 340.54161071777
  20
 241.50000000000
  30
0.0
  11
 340.54161071777
  21
 235.30947875977
  31
0.0
   0
LINE
   5
1A1
 100
AcDbEntity
   8
LEVEL001
 100
AcDbLine
   6
CONTINUOUS
  62
7
  10
 340.54161071777
  20
 223.69052124023
  30
0.0
  11
 340.54161071777
  21
 217.50000000000
  31
0.0
   0
LINE
   5
1A2
 100
AcDbEntity
   8
LEVEL001
 100
AcDbLine
   6
CONTINUOUS
  62
7
  10
 340.54161071777
  20
 223.69052124023
  30
0.0
  11
 349.50000000000
  21
 235.30947875977
  31
0.0
   0
LINE
   5
1A3
 100
AcDbEntity
   8
LEVEL001
 100
AcDbLine
   6
CONTINUOUS
  62
7
  10
 340.54161071777
  20
 235.30947875977
  30
0.0
  11
 349.50000000000
  21
 223.69052124023
  31
0.0
   0
LINE
   5
1A4
 100
AcDbEntity
   8
LEVEL001
 100
AcDbLine
   6
CONTINUOUS
  62
3
  10
 364.69999694824
  20
 213.00000000000
  30
0.0
  11
 374.70000457764
  21
 213.00000000000
  31
0.0
   0
LINE
   5
1A5
 100
AcDbEntity
   8
LEVEL001
 100
AcDbLine
   6
CONTINUOUS
  62
3
  10
 364.69999694824
  20
 214.99999237061
  30
0.0
  11
 374.70000457764
  21
 214.99999237061
  31
0.0
   0
LINE
   5
1A6
 100
AcDbEntity
   8
LEVEL001
 100
AcDbLine
   6
CONTINUOUS
  62
3
  10
 364.69999694824
  20
 217.00000762939
  30
0.0
  11
 374.70000457764
  21
 217.00000762939
  31
0.0
   0
LINE
   5
1A7
 100
AcDbEntity
   8
LEVEL001
 100
AcDbLine
   6
CONTINUOUS
  62
3
  10
 364.69999694824
  20
 219.00000000000
  30
0.0
  11
 374.70000457764
  21
 219.00000000000
  31
0.0
   0
LINE
   5
1A8
 100
AcDbEntity
   8
LEVEL001
 100
AcDbLine
   6
CONTINUOUS
  62
3
  10
 364.69999694824
  20
 220.99999237061
  30
0.0
  11
 374.70000457764
  21
 220.99999237061
  31
0.0
   0
LINE
   5
1A9
 100
AcDbEntity
   8
LEVEL001
 100
AcDbLine
   6
CONTINUOUS
  62
3
  10
 364.69999694824
  20
 223.00000762939
  30
0.0
  11
 374.70000457764
  21
 223.00000762939
  31
0.0
   0
LINE
   5
1AA
 100
AcDbEntity
   8
LEVEL001
 100
AcDbLine
   6
CONTINUOUS
  62
3
  10
 364.69999694824
  20
 225.00000000000
  30
0.0
  11
 374.70000457764
  21
 225.00000000000
  31
0.0
   0
LINE
   5
1AB
 100
AcDbEntity
   8
LEVEL001
 100
AcDbLine
   6
CONTINUOUS
  62
3
  10
 364.69999694824
  20
 226.99999237061
  30
0.0
  11
 374.70000457764
  21
 226.99999237061
  31
0.0
   0
LINE
   5
1AC
 100
AcDbEntity
   8
LEVEL001
 100
AcDbLine
   6
CONTINUOUS
  62
3
  10
 364.69999694824
  20
 229.00000762939
  30
0.0
  11
 374.70000457764
  21
 229.00000762939
  31
0.0
   0
LINE
   5
1AD
 100
AcDbEntity
   8
LEVEL001
 100
AcDbLine
   6
CONTINUOUS
  62
3
  10
 364.69999694824
  20
 231.00000000000
  30
0.0
  11
 374.70000457764
  21
 231.00000000000
  31
0.0
   0
LINE
   5
1AE
 100
AcDbEntity
   8
LEVEL001
 100
AcDbLine
   6
CONTINUOUS
  62
3
  10
 364.69999694824
  20
 232.99999237061
  30
0.0
  11
 374.70000457764
  21
 232.99999237061
  31
0.0
   0
LINE
   5
1AF
 100
AcDbEntity
   8
LEVEL001
 100
AcDbLine
   6
CONTINUOUS
  62
3
  10
 364.69999694824
  20
 235.00000762939
  30
0.0
  11
 374.70000457764
  21
 235.00000762939
  31
0.0
   0
LINE
   5
1B0
 100
AcDbEntity
   8
LEVEL001
 100
AcDbLine
   6
CONTINUOUS
  62
3
  10
 364.69999694824
  20
 237.00000000000
  30
0.0
  11
 374.70000457764
  21
 237.00000000000
  31
0.0
   0
LINE
   5
1B1
 100
AcDbEntity
   8
LEVEL001
 100
AcDbLine
   6
CONTINUOUS
  62
3
  10
 364.69999694824
  20
 238.99999237061
  30
0.0
  11
 374.70000457764
  21
 238.99999237061
  31
0.0
   0
LINE
   5
1B2
 100
AcDbEntity
   8
LEVEL001
 100
AcDbLine
   6
CONTINUOUS
  62
3
  10
 364.69999694824
  20
 241.00000762939
  30
0.0
  11
 374.70000457764
  21
 241.00000762939
  31
0.0
   0
LINE
   5
1B3
 100
AcDbEntity
   8
LEVEL001
 100
AcDbLine
   6
CONTINUOUS
  62
3
  10
 364.69999694824
  20
 243.00000000000
  30
0.0
  11
 374.70000457764
  21
 243.00000000000
  31
0.0
   0
LINE
   5
1B4
 100
AcDbEntity
   8
LEVEL001
 100
AcDbLine
   6
CONTINUOUS
  62
3
  10
 364.69999694824
  20
 244.99999237061
  30
0.0
  11
 374.70000457764
  21
 244.99999237061
  31
0.0
   0
LINE
   5
1B5
 100
AcDbEntity
   8
LEVEL001
 100
AcDbLine
   6
CONTINUOUS
  62
3
  10
 364.69999694824
  20
 247.00000762939
  30
0.0
  11
 374.70000457764
  21
 247.00000762939
  31
0.0
   0
LINE
   5
1B6
 100
AcDbEntity
   8
LEVEL001
 100
AcDbLine
   6
CONTINUOUS
  62
7
  10
 338.49998474121
  20
 240.32128143311
  30
0.0
  11
 327.49999237061
  21
 239.97750091553
  31
0.0
   0
LINE
   5
1B7
 100
AcDbEntity
   8
LEVEL001
 100
AcDbLine
   6
CONTINUOUS
  62
7
  10
 338.49998474121
  20
 218.67871856689
  30
0.0
  11
 327.49999237061
  21
 219.02249908447
  31
0.0
   0
LINE
   5
1B8
 100
AcDbEntity
   8
LEVEL001
 100
AcDbLine
   6
CONTINUOUS
  62
3
  10
 333.59081268311
  20
 239.00585174561
  30
0.0
  11
 327.49999237061
  21
 238.81551361084
  31
0.0
   0
LINE
   5
1B9
 100
AcDbEntity
   8
LEVEL001
 100
AcDbLine
   6
CONTINUOUS
  62
3
  10
 333.59069824219
  20
 219.99417114258
  30
0.0
  11
 327.49999237061
  21
 220.18450927734
  31
0.0
   0
LINE
   5
1BA
 100
AcDbEntity
   8
LEVEL001
 100
AcDbLine
   6
DASHDOT
  62
1
  10
 381.70001220703
  20
 246.49999237061
  30
0.0
  11
 381.70001220703
  21
 247.50000000000
  31
0.0
   0
LINE
   5
1BB
 100
AcDbEntity
   8
LEVEL001
 100
AcDbLine
   6
DASHDOT
  62
1
  10
 381.70001220703
  20
 247.50000000000
  30
0.0
  11
 389.70002746582
  21
 247.50000000000
  31
0.0
   0
LINE
   5
1BC
 100
AcDbEntity
   8
LEVEL001
 100
AcDbLine
   6
DASHDOT
  62
1
  10
 389.70002746582
  20
 247.50000000000
  30
0.0
  11
 389.70002746582
  21
 211.50000000000
  31
0.0
   0
LINE
   5
1BD
 100
AcDbEntity
   8
LEVEL001
 100
AcDbLine
   6
DASHDOT
  62
1
  10
 389.70002746582
  20
 211.50000000000
  30
0.0
  11
 381.70001220703
  21
 211.50000000000
  31
0.0
   0
LINE
   5
1BE
 100
AcDbEntity
   8
LEVEL001
 100
AcDbLine
   6
DASHDOT
  62
1
  10
 381.70001220703
  20
 211.50000000000
  30
0.0
  11
 381.70001220703
  21
 212.50000762939
  31
0.0
   0
LINE
   5
1BF
 100
AcDbEntity
   8
LEVEL001
 100
AcDbLine
   6
CONTINUOUS
  62
7
  10
 364.69999694824
  20
 211.00000762939
  30
0.0
  11
 364.69999694824
  21
 247.99999237061
  31
0.0
   0
LINE
   5
1C0
 100
AcDbEntity
   8
LEVEL001
 100
AcDbLine
   6
CONTINUOUS
  62
7
  10
 364.69999694824
  20
 247.99999237061
  30
0.0
  11
 374.70000457764
  21
 247.99999237061
  31
0.0
   0
LINE
   5
1C1
 100
AcDbEntity
   8
LEVEL001
 100
AcDbLine
   6
CONTINUOUS
  62
7
  10
 374.70000457764
  20
 247.99999237061
  30
0.0
  11
 374.70000457764
  21
 211.00000762939
  31
0.0
   0
LINE
   5
1C2
 100
AcDbEntity
   8
LEVEL001
 100
AcDbLine
   6
CONTINUOUS
  62
7
  10
 374.70000457764
  20
 211.00000762939
  30
0.0
  11
 364.69999694824
  21
 211.00000762939
  31
0.0
   0
LINE
   5
1C3
 100
AcDbEntity
   8
LEVEL001
 100
AcDbLine
   6
CONTINUOUS
  62
7
  10
 338.49998474121
  20
 232.11724090576
  30
0.0
  11
 340.54161071777
  21
 235.30947875977
  31
0.0
   0
LINE
   5
1C4
 100
AcDbEntity
   8
LEVEL001
 100
AcDbLine
   6
CONTINUOUS
  62
7
  10
 340.54161071777
  20
 235.30947875977
  30
0.0
  11
 349.50000000000
  21
 235.30947875977
  31
0.0
   0
LINE
   5
1C5
 100
AcDbEntity
   8
LEVEL001
 100
AcDbLine
   6
CONTINUOUS
  62
7
  10
 349.50000000000
  20
 235.30947875977
  30
0.0
  11
 349.50000000000
  21
 223.69052124023
  31
0.0
   0
LINE
   5
1C6
 100
AcDbEntity
   8
LEVEL001
 100
AcDbLine
   6
CONTINUOUS
  62
7
  10
 349.50000000000
  20
 223.69052124023
  30
0.0
  11
 340.54161071777
  21
 223.69052124023
  31
0.0
   0
LINE
   5
1C7
 100
AcDbEntity
   8
LEVEL001
 100
AcDbLine
   6
CONTINUOUS
  62
7
  10
 340.54161071777
  20
 223.69052124023
  30
0.0
  11
 338.49998474121
  21
 226.88275909424
  31
0.0
   0
LINE
   5
1C8
 100
AcDbEntity
   8
LEVEL001
 100
AcDbLine
   6
CONTINUOUS
  62
7
  10
 356.70000457764
  20
 217.50000000000
  30
0.0
  11
 340.54161071777
  21
 217.50000000000
  31
0.0
   0
LINE
   5
1C9
 100
AcDbEntity
   8
LEVEL001
 100
AcDbLine
   6
CONTINUOUS
  62
7
  10
 340.54161071777
  20
 217.50000000000
  30
0.0
  11
 338.49998474121
  21
 218.67871856689
  31
0.0
   0
LINE
   5
1CA
 100
AcDbEntity
   8
LEVEL001
 100
AcDbLine
   6
CONTINUOUS
  62
7
  10
 338.49998474121
  20
 218.67871856689
  30
0.0
  11
 338.49998474121
  21
 240.32128143311
  31
0.0
   0
LINE
   5
1CB
 100
AcDbEntity
   8
LEVEL001
 100
AcDbLine
   6
CONTINUOUS
  62
7
  10
 338.49998474121
  20
 240.32128143311
  30
0.0
  11
 340.54161071777
  21
 241.50000000000
  31
0.0
   0
LINE
   5
1CC
 100
AcDbEntity
   8
LEVEL001
 100
AcDbLine
   6
CONTINUOUS
  62
7
  10
 340.54161071777
  20
 241.50000000000
  30
0.0
  11
 356.70000457764
  21
 241.50000000000
  31
0.0
   0
LINE
   5
1CD
 100
AcDbEntity
   8
LEVEL001
 100
AcDbLine
   6
CONTINUOUS
  62
3
  10
 333.59069824219
  20
 136.99417877197
  30
0.0
  11
 333.59081268311
  21
 156.00587081909
  31
0.0
   0
LINE
   5
1CE
 100
AcDbEntity
   8
LEVEL001
 100
AcDbLine
   6
CONTINUOUS
  62
3
  10
 338.49998474121
  20
 157.32127761841
  30
0.0
  11
 333.59081268311
  21
 156.00587081909
  31
0.0
   0
LINE
   5
1CF
 100
AcDbEntity
   8
LEVEL001
 100
AcDbLine
   6
CONTINUOUS
  62
3
  10
 338.49998474121
  20
 135.67873764038
  30
0.0
  11
 333.59069824219
  21
 136.99417877197
  31
0.0
   0
ARC
   5
1D0
 100
AcDbEntity
   8
LEVEL001
   6
CONTINUOUS
  62
7
 100
AcDbCircle
  10
 358.70000463724
  20
 162.50000756980
  30
0.0
  40
 2.0000000596046
 100
AcDbArc
  50
 90.000220273493
  51
 180.00010757582
   0
LINE
   5
1D1
 100
AcDbEntity
   8
LEVEL001
 100
AcDbLine
   6
CONTINUOUS
  62
7
  10
 358.69999694824
  20
 164.50000762939
  30
0.0
  11
 364.69999694824
  21
 164.50000762939
  31
0.0
   0
ARC
   5
1D2
 100
AcDbEntity
   8
LEVEL001
   6
CONTINUOUS
  62
7
 100
AcDbCircle
  10
 380.70001217724
  20
 163.50000759962
  30
0.0
  40
 1.0000000298023
 100
AcDbArc
  50
 0.22027194292571E-3
  51
 90.000435424732
   0
LINE
   5
1D3
 100
AcDbEntity
   8
LEVEL001
 100
AcDbLine
   6
CONTINUOUS
  62
7
  10
 374.70000457764
  20
 164.50000762939
  30
0.0
  11
 380.70000457764
  21
 164.50000762939
  31
0.0
   0
ARC
   5
1D4
 100
AcDbEntity
   8
LEVEL001
   6
CONTINUOUS
  62
7
 100
AcDbCircle
  10
 358.70000463724
  20
 130.50000768898
  30
0.0
  40
 2.0000000596046
 100
AcDbArc
  50
 179.99989242410
  51
 269.99977972655
   0
LINE
   5
1D5
 100
AcDbEntity
   8
LEVEL001
 100
AcDbLine
   6
CONTINUOUS
  62
7
  10
 358.69999694824
  20
 128.50000762939
  30
0.0
  11
 364.69999694824
  21
 128.50000762939
  31
0.0
   0
ARC
   5
1D6
 100
AcDbEntity
   8
LEVEL001
   6
CONTINUOUS
  62
7
 100
AcDbCircle
  10
 380.70001217724
  20
 129.50000765917
  30
0.0
  40
 1.0000000298023
 100
AcDbArc
  50
 269.99956457503
  51
 0.10910574454132E-9
   0
LINE
   5
1D7
 100
AcDbEntity
   8
LEVEL001
 100
AcDbLine
   6
CONTINUOUS
  62
7
  10
 374.70000457764
  20
 128.50000762939
  30
0.0
  11
 380.70000457764
  21
 128.50000762939
  31
0.0
   0
LINE
   5
1D8
 100
AcDbEntity
   8
LEVEL001
 100
AcDbLine
   6
CONTINUOUS
  62
7
  10
 356.70000457764
  20
 130.50001144409
  30
0.0
  11
 356.70000457764
  21
 162.50000381470
  31
0.0
   0
LINE
   5
1D9
 100
AcDbEntity
   8
LEVEL001
 100
AcDbLine
   6
CONTINUOUS
  62
7
  10
 381.70001220703
  20
 163.50001144409
  30
0.0
  11
 381.70001220703
  21
 129.50000381470
  31
0.0
   0
LINE
   5
1DA
 100
AcDbEntity
   8
LEVEL001
 100
AcDbLine
   6
CONTINUOUS
  62
7
  10
 340.54161071777
  20
 158.50000762939
  30
0.0
  11
 340.54161071777
  21
 152.30948638916
  31
0.0
   0
LINE
   5
1DB
 100
AcDbEntity
   8
LEVEL001
 100
AcDbLine
   6
CONTINUOUS
  62
7
  10
 340.54161071777
  20
 140.69052886963
  30
0.0
  11
 340.54161071777
  21
 134.50000762939
  31
0.0
   0
LINE
   5
1DC
 100
AcDbEntity
   8
LEVEL001
 100
AcDbLine
   6
CONTINUOUS
  62
7
  10
 340.54161071777
  20
 140.69052886963
  30
0.0
  11
 349.50000000000
  21
 152.30948638916
  31
0.0
   0
LINE
   5
1DD
 100
AcDbEntity
   8
LEVEL001
 100
AcDbLine
   6
CONTINUOUS
  62
7
  10
 340.54161071777
  20
 152.30948638916
  30
0.0
  11
 349.50000000000
  21
 140.69052886963
  31
0.0
   0
LINE
   5
1DE
 100
AcDbEntity
   8
LEVEL001
 100
AcDbLine
   6
CONTINUOUS
  62
3
  10
 364.69999694824
  20
 130.00000762939
  30
0.0
  11
 374.70000457764
  21
 130.00000762939
  31
0.0
   0
LINE
   5
1DF
 100
AcDbEntity
   8
LEVEL001
 100
AcDbLine
   6
CONTINUOUS
  62
3
  10
 364.69999694824
  20
 132.00001144409
  30
0.0
  11
 374.70000457764
  21
 132.00001144409
  31
0.0
   0
LINE
   5
1E0
 100
AcDbEntity
   8
LEVEL001
 100
AcDbLine
   6
CONTINUOUS
  62
3
  10
 364.69999694824
  20
 134.00000381470
  30
0.0
  11
 374.70000457764
  21
 134.00000381470
  31
0.0
   0
LINE
   5
1E1
 100
AcDbEntity
   8
LEVEL001
 100
AcDbLine
   6
CONTINUOUS
  62
3
  10
 364.69999694824
  20
 136.00000762939
  30
0.0
  11
 374.70000457764
  21
 136.00000762939
  31
0.0
   0
LINE
   5
1E2
 100
AcDbEntity
   8
LEVEL001
 100
AcDbLine
   6
CONTINUOUS
  62
3
  10
 364.69999694824
  20
 138.00001144409
  30
0.0
  11
 374.70000457764
  21
 138.00001144409
  31
0.0
   0
LINE
   5
1E3
 100
AcDbEntity
   8
LEVEL001
 100
AcDbLine
   6
CONTINUOUS
  62
3
  10
 364.69999694824
  20
 140.00000381470
  30
0.0
  11
 374.70000457764
  21
 140.00000381470
  31
0.0
   0
LINE
   5
1E4
 100
AcDbEntity
   8
LEVEL001
 100
AcDbLine
   6
CONTINUOUS
  62
3
  10
 364.69999694824
  20
 142.00000762939
  30
0.0
  11
 374.70000457764
  21
 142.00000762939
  31
0.0
   0
LINE
   5
1E5
 100
AcDbEntity
   8
LEVEL001
 100
AcDbLine
   6
CONTINUOUS
  62
3
  10
 364.69999694824
  20
 144.00001144409
  30
0.0
  11
 374.70000457764
  21
 144.00001144409
  31
0.0
   0
LINE
   5
1E6
 100
AcDbEntity
   8
LEVEL001
 100
AcDbLine
   6
CONTINUOUS
  62
3
  10
 364.69999694824
  20
 146.00000381470
  30
0.0
  11
 374.70000457764
  21
 146.00000381470
  31
0.0
   0
LINE
   5
1E7
 100
AcDbEntity
   8
LEVEL001
 100
AcDbLine
   6
CONTINUOUS
  62
3
  10
 364.69999694824
  20
 148.00000762939
  30
0.0
  11
 374.70000457764
  21
 148.00000762939
  31
0.0
   0
LINE
   5
1E8
 100
AcDbEntity
   8
LEVEL001
 100
AcDbLine
   6
CONTINUOUS
  62
3
  10
 364.69999694824
  20
 150.00001144409
  30
0.0
  11
 374.70000457764
  21
 150.00001144409
  31
0.0
   0
LINE
   5
1E9
 100
AcDbEntity
   8
LEVEL001
 100
AcDbLine
   6
CONTINUOUS
  62
3
  10
 364.69999694824
  20
 152.00000381470
  30
0.0
  11
 374.70000457764
  21
 152.00000381470
  31
0.0
   0
LINE
   5
1EA
 100
AcDbEntity
   8
LEVEL001
 100
AcDbLine
   6
CONTINUOUS
  62
3
  10
 364.69999694824
  20
 154.00000762939
  30
0.0
  11
 374.70000457764
  21
 154.00000762939
  31
0.0
   0
LINE
   5
1EB
 100
AcDbEntity
   8
LEVEL001
 100
AcDbLine
   6
CONTINUOUS
  62
3
  10
 364.69999694824
  20
 156.00001144409
  30
0.0
  11
 374.70000457764
  21
 156.00001144409
  31
0.0
   0
LINE
   5
1EC
 100
AcDbEntity
   8
LEVEL001
 100
AcDbLine
   6
CONTINUOUS
  62
3
  10
 364.69999694824
  20
 158.00000381470
  30
0.0
  11
 374.70000457764
  21
 158.00000381470
  31
0.0
   0
LINE
   5
1ED
 100
AcDbEntity
   8
LEVEL001
 100
AcDbLine
   6
CONTINUOUS
  62
3
  10
 364.69999694824
  20
 160.00000762939
  30
0.0
  11
 374.70000457764
  21
 160.00000762939
  31
0.0
   0
LINE
   5
1EE
 100
AcDbEntity
   8
LEVEL001
 100
AcDbLine
   6
CONTINUOUS
  62
3
  10
 364.69999694824
  20
 162.00001144409
  30
0.0
  11
 374.70000457764
  21
 162.00001144409
  31
0.0
   0
LINE
   5
1EF
 100
AcDbEntity
   8
LEVEL001
 100
AcDbLine
   6
CONTINUOUS
  62
3
  10
 364.69999694824
  20
 164.00000381470
  30
0.0
  11
 374.70000457764
  21
 164.00000381470
  31
0.0
   0
LINE
   5
1F0
 100
AcDbEntity
   8
LEVEL001
 100
AcDbLine
   6
CONTINUOUS
  62
7
  10
 338.49998474121
  20
 157.32127761841
  30
0.0
  11
 327.49999237061
  21
 156.97749710083
  31
0.0
   0
LINE
   5
1F1
 100
AcDbEntity
   8
LEVEL001
 100
AcDbLine
   6
CONTINUOUS
  62
7
  10
 338.49998474121
  20
 135.67873764038
  30
0.0
  11
 327.49999237061
  21
 136.02251815796
  31
0.0
   0
LINE
   5
1F2
 100
AcDbEntity
   8
LEVEL001
 100
AcDbLine
   6
CONTINUOUS
  62
3
  10
 333.59081268311
  20
 156.00587081909
  30
0.0
  11
 327.49999237061
  21
 155.81550979614
  31
0.0
   0
LINE
   5
1F3
 100
AcDbEntity
   8
LEVEL001
 100
AcDbLine
   6
CONTINUOUS
  62
3
  10
 333.59069824219
  20
 136.99417877197
  30
0.0
  11
 327.49999237061
  21
 137.18451690674
  31
0.0
   0
LINE
   5
1F4
 100
AcDbEntity
   8
LEVEL001
 100
AcDbLine
   6
DASHDOT
  62
1
  10
 381.70001220703
  20
 163.50001144409
  30
0.0
  11
 381.70001220703
  21
 164.50000762939
  31
0.0
   0
LINE
   5
1F5
 100
AcDbEntity
   8
LEVEL001
 100
AcDbLine
   6
DASHDOT
  62
1
  10
 381.70001220703
  20
 164.50000762939
  30
0.0
  11
 389.70002746582
  21
 164.50000762939
  31
0.0
   0
LINE
   5
1F6
 100
AcDbEntity
   8
LEVEL001
 100
AcDbLine
   6
DASHDOT
  62
1
  10
 389.70002746582
  20
 164.50000762939
  30
0.0
  11
 389.70002746582
  21
 128.50000762939
  31
0.0
   0
LINE
   5
1F7
 100
AcDbEntity
   8
LEVEL001
 100
AcDbLine
   6
DASHDOT
  62
1
  10
 389.70002746582
  20
 128.50000762939
  30
0.0
  11
 381.70001220703
  21
 128.50000762939
  31
0.0
   0
LINE
   5
1F8
 100
AcDbEntity
   8
LEVEL001
 100
AcDbLine
   6
DASHDOT
  62
1
  10
 381.70001220703
  20
 128.50000762939
  30
0.0
  11
 381.70001220703
  21
 129.50000381470
  31
0.0
   0
LINE
   5
1F9
 100
AcDbEntity
   8
LEVEL001
 100
AcDbLine
   6
CONTINUOUS
  62
7
  10
 364.69999694824
  20
 128.00000381470
  30
0.0
  11
 364.69999694824
  21
 165.00001144409
  31
0.0
   0
LINE
   5
1FA
 100
AcDbEntity
   8
LEVEL001
 100
AcDbLine
   6
CONTINUOUS
  62
7
  10
 364.69999694824
  20
 165.00001144409
  30
0.0
  11
 374.70000457764
  21
 165.00001144409
  31
0.0
   0
LINE
   5
1FB
 100
AcDbEntity
   8
LEVEL001
 100
AcDbLine
   6
CONTINUOUS
  62
7
  10
 374.70000457764
  20
 165.00001144409
  30
0.0
  11
 374.70000457764
  21
 128.00000381470
  31
0.0
   0
LINE
   5
1FC
 100
AcDbEntity
   8
LEVEL001
 100
AcDbLine
   6
CONTINUOUS
  62
7
  10
 374.70000457764
  20
 128.00000381470
  30
0.0
  11
 364.69999694824
  21
 128.00000381470
  31
0.0
   0
LINE
   5
1FD
 100
AcDbEntity
   8
LEVEL001
 100
AcDbLine
   6
CONTINUOUS
  62
7
  10
 338.49998474121
  20
 149.11725997925
  30
0.0
  11
 340.54161071777
  21
 152.30948638916
  31
0.0
   0
LINE
   5
1FE
 100
AcDbEntity
   8
LEVEL001
 100
AcDbLine
   6
CONTINUOUS
  62
7
  10
 340.54161071777
  20
 152.30948638916
  30
0.0
  11
 349.50000000000
  21
 152.30948638916
  31
0.0
   0
LINE
   5
1FF
 100
AcDbEntity
   8
LEVEL001
 100
AcDbLine
   6
CONTINUOUS
  62
7
  10
 349.50000000000
  20
 152.30948638916
  30
0.0
  11
 349.50000000000
  21
 140.69052886963
  31
0.0
   0
LINE
   5
200
 100
AcDbEntity
   8
LEVEL001
 100
AcDbLine
   6
CONTINUOUS
  62
7
  10
 349.50000000000
  20
 140.69052886963
  30
0.0
  11
 340.54161071777
  21
 140.69052886963
  31
0.0
   0
LINE
   5
201
 100
AcDbEntity
   8
LEVEL001
 100
AcDbLine
   6
CONTINUOUS
  62
7
  10
 340.54161071777
  20
 140.69052886963
  30
0.0
  11
 338.49998474121
  21
 143.88275527954
  31
0.0
   0
LINE
   5
202
 100
AcDbEntity
   8
LEVEL001
 100
AcDbLine
   6
CONTINUOUS
  62
7
  10
 356.70000457764
  20
 134.50000762939
  30
0.0
  11
 340.54161071777
  21
 134.50000762939
  31
0.0
   0
LINE
   5
203
 100
AcDbEntity
   8
LEVEL001
 100
AcDbLine
   6
CONTINUOUS
  62
7
  10
 340.54161071777
  20
 134.50000762939
  30
0.0
  11
 338.49998474121
  21
 135.67873764038
  31
0.0
   0
LINE
   5
204
 100
AcDbEntity
   8
LEVEL001
 100
AcDbLine
   6
CONTINUOUS
  62
7
  10
 338.49998474121
  20
 135.67873764038
  30
0.0
  11
 338.49998474121
  21
 157.32127761841
  31
0.0
   0
LINE
   5
205
 100
AcDbEntity
   8
LEVEL001
 100
AcDbLine
   6
CONTINUOUS
  62
7
  10
 338.49998474121
  20
 157.32127761841
  30
0.0
  11
 340.54161071777
  21
 158.50000762939
  31
0.0
   0
LINE
   5
206
 100
AcDbEntity
   8
LEVEL001
 100
AcDbLine
   6
CONTINUOUS
  62
7
  10
 340.54161071777
  20
 158.50000762939
  30
0.0
  11
 356.70000457764
  21
 158.50000762939
  31
0.0
   0
LEADER
   5
207
 100
AcDbEntity
   8
LEVEL003
   6
CONTINUOUS
  62
3
 100
AcDbLeader
   3
GMM003
  73
0
  74
1
  75
0
  40
 6.0000000000000
  41
0.0
  76
2
  10
 369.76972961426
  20
 165.00001144409
  30
0.0
  10
 379.92990875244
  20
 186.43320465088
  30
0.0
  77
3
   0
LEADER
   5
208
 100
AcDbEntity
   8
LEVEL003
   6
CONTINUOUS
  62
3
 100
AcDbLeader
   3
GMM002
  73
0
  74
1
  75
0
  40
 7.2000002861023
  41
0.0
  76
3
  10
 332.93225097656
  20
 135.85274505615
  30
0.0
  10
 352.50000000000
  20
 97.500000000000
  30
0.0
  10
 382.50000000000
  20
 97.500000000000
  30
0.0
  77
3
   0
LEADER
   5
209
 100
AcDbEntity
   8
LEVEL003
   6
CONTINUOUS
  62
3
 100
AcDbLeader
   3
GMM002
  73
0
  74
1
  75
0
  40
 7.2000002861023
  41
0.0
  76
3
  10
 104.99997711182
  20
 119.50000762939
  30
0.0
  10
 82.500000000000
  20
 97.500000000000
  30
0.0
  10
 45.000000000000
  20
 97.500000000000
  30
0.0
  77
3
   0
DIMENSION
   5
20A
 100
AcDbEntity
   8
LEVEL003
   6
CONTINUOUS
  62
3
 100
AcDbDimension
   2
*D6
  10
 132.49999237061
  20
 345.00000000000
  30
0.0
  11
 187.50000329584
  21
 345.00000000000
  31
0.0
  70
128
   1
\A1;%%c110
   3
GMM004
 100
AcDbAlignedDimension
  13
 242.50000762939
  23
 308.50003051758
  33
0.0
  14
 132.49999237061
  24
 308.50003051758
  34
0.0
  50
 180.00000000000
 100
AcDbRotatedDimension
   0
DIMENSION
   5
20C
 100
AcDbEntity
   8
LEVEL003
   6
CONTINUOUS
  62
3
 100
AcDbDimension
   2
*D7
  10
 60.000000000000
  20
 119.50000762939
  30
0.0
  11
 60.000000000000
  21
 177.00000000000
  31
0.0
  70
128
   1
\A1;115
   3
GMM005
 100
AcDbAlignedDimension
  13
 187.50000000000
  23
 234.50001525879
  33
0.0
  14
 90.500003814697
  24
 119.50000762939
  34
0.0
  50
 270.00000000000
 100
AcDbRotatedDimension
   0
DIMENSION
   5
20E
 100
AcDbEntity
   8
LEVEL003
   6
CONTINUOUS
  62
3
 100
AcDbDimension
   2
*D8
  10
 420.00000000000
  20
 119.50000762939
  30
0.0
  11
 420.00000000000
  21
 214.50000000000
  31
0.0
  70
128
   1
\A1;190
   3
GMM006
 100
AcDbAlignedDimension
  13
 241.50000000000
  23
 309.50001525879
  33
0.0
  14
 284.50000762939
  24
 119.50000762939
  34
0.0
  50
 270.00000000000
 100
AcDbRotatedDimension
   0
DIMENSION
   5
210
 100
AcDbEntity
   8
LEVEL003
   6
CONTINUOUS
  62
3
 100
AcDbDimension
   2
*D9
  10
 405.00000000000
  20
 119.50000762939
  30
0.0
  11
 405.00000000000
  21
 133.00000762939
  31
0.0
  70
128
   1
\A1;27
   3
GMM006
 100
AcDbAlignedDimension
  13
 393.61642456055
  23
 146.50000762939
  33
0.0
  14
 284.50000762939
  24
 119.50000762939
  34
0.0
  50
 270.00000000000
 100
AcDbRotatedDimension
   0
DIMENSION
   5
212
 100
AcDbEntity
   8
LEVEL003
   6
CONTINUOUS
  62
3
 100
AcDbDimension
   2
*D10
  10
 405.00000000000
  20
 289.50002288818
  30
0.0
  11
 405.00000000000
  21
 299.50003051758
  31
0.0
  70
128
   1
\A1;20
   3
GMM006
 100
AcDbAlignedDimension
  13
 241.50000000000
  23
 309.50001525879
  33
0.0
  14
 284.50000762939
  24
 289.50002288818
  34
0.0
  50
 270.00000000000
 100
AcDbRotatedDimension
   0
DIMENSION
   5
214
 100
AcDbEntity
   8
LEVEL003
   6
CONTINUOUS
  62
3
 100
AcDbDimension
   2
*D11
  10
 390.00000000000
  20
 294.50001525879
  30
0.0
  11
 390.00000000000
  21
 302.00001525879
  31
0.0
  70
128
   1
\A1;15
   3
GMM006
 100
AcDbAlignedDimension
  13
 241.50000000000
  23
 309.50001525879
  33
0.0
  14
 249.00000000000
  24
 294.50001525879
  34
0.0
  50
 270.00000000000
 100
AcDbRotatedDimension
   0
DIMENSION
   5
216
 100
AcDbEntity
   8
LEVEL003
   6
CONTINUOUS
  62
3
 100
AcDbDimension
   2
*D12
  10
 405.00000000000
  20
 229.50000000000
  30
0.0
  11
 405.00000000000
  21
 259.50000000000
  31
0.0
  70
128
   1
\A1;60
   3
GMM006
 100
AcDbAlignedDimension
  13
 284.50000762939
  23
 289.50002288818
  33
0.0
  14
 393.61642456055
  24
 229.50000000000
  34
0.0
  50
 270.00000000000
 100
AcDbRotatedDimension
   0
TEXT
   5
218
 100
AcDbEntity
   8
LEVEL003
  62
3
 100
AcDbText
  10
 45.000000000000
  20
 97.500000000000
  30
0.0
  40
 6.0000000000000
   1
４－Ｍ１６
   7
STANDARD
 100
AcDbText
   0
TEXT
   5
219
 100
AcDbEntity
   8
LEVEL003
  62
3
 100
AcDbText
  10
 45.000000000000
  20
 89.500000000000
  30
0.0
  40
 6.0000000000000
   1
タップ　１７
   7
STANDARD
 100
AcDbText
   0
TEXT
   5
21A
 100
AcDbEntity
   8
LEVEL003
  62
3
 100
AcDbText
  10
 45.000000000000
  20
 81.500000000000
  30
0.0
  40
 6.0000000000000
   1
ポートに対し
   7
STANDARD
 100
AcDbText
   0
TEXT
   5
21B
 100
AcDbEntity
   8
LEVEL003
  62
3
 100
AcDbText
  10
 45.000000000000
  20
 73.500000000000
  30
0.0
  40
 6.0000000000000
   1
４５%%d振り
   7
STANDARD
 100
AcDbText
   0
LINE
   5
21C
 100
AcDbEntity
   8
LEVEL001
 100
AcDbLine
   6
CONTINUOUS
  62
7
  10
 287.50000762939
  20
 286.50002288818
  30
0.0
  11
 287.50000762939
  21
 122.50000762939
  31
0.0
   0
LINE
   5
21D
 100
AcDbEntity
   8
LEVEL001
 100
AcDbLine
   6
DASHDOT
  62
1
  10
 393.61642456055
  20
 229.50000000000
  30
0.0
  11
 265.00000762939
  21
 229.50000000000
  31
0.0
   0
LINE
   5
21E
 100
AcDbEntity
   8
LEVEL001
 100
AcDbLine
   6
CONTINUOUS
  62
7
  10
 297.50001525879
  20
 238.14349365234
  30
0.0
  11
 287.50000762939
  21
 237.83100093573
  31
0.0
   0
LINE
   5
21F
 100
AcDbEntity
   8
LEVEL001
 100
AcDbLine
   6
CONTINUOUS
  62
3
  10
 293.88368225098
  20
 237.17449951172
  30
0.0
  11
 287.50000762939
  21
 236.97499460082
  31
0.0
   0
LINE
   5
220
 100
AcDbEntity
   8
LEVEL001
 100
AcDbLine
   6
CONTINUOUS
  62
3
  10
 293.88363647461
  20
 221.82550048828
  30
0.0
  11
 287.50000762939
  21
 222.02500585358
  31
0.0
   0
LINE
   5
221
 100
AcDbEntity
   8
LEVEL001
 100
AcDbLine
   6
CONTINUOUS
  62
7
  10
 297.50001525879
  20
 220.85650634766
  30
0.0
  11
 287.50000762939
  21
 221.16899864640
  31
0.0
   0
LINE
   5
222
 100
AcDbEntity
   8
LEVEL001
 100
AcDbLine
   6
CONTINUOUS
  62
3
  10
 293.88363647461
  20
 138.82550811768
  30
0.0
  11
 287.50000762939
  21
 139.02500280199
  31
0.0
   0
LINE
   5
223
 100
AcDbEntity
   8
LEVEL001
 100
AcDbLine
   6
CONTINUOUS
  62
7
  10
 297.50001525879
  20
 137.85651397705
  30
0.0
  11
 287.50000762939
  21
 138.16901964788
  31
0.0
   0
LINE
   5
224
 100
AcDbEntity
   8
LEVEL001
 100
AcDbLine
   6
CONTINUOUS
  62
3
  10
 293.88368225098
  20
 154.17450714111
  30
0.0
  11
 287.50000762939
  21
 153.97497207226
  31
0.0
   0
LINE
   5
225
 100
AcDbEntity
   8
LEVEL001
 100
AcDbLine
   6
CONTINUOUS
  62
7
  10
 297.50001525879
  20
 155.14350128174
  30
0.0
  11
 287.50000762939
  21
 154.83100187908
  31
0.0
   0
LINE
   5
226
 100
AcDbEntity
   8
LEVEL001
 100
AcDbLine
   6
DASHDOT
  62
1
  10
 393.61642456055
  20
 146.50000762939
  30
0.0
  11
 265.00000762939
  21
 146.50000762939
  31
0.0
   0
LINE
   5
227
 100
AcDbEntity
   8
LEVEL001
 100
AcDbLine
   6
DOT
  62
3
  10
 250.00000762939
  20
 291.50001525879
  30
0.0
  11
 250.00000762939
  21
 195.50001525879
  31
0.0
   0
LINE
   5
228
 100
AcDbEntity
   8
LEVEL001
 100
AcDbLine
   6
DOT
  62
3
  10
 265.00000762939
  20
 256.50002288818
  30
0.0
  11
 265.00000762939
  21
 157.50000000000
  31
0.0
   0
LINE
   5
229
 100
AcDbEntity
   8
LEVEL001
 100
AcDbLine
   6
DOT
  62
3
  10
 216.87432861328
  20
 120.31427764893
  30
0.0
  11
 215.00001525879
  21
 124.99999237061
  31
0.0
   0
LINE
   5
22A
 100
AcDbEntity
   8
LEVEL001
 100
AcDbLine
   6
DOT
  62
3
  10
 225.00000000000
  20
 229.99999237061
  30
0.0
  11
 225.00000000000
  21
 132.00000000000
  31
0.0
   0
LINE
   5
22B
 100
AcDbEntity
   8
LEVEL001
 100
AcDbLine
   6
DOT
  62
3
  10
 224.00001525879
  20
 235.00000762939
  30
0.0
  11
 225.00000000000
  21
 229.99999237061
  31
0.0
   0
LINE
   5
22C
 100
AcDbEntity
   8
LEVEL001
 100
AcDbLine
   6
DOT
  62
3
  10
 216.00002288818
  20
 235.00000762939
  30
0.0
  11
 215.00001525879
  21
 229.99999237061
  31
0.0
   0
LINE
   5
22D
 100
AcDbEntity
   8
LEVEL001
 100
AcDbLine
   6
DOT
  62
3
  10
 215.00001525879
  20
 124.99999237061
  30
0.0
  11
 215.00001525879
  21
 229.99999237061
  31
0.0
   0
LINE
   5
22E
 100
AcDbEntity
   8
LEVEL001
 100
AcDbLine
   6
DOT
  62
3
  10
 224.00001525879
  20
 235.00000762939
  30
0.0
  11
 216.00002288818
  21
 235.00000762939
  31
0.0
   0
LINE
   5
22F
 100
AcDbEntity
   8
LEVEL001
 100
AcDbLine
   6
DOT
  62
3
  10
 229.00000762939
  20
 264.50001525879
  30
0.0
  11
 229.99999237061
  21
 265.50002288818
  31
0.0
   0
LINE
   5
230
 100
AcDbEntity
   8
LEVEL001
 100
AcDbLine
   6
DOT
  62
3
  10
 229.99999237061
  20
 265.50002288818
  30
0.0
  11
 229.99999237061
  21
 291.50001525879
  31
0.0
   0
ARC
   5
231
 100
AcDbEntity
   8
LEVEL001
   6
DOT
  62
3
 100
AcDbCircle
  10
 230.00000765917
  20
 292.50001528847
  30
0.0
  40
 1.0000000298023
 100
AcDbArc
  50
 179.99956456876
  51
 269.99912403004
   0
ARC
   5
232
 100
AcDbEntity
   8
LEVEL001
   6
DOT
  62
3
 100
AcDbCircle
  10
 230.00000765908
  20
 293.50001522910
  30
0.0
  40
 1.0000000298023
 100
AcDbArc
  50
 90.000875965039
  51
 179.99912403512
   0
LINE
   5
233
 100
AcDbEntity
   8
LEVEL001
 100
AcDbLine
   6
DOT
  62
3
  10
 229.00000762939
  20
 292.50002288818
  30
0.0
  11
 229.00000762939
  21
 293.50003051758
  31
0.0
   0
ARC
   5
234
 100
AcDbEntity
   8
LEVEL001
   6
DOT
  62
3
 100
AcDbCircle
  10
 217.98806744961
  20
 307.50001519918
  30
0.0
  40
 2.0000000596046
 100
AcDbArc
  50
 89.999994919492
  51
 163.30041771338
   0
LINE
   5
235
 100
AcDbEntity
   8
LEVEL001
 100
AcDbLine
   6
DOT
  62
3
  10
 216.07241821289
  20
 308.07472229004
  30
0.0
  11
 215.00001525879
  21
 304.50002288818
  31
0.0
   0
LINE
   5
236
 100
AcDbEntity
   8
LEVEL001
 100
AcDbLine
   6
DOT
  62
3
  10
 215.00001525879
  20
 270.50001525879
  30
0.0
  11
 215.00001525879
  21
 304.50002288818
  31
0.0
   0
ARC
   5
237
 100
AcDbEntity
   8
LEVEL001
   6
DOT
  62
3
 100
AcDbCircle
  10
 218.06156811813
  20
 266.50001531838
  30
0.0
  40
 2.0000000596046
 100
AcDbArc
  50
 194.03641176772
  51
 269.99981282466
   0
LINE
   5
238
 100
AcDbEntity
   8
LEVEL001
 100
AcDbLine
   6
DOT
  62
3
  10
 216.12128448486
  20
 266.01493835449
  30
0.0
  11
 215.00001525879
  21
 270.50001525879
  31
0.0
   0
LINE
   5
239
 100
AcDbEntity
   8
LEVEL001
 100
AcDbLine
   6
DOT
  62
3
  10
 229.99999237061
  20
 294.50001525879
  30
0.0
  11
 229.99999237061
  21
 291.50001525879
  31
0.0
   0
LINE
   5
23A
 100
AcDbEntity
   8
LEVEL001
 100
AcDbLine
   6
DOT
  62
3
  10
 229.99999237061
  20
 265.50002288818
  30
0.0
  11
 229.99999237061
  21
 249.50001525879
  31
0.0
   0
LINE
   5
23B
 100
AcDbEntity
   8
LEVEL001
 100
AcDbLine
   6
DOT
  62
3
  10
 229.99999237061
  20
 249.50001525879
  30
0.0
  11
 229.00000762939
  21
 249.50001525879
  31
0.0
   0
LINE
   5
23C
 100
AcDbEntity
   8
LEVEL001
 100
AcDbLine
   6
DOT
  62
3
  10
 229.99999237061
  20
 249.50001525879
  30
0.0
  11
 227.50000762939
  21
 245.76795959473
  31
0.0
   0
LINE
   5
23D
 100
AcDbEntity
   8
LEVEL001
 100
AcDbLine
   6
DOT
  62
3
  10
 229.99999237061
  20
 294.50001525879
  30
0.0
  11
 229.00000762939
  21
 293.50000762939
  31
0.0
   0
LINE
   5
23E
 100
AcDbEntity
   8
LEVEL001
 100
AcDbLine
   6
DOT
  62
3
  10
 229.00000762939
  20
 293.50000762939
  30
0.0
  11
 229.00000762939
  21
 249.50001525879
  31
0.0
   0
LINE
   5
23F
 100
AcDbEntity
   8
LEVEL001
 100
AcDbLine
   6
DOT
  62
3
  10
 229.00000762939
  20
 249.50001525879
  30
0.0
  11
 227.50000762939
  21
 249.50001525879
  31
0.0
   0
LINE
   5
240
 100
AcDbEntity
   8
LEVEL001
 100
AcDbLine
   6
DOT
  62
3
  10
 229.00000762939
  20
 264.50001525879
  30
0.0
  11
 218.06156158447
  21
 264.50001525879
  31
0.0
   0
LINE
   5
241
 100
AcDbEntity
   8
LEVEL001
 100
AcDbLine
   6
DOT
  62
3
  10
 227.50000762939
  20
 249.50001525879
  30
0.0
  11
 227.50000762939
  21
 181.50000000000
  31
0.0
   0
DIMENSION
   5
242
 100
AcDbEntity
   8
LEVEL003
   6
CONTINUOUS
  62
3
 100
AcDbDimension
   2
*D13
  10
 202.50000000000
  20
 249.50001525879
  30
0.0
  11
 202.50000000000
  21
 272.00001525879
  31
0.0
  70
128
   1
\A1;45
   3
GMM007
 100
AcDbAlignedDimension
  13
 229.99999237061
  23
 294.50001525879
  33
0.0
  14
 227.50000762939
  24
 249.50001525879
  34
0.0
  50
 270.00000000000
 100
AcDbRotatedDimension
   0
LINE
   5
244
 100
AcDbEntity
   8
LEVEL001
 100
AcDbLine
   6
CONTINUOUS
  62
7
  10
 284.50000762939
  20
 289.50002288818
  30
0.0
  11
 187.50000000000
  21
 289.50002288818
  31
0.0
   0
LINE
   5
245
 100
AcDbEntity
   8
LEVEL001
 100
AcDbLine
   6
CONTINUOUS
  62
7
  10
 249.00000000000
  20
 294.50001525879
  30
0.0
  11
 187.50000000000
  21
 294.50001525879
  31
0.0
   0
LINE
   5
246
 100
AcDbEntity
   8
LEVEL001
 100
AcDbLine
   6
CONTINUOUS
  62
7
  10
 242.50000762939
  20
 308.50003051758
  30
0.0
  11
 187.50000000000
  21
 308.50003051758
  31
0.0
   0
LINE
   5
247
 100
AcDbEntity
   8
LEVEL001
 100
AcDbLine
   6
CONTINUOUS
  62
7
  10
 250.00000762939
  20
 291.50001525879
  30
0.0
  11
 187.50000000000
  21
 291.50001525879
  31
0.0
   0
LINE
   5
248
 100
AcDbEntity
   8
LEVEL001
 100
AcDbLine
   6
CONTINUOUS
  62
7
  10
 287.50000762939
  20
 286.50002288818
  30
0.0
  11
 187.50000000000
  21
 286.50002288818
  31
0.0
   0
LINE
   5
249
 100
AcDbEntity
   8
LEVEL001
 100
AcDbLine
   6
DOT
  62
3
  10
 145.99999237061
  20
 264.50001525879
  30
0.0
  11
 145.00000762939
  21
 265.50002288818
  31
0.0
   0
LINE
   5
24A
 100
AcDbEntity
   8
LEVEL001
 100
AcDbLine
   6
DOT
  62
3
  10
 145.00000762939
  20
 265.50002288818
  30
0.0
  11
 145.00000762939
  21
 291.50001525879
  31
0.0
   0
ARC
   5
24B
 100
AcDbEntity
   8
LEVEL001
   6
DOT
  62
3
 100
AcDbCircle
  10
 144.99999234083
  20
 292.50001528847
  30
0.0
  40
 1.0000000298023
 100
AcDbArc
  50
 270.00087597008
  51
 0.43543146424573E-3
   0
ARC
   5
24C
 100
AcDbEntity
   8
LEVEL001
   6
DOT
  62
3
 100
AcDbCircle
  10
 144.99999234091
  20
 293.50001522910
  30
0.0
  40
 1.0000000298023
 100
AcDbArc
  50
 0.87596503555794E-3
  51
 89.999124034572
   0
LINE
   5
24D
 100
AcDbEntity
   8
LEVEL001
 100
AcDbLine
   6
DOT
  62
3
  10
 145.99999237061
  20
 292.50002288818
  30
0.0
  11
 145.99999237061
  21
 293.50003051758
  31
0.0
   0
LINE
   5
24E
 100
AcDbEntity
   8
LEVEL001
 100
AcDbLine
   6
DOT
  62
3
  10
 158.92758178711
  20
 308.07472229004
  30
0.0
  11
 159.99998474121
  21
 304.50002288818
  31
0.0
   0
LINE
   5
24F
 100
AcDbEntity
   8
LEVEL001
 100
AcDbLine
   6
DOT
  62
3
  10
 159.99998474121
  20
 270.50001525879
  30
0.0
  11
 159.99998474121
  21
 304.50002288818
  31
0.0
   0
ARC
   5
250
 100
AcDbEntity
   8
LEVEL001
   6
DOT
  62
3
 100
AcDbCircle
  10
 156.93843188187
  20
 266.50001531838
  30
0.0
  40
 2.0000000596046
 100
AcDbArc
  50
 270.00018717545
  51
 345.96358823220
   0
LINE
   5
251
 100
AcDbEntity
   8
LEVEL001
 100
AcDbLine
   6
DOT
  62
3
  10
 158.87871551514
  20
 266.01493835449
  30
0.0
  11
 159.99998474121
  21
 270.50001525879
  31
0.0
   0
LINE
   5
252
 100
AcDbEntity
   8
LEVEL001
 100
AcDbLine
   6
DOT
  62
3
  10
 145.00000762939
  20
 294.50001525879
  30
0.0
  11
 145.00000762939
  21
 291.50001525879
  31
0.0
   0
LINE
   5
253
 100
AcDbEntity
   8
LEVEL001
 100
AcDbLine
   6
DOT
  62
3
  10
 145.00000762939
  20
 265.50002288818
  30
0.0
  11
 145.00000762939
  21
 249.50001525879
  31
0.0
   0
LINE
   5
254
 100
AcDbEntity
   8
LEVEL001
 100
AcDbLine
   6
DOT
  62
3
  10
 145.00000762939
  20
 249.50001525879
  30
0.0
  11
 145.99999237061
  21
 249.50001525879
  31
0.0
   0
LINE
   5
255
 100
AcDbEntity
   8
LEVEL001
 100
AcDbLine
   6
DOT
  62
3
  10
 145.00000762939
  20
 294.50001525879
  30
0.0
  11
 145.99999237061
  21
 293.50000762939
  31
0.0
   0
LINE
   5
256
 100
AcDbEntity
   8
LEVEL001
 100
AcDbLine
   6
DOT
  62
3
  10
 145.99999237061
  20
 293.50000762939
  30
0.0
  11
 145.99999237061
  21
 249.50001525879
  31
0.0
   0
LINE
   5
257
 100
AcDbEntity
   8
LEVEL001
 100
AcDbLine
   6
DOT
  62
3
  10
 145.99999237061
  20
 264.50001525879
  30
0.0
  11
 156.93843841553
  21
 264.50001525879
  31
0.0
   0
LINE
   5
258
 100
AcDbEntity
   8
LEVEL001
 100
AcDbLine
   6
DOT
  62
3
  10
 124.99999237061
  20
 291.50001525879
  30
0.0
  11
 124.99999237061
  21
 195.50001525879
  31
0.0
   0
LINE
   5
259
 100
AcDbEntity
   8
LEVEL001
 100
AcDbLine
   6
DOT
  62
3
  10
 150.00000000000
  20
 229.99999237061
  30
0.0
  11
 150.00000000000
  21
 132.00000000000
  31
0.0
   0
LINE
   5
25A
 100
AcDbEntity
   8
LEVEL001
 100
AcDbLine
   6
DOT
  62
3
  10
 150.99998474121
  20
 235.00000762939
  30
0.0
  11
 150.00000000000
  21
 229.99999237061
  31
0.0
   0
LINE
   5
25B
 100
AcDbEntity
   8
LEVEL001
 100
AcDbLine
   6
DOT
  62
3
  10
 158.99997711182
  20
 235.00000762939
  30
0.0
  11
 159.99998474121
  21
 229.99999237061
  31
0.0
   0
LINE
   5
25C
 100
AcDbEntity
   8
LEVEL001
 100
AcDbLine
   6
DOT
  62
3
  10
 159.99998474121
  20
 124.99999237061
  30
0.0
  11
 159.99998474121
  21
 229.99999237061
  31
0.0
   0
LINE
   5
25D
 100
AcDbEntity
   8
LEVEL001
 100
AcDbLine
   6
DOT
  62
3
  10
 150.99998474121
  20
 235.00000762939
  30
0.0
  11
 158.99997711182
  21
 235.00000762939
  31
0.0
   0
LINE
   5
25E
 100
AcDbEntity
   8
LEVEL001
 100
AcDbLine
   6
DOT
  62
3
  10
 145.00000762939
  20
 249.50001525879
  30
0.0
  11
 147.49999237061
  21
 245.76795959473
  31
0.0
   0
LINE
   5
25F
 100
AcDbEntity
   8
LEVEL001
 100
AcDbLine
   6
DOT
  62
3
  10
 145.99999237061
  20
 249.50001525879
  30
0.0
  11
 147.49999237061
  21
 249.50001525879
  31
0.0
   0
LINE
   5
260
 100
AcDbEntity
   8
LEVEL001
 100
AcDbLine
   6
DOT
  62
3
  10
 147.49999237061
  20
 249.50001525879
  30
0.0
  11
 147.49999237061
  21
 181.50000000000
  31
0.0
   0
LINE
   5
261
 100
AcDbEntity
   8
LEVEL001
 100
AcDbLine
   6
DOT
  62
3
  10
 109.99999237061
  20
 256.50002288818
  30
0.0
  11
 109.99999237061
  21
 157.50000000000
  31
0.0
   0
LINE
   5
262
 100
AcDbEntity
   8
LEVEL001
 100
AcDbLine
   6
DOT
  62
3
  10
 158.12567138672
  20
 120.31427764893
  30
0.0
  11
 159.99998474121
  21
 124.99999237061
  31
0.0
   0
LINE
   5
263
 100
AcDbEntity
   8
LEVEL001
 100
AcDbLine
   6
CONTINUOUS
  62
7
  10
 287.50000762939
  20
 122.50000762939
  30
0.0
  11
 187.50000000000
  21
 122.50000762939
  31
0.0
   0
ARC
   5
264
 100
AcDbEntity
   8
LEVEL001
   6
DASHDOT
  62
1
 100
AcDbCircle
  10
 187.52343749877
  20
 202.50002288818
  30
0.0
  40
 32.000000953674
 100
AcDbArc
  50
 269.95803531745
  51
 90.041964682557
   0
ARC
   5
265
 100
AcDbEntity
   8
LEVEL001
   6
CONTINUOUS
  62
7
 100
AcDbCircle
  10
 187.49992997366
  20
 202.50003147119
  30
0.0
  40
 36.500000953674
 100
AcDbArc
  50
 270.00010992365
  51
 70.352689987329
   0
ARC
   5
266
 100
AcDbEntity
   8
LEVEL001
   6
CONTINUOUS
  62
7
 100
AcDbCircle
  10
 187.49994551885
  20
 202.50003147120
  30
0.0
  40
 27.500000953674
 100
AcDbArc
  50
 270.00011351053
  51
 67.327971043432
   0
ARC
   5
267
 100
AcDbEntity
   8
LEVEL001
   6
CONTINUOUS
  62
7
 100
AcDbCircle
  10
 187.50000000000
  20
 234.50002670288
  30
0.0
  40
 12.500003814697
 100
AcDbArc
  50
 270.00000000000
  51
 90.000000000000
   0
ARC
   5
268
 100
AcDbEntity
   8
LEVEL001
   6
CONTINUOUS
  62
7
 100
AcDbCircle
  10
 187.50000000000
  20
 234.50001525879
  30
0.0
  40
 11.500007629395
 100
AcDbArc
  50
 270.00000000000
  51
 90.000000000000
   0
LINE
   5
269
 100
AcDbEntity
   8
LEVEL001
 100
AcDbLine
   6
DASHDOT
  62
1
  10
 270.00002288818
  20
 116.50000762939
  30
0.0
  11
 270.00002288818
  21
 144.50001525879
  31
0.0
   0
LINE
   5
26A
 100
AcDbEntity
   8
LEVEL001
 100
AcDbLine
   6
DASHDOT
  62
1
  10
 270.00002288818
  20
 146.50000762939
  30
0.0
  11
 270.00002288818
  21
 147.27351379395
  31
0.0
   0
DIMENSION
   5
26B
 100
AcDbEntity
   8
LEVEL003
   6
CONTINUOUS
  62
3
 100
AcDbDimension
   2
*D14
  10
 287.50000762939
  20
 67.500000000000
  30
0.0
  11
 187.50000000000
  21
 67.500000000000
  31
0.0
  70
128
   1
\A1;%%c200
   3
GMM008
 100
AcDbAlignedDimension
  13
 87.499992370605
  23
 122.50000762939
  33
0.0
  14
 287.50000762939
  24
 122.50000762939
  34
0.0
 100
AcDbRotatedDimension
   0
DIMENSION
   5
26D
 100
AcDbEntity
   8
LEVEL003
   6
CONTINUOUS
  62
3
 100
AcDbDimension
   2
*D15
  10
 215.00001525879
  20
 97.500000000000
  30
0.0
  11
 187.50000000000
  21
 97.500000000000
  31
0.0
  70
0
   1
\A1;%%c55
   3
GMM009
 100
AcDbAlignedDimension
  13
 159.99998474121
  23
 124.99999237061
  33
0.0
  14
 215.00001525879
  24
 124.99999237061
  34
0.0
 100
AcDbRotatedDimension
   0
DIMENSION
   5
26F
 100
AcDbEntity
   8
LEVEL003
   6
CONTINUOUS
  62
3
 100
AcDbDimension
   2
*D16
  10
 270.00002288818
  20
 82.500000000000
  30
0.0
  11
 187.50000000000
  21
 82.500000000000
  31
0.0
  70
0
   1
\A1;%%c165
   3
GMM009
 100
AcDbAlignedDimension
  13
 104.99997711182
  23
 116.50000762939
  33
0.0
  14
 270.00002288818
  24
 116.50000762939
  34
0.0
 100
AcDbRotatedDimension
   0
DIMENSION
   5
271
 100
AcDbEntity
   8
LEVEL003
   6
CONTINUOUS
  62
3
 100
AcDbDimension
   2
*D17
  10
 215.00001525879
  20
 330.00000000000
  30
0.0
  11
 187.50000000000
  21
 330.00000000000
  31
0.0
  70
0
   1
\A1;%%c55
   3
GMM009
 100
AcDbAlignedDimension
  13
 159.99998474121
  23
 304.50002288818
  33
0.0
  14
 215.00001525879
  24
 304.50002288818
  34
0.0
 100
AcDbRotatedDimension
   0
DIMENSION
   5
273
 100
AcDbEntity
   8
LEVEL003
   6
CONTINUOUS
  62
3
 100
AcDbDimension
   2
*D18
  10
 150.00000000000
  20
 210.00000000000
  30
0.0
  11
 187.50000000000
  21
 210.00000000000
  31
0.0
  70
0
   1
\A1;%%c75
   3
GMM010
 100
AcDbAlignedDimension
  13
 225.00000000000
  23
 210.00000000000
  33
0.0
  14
 150.00000000000
  24
 210.00000000000
  34
0.0
  50
 180.00000000000
 100
AcDbRotatedDimension
   0
DIMENSION
   5
275
 100
AcDbEntity
   8
LEVEL003
   6
CONTINUOUS
  62
3
 100
AcDbDimension
   2
*D19
  10
 250.00000762939
  20
 195.00000000000
  30
0.0
  11
 187.50000000000
  21
 195.00000000000
  31
0.0
  70
0
   1
\A1;%%c125
   3
GMM010
 100
AcDbAlignedDimension
  13
 124.99999237061
  23
 195.00000000000
  33
0.0
  14
 250.00000762939
  24
 195.00000000000
  34
0.0
 100
AcDbRotatedDimension
   0
DIMENSION
   5
277
 100
AcDbEntity
   8
LEVEL003
   6
CONTINUOUS
  62
3
 100
AcDbDimension
   2
*D20
  10
 109.99999237061
  20
 180.00000000000
  30
0.0
  11
 187.50000000000
  21
 180.00000000000
  31
0.0
  70
0
   1
\A1;%%c155
   3
GMM010
 100
AcDbAlignedDimension
  13
 265.00000762939
  23
 180.00000000000
  33
0.0
  14
 109.99999237061
  24
 180.00000000000
  34
0.0
  50
 180.00000000000
 100
AcDbRotatedDimension
   0
LINE
   5
279
 100
AcDbEntity
   8
LEVEL001
 100
AcDbLine
   6
DASHDOT
  62
1
  10
 187.50000000000
  20
 315.00000000000
  30
0.0
  11
 187.50000000000
  21
 217.50000000000
  31
0.0
   0
LEADER
   5
27A
 100
AcDbEntity
   8
LEVEL003
   6
CONTINUOUS
  62
3
 100
AcDbLeader
   3
GMM011
  73
0
  74
1
  75
0
  40
 6.0000000000000
  41
0.0
  76
3
  10
 229.99999237061
  20
 270.00000000000
  30
0.0
  10
 277.50000000000
  20
 322.50000000000
  30
0.0
  10
 315.00000000000
  20
 322.50000000000
  30
0.0
  77
3
   0
TEXT
   5
27B
 100
AcDbEntity
   8
LEVEL003
  62
3
 100
AcDbText
  10
 277.50000000000
  20
 322.50000000000
  30
0.0
  40
 6.0000000000000
   1
Ｍ８５×２
   7
STANDARD
 100
AcDbText
   0
LINE
   5
27C
 100
AcDbEntity
   8
LEVEL001
 100
AcDbLine
   6
DASHDOT
  62
1
  10
 187.50000000000
  20
 180.00000000000
  30
0.0
  11
 187.50000000000
  21
 112.50000000000
  31
0.0
   0
TEXT
   5
27D
 100
AcDbEntity
   8
LEVEL003
  62
7
 100
AcDbText
  10
 487.49448258706
  20
 30.224941791046
  30
0.0
  40
 10.000000000000
   1
ＯＳＡＫＡ ＪＡＣＫ
   7
STANDARD
 100
AcDbText
   0
CIRCLE
   5
27E
 100
AcDbEntity
   8
LEVEL003
 100
AcDbCircle
   6
CONTINUOUS
  62
7
  10
 467.04806873670
  20
 36.938913628577
  30
0.0
  40
 3.0000000000000
   0
LINE
   5
27F
 100
AcDbEntity
   8
LEVEL003
 100
AcDbLine
   6
CONTINUOUS
  62
7
  10
 472.93606873670
  20
 39.938913628577
  30
0.0
  11
 469.12706873670
  21
 33.338913628577
  31
0.0
   0
LINE
   5
280
 100
AcDbEntity
   8
LEVEL003
 100
AcDbLine
   6
CONTINUOUS
  62
7
  10
 469.12706873670
  20
 33.338913628577
  30
0.0
  11
 461.50606873670
  21
 33.338913628577
  31
0.0
   0
LINE
   5
281
 100
AcDbEntity
   8
LEVEL003
 100
AcDbLine
   6
CONTINUOUS
  62
7
  10
 460.63906873670
  20
 31.838913628577
  30
0.0
  11
 474.26006873670
  21
 31.838913628577
  31
0.0
   0
LINE
   5
282
 100
AcDbEntity
   8
LEVEL003
 100
AcDbLine
   6
CONTINUOUS
  62
7
  10
 474.26006873670
  20
 31.838913628577
  30
0.0
  11
 478.93606873670
  21
 39.938913628577
  31
0.0
   0
LINE
   5
283
 100
AcDbEntity
   8
LEVEL003
 100
AcDbLine
   6
CONTINUOUS
  62
7
  10
 478.93606873670
  20
 39.938913628577
  30
0.0
  11
 472.93606873670
  21
 39.938913628577
  31
0.0
   0
LINE
   5
284
 100
AcDbEntity
   8
LEVEL003
 100
AcDbLine
   6
CONTINUOUS
  62
7
  10
 461.50606873670
  20
 33.338913628577
  30
0.0
  11
 460.63906873670
  21
 31.838913628577
  31
0.0
   0
TEXT
   5
285
 100
AcDbEntity
   8
LEVEL003
  62
7
 100
AcDbText
  10
 490.40548258706
  20
 47.118341791046
  30
0.0
  40
 6.0000000000000
   1
Model : ＥＣ１００Ｈ４
   7
STANDARD
 100
AcDbText
   0
ENDSEC
  0
SECTION
  2
OBJECTS
  0
DICTIONARY
  5
C
100
AcDbDictionary
  3
ACAD_GROUP
350
D
  3
ACAD_MLINESTYLE
350
1B
  0
DICTIONARY
  5
D
102
{ACAD_REACTORS
330
C
102
}
100
AcDbDictionary
  0
DICTIONARY
  5
1B
102
{ACAD_REACTORS
330
C
102
}
100
AcDbDictionary
  3
STANDARD
350
1C
  0
MLINESTYLE
  5
1C
102
{ACAD_REACTORS
330
1B
102
}
100
AcDbMlineStyle
  2
STANDARD
 70
     0
  3

 62
   256
 51
90.0
 52
90.0
 71
     2
 49
0.5
 62
   256
  6
BYLAYER
 49
-0.5
 62
   256
  6
BYLAYER
  0
ENDSEC
   0
EOF
