   0
SECTION
   2
HEADER
   9
$ACADVER
   1
AC1014
   9
$LIMMIN
  10
0.0
  20
0.0
   9
$LIMMAX
  10
 840.00000000000
  20
 594.00000000000
   9
$EXTMIN
  10
0.0
  20
0.0
  30
0.0
   9
$EXTMAX
  10
 840.00000000000
  20
 594.00000000000
  30
0.0
   9
$LTSCALE
  40
 16.800000000000
   9
$HANDSEED
   5
281
   0
ENDSEC
   0
SECTION
   2
TABLES
  0
TABLE
  2
VPORT
  5
8
100
AcDbSymbolTable
 70
     1
  0
VPORT
  5
280
100
AcDbSymbolTableRecord
100
AcDbViewportTableRecord
  2
*ACTIVE
 70
     0
 10
0.0
 20
0.0
 11
1.0
 21
1.0
  12
 420.00000000000
  22
 297.00000000000
 13
0.0
 23
0.0
 14
1.0
 24
1.0
 15
0.0
 25
0.0
 16
0.0
 26
0.0
 36
1.0
 17
0.0
 27
0.0
 37
0.0
  40
 840.00000000000
  41
 1.4787878787879
 42
50.0
 43
0.0
 44
0.0
 50
0.0
 51
0.0
 71
     0
 72
   100
 73
     1
 74
     1
 75
     0
 76
     0
 77
     0
 78
     0
  0
ENDTAB
  0
TABLE
  2
LTYPE
  5
5
100
AcDbSymbolTable
 70
    25
  0
LTYPE
  5
12
100
AcDbSymbolTableRecord
100
AcDbLinetypeTableRecord
  2
BYBLOCK
 70
     0
  3

 72
    65
 73
     0
 40
0.0
  0
LTYPE
  5
13
100
AcDbSymbolTableRecord
100
AcDbLinetypeTableRecord
  2
BYLAYER
 70
     0
  3

 72
    65
 73
     0
 40
0.0
  0
LTYPE
  5
14
100
AcDbSymbolTableRecord
100
AcDbLinetypeTableRecord
  2
CONTINUOUS
 70
     0
  3
Solid line
 72
    65
 73
     0
 40
0.0
  0
LTYPE
  5
20
100
AcDbSymbolTableRecord
100
AcDbLinetypeTableRecord
  2
BORDER
 70
     0
  3
__ __ . __ __ . __ __ . __ __ . __ __ . __ __ .
 72
    65
 73
     6
 40
1.75
 49
0.5
 74
     0
 49
-0.25
 74
     0
 49
0.5
 74
     0
 49
-0.25
 74
     0
 49
0.0
 74
     0
 49
-0.25
 74
     0
  0
LTYPE
  5
21
100
AcDbSymbolTableRecord
100
AcDbLinetypeTableRecord
  2
BORDER2
 70
     0
  3
__.__.__.__.__.__.__.__.__.__.__.__.__.__.__.__
 72
    65
 73
     6
 40
0.875
 49
0.25
 74
     0
 49
-0.125
 74
     0
 49
0.25
 74
     0
 49
-0.125
 74
     0
 49
0.0
 74
     0
 49
-0.125
 74
     0
  0
LTYPE
  5
22
100
AcDbSymbolTableRecord
100
AcDbLinetypeTableRecord
  2
BORDERX2
 70
     0
  3
____  ____  .  ____  ____  .  ____  ____  .  __
 72
    65
 73
     6
 40
3.5
 49
1.0
 74
     0
 49
-0.5
 74
     0
 49
1.0
 74
     0
 49
-0.5
 74
     0
 49
0.0
 74
     0
 49
-0.5
 74
     0
  0
LTYPE
  5
23
100
AcDbSymbolTableRecord
100
AcDbLinetypeTableRecord
  2
CENTER
 70
     0
  3
____ _ ____ _ ____ _ ____ _ ____ _ ____ _ ____ 
 72
    65
 73
     4
 40
2.0
 49
1.25
 74
     0
 49
-0.25
 74
     0
 49
0.25
 74
     0
 49
-0.25
 74
     0
  0
LTYPE
  5
24
100
AcDbSymbolTableRecord
100
AcDbLinetypeTableRecord
  2
CENTER2
 70
     0
  3
___ _ ___ _ ___ _ ___ _ ___ _ ___ _ ___ _ ___ _
 72
    65
 73
     4
 40
1.125
 49
0.75
 74
     0
 49
-0.125
 74
     0
 49
0.125
 74
     0
 49
-0.125
 74
     0
  0
LTYPE
  5
25
100
AcDbSymbolTableRecord
100
AcDbLinetypeTableRecord
  2
CENTERX2
 70
     0
  3
________  __  ________  __  ________  __  _____
 72
    65
 73
     4
 40
4.0
 49
2.5
 74
     0
 49
-0.5
 74
     0
 49
0.5
 74
     0
 49
-0.5
 74
     0
  0
LTYPE
  5
26
100
AcDbSymbolTableRecord
100
AcDbLinetypeTableRecord
  2
DASHDOT
 70
     0
  3
__ . __ . __ . __ . __ . __ . __ . __ . __ . __
 72
    65
 73
     4
 40
1.0
 49
0.5
 74
     0
 49
-0.25
 74
     0
 49
0.0
 74
     0
 49
-0.25
 74
     0
  0
LTYPE
  5
27
100
AcDbSymbolTableRecord
100
AcDbLinetypeTableRecord
  2
DASHDOT2
 70
     0
  3
_._._._._._._._._._._._._._._._._._._._._._._._
 72
    65
 73
     4
 40
0.5
 49
0.25
 74
     0
 49
-0.125
 74
     0
 49
0.0
 74
     0
 49
-0.125
 74
     0
  0
LTYPE
  5
28
100
AcDbSymbolTableRecord
100
AcDbLinetypeTableRecord
  2
DASHDOTX2
 70
     0
  3
____  .  ____  .  ____  .  ____  .  ____  .  __
 72
    65
 73
     4
 40
2.0
 49
1.0
 74
     0
 49
-0.5
 74
     0
 49
0.0
 74
     0
 49
-0.5
 74
     0
  0
LTYPE
  5
29
100
AcDbSymbolTableRecord
100
AcDbLinetypeTableRecord
  2
DASHED
 70
     0
  3
__ __ __ __ __ __ __ __ __ __ __ __ __ __ __ __
 72
    65
 73
     2
 40
0.75
 49
0.5
 74
     0
 49
-0.25
 74
     0
  0
LTYPE
  5
2A
100
AcDbSymbolTableRecord
100
AcDbLinetypeTableRecord
  2
DASHED2
 70
     0
  3
_ _ _ _ _ _ _ _ _ _ _ _ _ _ _ _ _ _ _ _ _ _ _ _
 72
    65
 73
     2
 40
0.375
 49
0.25
 74
     0
 49
-0.125
 74
     0
  0
LTYPE
  5
2B
100
AcDbSymbolTableRecord
100
AcDbLinetypeTableRecord
  2
DASHEDX2
 70
     0
  3
____  ____  ____  ____  ____  ____  ____  ____ 
 72
    65
 73
     2
 40
1.5
 49
1.0
 74
     0
 49
-0.5
 74
     0
  0
LTYPE
  5
2C
100
AcDbSymbolTableRecord
100
AcDbLinetypeTableRecord
  2
DIVIDE
 70
     0
  3
____ . . ____ . . ____ . . ____ . . ____ . . __
 72
    65
 73
     6
 40
1.25
 49
0.5
 74
     0
 49
-0.25
 74
     0
 49
0.0
 74
     0
 49
-0.25
 74
     0
 49
0.0
 74
     0
 49
-0.25
 74
     0
  0
LTYPE
  5
2D
100
AcDbSymbolTableRecord
100
AcDbLinetypeTableRecord
  2
DIVIDE2
 70
     0
  3
__..__..__..__..__..__..__..__..__..__..__..__.
 72
    65
 73
     6
 40
0.625
 49
0.25
 74
     0
 49
-0.125
 74
     0
 49
0.0
 74
     0
 49
-0.125
 74
     0
 49
0.0
 74
     0
 49
-0.125
 74
     0
  0
LTYPE
  5
2E
100
AcDbSymbolTableRecord
100
AcDbLinetypeTableRecord
  2
DIVIDEX2
 70
     0
  3
________  .  .  ________  .  .  ________  .  . 
 72
    65
 73
     6
 40
2.5
 49
1.0
 74
     0
 49
-0.5
 74
     0
 49
0.0
 74
     0
 49
-0.5
 74
     0
 49
0.0
 74
     0
 49
-0.5
 74
     0
  0
LTYPE
  5
2F
100
AcDbSymbolTableRecord
100
AcDbLinetypeTableRecord
  2
DOT
 70
     0
  3
. . . . . . . . . . . . . . . . . . . . . . . .
 72
    65
 73
     2
 40
0.25
 49
0.0
 74
     0
 49
-0.25
 74
     0
  0
LTYPE
  5
30
100
AcDbSymbolTableRecord
100
AcDbLinetypeTableRecord
  2
DOT2
 70
     0
  3
...............................................
 72
    65
 73
     2
 40
0.125
 49
0.0
 74
     0
 49
-0.125
 74
     0
  0
LTYPE
  5
31
100
AcDbSymbolTableRecord
100
AcDbLinetypeTableRecord
  2
DOTX2
 70
     0
  3
.  .  .  .  .  .  .  .  .  .  .  .  .  .  .  . 
 72
    65
 73
     2
 40
0.5
 49
0.0
 74
     0
 49
-0.5
 74
     0
  0
LTYPE
  5
32
100
AcDbSymbolTableRecord
100
AcDbLinetypeTableRecord
  2
HIDDEN
 70
     0
  3
__ __ __ __ __ __ __ __ __ __ __ __ __ __ __ __
 72
    65
 73
     2
 40
0.375
 49
0.25
 74
     0
 49
-0.125
 74
     0
  0
LTYPE
  5
33
100
AcDbSymbolTableRecord
100
AcDbLinetypeTableRecord
  2
HIDDEN2
 70
     0
  3
_ _ _ _ _ _ _ _ _ _ _ _ _ _ _ _ _ _ _ _ _ _ _ _
 72
    65
 73
     2
 40
0.1875
 49
0.125
 74
     0
 49
-0.0625
 74
     0
  0
LTYPE
  5
34
100
AcDbSymbolTableRecord
100
AcDbLinetypeTableRecord
  2
HIDDENX2
 70
     0
  3
____ ____ ____ ____ ____ ____ ____ ____ ____ __
 72
    65
 73
     2
 40
0.75
 49
0.5
 74
     0
 49
-0.25
 74
     0
  0
LTYPE
  5
35
100
AcDbSymbolTableRecord
100
AcDbLinetypeTableRecord
  2
PHANTOM
 70
     0
  3
______  __  __  ______  __  __  ______  __  __ 
 72
    65
 73
     6
 40
2.5
 49
1.25
 74
     0
 49
-0.25
 74
     0
 49
0.25
 74
     0
 49
-0.25
 74
     0
 49
0.25
 74
     0
 49
-0.25
 74
     0
  0
LTYPE
  5
36
100
AcDbSymbolTableRecord
100
AcDbLinetypeTableRecord
  2
PHANTOM2
 70
     0
  3
___ _ _ ___ _ _ ___ _ _ ___ _ _ ___ _ _ ___ _ _
 72
    65
 73
     6
 40
1.25
 49
0.625
 74
     0
 49
-0.125
 74
     0
 49
0.125
 74
     0
 49
-0.125
 74
     0
 49
0.125
 74
     0
 49
-0.125
 74
     0
  0
LTYPE
  5
37
100
AcDbSymbolTableRecord
100
AcDbLinetypeTableRecord
  2
PHANTOMX2
 70
     0
  3
____________    ____    ____    ____________   
 72
    65
 73
     6
 40
5.0
 49
2.5
 74
     0
 49
-0.5
 74
     0
 49
0.5
 74
     0
 49
-0.5
 74
     0
 49
0.5
 74
     0
 49
-0.5
 74
     0
  0
ENDTAB
   0
TABLE
   2
LAYER
   5
2
 100
AcDbSymbolTable
  70
6
   0
LAYER
   5
E
 100
AcDbSymbolTableRecord
 100
AcDbLayerTableRecord
   2
0
  70
0
  62
7
   6
CONTINUOUS
   0
LAYER
   5
39
 100
AcDbSymbolTableRecord
 100
AcDbLayerTableRecord
   2
LEVEL001
  70
0
  62
7
   6
CONTINUOUS
   0
LAYER
   5
3A
 100
AcDbSymbolTableRecord
 100
AcDbLayerTableRecord
   2
LEVEL003
  70
0
  62
7
   6
CONTINUOUS
   0
LAYER
   5
3B
 100
AcDbSymbolTableRecord
 100
AcDbLayerTableRecord
   2
LEVEL020
  70
0
  62
7
   6
CONTINUOUS
   0
LAYER
   5
3C
 100
AcDbSymbolTableRecord
 100
AcDbLayerTableRecord
   2
LEVEL050
  70
0
  62
7
   6
CONTINUOUS
   0
LAYER
   5
3D
 100
AcDbSymbolTableRecord
 100
AcDbLayerTableRecord
   2
LEVEL110
  70
0
  62
7
   6
CONTINUOUS
   0
ENDTAB
  0
TABLE
  2
STYLE
  5
3
100
AcDbSymbolTable
  70
3
  0
STYLE
  5
F
100
AcDbSymbolTableRecord
100
AcDbTextStyleTableRecord
  2
STANDARD
 70
     0
 40
0.0
 41
1.0
 50
0.0
 71
     0
 42
0.2
  3
TXT
  4
BIGFONT
  0
STYLE
  5
38
100
AcDbSymbolTableRecord
100
AcDbTextStyleTableRecord
  2
STANDARD1
 70
     4
 40
0.0
 41
1.0
 50
0.0
 71
     0
 42
0.2
  3
TXT
  4
BIGFONT
   0
STYLE
   5
3E
 100
AcDbSymbolTableRecord
 100
AcDbTextStyleTableRecord
   2
GMM001
  70
0
  40
0.0
  41
 1.0000000000000
  50
0.0
  71
     0
  42
1.0
   3
txt.shx
   4
bigfont.shx
   0
ENDTAB
  0
TABLE
  2
VIEW
  5
6
100
AcDbSymbolTable
 70
     0
  0
ENDTAB
  0
TABLE
  2
UCS
  5
7
100
AcDbSymbolTable
 70
     0
  0
ENDTAB
  0
TABLE
  2
APPID
  5
9
100
AcDbSymbolTable
 70
     1
  0
APPID
  5
10
100
AcDbSymbolTableRecord
100
AcDbRegAppTableRecord
  2
ACAD
 70
     0
  0
ENDTAB
   0
TABLE
   2
DIMSTYLE
   5
A
 100
AcDbSymbolTable
  70
11
  0
DIMSTYLE
105
1D
100
AcDbSymbolTableRecord
100
AcDbDimStyleTableRecord
  2
STANDARD
 70
     0
  3

  4

  5

  6

  7

 40
1.0
 41
0.18
 42
0.0625
 43
0.38
 44
0.18
 45
0.0
 46
0.0
 47
0.0
 48
0.0
140
0.18
141
0.09
142
0.0
143
25.4
144
1.0
145
0.0
146
1.0
147
0.09
 71
     0
 72
     0
 73
     1
 74
     1
 75
     0
 76
     0
 77
     0
 78
     0
170
     0
171
     2
172
     0
173
     0
174
     0
175
     0
176
     0
177
     0
178
     0
270
     2
271
     4
272
     4
273
     2
274
     2
340
F
275
     0
280
     0
281
     0
282
     0
283
     1
284
     0
285
     0
286
     0
287
     3
288
     0
   0
DIMSTYLE
 105
3F
 100
AcDbSymbolTableRecord
 100
AcDbDimStyleTableRecord
   2
GMM001
  70
0
   3

   4

   5

   6
_OPEN
   7
_OPEN
  40
 1.0000000000000
  41
 6.0000000000000
  42
 2.0000000000000
  43
 0.10000000000000E-5
  44
 4.0000000000000
  45
0.0
  46
0.0
  47
0.0
  48
0.0
 140
 8.0000000000000
 141
 2.0000000000000
 142
0.0
 143
 0.39400000000000E-1
 144
 1.0000000000000
 145
0.0
 146
 0.62500000000000
 147
 1.6000060796737
  71
0
  72
0
  73
0
  74
0
  75
0
  76
0
  77
3
  78
0
 170
0
 171
2
 172
1
 173
1
 174
0
 175
0
 176
3
 177
3
 178
3
 270
2
 271
0
 272
0
 273
2
 274
2
 340
3E
 275
1
 280
0
 281
0
 282
0
 283
1
 284
0
 285
0
 286
0
 287
3
 288
1
   0
DIMSTYLE
 105
40
 100
AcDbSymbolTableRecord
 100
AcDbDimStyleTableRecord
   2
GMM002
  70
0
   3

   4

   5

   6
_OPEN
   7
_OPEN
  40
 1.0000000000000
  41
 6.0000000000000
  42
 2.0000000000000
  43
 0.10000000000000E-5
  44
 4.0000000000000
  45
0.0
  46
0.0
  47
0.0
  48
0.0
 140
 8.0000000000000
 141
 2.0000000000000
 142
0.0
 143
 0.39400000000000E-1
 144
 1.0000000000000
 145
0.0
 146
 0.62500000000000
 147
0.0
  71
0
  72
0
  73
0
  74
0
  75
0
  76
0
  77
1
  78
0
 170
0
 171
2
 172
1
 173
1
 174
0
 175
0
 176
3
 177
3
 178
7
 270
2
 271
0
 272
0
 273
2
 274
2
 340
F
 275
1
 280
0
 281
0
 282
0
 283
1
 284
0
 285
0
 286
0
 287
3
 288
1
   0
DIMSTYLE
 105
41
 100
AcDbSymbolTableRecord
 100
AcDbDimStyleTableRecord
   2
GMM003
  70
0
   3

   4

   5

   6
_OPEN
   7
_OPEN
  40
 1.0000000000000
  41
 6.0000000000000
  42
 2.0000000000000
  43
 0.10000000000000E-5
  44
 4.0000000000000
  45
0.0
  46
0.0
  47
0.0
  48
0.0
 140
 8.0000000000000
 141
 2.0000000000000
 142
0.0
 143
 0.39400000000000E-1
 144
 1.0000000000000
 145
0.0
 146
 0.62500000000000
 147
 1.5999755620960
  71
0
  72
0
  73
0
  74
0
  75
0
  76
0
  77
3
  78
0
 170
0
 171
2
 172
1
 173
1
 174
0
 175
0
 176
3
 177
3
 178
3
 270
2
 271
0
 272
0
 273
2
 274
2
 340
3E
 275
1
 280
0
 281
0
 282
0
 283
1
 284
0
 285
0
 286
0
 287
3
 288
1
   0
DIMSTYLE
 105
42
 100
AcDbSymbolTableRecord
 100
AcDbDimStyleTableRecord
   2
GMM004
  70
0
   3

   4

   5

   6
_OPEN
   7
_OPEN
  40
 1.0000000000000
  41
 6.0000000000000
  42
 2.0000000000000
  43
 0.10000000000000E-5
  44
 4.0000000000000
  45
0.0
  46
0.0
  47
0.0
  48
0.0
 140
 8.0000000000000
 141
 2.0000000000000
 142
0.0
 143
 0.39400000000000E-1
 144
 1.0000000000000
 145
0.0
 146
 0.62500000000000
 147
 1.5999755620960
  71
0
  72
0
  73
0
  74
0
  75
0
  76
0
  77
3
  78
0
 170
0
 171
2
 172
1
 173
1
 174
0
 175
0
 176
3
 177
3
 178
3
 270
2
 271
0
 272
0
 273
2
 274
2
 340
3E
 275
1
 280
0
 281
0
 282
0
 283
1
 284
0
 285
0
 286
0
 287
3
 288
1
   0
DIMSTYLE
 105
43
 100
AcDbSymbolTableRecord
 100
AcDbDimStyleTableRecord
   2
GMM005
  70
0
   3

   4

   5

   6
_OPEN
   7
_OPEN
  40
 1.0000000000000
  41
 6.0000000000000
  42
 2.0000000000000
  43
 0.10000000000000E-5
  44
 4.0000000000000
  45
0.0
  46
0.0
  47
0.0
  48
0.0
 140
 8.0000000000000
 141
 2.0000000000000
 142
0.0
 143
 0.39400000000000E-1
 144
 1.0000000000000
 145
0.0
 146
 0.62500000000000
 147
 1.5999984502793
  71
0
  72
0
  73
0
  74
0
  75
0
  76
0
  77
3
  78
0
 170
0
 171
2
 172
1
 173
1
 174
0
 175
0
 176
3
 177
3
 178
3
 270
2
 271
0
 272
0
 273
2
 274
2
 340
3E
 275
1
 280
0
 281
0
 282
0
 283
1
 284
0
 285
0
 286
0
 287
3
 288
1
   0
DIMSTYLE
 105
44
 100
AcDbSymbolTableRecord
 100
AcDbDimStyleTableRecord
   2
GMM006
  70
0
   3

   4

   5

   6
_OPEN
   7
_OPEN
  40
 1.0000000000000
  41
 6.0000000000000
  42
 2.0000000000000
  43
 16.000000000000
  44
 4.0000000000000
  45
0.0
  46
0.0
  47
0.0
  48
0.0
 140
 8.0000000000000
 141
 2.0000000000000
 142
0.0
 143
 0.39400000000000E-1
 144
 1.0000000000000
 145
0.0
 146
 0.62500000000000
 147
0.0
  71
0
  72
0
  73
0
  74
0
  75
0
  76
0
  77
1
  78
8
 170
0
 171
2
 172
1
 173
1
 174
0
 175
0
 176
3
 177
3
 178
7
 270
2
 271
2
 272
0
 273
2
 274
2
 340
F
 275
0
 280
0
 281
0
 282
0
 283
1
 284
0
 285
0
 286
0
 287
3
 288
1
   0
DIMSTYLE
 105
45
 100
AcDbSymbolTableRecord
 100
AcDbDimStyleTableRecord
   2
GMM007
  70
0
   3

   4

   5

   6
_OPEN
   7
_OPEN
  40
 1.0000000000000
  41
 6.0000000000000
  42
 2.0000000000000
  43
 16.000000000000
  44
 4.0000000000000
  45
0.0
  46
0.0
  47
0.0
  48
0.0
 140
 8.0000000000000
 141
 2.0000000000000
 142
0.0
 143
 0.39400000000000E-1
 144
 1.0000000000000
 145
0.0
 146
 0.62500000000000
 147
 1.6000000000000
  71
0
  72
0
  73
0
  74
0
  75
0
  76
0
  77
3
  78
8
 170
0
 171
2
 172
1
 173
1
 174
0
 175
0
 176
3
 177
3
 178
3
 270
2
 271
2
 272
0
 273
2
 274
2
 340
3E
 275
0
 280
0
 281
0
 282
0
 283
1
 284
0
 285
0
 286
0
 287
3
 288
0
   0
DIMSTYLE
 105
46
 100
AcDbSymbolTableRecord
 100
AcDbDimStyleTableRecord
   2
GMM008
  70
0
   3

   4

   5

   6
_OPEN
   7
_OPEN
  40
 1.0000000000000
  41
 6.0000000000000
  42
 2.0000000000000
  43
 16.000000000000
  44
 4.0000000000000
  45
0.0
  46
0.0
  47
0.0
  48
0.0
 140
 8.0000000000000
 141
 2.0000000000000
 142
0.0
 143
 0.39400000000000E-1
 144
 1.0000000000000
 145
0.0
 146
 0.62500000000000
 147
 1.6000000000000
  71
0
  72
0
  73
0
  74
0
  75
1
  76
1
  77
3
  78
8
 170
0
 171
2
 172
1
 173
1
 174
0
 175
0
 176
3
 177
3
 178
3
 270
2
 271
2
 272
0
 273
2
 274
2
 340
3E
 275
0
 280
0
 281
0
 282
0
 283
1
 284
0
 285
0
 286
0
 287
3
 288
0
   0
DIMSTYLE
 105
47
 100
AcDbSymbolTableRecord
 100
AcDbDimStyleTableRecord
   2
GMM009
  70
0
   3

   4

   5

   6
_OPEN
   7
_OPEN
  40
 1.0000000000000
  41
 6.0000000000000
  42
 2.0000000000000
  43
 0.10000000000000E-5
  44
 4.0000000000000
  45
0.0
  46
0.0
  47
0.0
  48
0.0
 140
 8.0000000000000
 141
 2.0000000000000
 142
0.0
 143
 0.39400000000000E-1
 144
 1.0000000000000
 145
0.0
 146
 0.62500000000000
 147
 1.6000060796737
  71
0
  72
0
  73
0
  74
0
  75
1
  76
1
  77
3
  78
0
 170
0
 171
2
 172
1
 173
1
 174
0
 175
0
 176
3
 177
3
 178
3
 270
2
 271
0
 272
0
 273
2
 274
2
 340
3E
 275
1
 280
0
 281
0
 282
0
 283
1
 284
0
 285
0
 286
0
 287
3
 288
1
   0
ENDTAB
  0
TABLE
  2
BLOCK_RECORD
  5
1
100
AcDbSymbolTable
 70
     0
  0
BLOCK_RECORD
  5
18
100
AcDbSymbolTableRecord
100
AcDbBlockTableRecord
  2
*MODEL_SPACE
  0
BLOCK_RECORD
  5
15
100
AcDbSymbolTableRecord
100
AcDbBlockTableRecord
  2
*PAPER_SPACE
   0
BLOCK_RECORD
   5
48
 100
AcDbSymbolTableRecord
 100
AcDbBlockTableRecord
   2
*D1
   0
BLOCK_RECORD
   5
49
 100
AcDbSymbolTableRecord
 100
AcDbBlockTableRecord
   2
*D5
   0
BLOCK_RECORD
   5
4A
 100
AcDbSymbolTableRecord
 100
AcDbBlockTableRecord
   2
*D6
   0
BLOCK_RECORD
   5
4B
 100
AcDbSymbolTableRecord
 100
AcDbBlockTableRecord
   2
*D7
   0
BLOCK_RECORD
   5
4C
 100
AcDbSymbolTableRecord
 100
AcDbBlockTableRecord
   2
*D8
   0
BLOCK_RECORD
   5
4D
 100
AcDbSymbolTableRecord
 100
AcDbBlockTableRecord
   2
*D9
   0
BLOCK_RECORD
   5
4E
 100
AcDbSymbolTableRecord
 100
AcDbBlockTableRecord
   2
*D10
   0
BLOCK_RECORD
   5
4F
 100
AcDbSymbolTableRecord
 100
AcDbBlockTableRecord
   2
*D12
   0
BLOCK_RECORD
   5
50
 100
AcDbSymbolTableRecord
 100
AcDbBlockTableRecord
   2
*D13
   0
BLOCK_RECORD
   5
51
 100
AcDbSymbolTableRecord
 100
AcDbBlockTableRecord
   2
*D14
   0
BLOCK_RECORD
   5
52
 100
AcDbSymbolTableRecord
 100
AcDbBlockTableRecord
   2
*D15
   0
BLOCK_RECORD
   5
53
 100
AcDbSymbolTableRecord
 100
AcDbBlockTableRecord
   2
*D16
   0
BLOCK_RECORD
   5
54
 100
AcDbSymbolTableRecord
 100
AcDbBlockTableRecord
   2
*D17
   0
BLOCK_RECORD
   5
55
 100
AcDbSymbolTableRecord
 100
AcDbBlockTableRecord
   2
*D18
   0
BLOCK_RECORD
   5
56
 100
AcDbSymbolTableRecord
 100
AcDbBlockTableRecord
   2
*D19
   0
BLOCK_RECORD
   5
57
 100
AcDbSymbolTableRecord
 100
AcDbBlockTableRecord
   2
_ARCHTICK
   0
BLOCK_RECORD
   5
58
 100
AcDbSymbolTableRecord
 100
AcDbBlockTableRecord
   2
_BOXBLANK
   0
BLOCK_RECORD
   5
59
 100
AcDbSymbolTableRecord
 100
AcDbBlockTableRecord
   2
_BOXFILLED
   0
BLOCK_RECORD
   5
5A
 100
AcDbSymbolTableRecord
 100
AcDbBlockTableRecord
   2
_CLOSED
   0
BLOCK_RECORD
   5
5B
 100
AcDbSymbolTableRecord
 100
AcDbBlockTableRecord
   2
_CLOSEDBLANK
   0
BLOCK_RECORD
   5
5C
 100
AcDbSymbolTableRecord
 100
AcDbBlockTableRecord
   2
_DATUMBLANK
   0
BLOCK_RECORD
   5
5D
 100
AcDbSymbolTableRecord
 100
AcDbBlockTableRecord
   2
_DATUMFILLED
   0
BLOCK_RECORD
   5
5E
 100
AcDbSymbolTableRecord
 100
AcDbBlockTableRecord
   2
_DOT
   0
BLOCK_RECORD
   5
5F
 100
AcDbSymbolTableRecord
 100
AcDbBlockTableRecord
   2
_DOTBLANK
   0
BLOCK_RECORD
   5
60
 100
AcDbSymbolTableRecord
 100
AcDbBlockTableRecord
   2
_DOTSMALL
   0
BLOCK_RECORD
   5
61
 100
AcDbSymbolTableRecord
 100
AcDbBlockTableRecord
   2
_INTEGRAL
   0
BLOCK_RECORD
   5
62
 100
AcDbSymbolTableRecord
 100
AcDbBlockTableRecord
   2
_NONE
   0
BLOCK_RECORD
   5
63
 100
AcDbSymbolTableRecord
 100
AcDbBlockTableRecord
   2
_OBLIQUE
   0
BLOCK_RECORD
   5
64
 100
AcDbSymbolTableRecord
 100
AcDbBlockTableRecord
   2
_OPEN
   0
BLOCK_RECORD
   5
65
 100
AcDbSymbolTableRecord
 100
AcDbBlockTableRecord
   2
_OPEN30
   0
BLOCK_RECORD
   5
66
 100
AcDbSymbolTableRecord
 100
AcDbBlockTableRecord
   2
_OPEN90
   0
BLOCK_RECORD
   5
67
 100
AcDbSymbolTableRecord
 100
AcDbBlockTableRecord
   2
_ORIGIN
   0
ENDTAB
   0
ENDSEC
  0
SECTION
  2
BLOCKS
  0
BLOCK
  5
19
100
AcDbEntity
  8
0
100
AcDbBlockBegin
  2
*MODEL_SPACE
 70
     0
 10
0.0
 20
0.0
 30
0.0
  3
*MODEL_SPACE
  1

  0
ENDBLK
  5
1A
100
AcDbEntity
  8
0
100
AcDbBlockEnd
  0
BLOCK
  5
16
100
AcDbEntity
 67
     1
  8
0
100
AcDbBlockBegin
  2
*PAPER_SPACE
 70
     0
 10
0.0
 20
0.0
 30
0.0
  3
*PAPER_SPACE
  1

  0
ENDBLK
  5
17
100
AcDbEntity
 67
     1
  8
0
100
AcDbBlockEnd
   0
BLOCK
   5
68
 100
AcDbEntity
   8
0
 100
AcDbBlockBegin
   2
_ARCHTICK
  70
0
  10
0.0
  20
0.0
  30
0.0
   3
_ARCHTICK
   0
POLYLINE
   5
69
 100
AcDbEntity
   8
0
   6
BYBLOCK
  62
0
 100
AcDb2dPolyline
  66
1
  10
0.0
  20
0.0
  30
0.0
  70
1
  40
 0.15000000000000
  41
 0.15000000000000
   0
VERTEX
   5
6A
 100
AcDbEntity
   8
0
   6
BYBLOCK
  62
0
 100
AcDbVertex
 100
AcDb2dVertex
  10
-0.50000000000000
  20
-0.50000000000000
  30
0.0
  40
 0.15000000000000
  41
 0.15000000000000
   0
VERTEX
   5
6B
 100
AcDbEntity
   8
0
   6
BYBLOCK
  62
0
 100
AcDbVertex
 100
AcDb2dVertex
  10
 0.50000000000000
  20
 0.50000000000000
  30
0.0
  40
 0.15000000000000
  41
 0.15000000000000
   0
SEQEND
   5
6C
 100
AcDbEntity
   8
0
   6
BYBLOCK
  62
0
   0
ENDBLK
   5
6D
 100
AcDbEntity
   8
0
 100
AcDbBlockEnd
   0
BLOCK
   5
6E
 100
AcDbEntity
   8
0
 100
AcDbBlockBegin
   2
_OBLIQUE
  70
0
  10
0.0
  20
0.0
  30
0.0
   3
_OBLIQUE
   0
LINE
   5
6F
 100
AcDbEntity
   8
0
 100
AcDbLine
   6
BYBLOCK
  62
0
  10
-0.50000000000000
  20
-0.50000000000000
  30
0.0
  11
 0.50000000000000
  21
 0.50000000000000
  31
0.0
   0
ENDBLK
   5
70
 100
AcDbEntity
   8
0
 100
AcDbBlockEnd
   0
BLOCK
   5
71
 100
AcDbEntity
   8
0
 100
AcDbBlockBegin
   2
_BOXBLANK
  70
0
  10
0.0
  20
0.0
  30
0.0
   3
_BOXBLANK
   0
LINE
   5
72
 100
AcDbEntity
   8
0
 100
AcDbLine
   6
BYBLOCK
  62
0
  10
-0.50000000000000
  20
-0.50000000000000
  30
0.0
  11
 0.50000000000000
  21
-0.50000000000000
  31
0.0
   0
LINE
   5
73
 100
AcDbEntity
   8
0
 100
AcDbLine
   6
BYBLOCK
  62
0
  10
 0.50000000000000
  20
-0.50000000000000
  30
0.0
  11
 0.50000000000000
  21
 0.50000000000000
  31
0.0
   0
LINE
   5
74
 100
AcDbEntity
   8
0
 100
AcDbLine
   6
BYBLOCK
  62
0
  10
 0.50000000000000
  20
 0.50000000000000
  30
0.0
  11
-0.50000000000000
  21
 0.50000000000000
  31
0.0
   0
LINE
   5
75
 100
AcDbEntity
   8
0
 100
AcDbLine
   6
BYBLOCK
  62
0
  10
-0.50000000000000
  20
 0.50000000000000
  30
0.0
  11
-0.50000000000000
  21
-0.50000000000000
  31
0.0
   0
LINE
   5
76
 100
AcDbEntity
   8
0
 100
AcDbLine
   6
BYBLOCK
  62
0
  10
-0.50000000000000
  20
0.0
  30
0.0
  11
-1.0000000000000
  21
0.0
  31
0.0
   0
ENDBLK
   5
77
 100
AcDbEntity
   8
0
 100
AcDbBlockEnd
   0
BLOCK
   5
78
 100
AcDbEntity
   8
0
 100
AcDbBlockBegin
   2
_BOXFILLED
  70
0
  10
0.0
  20
0.0
  30
0.0
   3
_BOXFILLED
   0
SOLID
   5
79
 100
AcDbEntity
   8
0
 100
AcDbTrace
   6
BYBLOCK
  62
0
  10
-0.50000000000000
  20
 0.50000000000000
  30
0.0
  11
 0.50000000000000
  21
 0.50000000000000
  31
0.0
  12
-0.50000000000000
  22
-0.50000000000000
  32
0.0
  13
 0.50000000000000
  23
-0.50000000000000
  33
0.0
   0
LINE
   5
7A
 100
AcDbEntity
   8
0
 100
AcDbLine
   6
BYBLOCK
  62
0
  10
-0.50000000000000
  20
0.0
  30
0.0
  11
-1.0000000000000
  21
0.0
  31
0.0
   0
ENDBLK
   5
7B
 100
AcDbEntity
   8
0
 100
AcDbBlockEnd
   0
BLOCK
   5
7C
 100
AcDbEntity
   8
0
 100
AcDbBlockBegin
   2
_CLOSED
  70
0
  10
0.0
  20
0.0
  30
0.0
   3
_CLOSED
   0
LINE
   5
7D
 100
AcDbEntity
   8
0
 100
AcDbLine
   6
BYBLOCK
  62
0
  10
-1.0000000000000
  20
 0.16666666666667
  30
0.0
  11
0.0
  21
0.0
  31
0.0
   0
LINE
   5
7E
 100
AcDbEntity
   8
0
 100
AcDbLine
   6
BYBLOCK
  62
0
  10
0.0
  20
0.0
  30
0.0
  11
-1.0000000000000
  21
-0.16666666666667
  31
0.0
   0
LINE
   5
7F
 100
AcDbEntity
   8
0
 100
AcDbLine
   6
BYBLOCK
  62
0
  10
-1.0000000000000
  20
 0.16666666666667
  30
0.0
  11
-1.0000000000000
  21
-0.16666666666667
  31
0.0
   0
LINE
   5
80
 100
AcDbEntity
   8
0
 100
AcDbLine
   6
BYBLOCK
  62
0
  10
0.0
  20
0.0
  30
0.0
  11
-1.0000000000000
  21
0.0
  31
0.0
   0
ENDBLK
   5
81
 100
AcDbEntity
   8
0
 100
AcDbBlockEnd
   0
BLOCK
   5
82
 100
AcDbEntity
   8
0
 100
AcDbBlockBegin
   2
_OPEN
  70
0
  10
0.0
  20
0.0
  30
0.0
   3
_OPEN
   0
LINE
   5
83
 100
AcDbEntity
   8
0
 100
AcDbLine
   6
BYBLOCK
  62
0
  10
-1.0000000000000
  20
 0.16666666666667
  30
0.0
  11
0.0
  21
0.0
  31
0.0
   0
LINE
   5
84
 100
AcDbEntity
   8
0
 100
AcDbLine
   6
BYBLOCK
  62
0
  10
0.0
  20
0.0
  30
0.0
  11
-1.0000000000000
  21
-0.16666666666667
  31
0.0
   0
LINE
   5
85
 100
AcDbEntity
   8
0
 100
AcDbLine
   6
BYBLOCK
  62
0
  10
0.0
  20
0.0
  30
0.0
  11
-1.0000000000000
  21
0.0
  31
0.0
   0
ENDBLK
   5
86
 100
AcDbEntity
   8
0
 100
AcDbBlockEnd
   0
BLOCK
   5
87
 100
AcDbEntity
   8
0
 100
AcDbBlockBegin
   2
_OPEN30
  70
0
  10
0.0
  20
0.0
  30
0.0
   3
_OPEN30
   0
LINE
   5
88
 100
AcDbEntity
   8
0
 100
AcDbLine
   6
BYBLOCK
  62
0
  10
-1.0000000000000
  20
 0.26794919243110
  30
0.0
  11
0.0
  21
0.0
  31
0.0
   0
LINE
   5
89
 100
AcDbEntity
   8
0
 100
AcDbLine
   6
BYBLOCK
  62
0
  10
0.0
  20
0.0
  30
0.0
  11
-1.0000000000000
  21
-0.26794919243110
  31
0.0
   0
LINE
   5
8A
 100
AcDbEntity
   8
0
 100
AcDbLine
   6
BYBLOCK
  62
0
  10
0.0
  20
0.0
  30
0.0
  11
-1.0000000000000
  21
0.0
  31
0.0
   0
ENDBLK
   5
8B
 100
AcDbEntity
   8
0
 100
AcDbBlockEnd
   0
BLOCK
   5
8C
 100
AcDbEntity
   8
0
 100
AcDbBlockBegin
   2
_OPEN90
  70
0
  10
0.0
  20
0.0
  30
0.0
   3
_OPEN90
   0
LINE
   5
8D
 100
AcDbEntity
   8
0
 100
AcDbLine
   6
BYBLOCK
  62
0
  10
-0.50000000000000
  20
 0.50000000000000
  30
0.0
  11
0.0
  21
0.0
  31
0.0
   0
LINE
   5
8E
 100
AcDbEntity
   8
0
 100
AcDbLine
   6
BYBLOCK
  62
0
  10
0.0
  20
0.0
  30
0.0
  11
-0.50000000000000
  21
-0.50000000000000
  31
0.0
   0
LINE
   5
8F
 100
AcDbEntity
   8
0
 100
AcDbLine
   6
BYBLOCK
  62
0
  10
0.0
  20
0.0
  30
0.0
  11
-1.0000000000000
  21
0.0
  31
0.0
   0
ENDBLK
   5
90
 100
AcDbEntity
   8
0
 100
AcDbBlockEnd
   0
BLOCK
   5
91
 100
AcDbEntity
   8
0
 100
AcDbBlockBegin
   2
_CLOSEDBLANK
  70
0
  10
0.0
  20
0.0
  30
0.0
   3
_CLOSEDBLANK
   0
LINE
   5
92
 100
AcDbEntity
   8
0
 100
AcDbLine
   6
BYBLOCK
  62
0
  10
-1.0000000000000
  20
 0.16666666666667
  30
0.0
  11
0.0
  21
0.0
  31
0.0
   0
LINE
   5
93
 100
AcDbEntity
   8
0
 100
AcDbLine
   6
BYBLOCK
  62
0
  10
0.0
  20
0.0
  30
0.0
  11
-1.0000000000000
  21
-0.16666666666667
  31
0.0
   0
LINE
   5
94
 100
AcDbEntity
   8
0
 100
AcDbLine
   6
BYBLOCK
  62
0
  10
-1.0000000000000
  20
 0.16666666666667
  30
0.0
  11
-1.0000000000000
  21
-0.16666666666667
  31
0.0
   0
ENDBLK
   5
95
 100
AcDbEntity
   8
0
 100
AcDbBlockEnd
   0
BLOCK
   5
96
 100
AcDbEntity
   8
0
 100
AcDbBlockBegin
   2
_DOT
  70
0
  10
0.0
  20
0.0
  30
0.0
   3
_DOT
   0
POLYLINE
   5
97
 100
AcDbEntity
   8
0
   6
BYBLOCK
  62
0
 100
AcDb2dPolyline
  66
1
  10
0.0
  20
0.0
  30
0.0
  70
1
  40
 0.50000000000000
  41
 0.50000000000000
   0
VERTEX
   5
98
 100
AcDbEntity
   8
0
   6
BYBLOCK
  62
0
 100
AcDbVertex
 100
AcDb2dVertex
  10
-0.25000000000000
  20
0.0
  30
0.0
  42
 1.0000000000000
  40
 0.50000000000000
  41
 0.50000000000000
   0
VERTEX
   5
99
 100
AcDbEntity
   8
0
   6
BYBLOCK
  62
0
 100
AcDbVertex
 100
AcDb2dVertex
  10
 0.25000000000000
  20
0.0
  30
0.0
  42
 1.0000000000000
  40
 0.50000000000000
  41
 0.50000000000000
   0
SEQEND
   5
9A
 100
AcDbEntity
   8
0
   6
BYBLOCK
  62
0
   0
LINE
   5
9B
 100
AcDbEntity
   8
0
 100
AcDbLine
   6
BYBLOCK
  62
0
  10
-0.50000000000000
  20
0.0
  30
0.0
  11
-1.0000000000000
  21
0.0
  31
0.0
   0
ENDBLK
   5
9C
 100
AcDbEntity
   8
0
 100
AcDbBlockEnd
   0
BLOCK
   5
9D
 100
AcDbEntity
   8
0
 100
AcDbBlockBegin
   2
_DOTSMALL
  70
0
  10
0.0
  20
0.0
  30
0.0
   3
_DOTSMALL
   0
POLYLINE
   5
9E
 100
AcDbEntity
   8
0
   6
BYBLOCK
  62
0
 100
AcDb2dPolyline
  66
1
  10
0.0
  20
0.0
  30
0.0
  70
1
  40
 0.50000000000000
  41
 0.50000000000000
   0
VERTEX
   5
9F
 100
AcDbEntity
   8
0
   6
BYBLOCK
  62
0
 100
AcDbVertex
 100
AcDb2dVertex
  10
-0.62500000000000E-1
  20
0.0
  30
0.0
  42
 1.0000000000000
  40
 0.50000000000000
  41
 0.50000000000000
   0
VERTEX
   5
A0
 100
AcDbEntity
   8
0
   6
BYBLOCK
  62
0
 100
AcDbVertex
 100
AcDb2dVertex
  10
 0.62500000000000E-1
  20
0.0
  30
0.0
  42
 1.0000000000000
  40
 0.50000000000000
  41
 0.50000000000000
   0
SEQEND
   5
A1
 100
AcDbEntity
   8
0
   6
BYBLOCK
  62
0
   0
ENDBLK
   5
A2
 100
AcDbEntity
   8
0
 100
AcDbBlockEnd
   0
BLOCK
   5
A3
 100
AcDbEntity
   8
0
 100
AcDbBlockBegin
   2
_DATUMBLANK
  70
0
  10
0.0
  20
0.0
  30
0.0
   3
_DATUMBLANK
   0
LINE
   5
A4
 100
AcDbEntity
   8
0
 100
AcDbLine
   6
BYBLOCK
  62
0
  10
0.0
  20
 0.57735027000000
  30
0.0
  11
-1.0000000000000
  21
0.0
  31
0.0
   0
LINE
   5
A5
 100
AcDbEntity
   8
0
 100
AcDbLine
   6
BYBLOCK
  62
0
  10
-1.0000000000000
  20
0.0
  30
0.0
  11
0.0
  21
-0.57735027000000
  31
0.0
   0
LINE
   5
A6
 100
AcDbEntity
   8
0
 100
AcDbLine
   6
BYBLOCK
  62
0
  10
0.0
  20
-0.57735027000000
  30
0.0
  11
0.0
  21
 0.57735027000000
  31
0.0
   0
ENDBLK
   5
A7
 100
AcDbEntity
   8
0
 100
AcDbBlockEnd
   0
BLOCK
   5
A8
 100
AcDbEntity
   8
0
 100
AcDbBlockBegin
   2
_DATUMFILLED
  70
0
  10
0.0
  20
0.0
  30
0.0
   3
_DATUMFILLED
   0
SOLID
   5
A9
 100
AcDbEntity
   8
0
 100
AcDbTrace
   6
BYBLOCK
  62
0
  10
0.0
  20
 0.57735027000000
  30
0.0
  11
-1.0000000000000
  21
0.0
  31
0.0
  12
0.0
  22
-0.57735027000000
  32
0.0
  13
0.0
  23
-0.57735027000000
  33
0.0
   0
ENDBLK
   5
AA
 100
AcDbEntity
   8
0
 100
AcDbBlockEnd
   0
BLOCK
   5
AB
 100
AcDbEntity
   8
0
 100
AcDbBlockBegin
   2
_ORIGIN
  70
0
  10
0.0
  20
0.0
  30
0.0
   3
_ORIGIN
   0
CIRCLE
   5
AC
 100
AcDbEntity
   8
0
 100
AcDbCircle
   6
BYBLOCK
  62
0
  10
0.0
  20
0.0
  30
0.0
  40
 0.50000000000000
   0
LINE
   5
AD
 100
AcDbEntity
   8
0
 100
AcDbLine
   6
BYBLOCK
  62
0
  10
0.0
  20
0.0
  30
0.0
  11
-1.0000000000000
  21
0.0
  31
0.0
   0
ENDBLK
   5
AE
 100
AcDbEntity
   8
0
 100
AcDbBlockEnd
   0
BLOCK
   5
AF
 100
AcDbEntity
   8
0
 100
AcDbBlockBegin
   2
_NONE
  70
0
  10
0.0
  20
0.0
  30
0.0
   3
_NONE
   0
CIRCLE
   5
B0
 100
AcDbEntity
   8
0
 100
AcDbCircle
   6
BYBLOCK
  62
0
  10
0.0
  20
0.0
  30
0.0
  40
 0.25000000000000
   0
ENDBLK
   5
B1
 100
AcDbEntity
   8
0
 100
AcDbBlockEnd
   0
BLOCK
   5
B2
 100
AcDbEntity
   8
0
 100
AcDbBlockBegin
   2
_DOTBLANK
  70
0
  10
0.0
  20
0.0
  30
0.0
   3
_DOTBLANK
   0
CIRCLE
   5
B3
 100
AcDbEntity
   8
0
 100
AcDbCircle
   6
BYBLOCK
  62
0
  10
0.0
  20
0.0
  30
0.0
  40
 0.50000000000000
   0
LINE
   5
B4
 100
AcDbEntity
   8
0
 100
AcDbLine
   6
BYBLOCK
  62
0
  10
-0.50000000000000
  20
0.0
  30
0.0
  11
-1.0000000000000
  21
0.0
  31
0.0
   0
ENDBLK
   5
B5
 100
AcDbEntity
   8
0
 100
AcDbBlockEnd
   0
BLOCK
   5
B6
 100
AcDbEntity
   8
0
 100
AcDbBlockBegin
   2
_INTEGRAL
  70
0
  10
0.0
  20
0.0
  30
0.0
   3
_INTEGRAL
   0
ARC
   5
B7
 100
AcDbEntity
   8
0
   6
BYBLOCK
  62
0
 100
AcDbCircle
  10
 0.44488800000000
  20
-0.91335000000000E-1
  30
0.0
  40
 0.45416700000000
 100
AcDbArc
  50
 102.00000000000
  51
 168.00000000000
   0
ARC
   5
B8
 100
AcDbEntity
   8
0
   6
BYBLOCK
  62
0
 100
AcDbCircle
  10
-0.44488800000000
  20
 0.91335000000000E-1
  30
0.0
  40
 0.45416700000000
 100
AcDbArc
  50
 282.00000000000
  51
 348.00000000000
   0
ENDBLK
   5
B9
 100
AcDbEntity
   8
0
 100
AcDbBlockEnd
   0
BLOCK
   5
BA
 100
AcDbEntity
   8
0
 100
AcDbBlockBegin
   2
*D1
  70
65
  10
0.0
  20
0.0
  30
0.0
   3
*D1
   0
LINE
   5
BB
 100
AcDbEntity
   8
LEVEL003
 100
AcDbLine
   6
CONTINUOUS
  62
3
  10
 484.29998135120
  20
 138.99999822676
  30
0.0
  11
 503.99999329448
  21
 138.99999822676
  31
0.0
   0
LINE
   5
BC
 100
AcDbEntity
   8
LEVEL003
 100
AcDbLine
   6
CONTINUOUS
  62
3
  10
 375.49999517947
  20
 106.99999870360
  30
0.0
  11
 503.99999329448
  21
 106.99999870360
  31
0.0
   0
LINE
   5
BD
 100
AcDbEntity
   8
LEVEL003
 100
AcDbLine
   6
CONTINUOUS
  62
3
  10
 499.99999329448
  20
 138.99999822676
  30
0.0
  11
 499.99999329448
  21
 131.04999846518
  31
0.0
   0
LINE
   5
BE
 100
AcDbEntity
   8
LEVEL003
 100
AcDbLine
   6
CONTINUOUS
  62
3
  10
 499.99999329448
  20
 106.99999870360
  30
0.0
  11
 499.99999329448
  21
 114.94999846518
  31
0.0
   0
INSERT
   5
BF
 100
AcDbEntity
   8
LEVEL003
   6
CONTINUOUS
  62
3
 100
AcDbBlockReference
   2
_OPEN
  10
 499.99999329448
  20
 138.99999822676
  30
0.0
  41
 6.0000000000000
  42
 6.0000000000000
  43
 6.0000000000000
  50
 90.000000000000
   0
INSERT
   5
C0
 100
AcDbEntity
   8
LEVEL003
   6
CONTINUOUS
  62
3
 100
AcDbBlockReference
   2
_OPEN
  10
 499.99999329448
  20
 106.99999870360
  30
0.0
  41
 6.0000000000000
  42
 6.0000000000000
  43
 6.0000000000000
  50
 270.00000000000
   0
MTEXT
   5
C1
 100
AcDbEntity
   8
LEVEL003
  62
3
 100
AcDbMText
  10
 498.39998721481
  20
 122.99999846518
  30
0.0
  40
 8.0000000000000
  41
0.0
  71
8
  72
1
   1
\A1;32
   7
GMM001
  11
0.0
  21
 1.0000000000000
  31
0.0
   0
ENDBLK
   5
C2
 100
AcDbEntity
   8
0
 100
AcDbBlockEnd
   0
BLOCK
   5
C3
 100
AcDbEntity
   8
0
 100
AcDbBlockBegin
   2
*D5
  70
65
  10
0.0
  20
0.0
  30
0.0
   3
*D5
   0
LINE
   5
C4
 100
AcDbEntity
   8
LEVEL003
 100
AcDbLine
   6
CONTINUOUS
  62
3
  10
 177.49999810010
  20
 490.99999301136
  30
0.0
  11
 177.49999810010
  21
 533.99999240041
  31
0.0
   0
LINE
   5
C5
 100
AcDbEntity
   8
LEVEL003
 100
AcDbLine
   6
CONTINUOUS
  62
3
  10
 322.49999593943
  20
 490.99999301136
  30
0.0
  11
 322.49999593943
  21
 533.99999240041
  31
0.0
   0
LINE
   5
C6
 100
AcDbEntity
   8
LEVEL003
 100
AcDbLine
   6
CONTINUOUS
  62
3
  10
 177.49999810010
  20
 529.99999240041
  30
0.0
  11
 233.63749701977
  21
 529.99999240041
  31
0.0
   0
LINE
   5
C7
 100
AcDbEntity
   8
LEVEL003
 100
AcDbLine
   6
CONTINUOUS
  62
3
  10
 322.49999593943
  20
 529.99999240041
  30
0.0
  11
 266.36249701977
  21
 529.99999240041
  31
0.0
   0
INSERT
   5
C8
 100
AcDbEntity
   8
LEVEL003
   6
CONTINUOUS
  62
3
 100
AcDbBlockReference
   2
_OPEN
  10
 177.49999810010
  20
 529.99999240041
  30
0.0
  41
 6.0000000000000
  42
 6.0000000000000
  43
 6.0000000000000
  50
 180.00000000000
   0
INSERT
   5
C9
 100
AcDbEntity
   8
LEVEL003
   6
CONTINUOUS
  62
3
 100
AcDbBlockReference
   2
_OPEN
  10
 322.49999593943
  20
 529.99999240041
  30
0.0
  41
 6.0000000000000
  42
 6.0000000000000
  43
 6.0000000000000
  50
0.0
   0
MTEXT
   5
CA
 100
AcDbEntity
   8
LEVEL003
  62
3
 100
AcDbMText
  10
 249.99999701977
  20
 531.59996796251
  30
0.0
  40
 8.0000000000000
  41
0.0
  71
8
  72
1
   1
\A1;%%c145
   7
GMM001
   0
ENDBLK
   5
CB
 100
AcDbEntity
   8
0
 100
AcDbBlockEnd
   0
BLOCK
   5
CC
 100
AcDbEntity
   8
0
 100
AcDbBlockBegin
   2
*D6
  70
65
  10
0.0
  20
0.0
  30
0.0
   3
*D6
   0
LINE
   5
CD
 100
AcDbEntity
   8
LEVEL003
 100
AcDbLine
   6
CONTINUOUS
  62
3
  10
 375.49999517947
  20
 106.99999870360
  30
0.0
  11
 523.99999299645
  21
 106.99999870360
  31
0.0
   0
LINE
   5
CE
 100
AcDbEntity
   8
LEVEL003
 100
AcDbLine
   6
CONTINUOUS
  62
3
  10
 323.49999595433
  20
 489.99999299645
  30
0.0
  11
 523.99999299645
  21
 489.99999299645
  31
0.0
   0
LINE
   5
CF
 100
AcDbEntity
   8
LEVEL003
 100
AcDbLine
   6
CONTINUOUS
  62
3
  10
 519.99999299645
  20
 106.99999870360
  30
0.0
  11
 519.99999299645
  21
 286.42499585003
  31
0.0
   0
LINE
   5
D0
 100
AcDbEntity
   8
LEVEL003
 100
AcDbLine
   6
CONTINUOUS
  62
3
  10
 519.99999299645
  20
 489.99999299645
  30
0.0
  11
 519.99999299645
  21
 310.57499585003
  31
0.0
   0
INSERT
   5
D1
 100
AcDbEntity
   8
LEVEL003
   6
CONTINUOUS
  62
3
 100
AcDbBlockReference
   2
_OPEN
  10
 519.99999299645
  20
 106.99999870360
  30
0.0
  41
 6.0000000000000
  42
 6.0000000000000
  43
 6.0000000000000
  50
 270.00000000000
   0
INSERT
   5
D2
 100
AcDbEntity
   8
LEVEL003
   6
CONTINUOUS
  62
3
 100
AcDbBlockReference
   2
_OPEN
  10
 519.99999299645
  20
 489.99999299645
  30
0.0
  41
 6.0000000000000
  42
 6.0000000000000
  43
 6.0000000000000
  50
 90.000000000000
   0
MTEXT
   5
D3
 100
AcDbEntity
   8
LEVEL003
  62
3
 100
AcDbMText
  10
 518.40001743435
  20
 298.49999585003
  30
0.0
  40
 8.0000000000000
  41
0.0
  71
8
  72
1
   1
\A1;383
   7
GMM001
  11
0.0
  21
 1.0000000000000
  31
0.0
   0
ENDBLK
   5
D4
 100
AcDbEntity
   8
0
 100
AcDbBlockEnd
   0
BLOCK
   5
D5
 100
AcDbEntity
   8
0
 100
AcDbBlockBegin
   2
*D7
  70
65
  10
0.0
  20
0.0
  30
0.0
   3
*D7
   0
LINE
   5
D6
 100
AcDbEntity
   8
LEVEL003
 100
AcDbLine
   6
CONTINUOUS
  62
3
  10
 375.49999517947
  20
 466.99999333918
  30
0.0
  11
 503.99999329448
  21
 466.99999333918
  31
0.0
   0
LINE
   5
D7
 100
AcDbEntity
   8
LEVEL003
 100
AcDbLine
   6
CONTINUOUS
  62
3
  10
 484.29998135120
  20
 391.99999445677
  30
0.0
  11
 503.99999329448
  21
 391.99999445677
  31
0.0
   0
LINE
   5
D8
 100
AcDbEntity
   8
LEVEL003
 100
AcDbLine
   6
CONTINUOUS
  62
3
  10
 499.99999329448
  20
 466.99999333918
  30
0.0
  11
 499.99999329448
  21
 437.54999389797
  31
0.0
   0
LINE
   5
D9
 100
AcDbEntity
   8
LEVEL003
 100
AcDbLine
   6
CONTINUOUS
  62
3
  10
 499.99999329448
  20
 391.99999445677
  30
0.0
  11
 499.99999329448
  21
 421.44999389797
  31
0.0
   0
INSERT
   5
DA
 100
AcDbEntity
   8
LEVEL003
   6
CONTINUOUS
  62
3
 100
AcDbBlockReference
   2
_OPEN
  10
 499.99999329448
  20
 466.99999333918
  30
0.0
  41
 6.0000000000000
  42
 6.0000000000000
  43
 6.0000000000000
  50
 90.000000000000
   0
INSERT
   5
DB
 100
AcDbEntity
   8
LEVEL003
   6
CONTINUOUS
  62
3
 100
AcDbBlockReference
   2
_OPEN
  10
 499.99999329448
  20
 391.99999445677
  30
0.0
  41
 6.0000000000000
  42
 6.0000000000000
  43
 6.0000000000000
  50
 270.00000000000
   0
MTEXT
   5
DC
 100
AcDbEntity
   8
LEVEL003
  62
3
 100
AcDbMText
  10
 498.39998721481
  20
 429.49999389797
  30
0.0
  40
 8.0000000000000
  41
0.0
  71
8
  72
1
   1
\A1;75
   7
GMM001
  11
0.0
  21
 1.0000000000000
  31
0.0
   0
ENDBLK
   5
DD
 100
AcDbEntity
   8
0
 100
AcDbBlockEnd
   0
BLOCK
   5
DE
 100
AcDbEntity
   8
0
 100
AcDbBlockBegin
   2
*D8
  70
65
  10
0.0
  20
0.0
  30
0.0
   3
*D8
   0
LINE
   5
DF
 100
AcDbEntity
   8
LEVEL003
 100
AcDbLine
   6
CONTINUOUS
  62
3
  10
 323.49999595433
  20
 489.99999299645
  30
0.0
  11
 503.99999329448
  21
 489.99999299645
  31
0.0
   0
LINE
   5
E0
 100
AcDbEntity
   8
LEVEL003
 100
AcDbLine
   6
CONTINUOUS
  62
3
  10
 375.49999517947
  20
 466.99999333918
  30
0.0
  11
 503.99999329448
  21
 466.99999333918
  31
0.0
   0
LINE
   5
E1
 100
AcDbEntity
   8
LEVEL003
 100
AcDbLine
   6
CONTINUOUS
  62
3
  10
 499.99999329448
  20
 489.99999299645
  30
0.0
  11
 499.99999329448
  21
 486.54999316782
  31
0.0
   0
LINE
   5
E2
 100
AcDbEntity
   8
LEVEL003
 100
AcDbLine
   6
CONTINUOUS
  62
3
  10
 499.99999329448
  20
 466.99999333918
  30
0.0
  11
 499.99999329448
  21
 470.44999316782
  31
0.0
   0
INSERT
   5
E3
 100
AcDbEntity
   8
LEVEL003
   6
CONTINUOUS
  62
3
 100
AcDbBlockReference
   2
_OPEN
  10
 499.99999329448
  20
 489.99999299645
  30
0.0
  41
 6.0000000000000
  42
 6.0000000000000
  43
 6.0000000000000
  50
 90.000000000000
   0
INSERT
   5
E4
 100
AcDbEntity
   8
LEVEL003
   6
CONTINUOUS
  62
3
 100
AcDbBlockReference
   2
_OPEN
  10
 499.99999329448
  20
 466.99999333918
  30
0.0
  41
 6.0000000000000
  42
 6.0000000000000
  43
 6.0000000000000
  50
 270.00000000000
   0
MTEXT
   5
E5
 100
AcDbEntity
   8
LEVEL003
  62
3
 100
AcDbMText
  10
 498.39998721481
  20
 478.49999316782
  30
0.0
  40
 8.0000000000000
  41
0.0
  71
8
  72
1
   1
\A1;23
   7
GMM001
  11
0.0
  21
 1.0000000000000
  31
0.0
   0
ENDBLK
   5
E6
 100
AcDbEntity
   8
0
 100
AcDbBlockEnd
   0
BLOCK
   5
E7
 100
AcDbEntity
   8
0
 100
AcDbBlockBegin
   2
*D9
  70
65
  10
0.0
  20
0.0
  30
0.0
   3
*D9
   0
LINE
   5
E8
 100
AcDbEntity
   8
LEVEL003
 100
AcDbLine
   6
CONTINUOUS
  62
3
  10
 323.49999595433
  20
 489.99999299645
  30
0.0
  11
 483.99999359250
  21
 489.99999299645
  31
0.0
   0
LINE
   5
E9
 100
AcDbEntity
   8
LEVEL003
 100
AcDbLine
   6
CONTINUOUS
  62
3
  10
 330.49999585003
  20
 471.99999326468
  30
0.0
  11
 483.99999359250
  21
 471.99999326468
  31
0.0
   0
LINE
   5
EA
 100
AcDbEntity
   8
LEVEL003
 100
AcDbLine
   6
CONTINUOUS
  62
3
  10
 479.99999359250
  20
 489.99999299645
  30
0.0
  11
 479.99999359250
  21
 487.73749313056
  31
0.0
   0
LINE
   5
EB
 100
AcDbEntity
   8
LEVEL003
 100
AcDbLine
   6
CONTINUOUS
  62
3
  10
 479.99999359250
  20
 471.99999326468
  30
0.0
  11
 479.99999359250
  21
 474.26249313056
  31
0.0
   0
INSERT
   5
EC
 100
AcDbEntity
   8
LEVEL003
   6
CONTINUOUS
  62
3
 100
AcDbBlockReference
   2
_OPEN
  10
 479.99999359250
  20
 489.99999299645
  30
0.0
  41
 6.0000000000000
  42
 6.0000000000000
  43
 6.0000000000000
  50
 90.000000000000
   0
INSERT
   5
ED
 100
AcDbEntity
   8
LEVEL003
   6
CONTINUOUS
  62
3
 100
AcDbBlockReference
   2
_OPEN
  10
 479.99999359250
  20
 471.99999326468
  30
0.0
  41
 6.0000000000000
  42
 6.0000000000000
  43
 6.0000000000000
  50
 270.00000000000
   0
MTEXT
   5
EE
 100
AcDbEntity
   8
LEVEL003
  62
3
 100
AcDbMText
  10
 478.39998751283
  20
 480.99999313056
  30
0.0
  40
 8.0000000000000
  41
0.0
  71
8
  72
1
   1
\A1;18
   7
GMM001
  11
0.0
  21
 1.0000000000000
  31
0.0
   0
ENDBLK
   5
EF
 100
AcDbEntity
   8
0
 100
AcDbBlockEnd
   0
BLOCK
   5
F0
 100
AcDbEntity
   8
0
 100
AcDbBlockBegin
   2
*D10
  70
65
  10
0.0
  20
0.0
  30
0.0
   3
*D10
   0
LINE
   5
F1
 100
AcDbEntity
   8
LEVEL003
 100
AcDbLine
   6
CONTINUOUS
  62
3
  10
 247.99999701977
  20
 346.99999512732
  30
0.0
  11
 85.999999403954
  21
 346.99999512732
  31
0.0
   0
LINE
   5
F2
 100
AcDbEntity
   8
LEVEL003
 100
AcDbLine
   6
CONTINUOUS
  62
3
  10
 124.49999886006
  20
 106.99999870360
  30
0.0
  11
 85.999999403954
  21
 106.99999870360
  31
0.0
   0
LINE
   5
F3
 100
AcDbEntity
   8
LEVEL003
 100
AcDbLine
   6
CONTINUOUS
  62
3
  10
 89.999999403954
  20
 346.99999512732
  30
0.0
  11
 89.999999403954
  21
 238.37499691546
  31
0.0
   0
LINE
   5
F4
 100
AcDbEntity
   8
LEVEL003
 100
AcDbLine
   6
CONTINUOUS
  62
3
  10
 89.999999403954
  20
 106.99999870360
  30
0.0
  11
 89.999999403954
  21
 215.62499691546
  31
0.0
   0
INSERT
   5
F5
 100
AcDbEntity
   8
LEVEL003
   6
CONTINUOUS
  62
3
 100
AcDbBlockReference
   2
_OPEN
  10
 89.999999403954
  20
 346.99999512732
  30
0.0
  41
 6.0000000000000
  42
 6.0000000000000
  43
 6.0000000000000
  50
 90.000000000000
   0
INSERT
   5
F6
 100
AcDbEntity
   8
LEVEL003
   6
CONTINUOUS
  62
3
 100
AcDbBlockReference
   2
_OPEN
  10
 89.999999403954
  20
 106.99999870360
  30
0.0
  41
 6.0000000000000
  42
 6.0000000000000
  43
 6.0000000000000
  50
 270.00000000000
   0
MTEXT
   5
F7
 100
AcDbEntity
   8
LEVEL003
  62
3
 100
AcDbMText
  10
 88.400000953675
  20
 226.99999691546
  30
0.0
  40
 8.0000000000000
  41
0.0
  71
8
  72
1
   1
\A1;240
   7
GMM001
  11
0.0
  21
 1.0000000000000
  31
0.0
   0
ENDBLK
   5
F8
 100
AcDbEntity
   8
0
 100
AcDbBlockEnd
   0
BLOCK
   5
F9
 100
AcDbEntity
   8
0
 100
AcDbBlockBegin
   2
*D12
  70
65
  10
0.0
  20
0.0
  30
0.0
   3
*D12
   0
LINE
   5
FA
 100
AcDbEntity
   8
LEVEL003
 100
AcDbLine
   6
CONTINUOUS
  62
3
  10
 210.00000357628
  20
 483.99999311566
  30
0.0
  11
 210.00000357628
  21
 514.00000000000
  31
0.0
   0
LINE
   5
FB
 100
AcDbEntity
   8
LEVEL003
 100
AcDbLine
   6
CONTINUOUS
  62
3
  10
 289.99999642372
  20
 483.99999311566
  30
0.0
  11
 289.99999642372
  21
 514.00000000000
  31
0.0
   0
LINE
   5
FC
 100
AcDbEntity
   8
LEVEL003
 100
AcDbLine
   6
CONTINUOUS
  62
3
  10
 210.00000357628
  20
 510.00000000000
  30
0.0
  11
 237.05000000000
  21
 510.00000000000
  31
0.0
   0
LINE
   5
FD
 100
AcDbEntity
   8
LEVEL003
 100
AcDbLine
   6
CONTINUOUS
  62
3
  10
 289.99999642372
  20
 510.00000000000
  30
0.0
  11
 262.95000000000
  21
 510.00000000000
  31
0.0
   0
INSERT
   5
FE
 100
AcDbEntity
   8
LEVEL003
   6
CONTINUOUS
  62
3
 100
AcDbBlockReference
   2
_OPEN
  10
 210.00000357628
  20
 510.00000000000
  30
0.0
  41
 6.0000000000000
  42
 6.0000000000000
  43
 6.0000000000000
  50
 180.00000000000
   0
INSERT
   5
FF
 100
AcDbEntity
   8
LEVEL003
   6
CONTINUOUS
  62
3
 100
AcDbBlockReference
   2
_OPEN
  10
 289.99999642372
  20
 510.00000000000
  30
0.0
  41
 6.0000000000000
  42
 6.0000000000000
  43
 6.0000000000000
  50
0.0
   0
MTEXT
   5
100
 100
AcDbEntity
   8
LEVEL003
  62
3
 100
AcDbMText
  10
 250.00000000000
  20
 511.60000000000
  30
0.0
  40
 8.0000000000000
  41
0.0
  71
8
  72
1
   1
\A1;%%c80
   7
GMM001
   0
ENDBLK
   5
101
 100
AcDbEntity
   8
0
 100
AcDbBlockEnd
   0
BLOCK
   5
102
 100
AcDbEntity
   8
0
 100
AcDbBlockBegin
   2
*D13
  70
65
  10
0.0
  20
0.0
  30
0.0
   3
*D13
   0
LINE
   5
103
 100
AcDbEntity
   8
LEVEL003
 100
AcDbLine
   6
CONTINUOUS
  62
3
  10
 144.99999858439
  20
 101.99999874830
  30
0.0
  11
 144.99999858439
  21
 56.000000000000
  31
0.0
   0
LINE
   5
104
 100
AcDbEntity
   8
LEVEL003
 100
AcDbLine
   6
CONTINUOUS
  62
3
  10
 355.00000141561
  20
 101.99999874830
  30
0.0
  11
 355.00000141561
  21
 56.000000000000
  31
0.0
   0
LINE
   5
105
 100
AcDbEntity
   8
LEVEL003
 100
AcDbLine
   6
CONTINUOUS
  62
3
  10
 144.99999858439
  20
 60.000000000000
  30
0.0
  11
 234.33750000000
  21
 60.000000000000
  31
0.0
   0
LINE
   5
106
 100
AcDbEntity
   8
LEVEL003
 100
AcDbLine
   6
CONTINUOUS
  62
3
  10
 355.00000141561
  20
 60.000000000000
  30
0.0
  11
 265.66250000000
  21
 60.000000000000
  31
0.0
   0
INSERT
   5
107
 100
AcDbEntity
   8
LEVEL003
   6
CONTINUOUS
  62
3
 100
AcDbBlockReference
   2
_OPEN
  10
 144.99999858439
  20
 60.000000000000
  30
0.0
  41
 6.0000000000000
  42
 6.0000000000000
  43
 6.0000000000000
  50
 180.00000000000
   0
INSERT
   5
108
 100
AcDbEntity
   8
LEVEL003
   6
CONTINUOUS
  62
3
 100
AcDbBlockReference
   2
_OPEN
  10
 355.00000141561
  20
 60.000000000000
  30
0.0
  41
 6.0000000000000
  42
 6.0000000000000
  43
 6.0000000000000
  50
0.0
   0
MTEXT
   5
109
 100
AcDbEntity
   8
LEVEL003
  62
3
 100
AcDbMText
  10
 250.00000000000
  20
 61.600000000000
  30
0.0
  40
 8.0000000000000
  41
0.0
  71
8
  72
1
   1
\A1;%%c210
   7
GMM001
   0
ENDBLK
   5
10A
 100
AcDbEntity
   8
0
 100
AcDbBlockEnd
   0
BLOCK
   5
10B
 100
AcDbEntity
   8
0
 100
AcDbBlockBegin
   2
*D14
  70
65
  10
0.0
  20
0.0
  30
0.0
   3
*D14
   0
LINE
   5
10C
 100
AcDbEntity
   8
LEVEL003
 100
AcDbLine
   6
CONTINUOUS
  62
3
  10
 210.00000357628
  20
 112.49999859184
  30
0.0
  11
 210.00000357628
  21
 76.000000000000
  31
0.0
   0
LINE
   5
10D
 100
AcDbEntity
   8
LEVEL003
 100
AcDbLine
   6
CONTINUOUS
  62
3
  10
 289.99999642372
  20
 112.49999859184
  30
0.0
  11
 289.99999642372
  21
 76.000000000000
  31
0.0
   0
LINE
   5
10E
 100
AcDbEntity
   8
LEVEL003
 100
AcDbLine
   6
CONTINUOUS
  62
3
  10
 210.00000357628
  20
 80.000000000000
  30
0.0
  11
 237.05000000000
  21
 80.000000000000
  31
0.0
   0
LINE
   5
10F
 100
AcDbEntity
   8
LEVEL003
 100
AcDbLine
   6
CONTINUOUS
  62
3
  10
 289.99999642372
  20
 80.000000000000
  30
0.0
  11
 262.95000000000
  21
 80.000000000000
  31
0.0
   0
INSERT
   5
110
 100
AcDbEntity
   8
LEVEL003
   6
CONTINUOUS
  62
3
 100
AcDbBlockReference
   2
_OPEN
  10
 210.00000357628
  20
 80.000000000000
  30
0.0
  41
 6.0000000000000
  42
 6.0000000000000
  43
 6.0000000000000
  50
 180.00000000000
   0
INSERT
   5
111
 100
AcDbEntity
   8
LEVEL003
   6
CONTINUOUS
  62
3
 100
AcDbBlockReference
   2
_OPEN
  10
 289.99999642372
  20
 80.000000000000
  30
0.0
  41
 6.0000000000000
  42
 6.0000000000000
  43
 6.0000000000000
  50
0.0
   0
MTEXT
   5
112
 100
AcDbEntity
   8
LEVEL003
  62
3
 100
AcDbMText
  10
 250.00000000000
  20
 81.600000000000
  30
0.0
  40
 8.0000000000000
  41
0.0
  71
8
  72
1
   1
\A1;%%c80
   7
GMM001
   0
ENDBLK
   5
113
 100
AcDbEntity
   8
0
 100
AcDbBlockEnd
   0
BLOCK
   5
114
 100
AcDbEntity
   8
0
 100
AcDbBlockBegin
   2
*D15
  70
65
  10
0.0
  20
0.0
  30
0.0
   3
*D15
   0
LINE
   5
115
 100
AcDbEntity
   8
LEVEL003
 100
AcDbLine
   6
CONTINUOUS
  62
3
  10
 170.00000417233
  20
 290.00000000000
  30
0.0
  11
 234.33750000000
  21
 290.00000000000
  31
0.0
   0
LINE
   5
116
 100
AcDbEntity
   8
LEVEL003
 100
AcDbLine
   6
CONTINUOUS
  62
3
  10
 329.99999582767
  20
 290.00000000000
  30
0.0
  11
 265.66250000000
  21
 290.00000000000
  31
0.0
   0
INSERT
   5
117
 100
AcDbEntity
   8
LEVEL003
   6
CONTINUOUS
  62
3
 100
AcDbBlockReference
   2
_OPEN
  10
 170.00000417233
  20
 290.00000000000
  30
0.0
  41
 6.0000000000000
  42
 6.0000000000000
  43
 6.0000000000000
  50
 180.00000000000
   0
INSERT
   5
118
 100
AcDbEntity
   8
LEVEL003
   6
CONTINUOUS
  62
3
 100
AcDbBlockReference
   2
_OPEN
  10
 329.99999582767
  20
 290.00000000000
  30
0.0
  41
 6.0000000000000
  42
 6.0000000000000
  43
 6.0000000000000
  50
0.0
   0
MTEXT
   5
119
 100
AcDbEntity
   8
LEVEL003
  62
3
 100
AcDbMText
  10
 250.00000000000
  20
 291.60000000000
  30
0.0
  40
 8.0000000000000
  41
0.0
  71
8
  72
1
   1
\A1;%%c160
   7
GMM001
   0
ENDBLK
   5
11A
 100
AcDbEntity
   8
0
 100
AcDbBlockEnd
   0
BLOCK
   5
11B
 100
AcDbEntity
   8
0
 100
AcDbBlockBegin
   2
*D16
  70
65
  10
0.0
  20
0.0
  30
0.0
   3
*D16
   0
LINE
   5
11C
 100
AcDbEntity
   8
LEVEL003
 100
AcDbLine
   6
CONTINUOUS
  62
3
  10
 347.49999556690
  20
 270.00000000000
  30
0.0
  11
 266.36250000000
  21
 270.00000000000
  31
0.0
   0
LINE
   5
11D
 100
AcDbEntity
   8
LEVEL003
 100
AcDbLine
   6
CONTINUOUS
  62
3
  10
 152.50000443310
  20
 270.00000000000
  30
0.0
  11
 233.63750000000
  21
 270.00000000000
  31
0.0
   0
INSERT
   5
11E
 100
AcDbEntity
   8
LEVEL003
   6
CONTINUOUS
  62
3
 100
AcDbBlockReference
   2
_OPEN
  10
 347.49999556690
  20
 270.00000000000
  30
0.0
  41
 6.0000000000000
  42
 6.0000000000000
  43
 6.0000000000000
  50
0.0
   0
INSERT
   5
11F
 100
AcDbEntity
   8
LEVEL003
   6
CONTINUOUS
  62
3
 100
AcDbBlockReference
   2
_OPEN
  10
 152.50000443310
  20
 270.00000000000
  30
0.0
  41
 6.0000000000000
  42
 6.0000000000000
  43
 6.0000000000000
  50
 180.00000000000
   0
MTEXT
   5
120
 100
AcDbEntity
   8
LEVEL003
  62
3
 100
AcDbMText
  10
 250.00000000000
  20
 271.60000000000
  30
0.0
  40
 8.0000000000000
  41
0.0
  71
8
  72
1
   1
\A1;%%c195
   7
GMM001
   0
ENDBLK
   5
121
 100
AcDbEntity
   8
0
 100
AcDbBlockEnd
   0
BLOCK
   5
122
 100
AcDbEntity
   8
0
 100
AcDbBlockBegin
   2
*D17
  70
65
  10
0.0
  20
0.0
  30
0.0
   3
*D17
   0
LINE
   5
123
 100
AcDbEntity
   8
LEVEL003
 100
AcDbLine
   6
CONTINUOUS
  62
3
  10
 195.00000379980
  20
 310.00000000000
  30
0.0
  11
 235.65000000000
  21
 310.00000000000
  31
0.0
   0
LINE
   5
124
 100
AcDbEntity
   8
LEVEL003
 100
AcDbLine
   6
CONTINUOUS
  62
3
  10
 304.99999620020
  20
 310.00000000000
  30
0.0
  11
 264.35000000000
  21
 310.00000000000
  31
0.0
   0
INSERT
   5
125
 100
AcDbEntity
   8
LEVEL003
   6
CONTINUOUS
  62
3
 100
AcDbBlockReference
   2
_OPEN
  10
 195.00000379980
  20
 310.00000000000
  30
0.0
  41
 6.0000000000000
  42
 6.0000000000000
  43
 6.0000000000000
  50
 180.00000000000
   0
INSERT
   5
126
 100
AcDbEntity
   8
LEVEL003
   6
CONTINUOUS
  62
3
 100
AcDbBlockReference
   2
_OPEN
  10
 304.99999620020
  20
 310.00000000000
  30
0.0
  41
 6.0000000000000
  42
 6.0000000000000
  43
 6.0000000000000
  50
0.0
   0
MTEXT
   5
127
 100
AcDbEntity
   8
LEVEL003
  62
3
 100
AcDbMText
  10
 250.00000000000
  20
 311.60000000000
  30
0.0
  40
 8.0000000000000
  41
0.0
  71
8
  72
1
   1
\A1;%%c110
   7
GMM001
   0
ENDBLK
   5
128
 100
AcDbEntity
   8
0
 100
AcDbBlockEnd
   0
BLOCK
   5
129
 100
AcDbEntity
   8
0
 100
AcDbBlockBegin
   2
*D18
  70
65
  10
0.0
  20
0.0
  30
0.0
   3
*D18
   0
LINE
   5
12A
 100
AcDbEntity
   8
LEVEL003
 100
AcDbLine
   6
CONTINUOUS
  62
3
  10
 123.49999890476
  20
 229.99999701977
  30
0.0
  11
 232.32499701977
  21
 229.99999701977
  31
0.0
   0
LINE
   5
12B
 100
AcDbEntity
   8
LEVEL003
 100
AcDbLine
   6
CONTINUOUS
  62
3
  10
 376.49999513477
  20
 229.99999701977
  30
0.0
  11
 267.67499701977
  21
 229.99999701977
  31
0.0
   0
INSERT
   5
12C
 100
AcDbEntity
   8
LEVEL003
   6
CONTINUOUS
  62
3
 100
AcDbBlockReference
   2
_OPEN
  10
 123.49999890476
  20
 229.99999701977
  30
0.0
  41
 6.0000000000000
  42
 6.0000000000000
  43
 6.0000000000000
  50
 180.00000000000
   0
INSERT
   5
12D
 100
AcDbEntity
   8
LEVEL003
   6
CONTINUOUS
  62
3
 100
AcDbBlockReference
   2
_OPEN
  10
 376.49999513477
  20
 229.99999701977
  30
0.0
  41
 6.0000000000000
  42
 6.0000000000000
  43
 6.0000000000000
  50
0.0
   0
MTEXT
   5
12E
 100
AcDbEntity
   8
LEVEL003
  62
3
 100
AcDbMText
  10
 249.99999701977
  20
 231.60000309944
  30
0.0
  40
 8.0000000000000
  41
0.0
  71
8
  72
1
   1
\A1;%%c253
   7
GMM001
   0
ENDBLK
   5
12F
 100
AcDbEntity
   8
0
 100
AcDbBlockEnd
   0
BLOCK
   5
130
 100
AcDbEntity
   8
0
 100
AcDbBlockBegin
   2
*D19
  70
65
  10
0.0
  20
0.0
  30
0.0
   3
*D19
   0
LINE
   5
131
 100
AcDbEntity
   8
LEVEL003
 100
AcDbLine
   6
CONTINUOUS
  62
3
  10
 305.49999616295
  20
 471.99999326468
  30
0.0
  11
 266.00000000000
  21
 471.99999326468
  31
0.0
   0
LINE
   5
132
 100
AcDbEntity
   8
LEVEL003
 100
AcDbLine
   6
CONTINUOUS
  62
3
  10
 303.99999618530
  20
 421.99999400973
  30
0.0
  11
 266.00000000000
  21
 421.99999400973
  31
0.0
   0
LINE
   5
133
 100
AcDbEntity
   8
LEVEL003
 100
AcDbLine
   6
CONTINUOUS
  62
3
  10
 270.00000000000
  20
 471.99999326468
  30
0.0
  11
 270.00000000000
  21
 454.34999363720
  31
0.0
   0
LINE
   5
134
 100
AcDbEntity
   8
LEVEL003
 100
AcDbLine
   6
CONTINUOUS
  62
3
  10
 270.00000000000
  20
 421.99999400973
  30
0.0
  11
 270.00000000000
  21
 439.64999363720
  31
0.0
   0
INSERT
   5
135
 100
AcDbEntity
   8
LEVEL003
   6
CONTINUOUS
  62
3
 100
AcDbBlockReference
   2
_OPEN
  10
 270.00000000000
  20
 471.99999326468
  30
0.0
  41
 6.0000000000000
  42
 6.0000000000000
  43
 6.0000000000000
  50
 90.000000000000
   0
INSERT
   5
136
 100
AcDbEntity
   8
LEVEL003
   6
CONTINUOUS
  62
3
 100
AcDbBlockReference
   2
_OPEN
  10
 270.00000000000
  20
 421.99999400973
  30
0.0
  41
 6.0000000000000
  42
 6.0000000000000
  43
 6.0000000000000
  50
 270.00000000000
   0
MTEXT
   5
137
 100
AcDbEntity
   8
LEVEL003
  62
3
 100
AcDbMText
  10
 268.39999392033
  20
 446.99999363720
  30
0.0
  40
 8.0000000000000
  41
0.0
  71
8
  72
1
   1
\A1;50
   7
GMM001
  11
0.0
  21
 1.0000000000000
  31
0.0
   0
ENDBLK
   5
138
 100
AcDbEntity
   8
0
 100
AcDbBlockEnd
   0
ENDSEC
   0
SECTION
   2
ENTITIES
   0
LINE
   5
139
 100
AcDbEntity
   8
LEVEL001
 100
AcDbLine
   6
CONTINUOUS
  62
7
  10
 241.49999714643
  20
 361.99999490380
  30
0.0
  11
 240.49999716133
  21
 362.99999488890
  31
0.0
   0
LINE
   5
13A
 100
AcDbEntity
   8
LEVEL001
 100
AcDbLine
   6
CONTINUOUS
  62
7
  10
 241.49999714643
  20
 331.99999535084
  30
0.0
  11
 240.49999716133
  21
 330.99999536574
  31
0.0
   0
ARC
   5
13B
 100
AcDbEntity
   8
LEVEL001
   6
DASHDOT
  62
1
 100
AcDbCircle
  10
 249.99999701977
  20
 302.99999578297
  30
0.0
  40
 43.999999344349
 100
AcDbArc
  50
 90.000000000000
  51
 270.00000000000
   0
ARC
   5
13C
 100
AcDbEntity
   8
LEVEL001
   6
CONTINUOUS
  62
7
 100
AcDbCircle
  10
 249.99998865943
  20
 302.99999578297
  30
0.0
  40
 50.499999247491
 100
AcDbArc
  50
 100.84301086674
  51
 270.00000948539
   0
ARC
   5
13D
 100
AcDbEntity
   8
LEVEL001
   6
CONTINUOUS
  62
7
 100
AcDbCircle
  10
 249.99992406862
  20
 302.99999578290
  30
0.0
  40
 37.499999441206
 100
AcDbArc
  50
 104.67473452318
  51
 270.00011146114
   0
LINE
   5
13E
 100
AcDbEntity
   8
LEVEL001
 100
AcDbLine
   6
CONTINUOUS
  62
7
  10
 249.99999701977
  20
 361.99999490380
  30
0.0
  11
 241.49999714643
  21
 361.99999490380
  31
0.0
   0
LINE
   5
13F
 100
AcDbEntity
   8
LEVEL001
 100
AcDbLine
   6
CONTINUOUS
  62
7
  10
 241.49999714643
  20
 361.99999490380
  30
0.0
  11
 241.49999714643
  21
 331.99999535084
  31
0.0
   0
LINE
   5
140
 100
AcDbEntity
   8
LEVEL001
 100
AcDbLine
   6
CONTINUOUS
  62
7
  10
 241.49999714643
  20
 331.99999535084
  30
0.0
  11
 249.99999701977
  21
 331.99999535084
  31
0.0
   0
LINE
   5
141
 100
AcDbEntity
   8
LEVEL001
 100
AcDbLine
   6
CONTINUOUS
  62
7
  10
 249.99999701977
  20
 362.99999488890
  30
0.0
  11
 240.49999716133
  21
 362.99999488890
  31
0.0
   0
LINE
   5
142
 100
AcDbEntity
   8
LEVEL001
 100
AcDbLine
   6
CONTINUOUS
  62
7
  10
 240.49999716133
  20
 362.99999488890
  30
0.0
  11
 240.49999716133
  21
 330.99999536574
  31
0.0
   0
LINE
   5
143
 100
AcDbEntity
   8
LEVEL001
 100
AcDbLine
   6
CONTINUOUS
  62
7
  10
 240.49999716133
  20
 330.99999536574
  30
0.0
  11
 249.99999701977
  21
 330.99999536574
  31
0.0
   0
LINE
   5
144
 100
AcDbEntity
   8
LEVEL001
 100
AcDbLine
   6
CONTINUOUS
  62
7
  10
 322.49999593943
  20
 488.99999301136
  30
0.0
  11
 321.49999595433
  21
 489.99999299645
  31
0.0
   0
LINE
   5
145
 100
AcDbEntity
   8
LEVEL001
 100
AcDbLine
   6
CONTINUOUS
  62
7
  10
 322.49999593943
  20
 488.99999301136
  30
0.0
  11
 322.49999593943
  21
 471.99999326468
  31
0.0
   0
LINE
   5
146
 100
AcDbEntity
   8
LEVEL001
 100
AcDbLine
   6
CONTINUOUS
  62
7
  10
 328.49999585003
  20
 471.99999326468
  30
0.0
  11
 329.99999582767
  21
 466.99999333918
  31
0.0
   0
LINE
   5
147
 100
AcDbEntity
   8
LEVEL001
 100
AcDbLine
   6
CONTINUOUS
  62
7
  10
 376.49999513477
  20
 463.99999338388
  30
0.0
  11
 373.49999517947
  21
 466.99999333918
  31
0.0
   0
LINE
   5
148
 100
AcDbEntity
   8
LEVEL001
 100
AcDbLine
   6
CONTINUOUS
  62
7
  10
 376.49999513477
  20
 109.99999865890
  30
0.0
  11
 373.49999517947
  21
 106.99999870360
  31
0.0
   0
LINE
   5
149
 100
AcDbEntity
   8
LEVEL001
 100
AcDbLine
   6
DOT
  62
7
  10
 152.99999846518
  20
 106.99999870360
  30
0.0
  11
 151.99999848008
  21
 107.99999868870
  31
0.0
   0
LINE
   5
14A
 100
AcDbEntity
   8
LEVEL001
 100
AcDbLine
   6
DOT
  62
7
  10
 151.99999848008
  20
 107.99999868870
  30
0.0
  11
 151.99999848008
  21
 130.73205401403
  31
0.0
   0
LINE
   5
14B
 100
AcDbEntity
   8
LEVEL001
 100
AcDbLine
   6
DOT
  62
7
  10
 151.99999848008
  20
 130.73205401403
  30
0.0
  11
 144.99999858439
  21
 134.77349682490
  31
0.0
   0
LINE
   5
14C
 100
AcDbEntity
   8
LEVEL001
 100
AcDbLine
   6
DOT
  62
7
  10
 144.99999858439
  20
 134.77349682490
  30
0.0
  11
 137.99999868870
  21
 130.73205401403
  31
0.0
   0
LINE
   5
14D
 100
AcDbEntity
   8
LEVEL001
 100
AcDbLine
   6
DOT
  62
7
  10
 137.99999868870
  20
 130.73205401403
  30
0.0
  11
 137.99999868870
  21
 107.99999868870
  31
0.0
   0
LINE
   5
14E
 100
AcDbEntity
   8
LEVEL001
 100
AcDbLine
   6
DOT
  62
7
  10
 137.99999868870
  20
 107.99999868870
  30
0.0
  11
 136.99999870360
  21
 106.99999870360
  31
0.0
   0
LINE
   5
14F
 100
AcDbEntity
   8
LEVEL001
 100
AcDbLine
   6
DOT
  62
7
  10
 151.99999848008
  20
 130.73205401403
  30
0.0
  11
 137.99999868870
  21
 130.73205401403
  31
0.0
   0
LINE
   5
150
 100
AcDbEntity
   8
LEVEL001
 100
AcDbLine
   6
DOT
  62
7
  10
 151.99999848008
  20
 107.99999868870
  30
0.0
  11
 137.99999868870
  21
 107.99999868870
  31
0.0
   0
LINE
   5
151
 100
AcDbEntity
   8
LEVEL001
 100
AcDbLine
   6
CONTINUOUS
  62
7
  10
 126.49999886006
  20
 106.99999870360
  30
0.0
  11
 123.49999890476
  21
 109.99999865890
  31
0.0
   0
LINE
   5
152
 100
AcDbEntity
   8
LEVEL001
 100
AcDbLine
   6
CONTINUOUS
  62
7
  10
 373.49999517947
  20
 106.99999870360
  30
0.0
  11
 126.49999886006
  21
 106.99999870360
  31
0.0
   0
LINE
   5
153
 100
AcDbEntity
   8
LEVEL001
 100
AcDbLine
   6
CONTINUOUS
  62
7
  10
 123.49999890476
  20
 463.99999338388
  30
0.0
  11
 126.49999886006
  21
 466.99999333918
  31
0.0
   0
LINE
   5
154
 100
AcDbEntity
   8
LEVEL001
 100
AcDbLine
   6
CONTINUOUS
  62
7
  10
 123.49999890476
  20
 463.99999338388
  30
0.0
  11
 123.49999890476
  21
 109.99999865890
  31
0.0
   0
LINE
   5
155
 100
AcDbEntity
   8
LEVEL001
 100
AcDbLine
   6
CONTINUOUS
  62
7
  10
 177.49999810010
  20
 488.99999301136
  30
0.0
  11
 178.49999808520
  21
 489.99999299645
  31
0.0
   0
LINE
   5
156
 100
AcDbEntity
   8
LEVEL001
 100
AcDbLine
   6
CONTINUOUS
  62
7
  10
 177.49999810010
  20
 488.99999301136
  30
0.0
  11
 177.49999810010
  21
 471.99999326468
  31
0.0
   0
LINE
   5
157
 100
AcDbEntity
   8
LEVEL001
 100
AcDbLine
   6
CONTINUOUS
  62
7
  10
 171.49999818951
  20
 471.99999326468
  30
0.0
  11
 169.99999821186
  21
 466.99999333918
  31
0.0
   0
LINE
   5
158
 100
AcDbEntity
   8
LEVEL001
 100
AcDbLine
   6
CONTINUOUS
  62
7
  10
 126.49999886006
  20
 466.99999333918
  30
0.0
  11
 249.99999701977
  21
 466.99999333918
  31
0.0
   0
LINE
   5
159
 100
AcDbEntity
   8
LEVEL001
 100
AcDbLine
   6
CONTINUOUS
  62
7
  10
 171.49999818951
  20
 471.99999326468
  30
0.0
  11
 249.99999701977
  21
 471.99999326468
  31
0.0
   0
LINE
   5
15A
 100
AcDbEntity
   8
LEVEL001
 100
AcDbLine
   6
CONTINUOUS
  62
7
  10
 249.99999701977
  20
 488.99999301136
  30
0.0
  11
 177.49999810010
  21
 488.99999301136
  31
0.0
   0
LINE
   5
15B
 100
AcDbEntity
   8
LEVEL001
 100
AcDbLine
   6
CONTINUOUS
  62
7
  10
 249.99999701977
  20
 463.99999338388
  30
0.0
  11
 123.49999890476
  21
 463.99999338388
  31
0.0
   0
LINE
   5
15C
 100
AcDbEntity
   8
LEVEL001
 100
AcDbLine
   6
CONTINUOUS
  62
7
  10
 249.99999701977
  20
 109.99999865890
  30
0.0
  11
 123.49999890476
  21
 109.99999865890
  31
0.0
   0
LINE
   5
15D
 100
AcDbEntity
   8
LEVEL001
 100
AcDbLine
   6
DASHDOT
  62
1
  10
 144.99999858439
  20
 103.99999874830
  30
0.0
  11
 144.99999858439
  21
 137.77349678019
  31
0.0
   0
LINE
   5
15E
 100
AcDbEntity
   8
LEVEL001
 100
AcDbLine
   6
DASHDOT
  62
1
  10
 249.99999701977
  20
 499.99999284744
  30
0.0
  11
 249.99999701977
  21
 321.96560218982
  31
0.0
   0
LINE
   5
15F
 100
AcDbEntity
   8
LEVEL001
 100
AcDbLine
   6
DOT
  62
3
  10
 152.99999846518
  20
 106.99999870360
  30
0.0
  11
 152.99999846518
  21
 126.99999840558
  31
0.0
   0
LINE
   5
160
 100
AcDbEntity
   8
LEVEL001
 100
AcDbLine
   6
DOT
  62
3
  10
 152.99999846518
  20
 126.99999840558
  30
0.0
  11
 151.99999848008
  21
 130.73205401403
  31
0.0
   0
LINE
   5
161
 100
AcDbEntity
   8
LEVEL001
 100
AcDbLine
   6
DOT
  62
3
  10
 152.99999846518
  20
 126.99999840558
  30
0.0
  11
 136.99999870360
  21
 126.99999840558
  31
0.0
   0
LINE
   5
162
 100
AcDbEntity
   8
LEVEL001
 100
AcDbLine
   6
DOT
  62
3
  10
 137.99999868870
  20
 130.73205401403
  30
0.0
  11
 136.99999870360
  21
 126.99999840558
  31
0.0
   0
LINE
   5
163
 100
AcDbEntity
   8
LEVEL001
 100
AcDbLine
   6
DOT
  62
3
  10
 136.99999870360
  20
 126.99999840558
  30
0.0
  11
 136.99999870360
  21
 106.99999870360
  31
0.0
   0
LINE
   5
164
 100
AcDbEntity
   8
LEVEL001
 100
AcDbLine
   6
CONTINUOUS
  62
7
  10
 321.49996543676
  20
 489.99999299645
  30
0.0
  11
 178.49999808520
  21
 489.99999299645
  31
0.0
   0
LINE
   5
165
 100
AcDbEntity
   8
LEVEL001
 100
AcDbLine
   6
CONTINUOUS
  62
3
  10
 386.49999498576
  20
 400.64348798031
  30
0.0
  11
 382.88366203183
  21
 399.67449385413
  31
0.0
   0
LINE
   5
166
 100
AcDbEntity
   8
LEVEL001
 100
AcDbLine
   6
CONTINUOUS
  62
3
  10
 386.49999498576
  20
 383.35650093322
  30
0.0
  11
 382.88363151426
  21
 384.32549505941
  31
0.0
   0
LINE
   5
167
 100
AcDbEntity
   8
LEVEL001
 100
AcDbLine
   6
CONTINUOUS
  62
3
  10
 382.88366203183
  20
 399.67449385413
  30
0.0
  11
 382.88353996152
  21
 384.32549505941
  31
0.0
   0
ARC
   5
168
 100
AcDbEntity
   8
LEVEL001
   6
CONTINUOUS
  62
7
 100
AcDbCircle
  10
 404.09900213993
  20
 408.18694710940
  30
0.0
  40
 17.600000119209
 100
AcDbArc
  50
 180.60862573870
  51
 203.25655861303
   0
ARC
   5
169
 100
AcDbEntity
   8
LEVEL001
   6
CONTINUOUS
  62
7
 100
AcDbCircle
  10
 404.09900213993
  20
 375.81304180414
  30
0.0
  40
 17.600000119209
 100
AcDbArc
  50
 156.74344138698
  51
 179.39137426131
   0
ARC
   5
16A
 100
AcDbEntity
   8
LEVEL001
   6
CONTINUOUS
  62
7
 100
AcDbCircle
  10
 417.07096369909
  20
 391.99999445677
  30
0.0
  40
 30.570954820947
 100
AcDbArc
  50
 162.41204577941
  51
 197.58795422059
   0
LINE
   5
16B
 100
AcDbEntity
   8
LEVEL001
 100
AcDbLine
   6
CONTINUOUS
  62
7
  10
 387.92907211290
  20
 410.47521390803
  30
0.0
  11
 386.49999498576
  21
 407.99999421835
  31
0.0
   0
LINE
   5
16C
 100
AcDbEntity
   8
LEVEL001
 100
AcDbLine
   6
CONTINUOUS
  62
7
  10
 386.49999498576
  20
 407.99999421835
  30
0.0
  11
 386.49999498576
  21
 375.99999469519
  31
0.0
   0
LINE
   5
16D
 100
AcDbEntity
   8
LEVEL001
 100
AcDbLine
   6
CONTINUOUS
  62
7
  10
 386.49999498576
  20
 375.99999469519
  30
0.0
  11
 387.92907211290
  21
 373.52477500551
  31
0.0
   0
LINE
   5
16E
 100
AcDbEntity
   8
LEVEL001
 100
AcDbLine
   6
CONTINUOUS
  62
7
  10
 387.92907211290
  20
 373.52477500551
  30
0.0
  11
 415.07091741158
  21
 373.52477500551
  31
0.0
   0
LINE
   5
16F
 100
AcDbEntity
   8
LEVEL001
 100
AcDbLine
   6
CONTINUOUS
  62
7
  10
 415.07091741158
  20
 373.52477500551
  30
0.0
  11
 416.49999453872
  21
 375.99999469519
  31
0.0
   0
LINE
   5
170
 100
AcDbEntity
   8
LEVEL001
 100
AcDbLine
   6
CONTINUOUS
  62
7
  10
 416.49999453872
  20
 375.99999469519
  30
0.0
  11
 416.49999453872
  21
 407.99999421835
  31
0.0
   0
LINE
   5
171
 100
AcDbEntity
   8
LEVEL001
 100
AcDbLine
   6
CONTINUOUS
  62
7
  10
 416.49999453872
  20
 407.99999421835
  30
0.0
  11
 415.07091741158
  21
 410.47521390803
  31
0.0
   0
LINE
   5
172
 100
AcDbEntity
   8
LEVEL001
 100
AcDbLine
   6
CONTINUOUS
  62
7
  10
 415.07091741158
  20
 410.47521390803
  30
0.0
  11
 387.92907211290
  21
 410.47521390803
  31
0.0
   0
ARC
   5
173
 100
AcDbEntity
   8
LEVEL001
   6
CONTINUOUS
  62
7
 100
AcDbCircle
  10
 398.90098738455
  20
 375.81304180414
  30
0.0
  40
 17.600000119209
 100
AcDbArc
  50
 0.60862573868876
  51
 23.256558613019
   0
ARC
   5
174
 100
AcDbEntity
   8
LEVEL001
   6
CONTINUOUS
  62
7
 100
AcDbCircle
  10
 398.90098738455
  20
 408.18694710940
  30
0.0
  40
 17.600000119209
 100
AcDbArc
  50
 336.74344138697
  51
 359.39137426130
   0
ARC
   5
175
 100
AcDbEntity
   8
LEVEL001
   6
CONTINUOUS
  62
7
 100
AcDbCircle
  10
 385.92902982715
  20
 391.99999445677
  30
0.0
  40
 30.570951006249
 100
AcDbArc
  50
 342.41204351312
  51
 17.587956486882
   0
LINE
   5
176
 100
AcDbEntity
   8
LEVEL001
 100
AcDbLine
   6
CONTINUOUS
  62
7
  10
 387.92907211290
  20
 401.23760418240
  30
0.0
  11
 415.07091741158
  21
 401.23760418240
  31
0.0
   0
LINE
   5
177
 100
AcDbEntity
   8
LEVEL001
 100
AcDbLine
   6
CONTINUOUS
  62
7
  10
 387.92907211290
  20
 382.76238473114
  30
0.0
  11
 415.07091741158
  21
 382.76238473114
  31
0.0
   0
LINE
   5
178
 100
AcDbEntity
   8
LEVEL001
 100
AcDbLine
   6
CONTINUOUS
  62
3
  10
 422.59069269015
  20
 382.49416574099
  30
0.0
  11
 422.59081476046
  21
 401.50585369012
  31
0.0
   0
LINE
   5
179
 100
AcDbEntity
   8
LEVEL001
 100
AcDbLine
   6
CONTINUOUS
  62
3
  10
 427.49999437481
  20
 402.82128335802
  30
0.0
  11
 422.59081476046
  21
 401.50585369012
  31
0.0
   0
LINE
   5
17A
 100
AcDbEntity
   8
LEVEL001
 100
AcDbLine
   6
CONTINUOUS
  62
3
  10
 427.49999437481
  20
 381.17870555552
  30
0.0
  11
 422.59069269015
  21
 382.49416574099
  31
0.0
   0
ARC
   5
17B
 100
AcDbEntity
   8
LEVEL001
   6
CONTINUOUS
  62
7
 100
AcDbCircle
  10
 447.70000628084
  20
 407.99999421835
  30
0.0
  40
 1.9999999701977
 100
AcDbArc
  50
 90.000000000036
  51
 180.00000000011
   0
LINE
   5
17C
 100
AcDbEntity
   8
LEVEL001
 100
AcDbLine
   6
CONTINUOUS
  62
7
  10
 447.70000628084
  20
 409.99999418855
  30
0.0
  11
 453.70000619143
  21
 409.99999418855
  31
0.0
   0
ARC
   5
17D
 100
AcDbEntity
   8
LEVEL001
   6
CONTINUOUS
  62
7
 100
AcDbCircle
  10
 469.70000595301
  20
 408.99999420345
  30
0.0
  40
 0.99999998509884
 100
AcDbArc
  50
0.0
  51
 89.999999999993
   0
LINE
   5
17E
 100
AcDbEntity
   8
LEVEL001
 100
AcDbLine
   6
CONTINUOUS
  62
7
  10
 463.70000604242
  20
 409.99999418855
  30
0.0
  11
 469.70000595301
  21
 409.99999418855
  31
0.0
   0
ARC
   5
17F
 100
AcDbEntity
   8
LEVEL001
   6
CONTINUOUS
  62
7
 100
AcDbCircle
  10
 447.70000628083
  20
 375.99999469519
  30
0.0
  40
 1.9999999701977
 100
AcDbArc
  50
 180.00000000000
  51
 270.00000000019
   0
LINE
   5
180
 100
AcDbEntity
   8
LEVEL001
 100
AcDbLine
   6
CONTINUOUS
  62
7
  10
 447.70000628084
  20
 373.99999472499
  30
0.0
  11
 453.70000619143
  21
 373.99999472499
  31
0.0
   0
ARC
   5
181
 100
AcDbEntity
   8
LEVEL001
   6
CONTINUOUS
  62
7
 100
AcDbCircle
  10
 469.70000595301
  20
 374.99999471008
  30
0.0
  40
 0.99999998509884
 100
AcDbArc
  50
 270.00000000000
  51
 0.33220258031971E-9
   0
LINE
   5
182
 100
AcDbEntity
   8
LEVEL001
 100
AcDbLine
   6
CONTINUOUS
  62
7
  10
 463.70000604242
  20
 373.99999472499
  30
0.0
  11
 469.70000595301
  21
 373.99999472499
  31
0.0
   0
LINE
   5
183
 100
AcDbEntity
   8
LEVEL001
 100
AcDbLine
   6
CONTINUOUS
  62
7
  10
 445.70000631064
  20
 375.99999469519
  30
0.0
  11
 445.70000631064
  21
 407.99999421835
  31
0.0
   0
LINE
   5
184
 100
AcDbEntity
   8
LEVEL001
 100
AcDbLine
   6
CONTINUOUS
  62
7
  10
 470.70000593811
  20
 408.99999420345
  30
0.0
  11
 470.70000593811
  21
 374.99999471009
  31
0.0
   0
LINE
   5
185
 100
AcDbEntity
   8
LEVEL001
 100
AcDbLine
   6
CONTINUOUS
  62
7
  10
 429.54162032095
  20
 403.99999427795
  30
0.0
  11
 429.54162032095
  21
 397.80947312997
  31
0.0
   0
LINE
   5
186
 100
AcDbEntity
   8
LEVEL001
 100
AcDbLine
   6
CONTINUOUS
  62
7
  10
 429.54162032095
  20
 386.19051578357
  30
0.0
  11
 429.54162032095
  21
 379.99999463558
  31
0.0
   0
LINE
   5
187
 100
AcDbEntity
   8
LEVEL001
 100
AcDbLine
   6
CONTINUOUS
  62
7
  10
 429.54162032095
  20
 386.19051578357
  30
0.0
  11
 438.49999421090
  21
 397.80947312997
  31
0.0
   0
LINE
   5
188
 100
AcDbEntity
   8
LEVEL001
 100
AcDbLine
   6
CONTINUOUS
  62
7
  10
 429.54162032095
  20
 397.80947312997
  30
0.0
  11
 438.49999421090
  21
 386.19051578357
  31
0.0
   0
LINE
   5
189
 100
AcDbEntity
   8
LEVEL001
 100
AcDbLine
   6
CONTINUOUS
  62
3
  10
 453.70000619143
  20
 375.49999470264
  30
0.0
  11
 463.70000604242
  21
 375.49999470264
  31
0.0
   0
LINE
   5
18A
 100
AcDbEntity
   8
LEVEL001
 100
AcDbLine
   6
CONTINUOUS
  62
3
  10
 453.70000619143
  20
 377.49999467283
  30
0.0
  11
 463.70000604242
  21
 377.49999467283
  31
0.0
   0
LINE
   5
18B
 100
AcDbEntity
   8
LEVEL001
 100
AcDbLine
   6
CONTINUOUS
  62
3
  10
 453.70000619143
  20
 379.49999464303
  30
0.0
  11
 463.70000604242
  21
 379.49999464303
  31
0.0
   0
LINE
   5
18C
 100
AcDbEntity
   8
LEVEL001
 100
AcDbLine
   6
CONTINUOUS
  62
3
  10
 453.70000619143
  20
 381.49999461323
  30
0.0
  11
 463.70000604242
  21
 381.49999461323
  31
0.0
   0
LINE
   5
18D
 100
AcDbEntity
   8
LEVEL001
 100
AcDbLine
   6
CONTINUOUS
  62
3
  10
 453.70000619143
  20
 383.49999458343
  30
0.0
  11
 463.70000604242
  21
 383.49999458343
  31
0.0
   0
LINE
   5
18E
 100
AcDbEntity
   8
LEVEL001
 100
AcDbLine
   6
CONTINUOUS
  62
3
  10
 453.70000619143
  20
 385.49999455363
  30
0.0
  11
 463.70000604242
  21
 385.49999455363
  31
0.0
   0
LINE
   5
18F
 100
AcDbEntity
   8
LEVEL001
 100
AcDbLine
   6
CONTINUOUS
  62
3
  10
 453.70000619143
  20
 387.49999452382
  30
0.0
  11
 463.70000604242
  21
 387.49999452382
  31
0.0
   0
LINE
   5
190
 100
AcDbEntity
   8
LEVEL001
 100
AcDbLine
   6
CONTINUOUS
  62
3
  10
 453.70000619143
  20
 389.49999449402
  30
0.0
  11
 463.70000604242
  21
 389.49999449402
  31
0.0
   0
LINE
   5
191
 100
AcDbEntity
   8
LEVEL001
 100
AcDbLine
   6
CONTINUOUS
  62
3
  10
 453.70000619143
  20
 391.49999446422
  30
0.0
  11
 463.70000604242
  21
 391.49999446422
  31
0.0
   0
LINE
   5
192
 100
AcDbEntity
   8
LEVEL001
 100
AcDbLine
   6
CONTINUOUS
  62
3
  10
 453.70000619143
  20
 393.49999443442
  30
0.0
  11
 463.70000604242
  21
 393.49999443442
  31
0.0
   0
LINE
   5
193
 100
AcDbEntity
   8
LEVEL001
 100
AcDbLine
   6
CONTINUOUS
  62
3
  10
 453.70000619143
  20
 395.49999440461
  30
0.0
  11
 463.70000604242
  21
 395.49999440461
  31
0.0
   0
LINE
   5
194
 100
AcDbEntity
   8
LEVEL001
 100
AcDbLine
   6
CONTINUOUS
  62
3
  10
 453.70000619143
  20
 397.49999437481
  30
0.0
  11
 463.70000604242
  21
 397.49999437481
  31
0.0
   0
LINE
   5
195
 100
AcDbEntity
   8
LEVEL001
 100
AcDbLine
   6
CONTINUOUS
  62
3
  10
 453.70000619143
  20
 399.49999434501
  30
0.0
  11
 463.70000604242
  21
 399.49999434501
  31
0.0
   0
LINE
   5
196
 100
AcDbEntity
   8
LEVEL001
 100
AcDbLine
   6
CONTINUOUS
  62
3
  10
 453.70000619143
  20
 401.49999431521
  30
0.0
  11
 463.70000604242
  21
 401.49999431521
  31
0.0
   0
LINE
   5
197
 100
AcDbEntity
   8
LEVEL001
 100
AcDbLine
   6
CONTINUOUS
  62
3
  10
 453.70000619143
  20
 403.49999428540
  30
0.0
  11
 463.70000604242
  21
 403.49999428540
  31
0.0
   0
LINE
   5
198
 100
AcDbEntity
   8
LEVEL001
 100
AcDbLine
   6
CONTINUOUS
  62
3
  10
 453.70000619143
  20
 405.49999425560
  30
0.0
  11
 463.70000604242
  21
 405.49999425560
  31
0.0
   0
LINE
   5
199
 100
AcDbEntity
   8
LEVEL001
 100
AcDbLine
   6
CONTINUOUS
  62
3
  10
 453.70000619143
  20
 407.49999422580
  30
0.0
  11
 463.70000604242
  21
 407.49999422580
  31
0.0
   0
LINE
   5
19A
 100
AcDbEntity
   8
LEVEL001
 100
AcDbLine
   6
CONTINUOUS
  62
3
  10
 453.70000619143
  20
 409.49999419600
  30
0.0
  11
 463.70000604242
  21
 409.49999419600
  31
0.0
   0
LINE
   5
19B
 100
AcDbEntity
   8
LEVEL001
 100
AcDbLine
   6
CONTINUOUS
  62
7
  10
 427.49999437481
  20
 402.82128335802
  30
0.0
  11
 416.49999453872
  21
 402.47747232799
  31
0.0
   0
LINE
   5
19C
 100
AcDbEntity
   8
LEVEL001
 100
AcDbLine
   6
CONTINUOUS
  62
7
  10
 427.49999437481
  20
 381.17870555552
  30
0.0
  11
 416.49999453872
  21
 381.52251658555
  31
0.0
   0
LINE
   5
19D
 100
AcDbEntity
   8
LEVEL001
 100
AcDbLine
   6
CONTINUOUS
  62
3
  10
 422.59081476046
  20
 401.50585369012
  30
0.0
  11
 416.49999453872
  21
 401.31548504061
  31
0.0
   0
LINE
   5
19E
 100
AcDbEntity
   8
LEVEL001
 100
AcDbLine
   6
CONTINUOUS
  62
3
  10
 422.59069269015
  20
 382.49416574099
  30
0.0
  11
 416.49999453872
  21
 382.68450387292
  31
0.0
   0
LINE
   5
19F
 100
AcDbEntity
   8
LEVEL001
 100
AcDbLine
   6
DASHDOT
  62
1
  10
 470.70000593811
  20
 408.99999420345
  30
0.0
  11
 470.70000593811
  21
 409.99999418855
  31
0.0
   0
LINE
   5
1A0
 100
AcDbEntity
   8
LEVEL001
 100
AcDbLine
   6
DASHDOT
  62
1
  10
 470.70000593811
  20
 409.99999418855
  30
0.0
  11
 478.70000581890
  21
 409.99999418855
  31
0.0
   0
LINE
   5
1A1
 100
AcDbEntity
   8
LEVEL001
 100
AcDbLine
   6
DASHDOT
  62
1
  10
 478.70000581890
  20
 409.99999418855
  30
0.0
  11
 478.70000581890
  21
 373.99999472499
  31
0.0
   0
LINE
   5
1A2
 100
AcDbEntity
   8
LEVEL001
 100
AcDbLine
   6
DASHDOT
  62
1
  10
 478.70000581890
  20
 373.99999472499
  30
0.0
  11
 470.70000593811
  21
 373.99999472499
  31
0.0
   0
LINE
   5
1A3
 100
AcDbEntity
   8
LEVEL001
 100
AcDbLine
   6
DASHDOT
  62
1
  10
 470.70000593811
  20
 373.99999472499
  30
0.0
  11
 470.70000593811
  21
 374.99999471009
  31
0.0
   0
LINE
   5
1A4
 100
AcDbEntity
   8
LEVEL001
 100
AcDbLine
   6
CONTINUOUS
  62
7
  10
 453.70000619143
  20
 373.49999473244
  30
0.0
  11
 453.70000619143
  21
 410.49999418110
  31
0.0
   0
LINE
   5
1A5
 100
AcDbEntity
   8
LEVEL001
 100
AcDbLine
   6
CONTINUOUS
  62
7
  10
 453.70000619143
  20
 410.49999418110
  30
0.0
  11
 463.70000604242
  21
 410.49999418110
  31
0.0
   0
LINE
   5
1A6
 100
AcDbEntity
   8
LEVEL001
 100
AcDbLine
   6
CONTINUOUS
  62
7
  10
 463.70000604242
  20
 410.49999418110
  30
0.0
  11
 463.70000604242
  21
 373.49999473244
  31
0.0
   0
LINE
   5
1A7
 100
AcDbEntity
   8
LEVEL001
 100
AcDbLine
   6
CONTINUOUS
  62
7
  10
 463.70000604242
  20
 373.49999473244
  30
0.0
  11
 453.70000619143
  21
 373.49999473244
  31
0.0
   0
LINE
   5
1A8
 100
AcDbEntity
   8
LEVEL001
 100
AcDbLine
   6
CONTINUOUS
  62
7
  10
 427.49999437481
  20
 394.61724295292
  30
0.0
  11
 429.54162032095
  21
 397.80947312997
  31
0.0
   0
LINE
   5
1A9
 100
AcDbEntity
   8
LEVEL001
 100
AcDbLine
   6
CONTINUOUS
  62
7
  10
 429.54162032095
  20
 397.80947312997
  30
0.0
  11
 438.49999421090
  21
 397.80947312997
  31
0.0
   0
LINE
   5
1AA
 100
AcDbEntity
   8
LEVEL001
 100
AcDbLine
   6
CONTINUOUS
  62
7
  10
 438.49999421090
  20
 397.80947312997
  30
0.0
  11
 438.49999421090
  21
 386.19051578357
  31
0.0
   0
LINE
   5
1AB
 100
AcDbEntity
   8
LEVEL001
 100
AcDbLine
   6
CONTINUOUS
  62
7
  10
 438.49999421090
  20
 386.19051578357
  30
0.0
  11
 429.54162032095
  21
 386.19051578357
  31
0.0
   0
LINE
   5
1AC
 100
AcDbEntity
   8
LEVEL001
 100
AcDbLine
   6
CONTINUOUS
  62
7
  10
 429.54162032095
  20
 386.19051578357
  30
0.0
  11
 427.49999437481
  21
 389.38274596061
  31
0.0
   0
LINE
   5
1AD
 100
AcDbEntity
   8
LEVEL001
 100
AcDbLine
   6
CONTINUOUS
  62
7
  10
 445.70000631064
  20
 379.99999463558
  30
0.0
  11
 429.54162032095
  21
 379.99999463558
  31
0.0
   0
LINE
   5
1AE
 100
AcDbEntity
   8
LEVEL001
 100
AcDbLine
   6
CONTINUOUS
  62
7
  10
 429.54162032095
  20
 379.99999463558
  30
0.0
  11
 427.49999437481
  21
 381.17870555552
  31
0.0
   0
LINE
   5
1AF
 100
AcDbEntity
   8
LEVEL001
 100
AcDbLine
   6
CONTINUOUS
  62
7
  10
 427.49999437481
  20
 381.17870555552
  30
0.0
  11
 427.49999437481
  21
 402.82128335802
  31
0.0
   0
LINE
   5
1B0
 100
AcDbEntity
   8
LEVEL001
 100
AcDbLine
   6
CONTINUOUS
  62
7
  10
 427.49999437481
  20
 402.82128335802
  30
0.0
  11
 429.54162032095
  21
 403.99999427795
  31
0.0
   0
LINE
   5
1B1
 100
AcDbEntity
   8
LEVEL001
 100
AcDbLine
   6
CONTINUOUS
  62
7
  10
 429.54162032095
  20
 403.99999427795
  30
0.0
  11
 445.70000631064
  21
 403.99999427795
  31
0.0
   0
LINE
   5
1B2
 100
AcDbEntity
   8
LEVEL001
 100
AcDbLine
   6
CONTINUOUS
  62
3
  10
 386.49999498576
  20
 147.64349175031
  30
0.0
  11
 382.88366203183
  21
 146.67449762412
  31
0.0
   0
LINE
   5
1B3
 100
AcDbEntity
   8
LEVEL001
 100
AcDbLine
   6
CONTINUOUS
  62
3
  10
 386.49999498576
  20
 130.35650470322
  30
0.0
  11
 382.88363151426
  21
 131.32549882940
  31
0.0
   0
LINE
   5
1B4
 100
AcDbEntity
   8
LEVEL001
 100
AcDbLine
   6
CONTINUOUS
  62
3
  10
 382.88366203183
  20
 146.67449762412
  30
0.0
  11
 382.88353996152
  21
 131.32549882940
  31
0.0
   0
ARC
   5
1B5
 100
AcDbEntity
   8
LEVEL001
   6
CONTINUOUS
  62
7
 100
AcDbCircle
  10
 404.09900213993
  20
 155.18695087939
  30
0.0
  40
 17.600000119209
 100
AcDbArc
  50
 180.60862573870
  51
 203.25655861303
   0
ARC
   5
1B6
 100
AcDbEntity
   8
LEVEL001
   6
CONTINUOUS
  62
7
 100
AcDbCircle
  10
 404.09900213993
  20
 122.81304557413
  30
0.0
  40
 17.600000119209
 100
AcDbArc
  50
 156.74344138697
  51
 179.39137426130
   0
ARC
   5
1B7
 100
AcDbEntity
   8
LEVEL001
   6
CONTINUOUS
  62
7
 100
AcDbCircle
  10
 417.07096369909
  20
 138.99999822676
  30
0.0
  40
 30.570954820947
 100
AcDbArc
  50
 162.41204577941
  51
 197.58795422059
   0
LINE
   5
1B8
 100
AcDbEntity
   8
LEVEL001
 100
AcDbLine
   6
CONTINUOUS
  62
7
  10
 387.92907211290
  20
 157.47521767802
  30
0.0
  11
 386.49999498576
  21
 154.99999798834
  31
0.0
   0
LINE
   5
1B9
 100
AcDbEntity
   8
LEVEL001
 100
AcDbLine
   6
CONTINUOUS
  62
7
  10
 386.49999498576
  20
 154.99999798834
  30
0.0
  11
 386.49999498576
  21
 122.99999846518
  31
0.0
   0
LINE
   5
1BA
 100
AcDbEntity
   8
LEVEL001
 100
AcDbLine
   6
CONTINUOUS
  62
7
  10
 386.49999498576
  20
 122.99999846518
  30
0.0
  11
 387.92907211290
  21
 120.52477877550
  31
0.0
   0
LINE
   5
1BB
 100
AcDbEntity
   8
LEVEL001
 100
AcDbLine
   6
CONTINUOUS
  62
7
  10
 387.92907211290
  20
 120.52477877550
  30
0.0
  11
 415.07091741158
  21
 120.52477877550
  31
0.0
   0
LINE
   5
1BC
 100
AcDbEntity
   8
LEVEL001
 100
AcDbLine
   6
CONTINUOUS
  62
7
  10
 415.07091741158
  20
 120.52477877550
  30
0.0
  11
 416.49999453872
  21
 122.99999846518
  31
0.0
   0
LINE
   5
1BD
 100
AcDbEntity
   8
LEVEL001
 100
AcDbLine
   6
CONTINUOUS
  62
7
  10
 416.49999453872
  20
 122.99999846518
  30
0.0
  11
 416.49999453872
  21
 154.99999798834
  31
0.0
   0
LINE
   5
1BE
 100
AcDbEntity
   8
LEVEL001
 100
AcDbLine
   6
CONTINUOUS
  62
7
  10
 416.49999453872
  20
 154.99999798834
  30
0.0
  11
 415.07091741158
  21
 157.47521767802
  31
0.0
   0
LINE
   5
1BF
 100
AcDbEntity
   8
LEVEL001
 100
AcDbLine
   6
CONTINUOUS
  62
7
  10
 415.07091741158
  20
 157.47521767802
  30
0.0
  11
 387.92907211290
  21
 157.47521767802
  31
0.0
   0
ARC
   5
1C0
 100
AcDbEntity
   8
LEVEL001
   6
CONTINUOUS
  62
7
 100
AcDbCircle
  10
 398.90098738455
  20
 122.81304557413
  30
0.0
  40
 17.600000119209
 100
AcDbArc
  50
 0.60862573869906
  51
 23.256558613030
   0
ARC
   5
1C1
 100
AcDbEntity
   8
LEVEL001
   6
CONTINUOUS
  62
7
 100
AcDbCircle
  10
 398.90098738455
  20
 155.18695087939
  30
0.0
  40
 17.600000119209
 100
AcDbArc
  50
 336.74344138697
  51
 359.39137426130
   0
ARC
   5
1C2
 100
AcDbEntity
   8
LEVEL001
   6
CONTINUOUS
  62
7
 100
AcDbCircle
  10
 385.92902982715
  20
 138.99999822676
  30
0.0
  40
 30.570951006249
 100
AcDbArc
  50
 342.41204351312
  51
 17.587956486881
   0
LINE
   5
1C3
 100
AcDbEntity
   8
LEVEL001
 100
AcDbLine
   6
CONTINUOUS
  62
7
  10
 387.92907211290
  20
 148.23760795239
  30
0.0
  11
 415.07091741158
  21
 148.23760795239
  31
0.0
   0
LINE
   5
1C4
 100
AcDbEntity
   8
LEVEL001
 100
AcDbLine
   6
CONTINUOUS
  62
7
  10
 387.92907211290
  20
 129.76238850113
  30
0.0
  11
 415.07091741158
  21
 129.76238850113
  31
0.0
   0
LINE
   5
1C5
 100
AcDbEntity
   8
LEVEL001
 100
AcDbLine
   6
CONTINUOUS
  62
3
  10
 422.59069269015
  20
 129.49416951099
  30
0.0
  11
 422.59081476046
  21
 148.50585746011
  31
0.0
   0
LINE
   5
1C6
 100
AcDbEntity
   8
LEVEL001
 100
AcDbLine
   6
CONTINUOUS
  62
3
  10
 427.49999437481
  20
 149.82127186922
  30
0.0
  11
 422.59081476046
  21
 148.50585746011
  31
0.0
   0
LINE
   5
1C7
 100
AcDbEntity
   8
LEVEL001
 100
AcDbLine
   6
CONTINUOUS
  62
3
  10
 427.49999437481
  20
 128.17872458430
  30
0.0
  11
 422.59069269015
  21
 129.49416951099
  31
0.0
   0
ARC
   5
1C8
 100
AcDbEntity
   8
LEVEL001
   6
CONTINUOUS
  62
7
 100
AcDbCircle
  10
 447.70000628084
  20
 154.99999798834
  30
0.0
  40
 1.9999999701977
 100
AcDbArc
  50
 90.000000000042
  51
 179.99999999992
   0
LINE
   5
1C9
 100
AcDbEntity
   8
LEVEL001
 100
AcDbLine
   6
CONTINUOUS
  62
7
  10
 447.70000628084
  20
 156.99999795854
  30
0.0
  11
 453.70000619143
  21
 156.99999795854
  31
0.0
   0
ARC
   5
1CA
 100
AcDbEntity
   8
LEVEL001
   6
CONTINUOUS
  62
7
 100
AcDbCircle
  10
 469.70000595301
  20
 155.99999797345
  30
0.0
  40
 0.99999998509884
 100
AcDbArc
  50
 0.16284440211702E-11
  51
 89.999999999831
   0
LINE
   5
1CB
 100
AcDbEntity
   8
LEVEL001
 100
AcDbLine
   6
CONTINUOUS
  62
7
  10
 463.70000604242
  20
 156.99999795854
  30
0.0
  11
 469.70000595301
  21
 156.99999795854
  31
0.0
   0
ARC
   5
1CC
 100
AcDbEntity
   8
LEVEL001
   6
CONTINUOUS
  62
7
 100
AcDbCircle
  10
 447.70000628084
  20
 122.99999846518
  30
0.0
  40
 1.9999999701977
 100
AcDbArc
  50
 180.00000000000
  51
 270.00000000008
   0
LINE
   5
1CD
 100
AcDbEntity
   8
LEVEL001
 100
AcDbLine
   6
CONTINUOUS
  62
7
  10
 447.70000628084
  20
 120.99999849498
  30
0.0
  11
 453.70000619143
  21
 120.99999849498
  31
0.0
   0
ARC
   5
1CE
 100
AcDbEntity
   8
LEVEL001
   6
CONTINUOUS
  62
7
 100
AcDbCircle
  10
 469.70000595301
  20
 121.99999848008
  30
0.0
  40
 0.99999998509884
 100
AcDbArc
  50
 270.00000000000
  51
 0.41199633735728E-9
   0
LINE
   5
1CF
 100
AcDbEntity
   8
LEVEL001
 100
AcDbLine
   6
CONTINUOUS
  62
7
  10
 463.70000604242
  20
 120.99999849498
  30
0.0
  11
 469.70000595301
  21
 120.99999849498
  31
0.0
   0
LINE
   5
1D0
 100
AcDbEntity
   8
LEVEL001
 100
AcDbLine
   6
CONTINUOUS
  62
7
  10
 445.70000631064
  20
 122.99999846518
  30
0.0
  11
 445.70000631064
  21
 154.99999798834
  31
0.0
   0
LINE
   5
1D1
 100
AcDbEntity
   8
LEVEL001
 100
AcDbLine
   6
CONTINUOUS
  62
7
  10
 470.70000593811
  20
 155.99999797344
  30
0.0
  11
 470.70000593811
  21
 121.99999848008
  31
0.0
   0
LINE
   5
1D2
 100
AcDbEntity
   8
LEVEL001
 100
AcDbLine
   6
CONTINUOUS
  62
7
  10
 429.54162032095
  20
 150.99999804795
  30
0.0
  11
 429.54162032095
  21
 144.80947689996
  31
0.0
   0
LINE
   5
1D3
 100
AcDbEntity
   8
LEVEL001
 100
AcDbLine
   6
CONTINUOUS
  62
7
  10
 429.54162032095
  20
 133.19051955356
  30
0.0
  11
 429.54162032095
  21
 126.99999840558
  31
0.0
   0
LINE
   5
1D4
 100
AcDbEntity
   8
LEVEL001
 100
AcDbLine
   6
CONTINUOUS
  62
7
  10
 429.54162032095
  20
 133.19051955356
  30
0.0
  11
 438.49999421090
  21
 144.80947689996
  31
0.0
   0
LINE
   5
1D5
 100
AcDbEntity
   8
LEVEL001
 100
AcDbLine
   6
CONTINUOUS
  62
7
  10
 429.54162032095
  20
 144.80947689996
  30
0.0
  11
 438.49999421090
  21
 133.19051955356
  31
0.0
   0
LINE
   5
1D6
 100
AcDbEntity
   8
LEVEL001
 100
AcDbLine
   6
CONTINUOUS
  62
3
  10
 453.70000619143
  20
 122.49999847263
  30
0.0
  11
 463.70000604242
  21
 122.49999847263
  31
0.0
   0
LINE
   5
1D7
 100
AcDbEntity
   8
LEVEL001
 100
AcDbLine
   6
CONTINUOUS
  62
3
  10
 453.70000619143
  20
 124.49999844283
  30
0.0
  11
 463.70000604242
  21
 124.49999844283
  31
0.0
   0
LINE
   5
1D8
 100
AcDbEntity
   8
LEVEL001
 100
AcDbLine
   6
CONTINUOUS
  62
3
  10
 453.70000619143
  20
 126.49999841303
  30
0.0
  11
 463.70000604242
  21
 126.49999841303
  31
0.0
   0
LINE
   5
1D9
 100
AcDbEntity
   8
LEVEL001
 100
AcDbLine
   6
CONTINUOUS
  62
3
  10
 453.70000619143
  20
 128.49999838322
  30
0.0
  11
 463.70000604242
  21
 128.49999838322
  31
0.0
   0
LINE
   5
1DA
 100
AcDbEntity
   8
LEVEL001
 100
AcDbLine
   6
CONTINUOUS
  62
3
  10
 453.70000619143
  20
 130.49999835342
  30
0.0
  11
 463.70000604242
  21
 130.49999835342
  31
0.0
   0
LINE
   5
1DB
 100
AcDbEntity
   8
LEVEL001
 100
AcDbLine
   6
CONTINUOUS
  62
3
  10
 453.70000619143
  20
 132.49999832362
  30
0.0
  11
 463.70000604242
  21
 132.49999832362
  31
0.0
   0
LINE
   5
1DC
 100
AcDbEntity
   8
LEVEL001
 100
AcDbLine
   6
CONTINUOUS
  62
3
  10
 453.70000619143
  20
 134.49999829382
  30
0.0
  11
 463.70000604242
  21
 134.49999829382
  31
0.0
   0
LINE
   5
1DD
 100
AcDbEntity
   8
LEVEL001
 100
AcDbLine
   6
CONTINUOUS
  62
3
  10
 453.70000619143
  20
 136.49999826401
  30
0.0
  11
 463.70000604242
  21
 136.49999826401
  31
0.0
   0
LINE
   5
1DE
 100
AcDbEntity
   8
LEVEL001
 100
AcDbLine
   6
CONTINUOUS
  62
3
  10
 453.70000619143
  20
 138.49999823421
  30
0.0
  11
 463.70000604242
  21
 138.49999823421
  31
0.0
   0
LINE
   5
1DF
 100
AcDbEntity
   8
LEVEL001
 100
AcDbLine
   6
CONTINUOUS
  62
3
  10
 453.70000619143
  20
 140.49999820441
  30
0.0
  11
 463.70000604242
  21
 140.49999820441
  31
0.0
   0
LINE
   5
1E0
 100
AcDbEntity
   8
LEVEL001
 100
AcDbLine
   6
CONTINUOUS
  62
3
  10
 453.70000619143
  20
 142.49999817461
  30
0.0
  11
 463.70000604242
  21
 142.49999817461
  31
0.0
   0
LINE
   5
1E1
 100
AcDbEntity
   8
LEVEL001
 100
AcDbLine
   6
CONTINUOUS
  62
3
  10
 453.70000619143
  20
 144.49999814481
  30
0.0
  11
 463.70000604242
  21
 144.49999814481
  31
0.0
   0
LINE
   5
1E2
 100
AcDbEntity
   8
LEVEL001
 100
AcDbLine
   6
CONTINUOUS
  62
3
  10
 453.70000619143
  20
 146.49999811500
  30
0.0
  11
 463.70000604242
  21
 146.49999811500
  31
0.0
   0
LINE
   5
1E3
 100
AcDbEntity
   8
LEVEL001
 100
AcDbLine
   6
CONTINUOUS
  62
3
  10
 453.70000619143
  20
 148.49999808520
  30
0.0
  11
 463.70000604242
  21
 148.49999808520
  31
0.0
   0
LINE
   5
1E4
 100
AcDbEntity
   8
LEVEL001
 100
AcDbLine
   6
CONTINUOUS
  62
3
  10
 453.70000619143
  20
 150.49999805540
  30
0.0
  11
 463.70000604242
  21
 150.49999805540
  31
0.0
   0
LINE
   5
1E5
 100
AcDbEntity
   8
LEVEL001
 100
AcDbLine
   6
CONTINUOUS
  62
3
  10
 453.70000619143
  20
 152.49999802560
  30
0.0
  11
 463.70000604242
  21
 152.49999802560
  31
0.0
   0
LINE
   5
1E6
 100
AcDbEntity
   8
LEVEL001
 100
AcDbLine
   6
CONTINUOUS
  62
3
  10
 453.70000619143
  20
 154.49999799579
  30
0.0
  11
 463.70000604242
  21
 154.49999799579
  31
0.0
   0
LINE
   5
1E7
 100
AcDbEntity
   8
LEVEL001
 100
AcDbLine
   6
CONTINUOUS
  62
3
  10
 453.70000619143
  20
 156.49999796599
  30
0.0
  11
 463.70000604242
  21
 156.49999796599
  31
0.0
   0
LINE
   5
1E8
 100
AcDbEntity
   8
LEVEL001
 100
AcDbLine
   6
CONTINUOUS
  62
7
  10
 427.49999437481
  20
 149.82127186922
  30
0.0
  11
 416.49999453872
  21
 149.47749135677
  31
0.0
   0
LINE
   5
1E9
 100
AcDbEntity
   8
LEVEL001
 100
AcDbLine
   6
CONTINUOUS
  62
7
  10
 427.49999437481
  20
 128.17872458430
  30
0.0
  11
 416.49999453872
  21
 128.52250509676
  31
0.0
   0
LINE
   5
1EA
 100
AcDbEntity
   8
LEVEL001
 100
AcDbLine
   6
CONTINUOUS
  62
3
  10
 422.59081476046
  20
 148.50585746011
  30
0.0
  11
 416.49999453872
  21
 148.31550406940
  31
0.0
   0
LINE
   5
1EB
 100
AcDbEntity
   8
LEVEL001
 100
AcDbLine
   6
CONTINUOUS
  62
3
  10
 422.59069269015
  20
 129.49416951099
  30
0.0
  11
 416.49999453872
  21
 129.68450764292
  31
0.0
   0
LINE
   5
1EC
 100
AcDbEntity
   8
LEVEL001
 100
AcDbLine
   6
DASHDOT
  62
1
  10
 470.70000593811
  20
 155.99999797344
  30
0.0
  11
 470.70000593811
  21
 156.99999795854
  31
0.0
   0
LINE
   5
1ED
 100
AcDbEntity
   8
LEVEL001
 100
AcDbLine
   6
DASHDOT
  62
1
  10
 470.70000593811
  20
 156.99999795854
  30
0.0
  11
 478.70000581890
  21
 156.99999795854
  31
0.0
   0
LINE
   5
1EE
 100
AcDbEntity
   8
LEVEL001
 100
AcDbLine
   6
DASHDOT
  62
1
  10
 478.70000581890
  20
 156.99999795854
  30
0.0
  11
 478.70000581890
  21
 120.99999849498
  31
0.0
   0
LINE
   5
1EF
 100
AcDbEntity
   8
LEVEL001
 100
AcDbLine
   6
DASHDOT
  62
1
  10
 478.70000581890
  20
 120.99999849498
  30
0.0
  11
 470.70000593811
  21
 120.99999849498
  31
0.0
   0
LINE
   5
1F0
 100
AcDbEntity
   8
LEVEL001
 100
AcDbLine
   6
DASHDOT
  62
1
  10
 470.70000593811
  20
 120.99999849498
  30
0.0
  11
 470.70000593811
  21
 121.99999848008
  31
0.0
   0
LINE
   5
1F1
 100
AcDbEntity
   8
LEVEL001
 100
AcDbLine
   6
CONTINUOUS
  62
7
  10
 453.70000619143
  20
 120.49999850243
  30
0.0
  11
 453.70000619143
  21
 157.49999795109
  31
0.0
   0
LINE
   5
1F2
 100
AcDbEntity
   8
LEVEL001
 100
AcDbLine
   6
CONTINUOUS
  62
7
  10
 453.70000619143
  20
 157.49999795109
  30
0.0
  11
 463.70000604242
  21
 157.49999795109
  31
0.0
   0
LINE
   5
1F3
 100
AcDbEntity
   8
LEVEL001
 100
AcDbLine
   6
CONTINUOUS
  62
7
  10
 463.70000604242
  20
 157.49999795109
  30
0.0
  11
 463.70000604242
  21
 120.49999850243
  31
0.0
   0
LINE
   5
1F4
 100
AcDbEntity
   8
LEVEL001
 100
AcDbLine
   6
CONTINUOUS
  62
7
  10
 463.70000604242
  20
 120.49999850243
  30
0.0
  11
 453.70000619143
  21
 120.49999850243
  31
0.0
   0
LINE
   5
1F5
 100
AcDbEntity
   8
LEVEL001
 100
AcDbLine
   6
CONTINUOUS
  62
7
  10
 427.49999437481
  20
 141.61724672292
  30
0.0
  11
 429.54162032095
  21
 144.80947689996
  31
0.0
   0
LINE
   5
1F6
 100
AcDbEntity
   8
LEVEL001
 100
AcDbLine
   6
CONTINUOUS
  62
7
  10
 429.54162032095
  20
 144.80947689996
  30
0.0
  11
 438.49999421090
  21
 144.80947689996
  31
0.0
   0
LINE
   5
1F7
 100
AcDbEntity
   8
LEVEL001
 100
AcDbLine
   6
CONTINUOUS
  62
7
  10
 438.49999421090
  20
 144.80947689996
  30
0.0
  11
 438.49999421090
  21
 133.19051955356
  31
0.0
   0
LINE
   5
1F8
 100
AcDbEntity
   8
LEVEL001
 100
AcDbLine
   6
CONTINUOUS
  62
7
  10
 438.49999421090
  20
 133.19051955356
  30
0.0
  11
 429.54162032095
  21
 133.19051955356
  31
0.0
   0
LINE
   5
1F9
 100
AcDbEntity
   8
LEVEL001
 100
AcDbLine
   6
CONTINUOUS
  62
7
  10
 429.54162032095
  20
 133.19051955356
  30
0.0
  11
 427.49999437481
  21
 136.38274973061
  31
0.0
   0
LINE
   5
1FA
 100
AcDbEntity
   8
LEVEL001
 100
AcDbLine
   6
CONTINUOUS
  62
7
  10
 445.70000631064
  20
 126.99999840558
  30
0.0
  11
 429.54162032095
  21
 126.99999840558
  31
0.0
   0
LINE
   5
1FB
 100
AcDbEntity
   8
LEVEL001
 100
AcDbLine
   6
CONTINUOUS
  62
7
  10
 429.54162032095
  20
 126.99999840558
  30
0.0
  11
 427.49999437481
  21
 128.17872458430
  31
0.0
   0
LINE
   5
1FC
 100
AcDbEntity
   8
LEVEL001
 100
AcDbLine
   6
CONTINUOUS
  62
7
  10
 427.49999437481
  20
 128.17872458430
  30
0.0
  11
 427.49999437481
  21
 149.82127186922
  31
0.0
   0
LINE
   5
1FD
 100
AcDbEntity
   8
LEVEL001
 100
AcDbLine
   6
CONTINUOUS
  62
7
  10
 427.49999437481
  20
 149.82127186922
  30
0.0
  11
 429.54162032095
  21
 150.99999804795
  31
0.0
   0
LINE
   5
1FE
 100
AcDbEntity
   8
LEVEL001
 100
AcDbLine
   6
CONTINUOUS
  62
7
  10
 429.54162032095
  20
 150.99999804795
  30
0.0
  11
 445.70000631064
  21
 150.99999804795
  31
0.0
   0
DIMENSION
   5
1FF
 100
AcDbEntity
   8
LEVEL003
   6
CONTINUOUS
  62
3
 100
AcDbDimension
   2
*D1
  10
 499.99999329448
  20
 106.99999870360
  30
0.0
  11
 499.99999329448
  21
 122.99999846518
  31
0.0
  70
128
   1
\A1;32
   3
GMM001
 100
AcDbAlignedDimension
  13
 482.29998135120
  23
 138.99999822676
  33
0.0
  14
 373.49999517947
  24
 106.99999870360
  34
0.0
  50
 270.00000000000
 100
AcDbRotatedDimension
   0
TEXT
   5
201
 100
AcDbEntity
   8
LEVEL003
  62
3
 100
AcDbText
  10
 399.99999478459
  20
 79.999999105930
  30
0.0
  40
 7.9999998807907
   1
ＮＰＴ３／８
   7
STANDARD
 100
AcDbText
   0
LEADER
   5
202
 100
AcDbEntity
   8
LEVEL003
   6
CONTINUOUS
  62
3
 100
AcDbLeader
   3
GMM002
  73
0
  74
1
  75
0
  40
 8.0000000000000
  41
0.0
  76
3
  10
 378.91936765731
  20
 130.59339739988
  30
0.0
  10
 399.99999478459
  20
 79.999999105930
  30
0.0
  10
 449.99999403954
  20
 79.999999105930
  30
0.0
  77
3
   0
TEXT
   5
203
 100
AcDbEntity
   8
LEVEL003
  62
3
 100
AcDbText
  10
 459.99999389052
  20
 79.999999105930
  30
0.0
  40
 7.9999998807907
   1
Ｒ　１／２
   7
STANDARD
 100
AcDbText
   0
LEADER
   5
204
 100
AcDbEntity
   8
LEVEL003
   6
CONTINUOUS
  62
3
 100
AcDbLeader
   3
GMM002
  73
0
  74
1
  75
0
  40
 8.0000000000000
  41
0.0
  76
3
  10
 424.26629080972
  20
 128.46636801263
  30
0.0
  10
 459.99999389052
  20
 79.999999105930
  30
0.0
  10
 499.99999329448
  20
 79.999999105930
  30
0.0
  77
3
   0
LEADER
   5
205
 100
AcDbEntity
   8
LEVEL003
   6
CONTINUOUS
  62
3
 100
AcDbLeader
   3
GMM002
  73
0
  74
1
  75
0
  40
 8.0000000000000
  41
0.0
  76
3
  10
 144.99999858439
  20
 106.99999870360
  30
0.0
  10
 119.99999895692
  20
 79.999999105930
  30
0.0
  10
 69.999999701977
  20
 79.999999105930
  30
0.0
  77
3
   0
TEXT
   5
206
 100
AcDbEntity
   8
LEVEL003
  62
3
 100
AcDbText
  10
 69.999999701977
  20
 79.999999105930
  30
0.0
  40
 7.9999998807907
   1
４－Ｍ１６
   7
STANDARD
 100
AcDbText
   0
TEXT
   5
207
 100
AcDbEntity
   8
LEVEL003
  62
3
 100
AcDbText
  10
 69.999999701977
  20
 69.333332598209
  30
0.0
  40
 7.9999998807907
   1
タップ　２０
   7
STANDARD
 100
AcDbText
   0
DIMENSION
   5
208
 100
AcDbEntity
   8
LEVEL003
   6
CONTINUOUS
  62
3
 100
AcDbDimension
   2
*D5
  10
 322.49999593943
  20
 529.99999240041
  30
0.0
  11
 249.99999701977
  21
 529.99999240041
  31
0.0
  70
128
   1
\A1;%%c145
   3
GMM003
 100
AcDbAlignedDimension
  13
 177.49999810010
  23
 488.99999301136
  33
0.0
  14
 322.49999593943
  24
 488.99999301136
  34
0.0
 100
AcDbRotatedDimension
   0
DIMENSION
   5
20A
 100
AcDbEntity
   8
LEVEL003
   6
CONTINUOUS
  62
3
 100
AcDbDimension
   2
*D6
  10
 519.99999299645
  20
 489.99999299645
  30
0.0
  11
 519.99999299645
  21
 298.49999585003
  31
0.0
  70
128
   1
\A1;383
   3
GMM004
 100
AcDbAlignedDimension
  13
 373.49999517947
  23
 106.99999870360
  33
0.0
  14
 321.49999595433
  24
 489.99999299645
  34
0.0
  50
 90.000000000000
 100
AcDbRotatedDimension
   0
DIMENSION
   5
20C
 100
AcDbEntity
   8
LEVEL003
   6
CONTINUOUS
  62
3
 100
AcDbDimension
   2
*D7
  10
 499.99999329448
  20
 391.99999445677
  30
0.0
  11
 499.99999329448
  21
 429.49999389797
  31
0.0
  70
128
   1
\A1;75
   3
GMM001
 100
AcDbAlignedDimension
  13
 373.49999517947
  23
 466.99999333918
  33
0.0
  14
 482.29998135120
  24
 391.99999445677
  34
0.0
  50
 270.00000000000
 100
AcDbRotatedDimension
   0
DIMENSION
   5
20E
 100
AcDbEntity
   8
LEVEL003
   6
CONTINUOUS
  62
3
 100
AcDbDimension
   2
*D8
  10
 499.99999329448
  20
 466.99999333918
  30
0.0
  11
 499.99999329448
  21
 478.49999316782
  31
0.0
  70
128
   1
\A1;23
   3
GMM001
 100
AcDbAlignedDimension
  13
 321.49999595433
  23
 489.99999299645
  33
0.0
  14
 373.49999517947
  24
 466.99999333918
  34
0.0
  50
 270.00000000000
 100
AcDbRotatedDimension
   0
DIMENSION
   5
210
 100
AcDbEntity
   8
LEVEL003
   6
CONTINUOUS
  62
3
 100
AcDbDimension
   2
*D9
  10
 479.99999359250
  20
 471.99999326468
  30
0.0
  11
 479.99999359250
  21
 480.99999313056
  31
0.0
  70
128
   1
\A1;18
   3
GMM001
 100
AcDbAlignedDimension
  13
 321.49999595433
  23
 489.99999299645
  33
0.0
  14
 328.49999585003
  24
 471.99999326468
  34
0.0
  50
 270.00000000000
 100
AcDbRotatedDimension
   0
DIMENSION
   5
212
 100
AcDbEntity
   8
LEVEL003
   6
CONTINUOUS
  62
3
 100
AcDbDimension
   2
*D10
  10
 89.999999403954
  20
 106.99999870360
  30
0.0
  11
 89.999999403954
  21
 226.99999691546
  31
0.0
  70
128
   1
\A1;240
   3
GMM005
 100
AcDbAlignedDimension
  13
 249.99999701977
  23
 346.99999512732
  33
0.0
  14
 126.49999886006
  24
 106.99999870360
  34
0.0
  50
 270.00000000000
 100
AcDbRotatedDimension
   0
LINE
   5
214
 100
AcDbEntity
   8
LEVEL001
 100
AcDbLine
   6
CONTINUOUS
  62
7
  10
 376.49999513477
  20
 463.99999338388
  30
0.0
  11
 376.49999513477
  21
 109.99999865890
  31
0.0
   0
LINE
   5
215
 100
AcDbEntity
   8
LEVEL001
 100
AcDbLine
   6
DOT
  62
3
  10
 347.49999556690
  20
 425.99999395013
  30
0.0
  11
 347.49999556690
  21
 153.99999800324
  31
0.0
   0
LINE
   5
216
 100
AcDbEntity
   8
LEVEL001
 100
AcDbLine
   6
DOT
  62
3
  10
 291.68917486535
  20
 108.58795034009
  30
0.0
  11
 289.99999642372
  21
 114.49999859184
  31
0.0
   0
LINE
   5
217
 100
AcDbEntity
   8
LEVEL001
 100
AcDbLine
   6
DOT
  62
3
  10
 302.99999623001
  20
 397.49999437481
  30
0.0
  11
 304.99999620020
  21
 389.49999449402
  31
0.0
   0
LINE
   5
218
 100
AcDbEntity
   8
LEVEL001
 100
AcDbLine
   6
DOT
  62
3
  10
 291.99999639392
  20
 397.49999437481
  30
0.0
  11
 289.99999642372
  21
 389.49999449402
  31
0.0
   0
LINE
   5
219
 100
AcDbEntity
   8
LEVEL001
 100
AcDbLine
   6
DOT
  62
3
  10
 307.49999616295
  20
 421.99999400973
  30
0.0
  11
 305.99999618530
  21
 418.26793840128
  31
0.0
   0
LINE
   5
21A
 100
AcDbEntity
   8
LEVEL001
 100
AcDbLine
   6
DOT
  62
3
  10
 306.49999617785
  20
 421.99999400973
  30
0.0
  11
 305.99999618530
  21
 421.99999400973
  31
0.0
   0
LINE
   5
21B
 100
AcDbEntity
   8
LEVEL001
 100
AcDbLine
   6
DOT
  62
3
  10
 302.99999623001
  20
 397.49999437481
  30
0.0
  11
 291.99999639392
  21
 397.49999437481
  31
0.0
   0
LINE
   5
21C
 100
AcDbEntity
   8
LEVEL001
 100
AcDbLine
   6
DOT
  62
3
  10
 305.99999618530
  20
 421.99999400973
  30
0.0
  11
 305.99999618530
  21
 397.49999437481
  31
0.0
   0
LINE
   5
21D
 100
AcDbEntity
   8
LEVEL001
 100
AcDbLine
   6
DOT
  62
3
  10
 329.99999582767
  20
 466.99999333918
  30
0.0
  11
 329.99999582767
  21
 205.99999722838
  31
0.0
   0
LINE
   5
21E
 100
AcDbEntity
   8
LEVEL001
 100
AcDbLine
   6
DOT
  62
3
  10
 304.99999620020
  20
 389.49999449402
  30
0.0
  11
 304.99999620020
  21
 122.49999847263
  31
0.0
   0
LINE
   5
21F
 100
AcDbEntity
   8
LEVEL001
 100
AcDbLine
   6
DOT
  62
3
  10
 289.99999642372
  20
 114.49999859184
  30
0.0
  11
 289.99999642372
  21
 389.49999449402
  31
0.0
   0
ARC
   5
220
 100
AcDbEntity
   8
LEVEL001
   6
DOT
  62
3
 100
AcDbCircle
  10
 307.49999616295
  20
 469.99999329448
  30
0.0
  40
 0.99999998509884
 100
AcDbArc
  50
 180.00000000000
  51
 270.00000000011
   0
ARC
   5
221
 100
AcDbEntity
   8
LEVEL001
   6
DOT
  62
3
 100
AcDbCircle
  10
 307.49999616295
  20
 470.99999327959
  30
0.0
  40
 0.99999998509884
 100
AcDbArc
  50
 90.000000000000
  51
 180.00000000029
   0
LINE
   5
222
 100
AcDbEntity
   8
LEVEL001
 100
AcDbLine
   6
DOT
  62
3
  10
 306.49999617785
  20
 469.99999329448
  30
0.0
  11
 306.49999617785
  21
 470.99999327958
  31
0.0
   0
ARC
   5
223
 100
AcDbEntity
   8
LEVEL001
   6
DOT
  62
3
 100
AcDbCircle
  10
 293.56156444209
  20
 487.99999302632
  30
0.0
  40
 1.9999999701977
 100
AcDbArc
  50
 90.000404404085
  51
 165.96449073680
   0
LINE
   5
224
 100
AcDbEntity
   8
LEVEL001
 100
AcDbLine
   6
DOT
  62
3
  10
 291.62127325503
  20
 488.48503940575
  30
0.0
  11
 289.99999642372
  21
 481.99999311566
  31
0.0
   0
LINE
   5
225
 100
AcDbEntity
   8
LEVEL001
 100
AcDbLine
   6
DOT
  62
3
  10
 307.49999616295
  20
 471.99999326468
  30
0.0
  11
 307.49999616295
  21
 468.99999330938
  31
0.0
   0
LINE
   5
226
 100
AcDbEntity
   8
LEVEL001
 100
AcDbLine
   6
DOT
  62
3
  10
 306.49999617785
  20
 444.99999366701
  30
0.0
  11
 307.49999616295
  21
 445.99999365211
  31
0.0
   0
LINE
   5
227
 100
AcDbEntity
   8
LEVEL001
 100
AcDbLine
   6
DOT
  62
3
  10
 307.49999616295
  20
 445.99999365211
  30
0.0
  11
 307.49999616295
  21
 468.99999330938
  31
0.0
   0
LINE
   5
228
 100
AcDbEntity
   8
LEVEL001
 100
AcDbLine
   6
DOT
  62
3
  10
 289.99999642372
  20
 452.99999354780
  30
0.0
  11
 289.99999642372
  21
 481.99999311566
  31
0.0
   0
ARC
   5
229
 100
AcDbEntity
   8
LEVEL001
   6
DOT
  62
3
 100
AcDbCircle
  10
 293.56154918309
  20
 446.99999363720
  30
0.0
  40
 1.9999999701977
 100
AcDbArc
  50
 194.03731160817
  51
 270.00003273418
   0
LINE
   5
22A
 100
AcDbEntity
   8
LEVEL001
 100
AcDbLine
   6
DOT
  62
3
  10
 291.62127325503
  20
 446.51488622256
  30
0.0
  11
 289.99999642372
  21
 452.99999354780
  31
0.0
   0
LINE
   5
22B
 100
AcDbEntity
   8
LEVEL001
 100
AcDbLine
   6
DOT
  62
3
  10
 307.49999616295
  20
 445.99999365211
  30
0.0
  11
 307.49999616295
  21
 421.99999400973
  31
0.0
   0
LINE
   5
22C
 100
AcDbEntity
   8
LEVEL001
 100
AcDbLine
   6
DOT
  62
3
  10
 307.49999616295
  20
 421.99999400973
  30
0.0
  11
 306.49999617785
  21
 421.99999400973
  31
0.0
   0
LINE
   5
22D
 100
AcDbEntity
   8
LEVEL001
 100
AcDbLine
   6
DOT
  62
3
  10
 307.49999616295
  20
 471.99999326468
  30
0.0
  11
 306.49999617785
  21
 470.99999327958
  31
0.0
   0
LINE
   5
22E
 100
AcDbEntity
   8
LEVEL001
 100
AcDbLine
   6
DOT
  62
3
  10
 306.49999617785
  20
 470.99999327958
  30
0.0
  11
 306.49999617785
  21
 421.99999400973
  31
0.0
   0
LINE
   5
22F
 100
AcDbEntity
   8
LEVEL001
 100
AcDbLine
   6
DOT
  62
3
  10
 306.49999617785
  20
 444.99999366701
  30
0.0
  11
 293.56155032573
  21
 444.99999366701
  31
0.0
   0
LINE
   5
230
 100
AcDbEntity
   8
LEVEL001
 100
AcDbLine
   6
DASHDOT
  62
1
  10
 481.49999357015
  20
 391.99999445677
  30
0.0
  11
 347.49999556690
  21
 391.99999445677
  31
0.0
   0
LINE
   5
231
 100
AcDbEntity
   8
LEVEL001
 100
AcDbLine
   6
CONTINUOUS
  62
7
  10
 386.49999498576
  20
 400.64348798031
  30
0.0
  11
 376.49999513477
  21
 400.33099132799
  31
0.0
   0
LINE
   5
232
 100
AcDbEntity
   8
LEVEL001
 100
AcDbLine
   6
CONTINUOUS
  62
3
  10
 382.88366203183
  20
 399.67449385413
  30
0.0
  11
 376.49999513477
  21
 399.47496907936
  31
0.0
   0
LINE
   5
233
 100
AcDbEntity
   8
LEVEL001
 100
AcDbLine
   6
CONTINUOUS
  62
3
  10
 382.88363151426
  20
 384.32549505941
  30
0.0
  11
 376.49999513477
  21
 384.52499291118
  31
0.0
   0
LINE
   5
234
 100
AcDbEntity
   8
LEVEL001
 100
AcDbLine
   6
CONTINUOUS
  62
7
  10
 386.49999498576
  20
 383.35650093322
  30
0.0
  11
 376.49999513477
  21
 383.66899758555
  31
0.0
   0
LINE
   5
235
 100
AcDbEntity
   8
LEVEL001
 100
AcDbLine
   6
CONTINUOUS
  62
3
  10
 382.88366203183
  20
 146.67449762412
  30
0.0
  11
 376.49999513477
  21
 146.47497368722
  31
0.0
   0
LINE
   5
236
 100
AcDbEntity
   8
LEVEL001
 100
AcDbLine
   6
CONTINUOUS
  62
7
  10
 386.49999498576
  20
 147.64349175031
  30
0.0
  11
 376.49999513477
  21
 147.33099509798
  31
0.0
   0
LINE
   5
237
 100
AcDbEntity
   8
LEVEL001
 100
AcDbLine
   6
CONTINUOUS
  62
3
  10
 382.88363151426
  20
 131.32549882940
  30
0.0
  11
 376.49999513477
  21
 131.52499751894
  31
0.0
   0
LINE
   5
238
 100
AcDbEntity
   8
LEVEL001
 100
AcDbLine
   6
CONTINUOUS
  62
7
  10
 386.49999498576
  20
 130.35650470322
  30
0.0
  11
 376.49999513477
  21
 130.66900191270
  31
0.0
   0
LINE
   5
239
 100
AcDbEntity
   8
LEVEL001
 100
AcDbLine
   6
DASHDOT
  62
1
  10
 481.49999357015
  20
 138.99999822676
  30
0.0
  11
 347.49999556690
  21
 138.99999822676
  31
0.0
   0
LINE
   5
23A
 100
AcDbEntity
   8
LEVEL001
 100
AcDbLine
   6
CONTINUOUS
  62
7
  10
 250.00000298023
  20
 109.99999865890
  30
0.0
  11
 376.50000109524
  21
 109.99999865890
  31
0.0
   0
LINE
   5
23B
 100
AcDbEntity
   8
LEVEL001
 100
AcDbLine
   6
DASHDOT
  62
1
  10
 355.00000141561
  20
 103.99999874830
  30
0.0
  11
 355.00000141561
  21
 137.77349678019
  31
0.0
   0
ARC
   5
23C
 100
AcDbEntity
   8
LEVEL001
   6
DASHDOT
  62
1
 100
AcDbCircle
  10
 250.00000298023
  20
 302.99999578297
  30
0.0
  40
 43.999999344349
 100
AcDbArc
  50
 270.00000000000
  51
 90.000000000000
   0
ARC
   5
23D
 100
AcDbEntity
   8
LEVEL001
   6
CONTINUOUS
  62
7
 100
AcDbCircle
  10
 250.00001134058
  20
 302.99999578297
  30
0.0
  40
 50.499999247491
 100
AcDbArc
  50
 269.99999051461
  51
 79.156989133262
   0
ARC
   5
23E
 100
AcDbEntity
   8
LEVEL001
   6
CONTINUOUS
  62
7
 100
AcDbCircle
  10
 250.00007593138
  20
 302.99999578290
  30
0.0
  40
 37.499999441206
 100
AcDbArc
  50
 269.99988853886
  51
 75.325265476825
   0
LINE
   5
23F
 100
AcDbEntity
   8
LEVEL001
 100
AcDbLine
   6
CONTINUOUS
  62
7
  10
 258.50000285357
  20
 331.99999535084
  30
0.0
  11
 259.50000283867
  21
 330.99999536574
  31
0.0
   0
LINE
   5
240
 100
AcDbEntity
   8
LEVEL001
 100
AcDbLine
   6
CONTINUOUS
  62
7
  10
 250.00000298023
  20
 361.99999490380
  30
0.0
  11
 258.50000285357
  21
 361.99999490380
  31
0.0
   0
LINE
   5
241
 100
AcDbEntity
   8
LEVEL001
 100
AcDbLine
   6
CONTINUOUS
  62
7
  10
 258.50000285357
  20
 361.99999490380
  30
0.0
  11
 258.50000285357
  21
 331.99999535084
  31
0.0
   0
LINE
   5
242
 100
AcDbEntity
   8
LEVEL001
 100
AcDbLine
   6
CONTINUOUS
  62
7
  10
 258.50000285357
  20
 331.99999535084
  30
0.0
  11
 250.00000298023
  21
 331.99999535084
  31
0.0
   0
LINE
   5
243
 100
AcDbEntity
   8
LEVEL001
 100
AcDbLine
   6
CONTINUOUS
  62
7
  10
 250.00000298023
  20
 362.99999488890
  30
0.0
  11
 259.50000283867
  21
 362.99999488890
  31
0.0
   0
LINE
   5
244
 100
AcDbEntity
   8
LEVEL001
 100
AcDbLine
   6
CONTINUOUS
  62
7
  10
 259.50000283867
  20
 362.99999488890
  30
0.0
  11
 259.50000283867
  21
 330.99999536574
  31
0.0
   0
LINE
   5
245
 100
AcDbEntity
   8
LEVEL001
 100
AcDbLine
   6
CONTINUOUS
  62
7
  10
 259.50000283867
  20
 330.99999536574
  30
0.0
  11
 250.00000298023
  21
 330.99999536574
  31
0.0
   0
LINE
   5
246
 100
AcDbEntity
   8
LEVEL001
 100
AcDbLine
   6
DOT
  62
3
  10
 197.00000376999
  20
 397.49999437481
  30
0.0
  11
 195.00000379980
  21
 389.49999449402
  31
0.0
   0
LINE
   5
247
 100
AcDbEntity
   8
LEVEL001
 100
AcDbLine
   6
DOT
  62
3
  10
 208.00000360608
  20
 397.49999437481
  30
0.0
  11
 210.00000357628
  21
 389.49999449402
  31
0.0
   0
LINE
   5
248
 100
AcDbEntity
   8
LEVEL001
 100
AcDbLine
   6
DOT
  62
3
  10
 197.00000376999
  20
 397.49999437481
  30
0.0
  11
 208.00000360608
  21
 397.49999437481
  31
0.0
   0
LINE
   5
249
 100
AcDbEntity
   8
LEVEL001
 100
AcDbLine
   6
DOT
  62
3
  10
 194.00000381470
  20
 421.99999400973
  30
0.0
  11
 194.00000381470
  21
 397.49999437481
  31
0.0
   0
LINE
   5
24A
 100
AcDbEntity
   8
LEVEL001
 100
AcDbLine
   6
DOT
  62
3
  10
 170.00000417233
  20
 466.99999333918
  30
0.0
  11
 170.00000417233
  21
 205.99999722838
  31
0.0
   0
LINE
   5
24B
 100
AcDbEntity
   8
LEVEL001
 100
AcDbLine
   6
DOT
  62
3
  10
 195.00000379980
  20
 389.49999449402
  30
0.0
  11
 195.00000379980
  21
 122.49999847263
  31
0.0
   0
LINE
   5
24C
 100
AcDbEntity
   8
LEVEL001
 100
AcDbLine
   6
DOT
  62
3
  10
 210.00000357628
  20
 114.49999859184
  30
0.0
  11
 210.00000357628
  21
 389.49999449402
  31
0.0
   0
LINE
   5
24D
 100
AcDbEntity
   8
LEVEL001
 100
AcDbLine
   6
DOT
  62
3
  10
 152.50000443310
  20
 425.99999395013
  30
0.0
  11
 152.50000443310
  21
 153.99999800324
  31
0.0
   0
ARC
   5
24E
 100
AcDbEntity
   8
LEVEL001
   6
DOT
  62
3
 100
AcDbCircle
  10
 192.50000383705
  20
 469.99999329448
  30
0.0
  40
 0.99999998509884
 100
AcDbArc
  50
 270.00000000001
  51
0.0
   0
ARC
   5
24F
 100
AcDbEntity
   8
LEVEL001
   6
DOT
  62
3
 100
AcDbCircle
  10
 192.50000383704
  20
 470.99999327958
  30
0.0
  40
 0.99999998509884
 100
AcDbArc
  50
 0.26055104338600E-10
  51
 89.999999999560
   0
LINE
   5
250
 100
AcDbEntity
   8
LEVEL001
 100
AcDbLine
   6
DOT
  62
3
  10
 193.50000382215
  20
 469.99999329448
  30
0.0
  11
 193.50000382215
  21
 470.99999327958
  31
0.0
   0
ARC
   5
251
 100
AcDbEntity
   8
LEVEL001
   6
DOT
  62
3
 100
AcDbCircle
  10
 206.43843555791
  20
 487.99999302631
  30
0.0
  40
 1.9999999701977
 100
AcDbArc
  50
 14.035509263389
  51
 89.999595595985
   0
LINE
   5
252
 100
AcDbEntity
   8
LEVEL001
 100
AcDbLine
   6
DOT
  62
3
  10
 208.37872674497
  20
 488.48503940575
  30
0.0
  11
 210.00000357628
  21
 481.99999311566
  31
0.0
   0
LINE
   5
253
 100
AcDbEntity
   8
LEVEL001
 100
AcDbLine
   6
DOT
  62
3
  10
 192.50000383705
  20
 471.99999326468
  30
0.0
  11
 192.50000383705
  21
 468.99999330938
  31
0.0
   0
LINE
   5
254
 100
AcDbEntity
   8
LEVEL001
 100
AcDbLine
   6
DOT
  62
3
  10
 193.50000382215
  20
 444.99999366701
  30
0.0
  11
 192.50000383705
  21
 445.99999365211
  31
0.0
   0
LINE
   5
255
 100
AcDbEntity
   8
LEVEL001
 100
AcDbLine
   6
DOT
  62
3
  10
 192.50000383705
  20
 445.99999365211
  30
0.0
  11
 192.50000383705
  21
 468.99999330938
  31
0.0
   0
LINE
   5
256
 100
AcDbEntity
   8
LEVEL001
 100
AcDbLine
   6
DOT
  62
3
  10
 210.00000357628
  20
 452.99999354780
  30
0.0
  11
 210.00000357628
  21
 481.99999311566
  31
0.0
   0
ARC
   5
257
 100
AcDbEntity
   8
LEVEL001
   6
DOT
  62
3
 100
AcDbCircle
  10
 206.43845081690
  20
 446.99999363721
  30
0.0
  40
 1.9999999701977
 100
AcDbArc
  50
 269.99996726611
  51
 345.96268839177
   0
LINE
   5
258
 100
AcDbEntity
   8
LEVEL001
 100
AcDbLine
   6
DOT
  62
3
  10
 208.37872674497
  20
 446.51488622256
  30
0.0
  11
 210.00000357628
  21
 452.99999354780
  31
0.0
   0
LINE
   5
259
 100
AcDbEntity
   8
LEVEL001
 100
AcDbLine
   6
DOT
  62
3
  10
 192.50000383705
  20
 445.99999365211
  30
0.0
  11
 192.50000383705
  21
 421.99999400973
  31
0.0
   0
LINE
   5
25A
 100
AcDbEntity
   8
LEVEL001
 100
AcDbLine
   6
DOT
  62
3
  10
 192.50000383705
  20
 421.99999400973
  30
0.0
  11
 193.50000382215
  21
 421.99999400973
  31
0.0
   0
LINE
   5
25B
 100
AcDbEntity
   8
LEVEL001
 100
AcDbLine
   6
DOT
  62
3
  10
 192.50000383705
  20
 471.99999326468
  30
0.0
  11
 193.50000382215
  21
 470.99999327958
  31
0.0
   0
LINE
   5
25C
 100
AcDbEntity
   8
LEVEL001
 100
AcDbLine
   6
DOT
  62
3
  10
 193.50000382215
  20
 470.99999327958
  30
0.0
  11
 193.50000382215
  21
 421.99999400973
  31
0.0
   0
LINE
   5
25D
 100
AcDbEntity
   8
LEVEL001
 100
AcDbLine
   6
DOT
  62
3
  10
 193.50000382215
  20
 444.99999366701
  30
0.0
  11
 206.43844967427
  21
 444.99999366701
  31
0.0
   0
LINE
   5
25E
 100
AcDbEntity
   8
LEVEL001
 100
AcDbLine
   6
DOT
  62
3
  10
 192.50000383705
  20
 421.99999400973
  30
0.0
  11
 194.00000381470
  21
 418.26793840128
  31
0.0
   0
LINE
   5
25F
 100
AcDbEntity
   8
LEVEL001
 100
AcDbLine
   6
DOT
  62
3
  10
 193.50000382215
  20
 421.99999400973
  30
0.0
  11
 194.00000381470
  21
 421.99999400973
  31
0.0
   0
LINE
   5
260
 100
AcDbEntity
   8
LEVEL001
 100
AcDbLine
   6
CONTINUOUS
  62
7
  10
 328.50000181049
  20
 471.99999326468
  30
0.0
  11
 250.00000298023
  21
 471.99999326468
  31
0.0
   0
LINE
   5
261
 100
AcDbEntity
   8
LEVEL001
 100
AcDbLine
   6
CONTINUOUS
  62
7
  10
 373.50000113994
  20
 466.99999333918
  30
0.0
  11
 250.00000298023
  21
 466.99999333918
  31
0.0
   0
LINE
   5
262
 100
AcDbEntity
   8
LEVEL001
 100
AcDbLine
   6
CONTINUOUS
  62
7
  10
 250.00000298023
  20
 463.99999338388
  30
0.0
  11
 376.50000109524
  21
 463.99999338388
  31
0.0
   0
LINE
   5
263
 100
AcDbEntity
   8
LEVEL001
 100
AcDbLine
   6
CONTINUOUS
  62
7
  10
 250.00000298023
  20
 488.99999301136
  30
0.0
  11
 322.50000189990
  21
 488.99999301136
  31
0.0
   0
LEADER
   5
264
 100
AcDbEntity
   8
LEVEL003
   6
CONTINUOUS
  62
3
 100
AcDbLeader
   3
GMM006
  73
0
  74
1
  75
0
  40
 8.0000000000000
  41
0.0
  76
3
  10
 307.49999616295
  20
 440.00000000000
  30
0.0
  10
 370.00000000000
  20
 520.00000000000
  30
0.0
  10
 419.99999925494
  20
 520.00000000000
  30
0.0
  77
3
   0
TEXT
   5
265
 100
AcDbEntity
   8
LEVEL003
  62
3
 100
AcDbText
  10
 370.00000000000
  20
 520.00000000000
  30
0.0
  40
 7.9999998807907
   1
Ｍ１１５×２
   7
STANDARD
 100
AcDbText
   0
DIMENSION
   5
266
 100
AcDbEntity
   8
LEVEL003
   6
CONTINUOUS
  62
3
 100
AcDbDimension
   2
*D12
  10
 289.99999642372
  20
 510.00000000000
  30
0.0
  11
 250.00000000000
  21
 510.00000000000
  31
0.0
  70
0
   1
\A1;%%c80
   3
GMM007
 100
AcDbAlignedDimension
  13
 210.00000357628
  23
 481.99999311566
  33
0.0
  14
 289.99999642372
  24
 481.99999311566
  34
0.0
 100
AcDbRotatedDimension
   0
DIMENSION
   5
268
 100
AcDbEntity
   8
LEVEL003
   6
CONTINUOUS
  62
3
 100
AcDbDimension
   2
*D13
  10
 355.00000141561
  20
 60.000000000000
  30
0.0
  11
 250.00000000000
  21
 60.000000000000
  31
0.0
  70
0
   1
\A1;%%c210
   3
GMM007
 100
AcDbAlignedDimension
  13
 144.99999858439
  23
 103.99999874830
  33
0.0
  14
 355.00000141561
  24
 103.99999874830
  34
0.0
 100
AcDbRotatedDimension
   0
DIMENSION
   5
26A
 100
AcDbEntity
   8
LEVEL003
   6
CONTINUOUS
  62
3
 100
AcDbDimension
   2
*D14
  10
 289.99999642372
  20
 80.000000000000
  30
0.0
  11
 250.00000000000
  21
 80.000000000000
  31
0.0
  70
0
   1
\A1;%%c80
   3
GMM007
 100
AcDbAlignedDimension
  13
 210.00000357628
  23
 114.49999859184
  33
0.0
  14
 289.99999642372
  24
 114.49999859184
  34
0.0
 100
AcDbRotatedDimension
   0
DIMENSION
   5
26C
 100
AcDbEntity
   8
LEVEL003
   6
CONTINUOUS
  62
3
 100
AcDbDimension
   2
*D15
  10
 329.99999582767
  20
 290.00000000000
  30
0.0
  11
 250.00000000000
  21
 290.00000000000
  31
0.0
  70
0
   1
\A1;%%c160
   3
GMM008
 100
AcDbAlignedDimension
  13
 170.00000417233
  23
 290.00000000000
  33
0.0
  14
 329.99999582767
  24
 290.00000000000
  34
0.0
 100
AcDbRotatedDimension
   0
DIMENSION
   5
26E
 100
AcDbEntity
   8
LEVEL003
   6
CONTINUOUS
  62
3
 100
AcDbDimension
   2
*D16
  10
 152.50000443310
  20
 270.00000000000
  30
0.0
  11
 250.00000000000
  21
 270.00000000000
  31
0.0
  70
0
   1
\A1;%%c195
   3
GMM008
 100
AcDbAlignedDimension
  13
 347.49999556690
  23
 270.00000000000
  33
0.0
  14
 152.50000443310
  24
 270.00000000000
  34
0.0
  50
 180.00000000000
 100
AcDbRotatedDimension
   0
DIMENSION
   5
270
 100
AcDbEntity
   8
LEVEL003
   6
CONTINUOUS
  62
3
 100
AcDbDimension
   2
*D17
  10
 304.99999620020
  20
 310.00000000000
  30
0.0
  11
 250.00000000000
  21
 310.00000000000
  31
0.0
  70
0
   1
\A1;%%c110
   3
GMM008
 100
AcDbAlignedDimension
  13
 195.00000379980
  23
 310.00000000000
  33
0.0
  14
 304.99999620020
  24
 310.00000000000
  34
0.0
 100
AcDbRotatedDimension
   0
DIMENSION
   5
272
 100
AcDbEntity
   8
LEVEL003
   6
CONTINUOUS
  62
3
 100
AcDbDimension
   2
*D18
  10
 376.49999513477
  20
 229.99999701977
  30
0.0
  11
 249.99999701977
  21
 229.99999701977
  31
0.0
  70
128
   1
\A1;%%c253
   3
GMM009
 100
AcDbAlignedDimension
  13
 123.49999890476
  23
 229.99999701977
  33
0.0
  14
 376.49999513477
  24
 229.99999701977
  34
0.0
 100
AcDbRotatedDimension
   0
LINE
   5
274
 100
AcDbEntity
   8
LEVEL001
 100
AcDbLine
   6
DASHDOT
  62
1
  10
 249.99999701977
  20
 220.00000000000
  30
0.0
  11
 249.99999701977
  21
 100.00000000000
  31
0.0
   0
DIMENSION
   5
275
 100
AcDbEntity
   8
LEVEL003
   6
CONTINUOUS
  62
3
 100
AcDbDimension
   2
*D19
  10
 270.00000000000
  20
 421.99999400973
  30
0.0
  11
 270.00000000000
  21
 446.99999363720
  31
0.0
  70
128
   1
\A1;50
   3
GMM001
 100
AcDbAlignedDimension
  13
 307.49999616295
  23
 471.99999326468
  33
0.0
  14
 305.99999618530
  24
 421.99999400973
  34
0.0
  50
 270.00000000000
 100
AcDbRotatedDimension
   0
TEXT
   5
277
 100
AcDbEntity
   8
LEVEL003
  62
7
 100
AcDbText
  10
 637.87576476180
  20
 44.418971641792
  30
0.0
  40
 10.000000000000
   1
ＯＳＡＫＡ ＪＡＣＫ
   7
STANDARD
 100
AcDbText
   0
CIRCLE
   5
278
 100
AcDbEntity
   8
LEVEL003
 100
AcDbCircle
   6
CONTINUOUS
  62
7
  10
 617.42935091144
  20
 51.132943479323
  30
0.0
  40
 3.0000000000000
   0
LINE
   5
279
 100
AcDbEntity
   8
LEVEL003
 100
AcDbLine
   6
CONTINUOUS
  62
7
  10
 623.31735091144
  20
 54.132943479323
  30
0.0
  11
 619.50835091144
  21
 47.532943479323
  31
0.0
   0
LINE
   5
27A
 100
AcDbEntity
   8
LEVEL003
 100
AcDbLine
   6
CONTINUOUS
  62
7
  10
 619.50835091144
  20
 47.532943479323
  30
0.0
  11
 611.88735091144
  21
 47.532943479323
  31
0.0
   0
LINE
   5
27B
 100
AcDbEntity
   8
LEVEL003
 100
AcDbLine
   6
CONTINUOUS
  62
7
  10
 611.02035091144
  20
 46.032943479323
  30
0.0
  11
 624.64135091144
  21
 46.032943479323
  31
0.0
   0
LINE
   5
27C
 100
AcDbEntity
   8
LEVEL003
 100
AcDbLine
   6
CONTINUOUS
  62
7
  10
 624.64135091144
  20
 46.032943479323
  30
0.0
  11
 629.31735091144
  21
 54.132943479323
  31
0.0
   0
LINE
   5
27D
 100
AcDbEntity
   8
LEVEL003
 100
AcDbLine
   6
CONTINUOUS
  62
7
  10
 629.31735091144
  20
 54.132943479323
  30
0.0
  11
 623.31735091144
  21
 54.132943479323
  31
0.0
   0
LINE
   5
27E
 100
AcDbEntity
   8
LEVEL003
 100
AcDbLine
   6
CONTINUOUS
  62
7
  10
 611.88735091144
  20
 47.532943479323
  30
0.0
  11
 611.02035091144
  21
 46.032943479323
  31
0.0
   0
TEXT
   5
27F
 100
AcDbEntity
   8
LEVEL003
  62
7
 100
AcDbText
  10
 640.78676476180
  20
 61.312371641792
  30
0.0
  40
 6.0000000000000
   1
Model : ＥＣ１４０Ｈ２０
   7
STANDARD
 100
AcDbText
   0
ENDSEC
  0
SECTION
  2
OBJECTS
  0
DICTIONARY
  5
C
100
AcDbDictionary
  3
ACAD_GROUP
350
D
  3
ACAD_MLINESTYLE
350
1B
  0
DICTIONARY
  5
D
102
{ACAD_REACTORS
330
C
102
}
100
AcDbDictionary
  0
DICTIONARY
  5
1B
102
{ACAD_REACTORS
330
C
102
}
100
AcDbDictionary
  3
STANDARD
350
1C
  0
MLINESTYLE
  5
1C
102
{ACAD_REACTORS
330
1B
102
}
100
AcDbMlineStyle
  2
STANDARD
 70
     0
  3

 62
   256
 51
90.0
 52
90.0
 71
     2
 49
0.5
 62
   256
  6
BYLAYER
 49
-0.5
 62
   256
  6
BYLAYER
  0
ENDSEC
   0
EOF
