   0
SECTION
   2
HEADER
   9
$ACADVER
   1
AC1014
   9
$LIMMIN
  10
0.0
  20
0.0
   9
$LIMMAX
  10
 1050.0000000000
  20
 743.00000000000
   9
$EXTMIN
  10
0.0
  20
0.0
  30
0.0
   9
$EXTMAX
  10
 1050.0000000000
  20
 743.00000000000
  30
0.0
   9
$LTSCALE
  40
 21.000000000000
   9
$HANDSEED
   5
274
   0
ENDSEC
   0
SECTION
   2
TABLES
  0
TABLE
  2
VPORT
  5
8
100
AcDbSymbolTable
 70
     1
  0
VPORT
  5
273
100
AcDbSymbolTableRecord
100
AcDbViewportTableRecord
  2
*ACTIVE
 70
     0
 10
0.0
 20
0.0
 11
1.0
 21
1.0
  12
 525.00000000000
  22
 371.50000000000
 13
0.0
 23
0.0
 14
1.0
 24
1.0
 15
0.0
 25
0.0
 16
0.0
 26
0.0
 36
1.0
 17
0.0
 27
0.0
 37
0.0
  40
 1050.0000000000
  41
 1.4787878787879
 42
50.0
 43
0.0
 44
0.0
 50
0.0
 51
0.0
 71
     0
 72
   100
 73
     1
 74
     1
 75
     0
 76
     0
 77
     0
 78
     0
  0
ENDTAB
  0
TABLE
  2
LTYPE
  5
5
100
AcDbSymbolTable
 70
    25
  0
LTYPE
  5
12
100
AcDbSymbolTableRecord
100
AcDbLinetypeTableRecord
  2
BYBLOCK
 70
     0
  3

 72
    65
 73
     0
 40
0.0
  0
LTYPE
  5
13
100
AcDbSymbolTableRecord
100
AcDbLinetypeTableRecord
  2
BYLAYER
 70
     0
  3

 72
    65
 73
     0
 40
0.0
  0
LTYPE
  5
14
100
AcDbSymbolTableRecord
100
AcDbLinetypeTableRecord
  2
CONTINUOUS
 70
     0
  3
Solid line
 72
    65
 73
     0
 40
0.0
  0
LTYPE
  5
20
100
AcDbSymbolTableRecord
100
AcDbLinetypeTableRecord
  2
BORDER
 70
     0
  3
__ __ . __ __ . __ __ . __ __ . __ __ . __ __ .
 72
    65
 73
     6
 40
1.75
 49
0.5
 74
     0
 49
-0.25
 74
     0
 49
0.5
 74
     0
 49
-0.25
 74
     0
 49
0.0
 74
     0
 49
-0.25
 74
     0
  0
LTYPE
  5
21
100
AcDbSymbolTableRecord
100
AcDbLinetypeTableRecord
  2
BORDER2
 70
     0
  3
__.__.__.__.__.__.__.__.__.__.__.__.__.__.__.__
 72
    65
 73
     6
 40
0.875
 49
0.25
 74
     0
 49
-0.125
 74
     0
 49
0.25
 74
     0
 49
-0.125
 74
     0
 49
0.0
 74
     0
 49
-0.125
 74
     0
  0
LTYPE
  5
22
100
AcDbSymbolTableRecord
100
AcDbLinetypeTableRecord
  2
BORDERX2
 70
     0
  3
____  ____  .  ____  ____  .  ____  ____  .  __
 72
    65
 73
     6
 40
3.5
 49
1.0
 74
     0
 49
-0.5
 74
     0
 49
1.0
 74
     0
 49
-0.5
 74
     0
 49
0.0
 74
     0
 49
-0.5
 74
     0
  0
LTYPE
  5
23
100
AcDbSymbolTableRecord
100
AcDbLinetypeTableRecord
  2
CENTER
 70
     0
  3
____ _ ____ _ ____ _ ____ _ ____ _ ____ _ ____ 
 72
    65
 73
     4
 40
2.0
 49
1.25
 74
     0
 49
-0.25
 74
     0
 49
0.25
 74
     0
 49
-0.25
 74
     0
  0
LTYPE
  5
24
100
AcDbSymbolTableRecord
100
AcDbLinetypeTableRecord
  2
CENTER2
 70
     0
  3
___ _ ___ _ ___ _ ___ _ ___ _ ___ _ ___ _ ___ _
 72
    65
 73
     4
 40
1.125
 49
0.75
 74
     0
 49
-0.125
 74
     0
 49
0.125
 74
     0
 49
-0.125
 74
     0
  0
LTYPE
  5
25
100
AcDbSymbolTableRecord
100
AcDbLinetypeTableRecord
  2
CENTERX2
 70
     0
  3
________  __  ________  __  ________  __  _____
 72
    65
 73
     4
 40
4.0
 49
2.5
 74
     0
 49
-0.5
 74
     0
 49
0.5
 74
     0
 49
-0.5
 74
     0
  0
LTYPE
  5
26
100
AcDbSymbolTableRecord
100
AcDbLinetypeTableRecord
  2
DASHDOT
 70
     0
  3
__ . __ . __ . __ . __ . __ . __ . __ . __ . __
 72
    65
 73
     4
 40
1.0
 49
0.5
 74
     0
 49
-0.25
 74
     0
 49
0.0
 74
     0
 49
-0.25
 74
     0
  0
LTYPE
  5
27
100
AcDbSymbolTableRecord
100
AcDbLinetypeTableRecord
  2
DASHDOT2
 70
     0
  3
_._._._._._._._._._._._._._._._._._._._._._._._
 72
    65
 73
     4
 40
0.5
 49
0.25
 74
     0
 49
-0.125
 74
     0
 49
0.0
 74
     0
 49
-0.125
 74
     0
  0
LTYPE
  5
28
100
AcDbSymbolTableRecord
100
AcDbLinetypeTableRecord
  2
DASHDOTX2
 70
     0
  3
____  .  ____  .  ____  .  ____  .  ____  .  __
 72
    65
 73
     4
 40
2.0
 49
1.0
 74
     0
 49
-0.5
 74
     0
 49
0.0
 74
     0
 49
-0.5
 74
     0
  0
LTYPE
  5
29
100
AcDbSymbolTableRecord
100
AcDbLinetypeTableRecord
  2
DASHED
 70
     0
  3
__ __ __ __ __ __ __ __ __ __ __ __ __ __ __ __
 72
    65
 73
     2
 40
0.75
 49
0.5
 74
     0
 49
-0.25
 74
     0
  0
LTYPE
  5
2A
100
AcDbSymbolTableRecord
100
AcDbLinetypeTableRecord
  2
DASHED2
 70
     0
  3
_ _ _ _ _ _ _ _ _ _ _ _ _ _ _ _ _ _ _ _ _ _ _ _
 72
    65
 73
     2
 40
0.375
 49
0.25
 74
     0
 49
-0.125
 74
     0
  0
LTYPE
  5
2B
100
AcDbSymbolTableRecord
100
AcDbLinetypeTableRecord
  2
DASHEDX2
 70
     0
  3
____  ____  ____  ____  ____  ____  ____  ____ 
 72
    65
 73
     2
 40
1.5
 49
1.0
 74
     0
 49
-0.5
 74
     0
  0
LTYPE
  5
2C
100
AcDbSymbolTableRecord
100
AcDbLinetypeTableRecord
  2
DIVIDE
 70
     0
  3
____ . . ____ . . ____ . . ____ . . ____ . . __
 72
    65
 73
     6
 40
1.25
 49
0.5
 74
     0
 49
-0.25
 74
     0
 49
0.0
 74
     0
 49
-0.25
 74
     0
 49
0.0
 74
     0
 49
-0.25
 74
     0
  0
LTYPE
  5
2D
100
AcDbSymbolTableRecord
100
AcDbLinetypeTableRecord
  2
DIVIDE2
 70
     0
  3
__..__..__..__..__..__..__..__..__..__..__..__.
 72
    65
 73
     6
 40
0.625
 49
0.25
 74
     0
 49
-0.125
 74
     0
 49
0.0
 74
     0
 49
-0.125
 74
     0
 49
0.0
 74
     0
 49
-0.125
 74
     0
  0
LTYPE
  5
2E
100
AcDbSymbolTableRecord
100
AcDbLinetypeTableRecord
  2
DIVIDEX2
 70
     0
  3
________  .  .  ________  .  .  ________  .  . 
 72
    65
 73
     6
 40
2.5
 49
1.0
 74
     0
 49
-0.5
 74
     0
 49
0.0
 74
     0
 49
-0.5
 74
     0
 49
0.0
 74
     0
 49
-0.5
 74
     0
  0
LTYPE
  5
2F
100
AcDbSymbolTableRecord
100
AcDbLinetypeTableRecord
  2
DOT
 70
     0
  3
. . . . . . . . . . . . . . . . . . . . . . . .
 72
    65
 73
     2
 40
0.25
 49
0.0
 74
     0
 49
-0.25
 74
     0
  0
LTYPE
  5
30
100
AcDbSymbolTableRecord
100
AcDbLinetypeTableRecord
  2
DOT2
 70
     0
  3
...............................................
 72
    65
 73
     2
 40
0.125
 49
0.0
 74
     0
 49
-0.125
 74
     0
  0
LTYPE
  5
31
100
AcDbSymbolTableRecord
100
AcDbLinetypeTableRecord
  2
DOTX2
 70
     0
  3
.  .  .  .  .  .  .  .  .  .  .  .  .  .  .  . 
 72
    65
 73
     2
 40
0.5
 49
0.0
 74
     0
 49
-0.5
 74
     0
  0
LTYPE
  5
32
100
AcDbSymbolTableRecord
100
AcDbLinetypeTableRecord
  2
HIDDEN
 70
     0
  3
__ __ __ __ __ __ __ __ __ __ __ __ __ __ __ __
 72
    65
 73
     2
 40
0.375
 49
0.25
 74
     0
 49
-0.125
 74
     0
  0
LTYPE
  5
33
100
AcDbSymbolTableRecord
100
AcDbLinetypeTableRecord
  2
HIDDEN2
 70
     0
  3
_ _ _ _ _ _ _ _ _ _ _ _ _ _ _ _ _ _ _ _ _ _ _ _
 72
    65
 73
     2
 40
0.1875
 49
0.125
 74
     0
 49
-0.0625
 74
     0
  0
LTYPE
  5
34
100
AcDbSymbolTableRecord
100
AcDbLinetypeTableRecord
  2
HIDDENX2
 70
     0
  3
____ ____ ____ ____ ____ ____ ____ ____ ____ __
 72
    65
 73
     2
 40
0.75
 49
0.5
 74
     0
 49
-0.25
 74
     0
  0
LTYPE
  5
35
100
AcDbSymbolTableRecord
100
AcDbLinetypeTableRecord
  2
PHANTOM
 70
     0
  3
______  __  __  ______  __  __  ______  __  __ 
 72
    65
 73
     6
 40
2.5
 49
1.25
 74
     0
 49
-0.25
 74
     0
 49
0.25
 74
     0
 49
-0.25
 74
     0
 49
0.25
 74
     0
 49
-0.25
 74
     0
  0
LTYPE
  5
36
100
AcDbSymbolTableRecord
100
AcDbLinetypeTableRecord
  2
PHANTOM2
 70
     0
  3
___ _ _ ___ _ _ ___ _ _ ___ _ _ ___ _ _ ___ _ _
 72
    65
 73
     6
 40
1.25
 49
0.625
 74
     0
 49
-0.125
 74
     0
 49
0.125
 74
     0
 49
-0.125
 74
     0
 49
0.125
 74
     0
 49
-0.125
 74
     0
  0
LTYPE
  5
37
100
AcDbSymbolTableRecord
100
AcDbLinetypeTableRecord
  2
PHANTOMX2
 70
     0
  3
____________    ____    ____    ____________   
 72
    65
 73
     6
 40
5.0
 49
2.5
 74
     0
 49
-0.5
 74
     0
 49
0.5
 74
     0
 49
-0.5
 74
     0
 49
0.5
 74
     0
 49
-0.5
 74
     0
  0
ENDTAB
   0
TABLE
   2
LAYER
   5
2
 100
AcDbSymbolTable
  70
6
   0
LAYER
   5
E
 100
AcDbSymbolTableRecord
 100
AcDbLayerTableRecord
   2
0
  70
0
  62
7
   6
CONTINUOUS
   0
LAYER
   5
39
 100
AcDbSymbolTableRecord
 100
AcDbLayerTableRecord
   2
LEVEL001
  70
0
  62
7
   6
CONTINUOUS
   0
LAYER
   5
3A
 100
AcDbSymbolTableRecord
 100
AcDbLayerTableRecord
   2
LEVEL003
  70
0
  62
7
   6
CONTINUOUS
   0
LAYER
   5
3B
 100
AcDbSymbolTableRecord
 100
AcDbLayerTableRecord
   2
LEVEL020
  70
0
  62
7
   6
CONTINUOUS
   0
LAYER
   5
3C
 100
AcDbSymbolTableRecord
 100
AcDbLayerTableRecord
   2
LEVEL050
  70
0
  62
7
   6
CONTINUOUS
   0
LAYER
   5
3D
 100
AcDbSymbolTableRecord
 100
AcDbLayerTableRecord
   2
LEVEL110
  70
0
  62
7
   6
CONTINUOUS
   0
ENDTAB
  0
TABLE
  2
STYLE
  5
3
100
AcDbSymbolTable
  70
3
  0
STYLE
  5
F
100
AcDbSymbolTableRecord
100
AcDbTextStyleTableRecord
  2
STANDARD
 70
     0
 40
0.0
 41
1.0
 50
0.0
 71
     0
 42
0.2
  3
TXT
  4
BIGFONT
  0
STYLE
  5
38
100
AcDbSymbolTableRecord
100
AcDbTextStyleTableRecord
  2
STANDARD1
 70
     4
 40
0.0
 41
1.0
 50
0.0
 71
     0
 42
0.2
  3
TXT
  4
BIGFONT
   0
STYLE
   5
3E
 100
AcDbSymbolTableRecord
 100
AcDbTextStyleTableRecord
   2
GMM001
  70
0
  40
0.0
  41
 1.0000000000000
  50
0.0
  71
     0
  42
1.0
   3
txt.shx
   4
bigfont.shx
   0
ENDTAB
  0
TABLE
  2
VIEW
  5
6
100
AcDbSymbolTable
 70
     0
  0
ENDTAB
  0
TABLE
  2
UCS
  5
7
100
AcDbSymbolTable
 70
     0
  0
ENDTAB
  0
TABLE
  2
APPID
  5
9
100
AcDbSymbolTable
 70
     1
  0
APPID
  5
10
100
AcDbSymbolTableRecord
100
AcDbRegAppTableRecord
  2
ACAD
 70
     0
  0
ENDTAB
   0
TABLE
   2
DIMSTYLE
   5
A
 100
AcDbSymbolTable
  70
12
  0
DIMSTYLE
105
1D
100
AcDbSymbolTableRecord
100
AcDbDimStyleTableRecord
  2
STANDARD
 70
     0
  3

  4

  5

  6

  7

 40
1.0
 41
0.18
 42
0.0625
 43
0.38
 44
0.18
 45
0.0
 46
0.0
 47
0.0
 48
0.0
140
0.18
141
0.09
142
0.0
143
25.4
144
1.0
145
0.0
146
1.0
147
0.09
 71
     0
 72
     0
 73
     1
 74
     1
 75
     0
 76
     0
 77
     0
 78
     0
170
     0
171
     2
172
     0
173
     0
174
     0
175
     0
176
     0
177
     0
178
     0
270
     2
271
     4
272
     4
273
     2
274
     2
340
F
275
     0
280
     0
281
     0
282
     0
283
     1
284
     0
285
     0
286
     0
287
     3
288
     0
   0
DIMSTYLE
 105
3F
 100
AcDbSymbolTableRecord
 100
AcDbDimStyleTableRecord
   2
GMM001
  70
0
   3

   4

   5

   6
_OPEN
   7
_OPEN
  40
 1.0000000000000
  41
 7.5000000000000
  42
 2.5000000000000
  43
 0.10000000000000E-5
  44
 5.0000000000000
  45
0.0
  46
0.0
  47
0.0
  48
0.0
 140
 10.000000000000
 141
 2.5000000000000
 142
0.0
 143
 0.39400000000000E-1
 144
 1.0000000000000
 145
0.0
 146
 0.62500000000000
 147
 2.0000075995921
  71
0
  72
0
  73
0
  74
0
  75
0
  76
0
  77
3
  78
0
 170
0
 171
2
 172
1
 173
1
 174
0
 175
0
 176
3
 177
3
 178
3
 270
2
 271
0
 272
0
 273
2
 274
2
 340
3E
 275
1
 280
0
 281
0
 282
0
 283
1
 284
0
 285
0
 286
0
 287
3
 288
1
   0
DIMSTYLE
 105
40
 100
AcDbSymbolTableRecord
 100
AcDbDimStyleTableRecord
   2
GMM002
  70
0
   3

   4

   5

   6
_OPEN
   7
_OPEN
  40
 1.0000000000000
  41
 7.5000000000000
  42
 2.5000000000000
  43
 0.10000000000000E-5
  44
 5.0000000000000
  45
0.0
  46
0.0
  47
0.0
  48
0.0
 140
 10.000000000000
 141
 2.5000000000000
 142
0.0
 143
 0.39400000000000E-1
 144
 1.0000000000000
 145
0.0
 146
 0.62500000000000
 147
0.0
  71
0
  72
0
  73
0
  74
0
  75
0
  76
0
  77
1
  78
0
 170
0
 171
2
 172
1
 173
1
 174
0
 175
0
 176
3
 177
3
 178
7
 270
2
 271
0
 272
0
 273
2
 274
2
 340
F
 275
1
 280
0
 281
0
 282
0
 283
1
 284
0
 285
0
 286
0
 287
3
 288
1
   0
DIMSTYLE
 105
41
 100
AcDbSymbolTableRecord
 100
AcDbDimStyleTableRecord
   2
GMM003
  70
0
   3

   4

   5

   6
_OPEN
   7
_OPEN
  40
 1.0000000000000
  41
 7.5000000000000
  42
 2.5000000000000
  43
 0.10000000000000E-5
  44
 5.0000000000000
  45
0.0
  46
0.0
  47
0.0
  48
0.0
 140
 10.000000000000
 141
 2.5000000000000
 142
0.0
 143
 0.39400000000000E-1
 144
 1.0000000000000
 145
0.0
 146
 0.62500000000000
 147
 2.0000075995921
  71
0
  72
0
  73
0
  74
0
  75
0
  76
0
  77
3
  78
0
 170
0
 171
2
 172
1
 173
1
 174
0
 175
0
 176
3
 177
3
 178
3
 270
2
 271
0
 272
0
 273
2
 274
2
 340
3E
 275
1
 280
0
 281
0
 282
0
 283
1
 284
0
 285
0
 286
0
 287
3
 288
1
   0
DIMSTYLE
 105
42
 100
AcDbSymbolTableRecord
 100
AcDbDimStyleTableRecord
   2
GMM004
  70
0
   3

   4

   5

   6
_OPEN
   7
_OPEN
  40
 1.0000000000000
  41
 7.5000000000000
  42
 2.5000000000000
  43
 0.10000000000000E-5
  44
 5.0000000000000
  45
0.0
  46
0.0
  47
0.0
  48
0.0
 140
 10.000000000000
 141
 2.5000000000000
 142
0.0
 143
 0.39400000000000E-1
 144
 1.0000000000000
 145
0.0
 146
 0.62500000000000
 147
 1.9999694526200
  71
0
  72
0
  73
0
  74
0
  75
0
  76
1
  77
3
  78
0
 170
0
 171
2
 172
1
 173
1
 174
0
 175
0
 176
3
 177
3
 178
3
 270
2
 271
0
 272
0
 273
2
 274
2
 340
3E
 275
1
 280
0
 281
0
 282
0
 283
1
 284
0
 285
0
 286
0
 287
3
 288
1
   0
DIMSTYLE
 105
43
 100
AcDbSymbolTableRecord
 100
AcDbDimStyleTableRecord
   2
GMM005
  70
0
   3

   4

   5

   6
_OPEN
   7
_OPEN
  40
 1.0000000000000
  41
 7.5000000000000
  42
 2.5000000000000
  43
 0.10000000000000E-5
  44
 5.0000000000000
  45
0.0
  46
0.0
  47
0.0
  48
0.0
 140
 10.000000000000
 141
 2.5000000000000
 142
0.0
 143
 0.39400000000000E-1
 144
 1.0000000000000
 145
0.0
 146
 0.62500000000000
 147
 1.9999694526200
  71
0
  72
0
  73
0
  74
0
  75
0
  76
0
  77
3
  78
0
 170
0
 171
2
 172
1
 173
1
 174
0
 175
0
 176
3
 177
3
 178
3
 270
2
 271
0
 272
0
 273
2
 274
2
 340
3E
 275
1
 280
0
 281
0
 282
0
 283
1
 284
0
 285
0
 286
0
 287
3
 288
1
   0
DIMSTYLE
 105
44
 100
AcDbSymbolTableRecord
 100
AcDbDimStyleTableRecord
   2
GMM006
  70
0
   3

   4

   5

   6
_OPEN
   7
_OPEN
  40
 1.0000000000000
  41
 7.5000000000000
  42
 2.5000000000000
  43
 0.10000000000000E-5
  44
 5.0000000000000
  45
0.0
  46
0.0
  47
-0.20000000000000
  48
 0.30000000000000
 140
 10.000000000000
 141
 2.5000000000000
 142
0.0
 143
 0.39400000000000E-1
 144
 1.0000000000000
 145
0.0
 146
 0.62500000000000
 147
 1.9999694526200
  71
1
  72
0
  73
0
  74
0
  75
0
  76
0
  77
3
  78
0
 170
0
 171
2
 172
1
 173
1
 174
0
 175
0
 176
3
 177
3
 178
3
 270
2
 271
0
 272
1
 273
2
 274
2
 340
3E
 275
1
 280
0
 281
0
 282
0
 283
1
 284
0
 285
0
 286
0
 287
3
 288
1
   0
DIMSTYLE
 105
45
 100
AcDbSymbolTableRecord
 100
AcDbDimStyleTableRecord
   2
GMM007
  70
0
   3
PCD <>
   4

   5

   6
_OPEN
   7
_OPEN
  40
 1.0000000000000
  41
 7.5000000000000
  42
 2.5000000000000
  43
 0.10000000000000E-5
  44
 5.0000000000000
  45
0.0
  46
0.0
  47
0.0
  48
0.0
 140
 10.000000000000
 141
 2.5000000000000
 142
0.0
 143
 0.39400000000000E-1
 144
 1.0000000000000
 145
0.0
 146
 0.62500000000000
 147
 1.9999694526200
  71
0
  72
0
  73
0
  74
0
  75
0
  76
0
  77
3
  78
0
 170
0
 171
2
 172
1
 173
1
 174
0
 175
0
 176
3
 177
3
 178
3
 270
2
 271
0
 272
0
 273
2
 274
2
 340
3E
 275
1
 280
0
 281
0
 282
0
 283
1
 284
0
 285
0
 286
0
 287
3
 288
1
   0
DIMSTYLE
 105
46
 100
AcDbSymbolTableRecord
 100
AcDbDimStyleTableRecord
   2
GMM008
  70
0
   3

   4

   5

   6
_OPEN
   7
_OPEN
  40
 1.0000000000000
  41
 7.5000000000000
  42
 2.5000000000000
  43
 0.10000000000000E-5
  44
 5.0000000000000
  45
0.0
  46
0.0
  47
0.0
  48
0.0
 140
 10.000000000000
 141
 2.5000000000000
 142
0.0
 143
 0.39400000000000E-1
 144
 1.0000000000000
 145
0.0
 146
 0.62500000000000
 147
 2.0000075995921
  71
0
  72
0
  73
0
  74
0
  75
1
  76
1
  77
3
  78
0
 170
0
 171
2
 172
1
 173
1
 174
0
 175
0
 176
3
 177
3
 178
3
 270
2
 271
0
 272
0
 273
2
 274
2
 340
3E
 275
1
 280
0
 281
0
 282
0
 283
1
 284
0
 285
0
 286
0
 287
3
 288
1
   0
DIMSTYLE
 105
47
 100
AcDbSymbolTableRecord
 100
AcDbDimStyleTableRecord
   2
GMM009
  70
0
   3

   4

   5

   6
_OPEN
   7
_OPEN
  40
 1.0000000000000
  41
 7.5000000000000
  42
 2.5000000000000
  43
 20.000000000000
  44
 5.0000000000000
  45
0.0
  46
0.0
  47
0.0
  48
0.0
 140
 10.000000000000
 141
 2.5000000000000
 142
0.0
 143
 0.39400000000000E-1
 144
 1.0000000000000
 145
0.0
 146
 0.62500000000000
 147
 2.0000000000000
  71
0
  72
0
  73
0
  74
0
  75
1
  76
1
  77
3
  78
8
 170
0
 171
2
 172
1
 173
1
 174
0
 175
0
 176
3
 177
3
 178
3
 270
2
 271
2
 272
0
 273
2
 274
2
 340
3E
 275
0
 280
0
 281
0
 282
0
 283
1
 284
0
 285
0
 286
0
 287
3
 288
0
   0
DIMSTYLE
 105
48
 100
AcDbSymbolTableRecord
 100
AcDbDimStyleTableRecord
   2
GMM010
  70
0
   3

   4

   5

   6
_OPEN
   7
_OPEN
  40
 1.0000000000000
  41
 7.5000000000000
  42
 2.5000000000000
  43
 20.000000000000
  44
 5.0000000000000
  45
0.0
  46
0.0
  47
0.0
  48
0.0
 140
 10.000000000000
 141
 2.5000000000000
 142
0.0
 143
 0.39400000000000E-1
 144
 1.0000000000000
 145
0.0
 146
 0.62500000000000
 147
 2.0000000000000
  71
0
  72
0
  73
0
  74
0
  75
0
  76
0
  77
3
  78
8
 170
0
 171
2
 172
1
 173
1
 174
0
 175
0
 176
3
 177
3
 178
3
 270
2
 271
2
 272
0
 273
2
 274
2
 340
3E
 275
0
 280
0
 281
0
 282
0
 283
1
 284
0
 285
0
 286
0
 287
3
 288
0
   0
ENDTAB
  0
TABLE
  2
BLOCK_RECORD
  5
1
100
AcDbSymbolTable
 70
     0
  0
BLOCK_RECORD
  5
18
100
AcDbSymbolTableRecord
100
AcDbBlockTableRecord
  2
*MODEL_SPACE
  0
BLOCK_RECORD
  5
15
100
AcDbSymbolTableRecord
100
AcDbBlockTableRecord
  2
*PAPER_SPACE
   0
BLOCK_RECORD
   5
49
 100
AcDbSymbolTableRecord
 100
AcDbBlockTableRecord
   2
*D1
   0
BLOCK_RECORD
   5
4A
 100
AcDbSymbolTableRecord
 100
AcDbBlockTableRecord
   2
*D5
   0
BLOCK_RECORD
   5
4B
 100
AcDbSymbolTableRecord
 100
AcDbBlockTableRecord
   2
*D6
   0
BLOCK_RECORD
   5
4C
 100
AcDbSymbolTableRecord
 100
AcDbBlockTableRecord
   2
*D7
   0
BLOCK_RECORD
   5
4D
 100
AcDbSymbolTableRecord
 100
AcDbBlockTableRecord
   2
*D8
   0
BLOCK_RECORD
   5
4E
 100
AcDbSymbolTableRecord
 100
AcDbBlockTableRecord
   2
*D9
   0
BLOCK_RECORD
   5
4F
 100
AcDbSymbolTableRecord
 100
AcDbBlockTableRecord
   2
*D10
   0
BLOCK_RECORD
   5
50
 100
AcDbSymbolTableRecord
 100
AcDbBlockTableRecord
   2
*D11
   0
BLOCK_RECORD
   5
51
 100
AcDbSymbolTableRecord
 100
AcDbBlockTableRecord
   2
*D12
   0
BLOCK_RECORD
   5
52
 100
AcDbSymbolTableRecord
 100
AcDbBlockTableRecord
   2
*D13
   0
BLOCK_RECORD
   5
53
 100
AcDbSymbolTableRecord
 100
AcDbBlockTableRecord
   2
*D14
   0
BLOCK_RECORD
   5
54
 100
AcDbSymbolTableRecord
 100
AcDbBlockTableRecord
   2
*D15
   0
BLOCK_RECORD
   5
55
 100
AcDbSymbolTableRecord
 100
AcDbBlockTableRecord
   2
*D16
   0
BLOCK_RECORD
   5
56
 100
AcDbSymbolTableRecord
 100
AcDbBlockTableRecord
   2
*D17
   0
BLOCK_RECORD
   5
57
 100
AcDbSymbolTableRecord
 100
AcDbBlockTableRecord
   2
_ARCHTICK
   0
BLOCK_RECORD
   5
58
 100
AcDbSymbolTableRecord
 100
AcDbBlockTableRecord
   2
_BOXBLANK
   0
BLOCK_RECORD
   5
59
 100
AcDbSymbolTableRecord
 100
AcDbBlockTableRecord
   2
_BOXFILLED
   0
BLOCK_RECORD
   5
5A
 100
AcDbSymbolTableRecord
 100
AcDbBlockTableRecord
   2
_CLOSED
   0
BLOCK_RECORD
   5
5B
 100
AcDbSymbolTableRecord
 100
AcDbBlockTableRecord
   2
_CLOSEDBLANK
   0
BLOCK_RECORD
   5
5C
 100
AcDbSymbolTableRecord
 100
AcDbBlockTableRecord
   2
_DATUMBLANK
   0
BLOCK_RECORD
   5
5D
 100
AcDbSymbolTableRecord
 100
AcDbBlockTableRecord
   2
_DATUMFILLED
   0
BLOCK_RECORD
   5
5E
 100
AcDbSymbolTableRecord
 100
AcDbBlockTableRecord
   2
_DOT
   0
BLOCK_RECORD
   5
5F
 100
AcDbSymbolTableRecord
 100
AcDbBlockTableRecord
   2
_DOTBLANK
   0
BLOCK_RECORD
   5
60
 100
AcDbSymbolTableRecord
 100
AcDbBlockTableRecord
   2
_DOTSMALL
   0
BLOCK_RECORD
   5
61
 100
AcDbSymbolTableRecord
 100
AcDbBlockTableRecord
   2
_INTEGRAL
   0
BLOCK_RECORD
   5
62
 100
AcDbSymbolTableRecord
 100
AcDbBlockTableRecord
   2
_NONE
   0
BLOCK_RECORD
   5
63
 100
AcDbSymbolTableRecord
 100
AcDbBlockTableRecord
   2
_OBLIQUE
   0
BLOCK_RECORD
   5
64
 100
AcDbSymbolTableRecord
 100
AcDbBlockTableRecord
   2
_OPEN
   0
BLOCK_RECORD
   5
65
 100
AcDbSymbolTableRecord
 100
AcDbBlockTableRecord
   2
_OPEN30
   0
BLOCK_RECORD
   5
66
 100
AcDbSymbolTableRecord
 100
AcDbBlockTableRecord
   2
_OPEN90
   0
BLOCK_RECORD
   5
67
 100
AcDbSymbolTableRecord
 100
AcDbBlockTableRecord
   2
_ORIGIN
   0
ENDTAB
   0
ENDSEC
  0
SECTION
  2
BLOCKS
  0
BLOCK
  5
19
100
AcDbEntity
  8
0
100
AcDbBlockBegin
  2
*MODEL_SPACE
 70
     0
 10
0.0
 20
0.0
 30
0.0
  3
*MODEL_SPACE
  1

  0
ENDBLK
  5
1A
100
AcDbEntity
  8
0
100
AcDbBlockEnd
  0
BLOCK
  5
16
100
AcDbEntity
 67
     1
  8
0
100
AcDbBlockBegin
  2
*PAPER_SPACE
 70
     0
 10
0.0
 20
0.0
 30
0.0
  3
*PAPER_SPACE
  1

  0
ENDBLK
  5
17
100
AcDbEntity
 67
     1
  8
0
100
AcDbBlockEnd
   0
BLOCK
   5
68
 100
AcDbEntity
   8
0
 100
AcDbBlockBegin
   2
_ARCHTICK
  70
0
  10
0.0
  20
0.0
  30
0.0
   3
_ARCHTICK
   0
POLYLINE
   5
69
 100
AcDbEntity
   8
0
   6
BYBLOCK
  62
0
 100
AcDb2dPolyline
  66
1
  10
0.0
  20
0.0
  30
0.0
  70
1
  40
 0.15000000000000
  41
 0.15000000000000
   0
VERTEX
   5
6A
 100
AcDbEntity
   8
0
   6
BYBLOCK
  62
0
 100
AcDbVertex
 100
AcDb2dVertex
  10
-0.50000000000000
  20
-0.50000000000000
  30
0.0
  40
 0.15000000000000
  41
 0.15000000000000
   0
VERTEX
   5
6B
 100
AcDbEntity
   8
0
   6
BYBLOCK
  62
0
 100
AcDbVertex
 100
AcDb2dVertex
  10
 0.50000000000000
  20
 0.50000000000000
  30
0.0
  40
 0.15000000000000
  41
 0.15000000000000
   0
SEQEND
   5
6C
 100
AcDbEntity
   8
0
   6
BYBLOCK
  62
0
   0
ENDBLK
   5
6D
 100
AcDbEntity
   8
0
 100
AcDbBlockEnd
   0
BLOCK
   5
6E
 100
AcDbEntity
   8
0
 100
AcDbBlockBegin
   2
_OBLIQUE
  70
0
  10
0.0
  20
0.0
  30
0.0
   3
_OBLIQUE
   0
LINE
   5
6F
 100
AcDbEntity
   8
0
 100
AcDbLine
   6
BYBLOCK
  62
0
  10
-0.50000000000000
  20
-0.50000000000000
  30
0.0
  11
 0.50000000000000
  21
 0.50000000000000
  31
0.0
   0
ENDBLK
   5
70
 100
AcDbEntity
   8
0
 100
AcDbBlockEnd
   0
BLOCK
   5
71
 100
AcDbEntity
   8
0
 100
AcDbBlockBegin
   2
_BOXBLANK
  70
0
  10
0.0
  20
0.0
  30
0.0
   3
_BOXBLANK
   0
LINE
   5
72
 100
AcDbEntity
   8
0
 100
AcDbLine
   6
BYBLOCK
  62
0
  10
-0.50000000000000
  20
-0.50000000000000
  30
0.0
  11
 0.50000000000000
  21
-0.50000000000000
  31
0.0
   0
LINE
   5
73
 100
AcDbEntity
   8
0
 100
AcDbLine
   6
BYBLOCK
  62
0
  10
 0.50000000000000
  20
-0.50000000000000
  30
0.0
  11
 0.50000000000000
  21
 0.50000000000000
  31
0.0
   0
LINE
   5
74
 100
AcDbEntity
   8
0
 100
AcDbLine
   6
BYBLOCK
  62
0
  10
 0.50000000000000
  20
 0.50000000000000
  30
0.0
  11
-0.50000000000000
  21
 0.50000000000000
  31
0.0
   0
LINE
   5
75
 100
AcDbEntity
   8
0
 100
AcDbLine
   6
BYBLOCK
  62
0
  10
-0.50000000000000
  20
 0.50000000000000
  30
0.0
  11
-0.50000000000000
  21
-0.50000000000000
  31
0.0
   0
LINE
   5
76
 100
AcDbEntity
   8
0
 100
AcDbLine
   6
BYBLOCK
  62
0
  10
-0.50000000000000
  20
0.0
  30
0.0
  11
-1.0000000000000
  21
0.0
  31
0.0
   0
ENDBLK
   5
77
 100
AcDbEntity
   8
0
 100
AcDbBlockEnd
   0
BLOCK
   5
78
 100
AcDbEntity
   8
0
 100
AcDbBlockBegin
   2
_BOXFILLED
  70
0
  10
0.0
  20
0.0
  30
0.0
   3
_BOXFILLED
   0
SOLID
   5
79
 100
AcDbEntity
   8
0
 100
AcDbTrace
   6
BYBLOCK
  62
0
  10
-0.50000000000000
  20
 0.50000000000000
  30
0.0
  11
 0.50000000000000
  21
 0.50000000000000
  31
0.0
  12
-0.50000000000000
  22
-0.50000000000000
  32
0.0
  13
 0.50000000000000
  23
-0.50000000000000
  33
0.0
   0
LINE
   5
7A
 100
AcDbEntity
   8
0
 100
AcDbLine
   6
BYBLOCK
  62
0
  10
-0.50000000000000
  20
0.0
  30
0.0
  11
-1.0000000000000
  21
0.0
  31
0.0
   0
ENDBLK
   5
7B
 100
AcDbEntity
   8
0
 100
AcDbBlockEnd
   0
BLOCK
   5
7C
 100
AcDbEntity
   8
0
 100
AcDbBlockBegin
   2
_CLOSED
  70
0
  10
0.0
  20
0.0
  30
0.0
   3
_CLOSED
   0
LINE
   5
7D
 100
AcDbEntity
   8
0
 100
AcDbLine
   6
BYBLOCK
  62
0
  10
-1.0000000000000
  20
 0.16666666666667
  30
0.0
  11
0.0
  21
0.0
  31
0.0
   0
LINE
   5
7E
 100
AcDbEntity
   8
0
 100
AcDbLine
   6
BYBLOCK
  62
0
  10
0.0
  20
0.0
  30
0.0
  11
-1.0000000000000
  21
-0.16666666666667
  31
0.0
   0
LINE
   5
7F
 100
AcDbEntity
   8
0
 100
AcDbLine
   6
BYBLOCK
  62
0
  10
-1.0000000000000
  20
 0.16666666666667
  30
0.0
  11
-1.0000000000000
  21
-0.16666666666667
  31
0.0
   0
LINE
   5
80
 100
AcDbEntity
   8
0
 100
AcDbLine
   6
BYBLOCK
  62
0
  10
0.0
  20
0.0
  30
0.0
  11
-1.0000000000000
  21
0.0
  31
0.0
   0
ENDBLK
   5
81
 100
AcDbEntity
   8
0
 100
AcDbBlockEnd
   0
BLOCK
   5
82
 100
AcDbEntity
   8
0
 100
AcDbBlockBegin
   2
_OPEN
  70
0
  10
0.0
  20
0.0
  30
0.0
   3
_OPEN
   0
LINE
   5
83
 100
AcDbEntity
   8
0
 100
AcDbLine
   6
BYBLOCK
  62
0
  10
-1.0000000000000
  20
 0.16666666666667
  30
0.0
  11
0.0
  21
0.0
  31
0.0
   0
LINE
   5
84
 100
AcDbEntity
   8
0
 100
AcDbLine
   6
BYBLOCK
  62
0
  10
0.0
  20
0.0
  30
0.0
  11
-1.0000000000000
  21
-0.16666666666667
  31
0.0
   0
LINE
   5
85
 100
AcDbEntity
   8
0
 100
AcDbLine
   6
BYBLOCK
  62
0
  10
0.0
  20
0.0
  30
0.0
  11
-1.0000000000000
  21
0.0
  31
0.0
   0
ENDBLK
   5
86
 100
AcDbEntity
   8
0
 100
AcDbBlockEnd
   0
BLOCK
   5
87
 100
AcDbEntity
   8
0
 100
AcDbBlockBegin
   2
_OPEN30
  70
0
  10
0.0
  20
0.0
  30
0.0
   3
_OPEN30
   0
LINE
   5
88
 100
AcDbEntity
   8
0
 100
AcDbLine
   6
BYBLOCK
  62
0
  10
-1.0000000000000
  20
 0.26794919243110
  30
0.0
  11
0.0
  21
0.0
  31
0.0
   0
LINE
   5
89
 100
AcDbEntity
   8
0
 100
AcDbLine
   6
BYBLOCK
  62
0
  10
0.0
  20
0.0
  30
0.0
  11
-1.0000000000000
  21
-0.26794919243110
  31
0.0
   0
LINE
   5
8A
 100
AcDbEntity
   8
0
 100
AcDbLine
   6
BYBLOCK
  62
0
  10
0.0
  20
0.0
  30
0.0
  11
-1.0000000000000
  21
0.0
  31
0.0
   0
ENDBLK
   5
8B
 100
AcDbEntity
   8
0
 100
AcDbBlockEnd
   0
BLOCK
   5
8C
 100
AcDbEntity
   8
0
 100
AcDbBlockBegin
   2
_OPEN90
  70
0
  10
0.0
  20
0.0
  30
0.0
   3
_OPEN90
   0
LINE
   5
8D
 100
AcDbEntity
   8
0
 100
AcDbLine
   6
BYBLOCK
  62
0
  10
-0.50000000000000
  20
 0.50000000000000
  30
0.0
  11
0.0
  21
0.0
  31
0.0
   0
LINE
   5
8E
 100
AcDbEntity
   8
0
 100
AcDbLine
   6
BYBLOCK
  62
0
  10
0.0
  20
0.0
  30
0.0
  11
-0.50000000000000
  21
-0.50000000000000
  31
0.0
   0
LINE
   5
8F
 100
AcDbEntity
   8
0
 100
AcDbLine
   6
BYBLOCK
  62
0
  10
0.0
  20
0.0
  30
0.0
  11
-1.0000000000000
  21
0.0
  31
0.0
   0
ENDBLK
   5
90
 100
AcDbEntity
   8
0
 100
AcDbBlockEnd
   0
BLOCK
   5
91
 100
AcDbEntity
   8
0
 100
AcDbBlockBegin
   2
_CLOSEDBLANK
  70
0
  10
0.0
  20
0.0
  30
0.0
   3
_CLOSEDBLANK
   0
LINE
   5
92
 100
AcDbEntity
   8
0
 100
AcDbLine
   6
BYBLOCK
  62
0
  10
-1.0000000000000
  20
 0.16666666666667
  30
0.0
  11
0.0
  21
0.0
  31
0.0
   0
LINE
   5
93
 100
AcDbEntity
   8
0
 100
AcDbLine
   6
BYBLOCK
  62
0
  10
0.0
  20
0.0
  30
0.0
  11
-1.0000000000000
  21
-0.16666666666667
  31
0.0
   0
LINE
   5
94
 100
AcDbEntity
   8
0
 100
AcDbLine
   6
BYBLOCK
  62
0
  10
-1.0000000000000
  20
 0.16666666666667
  30
0.0
  11
-1.0000000000000
  21
-0.16666666666667
  31
0.0
   0
ENDBLK
   5
95
 100
AcDbEntity
   8
0
 100
AcDbBlockEnd
   0
BLOCK
   5
96
 100
AcDbEntity
   8
0
 100
AcDbBlockBegin
   2
_DOT
  70
0
  10
0.0
  20
0.0
  30
0.0
   3
_DOT
   0
POLYLINE
   5
97
 100
AcDbEntity
   8
0
   6
BYBLOCK
  62
0
 100
AcDb2dPolyline
  66
1
  10
0.0
  20
0.0
  30
0.0
  70
1
  40
 0.50000000000000
  41
 0.50000000000000
   0
VERTEX
   5
98
 100
AcDbEntity
   8
0
   6
BYBLOCK
  62
0
 100
AcDbVertex
 100
AcDb2dVertex
  10
-0.25000000000000
  20
0.0
  30
0.0
  42
 1.0000000000000
  40
 0.50000000000000
  41
 0.50000000000000
   0
VERTEX
   5
99
 100
AcDbEntity
   8
0
   6
BYBLOCK
  62
0
 100
AcDbVertex
 100
AcDb2dVertex
  10
 0.25000000000000
  20
0.0
  30
0.0
  42
 1.0000000000000
  40
 0.50000000000000
  41
 0.50000000000000
   0
SEQEND
   5
9A
 100
AcDbEntity
   8
0
   6
BYBLOCK
  62
0
   0
LINE
   5
9B
 100
AcDbEntity
   8
0
 100
AcDbLine
   6
BYBLOCK
  62
0
  10
-0.50000000000000
  20
0.0
  30
0.0
  11
-1.0000000000000
  21
0.0
  31
0.0
   0
ENDBLK
   5
9C
 100
AcDbEntity
   8
0
 100
AcDbBlockEnd
   0
BLOCK
   5
9D
 100
AcDbEntity
   8
0
 100
AcDbBlockBegin
   2
_DOTSMALL
  70
0
  10
0.0
  20
0.0
  30
0.0
   3
_DOTSMALL
   0
POLYLINE
   5
9E
 100
AcDbEntity
   8
0
   6
BYBLOCK
  62
0
 100
AcDb2dPolyline
  66
1
  10
0.0
  20
0.0
  30
0.0
  70
1
  40
 0.50000000000000
  41
 0.50000000000000
   0
VERTEX
   5
9F
 100
AcDbEntity
   8
0
   6
BYBLOCK
  62
0
 100
AcDbVertex
 100
AcDb2dVertex
  10
-0.62500000000000E-1
  20
0.0
  30
0.0
  42
 1.0000000000000
  40
 0.50000000000000
  41
 0.50000000000000
   0
VERTEX
   5
A0
 100
AcDbEntity
   8
0
   6
BYBLOCK
  62
0
 100
AcDbVertex
 100
AcDb2dVertex
  10
 0.62500000000000E-1
  20
0.0
  30
0.0
  42
 1.0000000000000
  40
 0.50000000000000
  41
 0.50000000000000
   0
SEQEND
   5
A1
 100
AcDbEntity
   8
0
   6
BYBLOCK
  62
0
   0
ENDBLK
   5
A2
 100
AcDbEntity
   8
0
 100
AcDbBlockEnd
   0
BLOCK
   5
A3
 100
AcDbEntity
   8
0
 100
AcDbBlockBegin
   2
_DATUMBLANK
  70
0
  10
0.0
  20
0.0
  30
0.0
   3
_DATUMBLANK
   0
LINE
   5
A4
 100
AcDbEntity
   8
0
 100
AcDbLine
   6
BYBLOCK
  62
0
  10
0.0
  20
 0.57735027000000
  30
0.0
  11
-1.0000000000000
  21
0.0
  31
0.0
   0
LINE
   5
A5
 100
AcDbEntity
   8
0
 100
AcDbLine
   6
BYBLOCK
  62
0
  10
-1.0000000000000
  20
0.0
  30
0.0
  11
0.0
  21
-0.57735027000000
  31
0.0
   0
LINE
   5
A6
 100
AcDbEntity
   8
0
 100
AcDbLine
   6
BYBLOCK
  62
0
  10
0.0
  20
-0.57735027000000
  30
0.0
  11
0.0
  21
 0.57735027000000
  31
0.0
   0
ENDBLK
   5
A7
 100
AcDbEntity
   8
0
 100
AcDbBlockEnd
   0
BLOCK
   5
A8
 100
AcDbEntity
   8
0
 100
AcDbBlockBegin
   2
_DATUMFILLED
  70
0
  10
0.0
  20
0.0
  30
0.0
   3
_DATUMFILLED
   0
SOLID
   5
A9
 100
AcDbEntity
   8
0
 100
AcDbTrace
   6
BYBLOCK
  62
0
  10
0.0
  20
 0.57735027000000
  30
0.0
  11
-1.0000000000000
  21
0.0
  31
0.0
  12
0.0
  22
-0.57735027000000
  32
0.0
  13
0.0
  23
-0.57735027000000
  33
0.0
   0
ENDBLK
   5
AA
 100
AcDbEntity
   8
0
 100
AcDbBlockEnd
   0
BLOCK
   5
AB
 100
AcDbEntity
   8
0
 100
AcDbBlockBegin
   2
_ORIGIN
  70
0
  10
0.0
  20
0.0
  30
0.0
   3
_ORIGIN
   0
CIRCLE
   5
AC
 100
AcDbEntity
   8
0
 100
AcDbCircle
   6
BYBLOCK
  62
0
  10
0.0
  20
0.0
  30
0.0
  40
 0.50000000000000
   0
LINE
   5
AD
 100
AcDbEntity
   8
0
 100
AcDbLine
   6
BYBLOCK
  62
0
  10
0.0
  20
0.0
  30
0.0
  11
-1.0000000000000
  21
0.0
  31
0.0
   0
ENDBLK
   5
AE
 100
AcDbEntity
   8
0
 100
AcDbBlockEnd
   0
BLOCK
   5
AF
 100
AcDbEntity
   8
0
 100
AcDbBlockBegin
   2
_NONE
  70
0
  10
0.0
  20
0.0
  30
0.0
   3
_NONE
   0
CIRCLE
   5
B0
 100
AcDbEntity
   8
0
 100
AcDbCircle
   6
BYBLOCK
  62
0
  10
0.0
  20
0.0
  30
0.0
  40
 0.25000000000000
   0
ENDBLK
   5
B1
 100
AcDbEntity
   8
0
 100
AcDbBlockEnd
   0
BLOCK
   5
B2
 100
AcDbEntity
   8
0
 100
AcDbBlockBegin
   2
_DOTBLANK
  70
0
  10
0.0
  20
0.0
  30
0.0
   3
_DOTBLANK
   0
CIRCLE
   5
B3
 100
AcDbEntity
   8
0
 100
AcDbCircle
   6
BYBLOCK
  62
0
  10
0.0
  20
0.0
  30
0.0
  40
 0.50000000000000
   0
LINE
   5
B4
 100
AcDbEntity
   8
0
 100
AcDbLine
   6
BYBLOCK
  62
0
  10
-0.50000000000000
  20
0.0
  30
0.0
  11
-1.0000000000000
  21
0.0
  31
0.0
   0
ENDBLK
   5
B5
 100
AcDbEntity
   8
0
 100
AcDbBlockEnd
   0
BLOCK
   5
B6
 100
AcDbEntity
   8
0
 100
AcDbBlockBegin
   2
_INTEGRAL
  70
0
  10
0.0
  20
0.0
  30
0.0
   3
_INTEGRAL
   0
ARC
   5
B7
 100
AcDbEntity
   8
0
   6
BYBLOCK
  62
0
 100
AcDbCircle
  10
 0.44488800000000
  20
-0.91335000000000E-1
  30
0.0
  40
 0.45416700000000
 100
AcDbArc
  50
 102.00000000000
  51
 168.00000000000
   0
ARC
   5
B8
 100
AcDbEntity
   8
0
   6
BYBLOCK
  62
0
 100
AcDbCircle
  10
-0.44488800000000
  20
 0.91335000000000E-1
  30
0.0
  40
 0.45416700000000
 100
AcDbArc
  50
 282.00000000000
  51
 348.00000000000
   0
ENDBLK
   5
B9
 100
AcDbEntity
   8
0
 100
AcDbBlockEnd
   0
BLOCK
   5
BA
 100
AcDbEntity
   8
0
 100
AcDbBlockBegin
   2
*D1
  70
65
  10
0.0
  20
0.0
  30
0.0
   3
*D1
   0
LINE
   5
BB
 100
AcDbEntity
   8
LEVEL003
 100
AcDbLine
   6
CONTINUOUS
  62
3
  10
 799.99998901039
  20
 345.99997992069
  30
0.0
  11
 799.99998901039
  21
 257.49999646101
  31
0.0
   0
LINE
   5
BC
 100
AcDbEntity
   8
LEVEL003
 100
AcDbLine
   6
CONTINUOUS
  62
3
  10
 199.99999795109
  20
 366.33975470305
  30
0.0
  11
 199.99999795109
  21
 257.49999646101
  31
0.0
   0
LINE
   5
BD
 100
AcDbEntity
   8
LEVEL003
 100
AcDbLine
   6
CONTINUOUS
  62
3
  10
 799.99998901039
  20
 262.49999646101
  30
0.0
  11
 513.34373524814
  21
 262.49999646101
  31
0.0
   0
LINE
   5
BE
 100
AcDbEntity
   8
LEVEL003
 100
AcDbLine
   6
CONTINUOUS
  62
3
  10
 199.99999795109
  20
 262.49999646101
  30
0.0
  11
 486.65623524814
  21
 262.49999646101
  31
0.0
   0
INSERT
   5
BF
 100
AcDbEntity
   8
LEVEL003
   6
CONTINUOUS
  62
3
 100
AcDbBlockReference
   2
_OPEN
  10
 799.99998901039
  20
 262.49999646101
  30
0.0
  41
 7.5000000000000
  42
 7.5000000000000
  43
 7.5000000000000
  50
0.0
   0
INSERT
   5
C0
 100
AcDbEntity
   8
LEVEL003
   6
CONTINUOUS
  62
3
 100
AcDbBlockReference
   2
_OPEN
  10
 199.99999795109
  20
 262.49999646101
  30
0.0
  41
 7.5000000000000
  42
 7.5000000000000
  43
 7.5000000000000
  50
 180.00000000000
   0
MTEXT
   5
C1
 100
AcDbEntity
   8
LEVEL003
  62
3
 100
AcDbMText
  10
 499.99998524814
  20
 264.50000406060
  30
0.0
  40
 10.000000000000
  41
0.0
  71
8
  72
1
   1
\A1;600
   7
GMM001
   0
ENDBLK
   5
C2
 100
AcDbEntity
   8
0
 100
AcDbBlockEnd
   0
BLOCK
   5
C3
 100
AcDbEntity
   8
0
 100
AcDbBlockBegin
   2
*D5
  70
65
  10
0.0
  20
0.0
  30
0.0
   3
*D5
   0
LINE
   5
C4
 100
AcDbEntity
   8
LEVEL003
 100
AcDbLine
   6
CONTINUOUS
  62
3
  10
 383.00002574176
  20
 447.49999366701
  30
0.0
  11
 383.00002574176
  21
 276.24999618158
  31
0.0
   0
LINE
   5
C5
 100
AcDbEntity
   8
LEVEL003
 100
AcDbLine
   6
CONTINUOUS
  62
3
  10
 799.99998901039
  20
 345.99997992069
  30
0.0
  11
 799.99998901039
  21
 276.24999618158
  31
0.0
   0
LINE
   5
C6
 100
AcDbEntity
   8
LEVEL003
 100
AcDbLine
   6
CONTINUOUS
  62
3
  10
 383.00002574176
  20
 281.24999618158
  30
0.0
  11
 578.04688237607
  21
 281.24999618158
  31
0.0
   0
LINE
   5
C7
 100
AcDbEntity
   8
LEVEL003
 100
AcDbLine
   6
CONTINUOUS
  62
3
  10
 799.99998901039
  20
 281.24999618158
  30
0.0
  11
 604.95313237607
  21
 281.24999618158
  31
0.0
   0
INSERT
   5
C8
 100
AcDbEntity
   8
LEVEL003
   6
CONTINUOUS
  62
3
 100
AcDbBlockReference
   2
_OPEN
  10
 383.00002574176
  20
 281.24999618158
  30
0.0
  41
 7.5000000000000
  42
 7.5000000000000
  43
 7.5000000000000
  50
 180.00000000000
   0
INSERT
   5
C9
 100
AcDbEntity
   8
LEVEL003
   6
CONTINUOUS
  62
3
 100
AcDbBlockReference
   2
_OPEN
  10
 799.99998901039
  20
 281.24999618158
  30
0.0
  41
 7.5000000000000
  42
 7.5000000000000
  43
 7.5000000000000
  50
0.0
   0
MTEXT
   5
CA
 100
AcDbEntity
   8
LEVEL003
  62
3
 100
AcDbMText
  10
 591.50000737607
  20
 283.25000378117
  30
0.0
  40
 10.000000000000
  41
0.0
  71
8
  72
1
   1
\A1;417
   7
GMM001
   0
ENDBLK
   5
CB
 100
AcDbEntity
   8
0
 100
AcDbBlockEnd
   0
BLOCK
   5
CC
 100
AcDbEntity
   8
0
 100
AcDbBlockBegin
   2
*D6
  70
65
  10
0.0
  20
0.0
  30
0.0
   3
*D6
   0
LINE
   5
CD
 100
AcDbEntity
   8
LEVEL003
 100
AcDbLine
   6
CONTINUOUS
  62
3
  10
 784.99998923391
  20
 313.49998040497
  30
0.0
  11
 784.99998923391
  21
 294.99999590218
  31
0.0
   0
LINE
   5
CE
 100
AcDbEntity
   8
LEVEL003
 100
AcDbLine
   6
CONTINUOUS
  62
3
  10
 799.99998901039
  20
 345.99997992069
  30
0.0
  11
 799.99998901039
  21
 294.99999590218
  31
0.0
   0
LINE
   5
CF
 100
AcDbEntity
   8
LEVEL003
 100
AcDbLine
   6
CONTINUOUS
  62
3
  10
 775.62498923391
  20
 299.99999590218
  30
0.0
  11
 812.65897892831
  21
 299.99999590218
  31
0.0
   0
LINE
   5
D0
 100
AcDbEntity
   8
LEVEL003
 100
AcDbLine
   6
CONTINUOUS
  62
3
  10
 829.50272892831
  20
 299.99999590218
  30
0.0
  11
 829.50272892831
  21
 299.99999590218
  31
0.0
   0
INSERT
   5
D1
 100
AcDbEntity
   8
LEVEL003
   6
CONTINUOUS
  62
3
 100
AcDbBlockReference
   2
_OPEN
  10
 784.99998923391
  20
 299.99999590218
  30
0.0
  41
 7.5000000000000
  42
 7.5000000000000
  43
 7.5000000000000
  50
0.0
   0
INSERT
   5
D2
 100
AcDbEntity
   8
LEVEL003
   6
CONTINUOUS
  62
3
 100
AcDbBlockReference
   2
_OPEN
  10
 799.99998901039
  20
 299.99999590218
  30
0.0
  41
 7.5000000000000
  42
 7.5000000000000
  43
 7.5000000000000
  50
 180.00000000000
   0
MTEXT
   5
D3
 100
AcDbEntity
   8
LEVEL003
  62
3
 100
AcDbMText
  10
 812.65897892831
  20
 302.00000350177
  30
0.0
  40
 10.000000000000
  41
0.0
  71
7
  72
1
   1
\A1;15
   7
GMM001
   0
ENDBLK
   5
D4
 100
AcDbEntity
   8
0
 100
AcDbBlockEnd
   0
BLOCK
   5
D5
 100
AcDbEntity
   8
0
 100
AcDbBlockBegin
   2
*D7
  70
65
  10
0.0
  20
0.0
  30
0.0
   3
*D7
   0
LINE
   5
D6
 100
AcDbEntity
   8
LEVEL003
 100
AcDbLine
   6
CONTINUOUS
  62
3
  10
 199.99999795109
  20
 366.33975470305
  30
0.0
  11
 199.99999795109
  21
 294.99999590218
  31
0.0
   0
LINE
   5
D7
 100
AcDbEntity
   8
LEVEL003
 100
AcDbLine
   6
CONTINUOUS
  62
3
  10
 204.99999787658
  20
 315.49998800457
  30
0.0
  11
 204.99999787658
  21
 294.99999590218
  31
0.0
   0
LINE
   5
D8
 100
AcDbEntity
   8
LEVEL003
 100
AcDbLine
   6
CONTINUOUS
  62
3
  10
 169.83774624920
  20
 299.99999590218
  30
0.0
  11
 169.83774624920
  21
 299.99999590218
  31
0.0
   0
LINE
   5
D9
 100
AcDbEntity
   8
LEVEL003
 100
AcDbLine
   6
CONTINUOUS
  62
3
  10
 214.37499787658
  20
 299.99999590218
  30
0.0
  11
 179.90024624920
  21
 299.99999590218
  31
0.0
   0
INSERT
   5
DA
 100
AcDbEntity
   8
LEVEL003
   6
CONTINUOUS
  62
3
 100
AcDbBlockReference
   2
_OPEN
  10
 199.99999795109
  20
 299.99999590218
  30
0.0
  41
 7.5000000000000
  42
 7.5000000000000
  43
 7.5000000000000
  50
0.0
   0
INSERT
   5
DB
 100
AcDbEntity
   8
LEVEL003
   6
CONTINUOUS
  62
3
 100
AcDbBlockReference
   2
_OPEN
  10
 204.99999787658
  20
 299.99999590218
  30
0.0
  41
 7.5000000000000
  42
 7.5000000000000
  43
 7.5000000000000
  50
 180.00000000000
   0
MTEXT
   5
DC
 100
AcDbEntity
   8
LEVEL003
  62
3
 100
AcDbMText
  10
 179.90024624920
  20
 302.00000350177
  30
0.0
  40
 10.000000000000
  41
0.0
  71
9
  72
1
   1
\A1;5
   7
GMM001
   0
ENDBLK
   5
DD
 100
AcDbEntity
   8
0
 100
AcDbBlockEnd
   0
BLOCK
   5
DE
 100
AcDbEntity
   8
0
 100
AcDbBlockBegin
   2
*D8
  70
65
  10
0.0
  20
0.0
  30
0.0
   3
*D8
   0
LINE
   5
DF
 100
AcDbEntity
   8
LEVEL003
 100
AcDbLine
   6
CONTINUOUS
  62
3
  10
 799.99998901039
  20
 554.00000741333
  30
0.0
  11
 799.99998901039
  21
 704.99998994951
  31
0.0
   0
LINE
   5
E0
 100
AcDbEntity
   8
LEVEL003
 100
AcDbLine
   6
CONTINUOUS
  62
3
  10
 853.43206989720
  20
 699.99998994951
  30
0.0
  11
 853.43206989720
  21
 699.99998994951
  31
0.0
   0
LINE
   5
E1
 100
AcDbEntity
   8
LEVEL003
 100
AcDbLine
   6
CONTINUOUS
  62
3
  10
 729.99999005348
  20
 699.99998994951
  30
0.0
  11
 835.05706989720
  21
 699.99998994951
  31
0.0
   0
INSERT
   5
E2
 100
AcDbEntity
   8
LEVEL003
   6
CONTINUOUS
  62
3
 100
AcDbBlockReference
   2
_OPEN
  10
 799.99998901039
  20
 699.99998994951
  30
0.0
  41
 7.5000000000000
  42
 7.5000000000000
  43
 7.5000000000000
  50
0.0
   0
INSERT
   5
E3
 100
AcDbEntity
   8
LEVEL003
   6
CONTINUOUS
  62
3
 100
AcDbBlockReference
   2
_OPEN
  10
 729.99999005348
  20
 699.99998994951
  30
0.0
  41
 7.5000000000000
  42
 7.5000000000000
  43
 7.5000000000000
  50
 180.00000000000
   0
MTEXT
   5
E4
 100
AcDbEntity
   8
LEVEL003
  62
3
 100
AcDbMText
  10
 835.05706989720
  20
 701.99995940213
  30
0.0
  40
 10.000000000000
  41
0.0
  71
7
  72
1
   1
\A1;70
   7
GMM001
   0
ENDBLK
   5
E5
 100
AcDbEntity
   8
0
 100
AcDbBlockEnd
   0
BLOCK
   5
E6
 100
AcDbEntity
   8
0
 100
AcDbBlockBegin
   2
*D9
  70
65
  10
0.0
  20
0.0
  30
0.0
   3
*D9
   0
LINE
   5
E7
 100
AcDbEntity
   8
LEVEL003
 100
AcDbLine
   6
CONTINUOUS
  62
3
  10
 729.99999005348
  20
 692.49999009073
  30
0.0
  11
 729.99999005348
  21
 704.99998382993
  31
0.0
   0
LINE
   5
E8
 100
AcDbEntity
   8
LEVEL003
 100
AcDbLine
   6
CONTINUOUS
  62
3
  10
 314.99999623746
  20
 692.49999009073
  30
0.0
  11
 314.99999623746
  21
 704.99998382993
  31
0.0
   0
LINE
   5
E9
 100
AcDbEntity
   8
LEVEL003
 100
AcDbLine
   6
CONTINUOUS
  62
3
  10
 729.99999005348
  20
 699.99998382993
  30
0.0
  11
 535.95311919454
  21
 699.99998382993
  31
0.0
   0
LINE
   5
EA
 100
AcDbEntity
   8
LEVEL003
 100
AcDbLine
   6
CONTINUOUS
  62
3
  10
 314.99999623746
  20
 699.99998382993
  30
0.0
  11
 509.04686919454
  21
 699.99998382993
  31
0.0
   0
INSERT
   5
EB
 100
AcDbEntity
   8
LEVEL003
   6
CONTINUOUS
  62
3
 100
AcDbBlockReference
   2
_OPEN
  10
 729.99999005348
  20
 699.99998382993
  30
0.0
  41
 7.5000000000000
  42
 7.5000000000000
  43
 7.5000000000000
  50
0.0
   0
INSERT
   5
EC
 100
AcDbEntity
   8
LEVEL003
   6
CONTINUOUS
  62
3
 100
AcDbBlockReference
   2
_OPEN
  10
 314.99999623746
  20
 699.99998382993
  30
0.0
  41
 7.5000000000000
  42
 7.5000000000000
  43
 7.5000000000000
  50
 180.00000000000
   0
MTEXT
   5
ED
 100
AcDbEntity
   8
LEVEL003
  62
3
 100
AcDbMText
  10
 522.49999419454
  20
 701.99995328255
  30
0.0
  40
 10.000000000000
  41
0.0
  71
8
  72
1
   1
\A1;415
   7
GMM001
   0
ENDBLK
   5
EE
 100
AcDbEntity
   8
0
 100
AcDbBlockEnd
   0
BLOCK
   5
EF
 100
AcDbEntity
   8
0
 100
AcDbBlockBegin
   2
*D10
  70
65
  10
0.0
  20
0.0
  30
0.0
   3
*D10
   0
LINE
   5
F0
 100
AcDbEntity
   8
LEVEL003
 100
AcDbLine
   6
CONTINUOUS
  62
3
  10
 801.50000428408
  20
 347.49999519438
  30
0.0
  11
 880.00000000000
  21
 347.49999519438
  31
0.0
   0
LINE
   5
F1
 100
AcDbEntity
   8
LEVEL003
 100
AcDbLine
   6
CONTINUOUS
  62
3
  10
 801.50000428408
  20
 552.49999213964
  30
0.0
  11
 880.00000000000
  21
 552.49999213964
  31
0.0
   0
LINE
   5
F2
 100
AcDbEntity
   8
LEVEL003
 100
AcDbLine
   6
CONTINUOUS
  62
3
  10
 875.00000000000
  20
 347.49999519438
  30
0.0
  11
 875.00000000000
  21
 406.36913431529
  31
0.0
   0
LINE
   5
F3
 100
AcDbEntity
   8
LEVEL003
 100
AcDbLine
   6
CONTINUOUS
  62
3
  10
 875.00000000000
  20
 552.49999213964
  30
0.0
  11
 875.00000000000
  21
 468.63085306529
  31
0.0
   0
INSERT
   5
F4
 100
AcDbEntity
   8
LEVEL003
   6
CONTINUOUS
  62
3
 100
AcDbBlockReference
   2
_OPEN
  10
 875.00000000000
  20
 347.49999519438
  30
0.0
  41
 7.5000000000000
  42
 7.5000000000000
  43
 7.5000000000000
  50
 270.00000000000
   0
INSERT
   5
F5
 100
AcDbEntity
   8
LEVEL003
   6
CONTINUOUS
  62
3
 100
AcDbBlockReference
   2
_OPEN
  10
 875.00000000000
  20
 552.49999213964
  30
0.0
  41
 7.5000000000000
  42
 7.5000000000000
  43
 7.5000000000000
  50
 90.000000000000
   0
MTEXT
   5
F6
 100
AcDbEntity
   8
LEVEL003
  62
3
 100
AcDbMText
  10
 873.00003054738
  20
 437.49999369029
  30
0.0
  40
 10.000000000000
  41
0.0
  71
8
  72
1
   1
\A1;%%c205{\H0.625x;\S-0.2^ -0.3;}
   7
GMM001
  11
0.0
  21
 1.0000000000000
  31
0.0
   0
ENDBLK
   5
F7
 100
AcDbEntity
   8
0
 100
AcDbBlockEnd
   0
BLOCK
   5
F8
 100
AcDbEntity
   8
0
 100
AcDbBlockBegin
   2
*D11
  70
65
  10
0.0
  20
0.0
  30
0.0
   3
*D11
   0
LINE
   5
F9
 100
AcDbEntity
   8
LEVEL003
 100
AcDbLine
   6
CONTINUOUS
  62
3
  10
 805.49994318932
  20
 367.50003304332
  30
0.0
  11
 855.00000000000
  21
 367.50003304332
  31
0.0
   0
LINE
   5
FA
 100
AcDbEntity
   8
LEVEL003
 100
AcDbLine
   6
CONTINUOUS
  62
3
  10
 805.49994318932
  20
 532.49995429069
  30
0.0
  11
 855.00000000000
  21
 532.49995429069
  31
0.0
   0
LINE
   5
FB
 100
AcDbEntity
   8
LEVEL003
 100
AcDbLine
   6
CONTINUOUS
  62
3
  10
 850.00000000000
  20
 367.50003304332
  30
0.0
  11
 850.00000000000
  21
 417.95311866701
  31
0.0
   0
LINE
   5
FC
 100
AcDbEntity
   8
LEVEL003
 100
AcDbLine
   6
CONTINUOUS
  62
3
  10
 850.00000000000
  20
 532.49995429069
  30
0.0
  11
 850.00000000000
  21
 482.04686866701
  31
0.0
   0
INSERT
   5
FD
 100
AcDbEntity
   8
LEVEL003
   6
CONTINUOUS
  62
3
 100
AcDbBlockReference
   2
_OPEN
  10
 850.00000000000
  20
 367.50003304332
  30
0.0
  41
 7.5000000000000
  42
 7.5000000000000
  43
 7.5000000000000
  50
 270.00000000000
   0
INSERT
   5
FE
 100
AcDbEntity
   8
LEVEL003
   6
CONTINUOUS
  62
3
 100
AcDbBlockReference
   2
_OPEN
  10
 850.00000000000
  20
 532.49995429069
  30
0.0
  41
 7.5000000000000
  42
 7.5000000000000
  43
 7.5000000000000
  50
 90.000000000000
   0
MTEXT
   5
FF
 100
AcDbEntity
   8
LEVEL003
  62
3
 100
AcDbMText
  10
 848.00003054738
  20
 449.99999366701
  30
0.0
  40
 10.000000000000
  41
0.0
  71
8
  72
1
   1
\A1;PCD 165
   7
GMM001
  11
0.0
  21
 1.0000000000000
  31
0.0
   0
ENDBLK
   5
100
 100
AcDbEntity
   8
0
 100
AcDbBlockEnd
   0
BLOCK
   5
101
 100
AcDbEntity
   8
0
 100
AcDbBlockBegin
   2
*D12
  70
65
  10
0.0
  20
0.0
  30
0.0
   3
*D12
   0
LINE
   5
102
 100
AcDbEntity
   8
LEVEL003
 100
AcDbLine
   6
CONTINUOUS
  62
3
  10
 574.99999236316
  20
 314.99999567866
  30
0.0
  11
 574.99999236316
  21
 428.78124366701
  31
0.0
   0
LINE
   5
103
 100
AcDbEntity
   8
LEVEL003
 100
AcDbLine
   6
CONTINUOUS
  62
3
  10
 574.99999236316
  20
 584.99999165535
  30
0.0
  11
 574.99999236316
  21
 471.21874366701
  31
0.0
   0
INSERT
   5
104
 100
AcDbEntity
   8
LEVEL003
   6
CONTINUOUS
  62
3
 100
AcDbBlockReference
   2
_OPEN
  10
 574.99999236316
  20
 314.99999567866
  30
0.0
  41
 7.5000000000000
  42
 7.5000000000000
  43
 7.5000000000000
  50
 270.00000000000
   0
INSERT
   5
105
 100
AcDbEntity
   8
LEVEL003
   6
CONTINUOUS
  62
3
 100
AcDbBlockReference
   2
_OPEN
  10
 574.99999236316
  20
 584.99999165535
  30
0.0
  41
 7.5000000000000
  42
 7.5000000000000
  43
 7.5000000000000
  50
 90.000000000000
   0
MTEXT
   5
106
 100
AcDbEntity
   8
LEVEL003
  62
3
 100
AcDbMText
  10
 572.99998476357
  20
 449.99999366701
  30
0.0
  40
 10.000000000000
  41
0.0
  71
8
  72
1
   1
\A1;%%c270
   7
GMM001
  11
0.0
  21
 1.0000000000000
  31
0.0
   0
ENDBLK
   5
107
 100
AcDbEntity
   8
0
 100
AcDbBlockEnd
   0
BLOCK
   5
108
 100
AcDbEntity
   8
0
 100
AcDbBlockBegin
   2
*D13
  70
65
  10
0.0
  20
0.0
  30
0.0
   3
*D13
   0
LINE
   5
109
 100
AcDbEntity
   8
LEVEL003
 100
AcDbLine
   6
CONTINUOUS
  62
3
  10
 500.00000000000
  20
 499.99999292195
  30
0.0
  11
 500.00000000000
  21
 468.70312500000
  31
0.0
   0
LINE
   5
10A
 100
AcDbEntity
   8
LEVEL003
 100
AcDbLine
   6
CONTINUOUS
  62
3
  10
 500.00000000000
  20
 400.00000707805
  30
0.0
  11
 500.00000000000
  21
 431.29687500000
  31
0.0
   0
INSERT
   5
10B
 100
AcDbEntity
   8
LEVEL003
   6
CONTINUOUS
  62
3
 100
AcDbBlockReference
   2
_OPEN
  10
 500.00000000000
  20
 499.99999292195
  30
0.0
  41
 7.5000000000000
  42
 7.5000000000000
  43
 7.5000000000000
  50
 90.000000000000
   0
INSERT
   5
10C
 100
AcDbEntity
   8
LEVEL003
   6
CONTINUOUS
  62
3
 100
AcDbBlockReference
   2
_OPEN
  10
 500.00000000000
  20
 400.00000707805
  30
0.0
  41
 7.5000000000000
  42
 7.5000000000000
  43
 7.5000000000000
  50
 270.00000000000
   0
MTEXT
   5
10D
 100
AcDbEntity
   8
LEVEL003
  62
3
 100
AcDbMText
  10
 498.00000000000
  20
 450.00000000000
  30
0.0
  40
 10.000000000000
  41
0.0
  71
8
  72
1
   1
\A1;%%c100
   7
GMM001
  11
0.0
  21
 1.0000000000000
  31
0.0
   0
ENDBLK
   5
10E
 100
AcDbEntity
   8
0
 100
AcDbBlockEnd
   0
BLOCK
   5
10F
 100
AcDbEntity
   8
0
 100
AcDbBlockBegin
   2
*D14
  70
65
  10
0.0
  20
0.0
  30
0.0
   3
*D14
   0
LINE
   5
110
 100
AcDbEntity
   8
LEVEL003
 100
AcDbLine
   6
CONTINUOUS
  62
3
  10
 525.00000000000
  20
 367.50000756234
  30
0.0
  11
 525.00000000000
  21
 429.54687500000
  31
0.0
   0
LINE
   5
111
 100
AcDbEntity
   8
LEVEL003
 100
AcDbLine
   6
CONTINUOUS
  62
3
  10
 525.00000000000
  20
 532.49999243766
  30
0.0
  11
 525.00000000000
  21
 470.45312500000
  31
0.0
   0
INSERT
   5
112
 100
AcDbEntity
   8
LEVEL003
   6
CONTINUOUS
  62
3
 100
AcDbBlockReference
   2
_OPEN
  10
 525.00000000000
  20
 367.50000756234
  30
0.0
  41
 7.5000000000000
  42
 7.5000000000000
  43
 7.5000000000000
  50
 270.00000000000
   0
INSERT
   5
113
 100
AcDbEntity
   8
LEVEL003
   6
CONTINUOUS
  62
3
 100
AcDbBlockReference
   2
_OPEN
  10
 525.00000000000
  20
 532.49999243766
  30
0.0
  41
 7.5000000000000
  42
 7.5000000000000
  43
 7.5000000000000
  50
 90.000000000000
   0
MTEXT
   5
114
 100
AcDbEntity
   8
LEVEL003
  62
3
 100
AcDbMText
  10
 523.00000000000
  20
 450.00000000000
  30
0.0
  40
 10.000000000000
  41
0.0
  71
8
  72
1
   1
\A1;%%c165
   7
GMM001
  11
0.0
  21
 1.0000000000000
  31
0.0
   0
ENDBLK
   5
115
 100
AcDbEntity
   8
0
 100
AcDbBlockEnd
   0
BLOCK
   5
116
 100
AcDbEntity
   8
0
 100
AcDbBlockBegin
   2
*D15
  70
65
  10
0.0
  20
0.0
  30
0.0
   3
*D15
   0
LINE
   5
117
 100
AcDbEntity
   8
LEVEL003
 100
AcDbLine
   6
CONTINUOUS
  62
3
  10
 550.00000000000
  20
 557.49999206513
  30
0.0
  11
 550.00000000000
  21
 470.45312500000
  31
0.0
   0
LINE
   5
118
 100
AcDbEntity
   8
LEVEL003
 100
AcDbLine
   6
CONTINUOUS
  62
3
  10
 550.00000000000
  20
 342.50000793487
  30
0.0
  11
 550.00000000000
  21
 429.54687500000
  31
0.0
   0
INSERT
   5
119
 100
AcDbEntity
   8
LEVEL003
   6
CONTINUOUS
  62
3
 100
AcDbBlockReference
   2
_OPEN
  10
 550.00000000000
  20
 557.49999206513
  30
0.0
  41
 7.5000000000000
  42
 7.5000000000000
  43
 7.5000000000000
  50
 90.000000000000
   0
INSERT
   5
11A
 100
AcDbEntity
   8
LEVEL003
   6
CONTINUOUS
  62
3
 100
AcDbBlockReference
   2
_OPEN
  10
 550.00000000000
  20
 342.50000793487
  30
0.0
  41
 7.5000000000000
  42
 7.5000000000000
  43
 7.5000000000000
  50
 270.00000000000
   0
MTEXT
   5
11B
 100
AcDbEntity
   8
LEVEL003
  62
3
 100
AcDbMText
  10
 548.00000000000
  20
 450.00000000000
  30
0.0
  40
 10.000000000000
  41
0.0
  71
8
  72
1
   1
\A1;%%c215
   7
GMM001
  11
0.0
  21
 1.0000000000000
  31
0.0
   0
ENDBLK
   5
11C
 100
AcDbEntity
   8
0
 100
AcDbBlockEnd
   0
BLOCK
   5
11D
 100
AcDbEntity
   8
0
 100
AcDbBlockBegin
   2
*D16
  70
65
  10
0.0
  20
0.0
  30
0.0
   3
*D16
   0
LINE
   5
11E
 100
AcDbEntity
   8
LEVEL003
 100
AcDbLine
   6
CONTINUOUS
  62
3
  10
 797.48999457821
  20
 487.49999310821
  30
0.0
  11
 830.00000000000
  21
 487.49999310821
  31
0.0
   0
LINE
   5
11F
 100
AcDbEntity
   8
LEVEL003
 100
AcDbLine
   6
CONTINUOUS
  62
3
  10
 797.48999457821
  20
 412.50000689179
  30
0.0
  11
 830.00000000000
  21
 412.50000689179
  31
0.0
   0
LINE
   5
120
 100
AcDbEntity
   8
LEVEL003
 100
AcDbLine
   6
CONTINUOUS
  62
3
  10
 825.00000000000
  20
 487.49999310821
  30
0.0
  11
 825.00000000000
  21
 467.06250000000
  31
0.0
   0
LINE
   5
121
 100
AcDbEntity
   8
LEVEL003
 100
AcDbLine
   6
CONTINUOUS
  62
3
  10
 825.00000000000
  20
 412.50000689179
  30
0.0
  11
 825.00000000000
  21
 432.93750000000
  31
0.0
   0
INSERT
   5
122
 100
AcDbEntity
   8
LEVEL003
   6
CONTINUOUS
  62
3
 100
AcDbBlockReference
   2
_OPEN
  10
 825.00000000000
  20
 487.49999310821
  30
0.0
  41
 7.5000000000000
  42
 7.5000000000000
  43
 7.5000000000000
  50
 90.000000000000
   0
INSERT
   5
123
 100
AcDbEntity
   8
LEVEL003
   6
CONTINUOUS
  62
3
 100
AcDbBlockReference
   2
_OPEN
  10
 825.00000000000
  20
 412.50000689179
  30
0.0
  41
 7.5000000000000
  42
 7.5000000000000
  43
 7.5000000000000
  50
 270.00000000000
   0
MTEXT
   5
124
 100
AcDbEntity
   8
LEVEL003
  62
3
 100
AcDbMText
  10
 823.00000000000
  20
 450.00000000000
  30
0.0
  40
 10.000000000000
  41
0.0
  71
8
  72
1
   1
\A1;%%c75
   7
GMM001
  11
0.0
  21
 1.0000000000000
  31
0.0
   0
ENDBLK
   5
125
 100
AcDbEntity
   8
0
 100
AcDbBlockEnd
   0
BLOCK
   5
126
 100
AcDbEntity
   8
0
 100
AcDbBlockBegin
   2
*D17
  70
65
  10
0.0
  20
0.0
  30
0.0
   3
*D17
   0
LINE
   5
127
 100
AcDbEntity
   8
LEVEL003
 100
AcDbLine
   6
CONTINUOUS
  62
3
  10
 202.50999238327
  20
 487.49999310821
  30
0.0
  11
 157.50000000000
  21
 487.49999310821
  31
0.0
   0
LINE
   5
128
 100
AcDbEntity
   8
LEVEL003
 100
AcDbLine
   6
CONTINUOUS
  62
3
  10
 202.50999238327
  20
 412.50000689179
  30
0.0
  11
 157.50000000000
  21
 412.50000689179
  31
0.0
   0
LINE
   5
129
 100
AcDbEntity
   8
LEVEL003
 100
AcDbLine
   6
CONTINUOUS
  62
3
  10
 162.50000000000
  20
 487.49999310821
  30
0.0
  11
 162.50000000000
  21
 467.06250000000
  31
0.0
   0
LINE
   5
12A
 100
AcDbEntity
   8
LEVEL003
 100
AcDbLine
   6
CONTINUOUS
  62
3
  10
 162.50000000000
  20
 412.50000689179
  30
0.0
  11
 162.50000000000
  21
 432.93750000000
  31
0.0
   0
INSERT
   5
12B
 100
AcDbEntity
   8
LEVEL003
   6
CONTINUOUS
  62
3
 100
AcDbBlockReference
   2
_OPEN
  10
 162.50000000000
  20
 487.49999310821
  30
0.0
  41
 7.5000000000000
  42
 7.5000000000000
  43
 7.5000000000000
  50
 90.000000000000
   0
INSERT
   5
12C
 100
AcDbEntity
   8
LEVEL003
   6
CONTINUOUS
  62
3
 100
AcDbBlockReference
   2
_OPEN
  10
 162.50000000000
  20
 412.50000689179
  30
0.0
  41
 7.5000000000000
  42
 7.5000000000000
  43
 7.5000000000000
  50
 270.00000000000
   0
MTEXT
   5
12D
 100
AcDbEntity
   8
LEVEL003
  62
3
 100
AcDbMText
  10
 160.50000000000
  20
 450.00000000000
  30
0.0
  40
 10.000000000000
  41
0.0
  71
8
  72
1
   1
\A1;%%c75
   7
GMM001
  11
0.0
  21
 1.0000000000000
  31
0.0
   0
ENDBLK
   5
12E
 100
AcDbEntity
   8
0
 100
AcDbBlockEnd
   0
ENDSEC
   0
SECTION
   2
ENTITIES
   0
LINE
   5
12F
 100
AcDbEntity
   8
LEVEL001
 100
AcDbLine
   6
CONTINUOUS
  62
7
  10
 204.99999787658
  20
 581.99999932945
  30
0.0
  11
 207.99999020249
  21
 584.99999165535
  31
0.0
   0
LINE
   5
130
 100
AcDbEntity
   8
LEVEL001
 100
AcDbLine
   6
CONTINUOUS
  62
7
  10
 784.00000450760
  20
 584.99999165535
  30
0.0
  11
 784.99998923391
  21
 584.00000692904
  31
0.0
   0
LINE
   5
131
 100
AcDbEntity
   8
LEVEL001
 100
AcDbLine
   6
CONTINUOUS
  62
7
  10
 799.00000428408
  20
 552.49999213964
  30
0.0
  11
 799.99998901039
  21
 551.50000741333
  31
0.0
   0
ARC
   5
132
 100
AcDbEntity
   8
LEVEL001
   6
CONTINUOUS
  62
7
 100
AcDbCircle
  10
 785.99998923379
  20
 553.49999213959
  30
0.0
  40
 1.0000000000000
 100
AcDbArc
  50
 180.00087511520
  51
 269.99912488884
   0
LINE
   5
133
 100
AcDbEntity
   8
LEVEL001
 100
AcDbLine
   6
CONTINUOUS
  62
7
  10
 785.99997396022
  20
 552.49999213964
  30
0.0
  11
 799.00000428408
  21
 552.49999213964
  31
0.0
   0
LINE
   5
134
 100
AcDbEntity
   8
LEVEL001
 100
AcDbLine
   6
CONTINUOUS
  62
7
  10
 199.99999795109
  20
 531.16023263096
  30
0.0
  11
 204.99999787658
  21
 532.49999243766
  31
0.0
   0
LINE
   5
135
 100
AcDbEntity
   8
LEVEL001
 100
AcDbLine
   6
CONTINUOUS
  62
7
  10
 784.00000450760
  20
 314.99999567866
  30
0.0
  11
 784.99998923391
  21
 315.99998040497
  31
0.0
   0
LINE
   5
136
 100
AcDbEntity
   8
LEVEL001
 100
AcDbLine
   6
CONTINUOUS
  62
7
  10
 207.99999020249
  20
 314.99999567866
  30
0.0
  11
 784.00000450760
  21
 314.99999567866
  31
0.0
   0
LINE
   5
137
 100
AcDbEntity
   8
LEVEL001
 100
AcDbLine
   6
CONTINUOUS
  62
7
  10
 799.00000428408
  20
 347.49999519438
  30
0.0
  11
 799.99998901039
  21
 348.49997992069
  31
0.0
   0
ARC
   5
138
 100
AcDbEntity
   8
LEVEL001
   6
CONTINUOUS
  62
7
 100
AcDbCircle
  10
 785.99998923379
  20
 346.49999519445
  30
0.0
  40
 1.0000000000000
 100
AcDbArc
  50
 90.000875111291
  51
 179.99912488640
   0
LINE
   5
139
 100
AcDbEntity
   8
LEVEL001
 100
AcDbLine
   6
CONTINUOUS
  62
7
  10
 785.99997396022
  20
 347.49999519438
  30
0.0
  11
 799.00000428408
  21
 347.49999519438
  31
0.0
   0
LINE
   5
13A
 100
AcDbEntity
   8
LEVEL001
 100
AcDbLine
   6
CONTINUOUS
  62
7
  10
 204.99999787658
  20
 317.99998800457
  30
0.0
  11
 207.99999020249
  21
 314.99999567866
  31
0.0
   0
LINE
   5
13B
 100
AcDbEntity
   8
LEVEL001
 100
AcDbLine
   6
CONTINUOUS
  62
7
  10
 199.99999795109
  20
 368.83975470305
  30
0.0
  11
 204.99999787658
  21
 367.49999489635
  31
0.0
   0
LINE
   5
13C
 100
AcDbEntity
   8
LEVEL001
 100
AcDbLine
   6
CONTINUOUS
  62
7
  10
 799.99998901039
  20
 551.50000741333
  30
0.0
  11
 799.99998901039
  21
 348.49997992069
  31
0.0
   0
LINE
   5
13D
 100
AcDbEntity
   8
LEVEL001
 100
AcDbLine
   6
CONTINUOUS
  62
7
  10
 784.99998923391
  20
 315.99998040497
  30
0.0
  11
 784.99998923391
  21
 449.99999366701
  31
0.0
   0
LINE
   5
13E
 100
AcDbEntity
   8
LEVEL001
 100
AcDbLine
   6
CONTINUOUS
  62
7
  10
 199.99999795109
  20
 531.16023263096
  30
0.0
  11
 199.99999795109
  21
 368.83975470305
  31
0.0
   0
LINE
   5
13F
 100
AcDbEntity
   8
LEVEL001
 100
AcDbLine
   6
CONTINUOUS
  62
7
  10
 204.99999787658
  20
 449.99999366701
  30
0.0
  11
 204.99999787658
  21
 317.99998800457
  31
0.0
   0
LINE
   5
140
 100
AcDbEntity
   8
LEVEL001
 100
AcDbLine
   6
CONTINUOUS
  62
7
  10
 207.99999020249
  20
 314.99999567866
  30
0.0
  11
 207.99999020249
  21
 449.99999366701
  31
0.0
   0
LINE
   5
141
 100
AcDbEntity
   8
LEVEL001
 100
AcDbLine
   6
DASHDOT
  62
1
  10
 187.49999813735
  20
 449.99999366701
  30
0.0
  11
 812.49998882413
  21
 449.99999366701
  31
0.0
   0
LINE
   5
142
 100
AcDbEntity
   8
LEVEL001
 100
AcDbLine
   6
CONTINUOUS
  62
7
  10
 368.00002596527
  20
 441.50000905246
  30
0.0
  11
 367.00004123896
  21
 440.49998617917
  31
0.0
   0
LINE
   5
143
 100
AcDbEntity
   8
LEVEL001
 100
AcDbLine
   6
CONTINUOUS
  62
7
  10
 398.00002551824
  20
 441.50000905246
  30
0.0
  11
 399.00001024455
  21
 440.49998617917
  31
0.0
   0
ARC
   5
144
 100
AcDbEntity
   8
LEVEL001
   6
DASHDOT
  62
1
 100
AcDbCircle
  10
 427.00004034489
  20
 449.99999366701
  30
0.0
  40
 44.000014603138
 100
AcDbArc
  50
 180.00000000000
  51
0.0
   0
ARC
   5
145
 100
AcDbEntity
   8
LEVEL001
   6
CONTINUOUS
  62
7
 100
AcDbCircle
  10
 427.00003080817
  20
 450.00003760631
  30
0.0
  40
 50.500001154840
 100
AcDbArc
  50
 190.84307968195
  51
0.0
   0
ARC
   5
146
 100
AcDbEntity
   8
LEVEL001
   6
CONTINUOUS
  62
7
 100
AcDbCircle
  10
 427.00004034505
  20
 449.99988395222
  30
0.0
  40
 37.499999441206
 100
AcDbArc
  50
 194.67468850830
  51
 0.16763184967049E-3
   0
LINE
   5
147
 100
AcDbEntity
   8
LEVEL001
 100
AcDbLine
   6
CONTINUOUS
  62
7
  10
 367.00004123896
  20
 449.99999366701
  30
0.0
  11
 367.00004123896
  21
 440.49998617917
  31
0.0
   0
LINE
   5
148
 100
AcDbEntity
   8
LEVEL001
 100
AcDbLine
   6
CONTINUOUS
  62
7
  10
 367.00004123896
  20
 440.49998617917
  30
0.0
  11
 399.00001024455
  21
 440.49998617917
  31
0.0
   0
LINE
   5
149
 100
AcDbEntity
   8
LEVEL001
 100
AcDbLine
   6
CONTINUOUS
  62
7
  10
 399.00001024455
  20
 440.49998617917
  30
0.0
  11
 399.00001024455
  21
 449.99999366701
  31
0.0
   0
LINE
   5
14A
 100
AcDbEntity
   8
LEVEL001
 100
AcDbLine
   6
CONTINUOUS
  62
7
  10
 368.00002596527
  20
 449.99999366701
  30
0.0
  11
 368.00002596527
  21
 441.50000905246
  31
0.0
   0
LINE
   5
14B
 100
AcDbEntity
   8
LEVEL001
 100
AcDbLine
   6
CONTINUOUS
  62
7
  10
 368.00002596527
  20
 441.50000905246
  30
0.0
  11
 398.00002551824
  21
 441.50000905246
  31
0.0
   0
LINE
   5
14C
 100
AcDbEntity
   8
LEVEL001
 100
AcDbLine
   6
CONTINUOUS
  62
7
  10
 398.00002551824
  20
 441.50000905246
  30
0.0
  11
 398.00002551824
  21
 449.99999366701
  31
0.0
   0
DIMENSION
   5
14D
 100
AcDbEntity
   8
LEVEL003
   6
CONTINUOUS
  62
3
 100
AcDbDimension
   2
*D1
  10
 199.99999795109
  20
 262.49999646101
  30
0.0
  11
 499.99998524814
  21
 262.49999646101
  31
0.0
  70
128
   1
\A1;600
   3
GMM001
 100
AcDbAlignedDimension
  13
 799.99998901039
  23
 348.49997992069
  33
0.0
  14
 199.99999795109
  24
 368.83975470305
  34
0.0
  50
 180.00000000000
 100
AcDbRotatedDimension
   0
LINE
   5
14F
 100
AcDbEntity
   8
LEVEL001
 100
AcDbLine
   6
DASHDOT
  62
1
  10
 729.99999005348
  20
 312.00000335276
  30
0.0
  11
 729.99999005348
  21
 334.99999538064
  31
0.0
   0
LINE
   5
150
 100
AcDbEntity
   8
LEVEL001
 100
AcDbLine
   6
DASHDOT
  62
1
  10
 802.99994318932
  20
 532.49995429069
  30
0.0
  11
 757.22647585382
  21
 532.49995429069
  31
0.0
   0
LINE
   5
151
 100
AcDbEntity
   8
LEVEL001
 100
AcDbLine
   6
DASHDOT
  62
1
  10
 802.99994318932
  20
 367.50003304332
  30
0.0
  11
 757.22647585382
  21
 367.50003304332
  31
0.0
   0
LINE
   5
152
 100
AcDbEntity
   8
LEVEL001
 100
AcDbLine
   6
DOT
  62
3
  10
 734.25002050772
  20
 315.75000329688
  30
0.0
  11
 725.74995959923
  21
 315.75000329688
  31
0.0
   0
LINE
   5
153
 100
AcDbEntity
   8
LEVEL001
 100
AcDbLine
   6
DOT
  62
3
  10
 734.99998997897
  20
 314.99999567866
  30
0.0
  11
 734.25002050772
  21
 315.75000329688
  31
0.0
   0
LINE
   5
154
 100
AcDbEntity
   8
LEVEL001
 100
AcDbLine
   6
DOT
  62
3
  10
 734.25002050772
  20
 315.75000329688
  30
0.0
  11
 734.25002050772
  21
 329.79903720619
  31
0.0
   0
LINE
   5
155
 100
AcDbEntity
   8
LEVEL001
 100
AcDbLine
   6
DOT
  62
3
  10
 734.25002050772
  20
 329.79903720619
  30
0.0
  11
 732.00003580004
  21
 331.09805604669
  31
0.0
   0
LINE
   5
156
 100
AcDbEntity
   8
LEVEL001
 100
AcDbLine
   6
DOT
  62
3
  10
 727.99994430691
  20
 331.09805604669
  30
0.0
  11
 725.74995959923
  21
 329.79903720619
  31
0.0
   0
LINE
   5
157
 100
AcDbEntity
   8
LEVEL001
 100
AcDbLine
   6
DOT
  62
3
  10
 725.74995959923
  20
 329.79903720619
  30
0.0
  11
 725.74995959923
  21
 315.75000329688
  31
0.0
   0
LINE
   5
158
 100
AcDbEntity
   8
LEVEL001
 100
AcDbLine
   6
DOT
  62
3
  10
 725.74995959923
  20
 315.75000329688
  30
0.0
  11
 724.99999012798
  21
 314.99999567866
  31
0.0
   0
CIRCLE
   5
159
 100
AcDbEntity
   8
LEVEL001
 100
AcDbCircle
   6
DOT
  62
3
  10
 729.99999005348
  20
 328.86203313079
  30
0.0
  40
 3.0000015646219
   0
LINE
   5
15A
 100
AcDbEntity
   8
LEVEL001
 100
AcDbLine
   6
DOT
  62
3
  10
 734.25002050772
  20
 325.86204080489
  30
0.0
  11
 734.99998997897
  21
 325.11203318667
  31
0.0
   0
LINE
   5
15B
 100
AcDbEntity
   8
LEVEL001
 100
AcDbLine
   6
DOT
  62
3
  10
 734.99998997897
  20
 325.11203318667
  30
0.0
  11
 734.99998997897
  21
 316.61204857212
  31
0.0
   0
LINE
   5
15C
 100
AcDbEntity
   8
LEVEL001
 100
AcDbLine
   6
DOT
  62
3
  10
 734.99998997897
  20
 316.61204857212
  30
0.0
  11
 734.25002050772
  21
 315.86204095390
  31
0.0
   0
LINE
   5
15D
 100
AcDbEntity
   8
LEVEL001
 100
AcDbLine
   6
DOT
  62
3
  10
 734.25002050772
  20
 315.86204095390
  30
0.0
  11
 725.75003589317
  21
 315.86204095390
  31
0.0
   0
LINE
   5
15E
 100
AcDbEntity
   8
LEVEL001
 100
AcDbLine
   6
DOT
  62
3
  10
 725.75003589317
  20
 315.86204095390
  30
0.0
  11
 724.99999012798
  21
 316.61204857212
  31
0.0
   0
LINE
   5
15F
 100
AcDbEntity
   8
LEVEL001
 100
AcDbLine
   6
DOT
  62
3
  10
 724.99999012798
  20
 316.61204857212
  30
0.0
  11
 724.99999012798
  21
 325.11203318667
  31
0.0
   0
LINE
   5
160
 100
AcDbEntity
   8
LEVEL001
 100
AcDbLine
   6
DOT
  62
3
  10
 724.99999012798
  20
 325.11203318667
  30
0.0
  11
 725.75003589317
  21
 325.86204080489
  31
0.0
   0
LINE
   5
161
 100
AcDbEntity
   8
LEVEL001
 100
AcDbLine
   6
DOT
  62
3
  10
 725.75003589317
  20
 325.86204080489
  30
0.0
  11
 734.25002050772
  21
 325.86204080489
  31
0.0
   0
LINE
   5
162
 100
AcDbEntity
   8
LEVEL001
 100
AcDbLine
   6
DOT
  62
3
  10
 734.99998997897
  20
 325.11203318667
  30
0.0
  11
 724.99999012798
  21
 325.11203318667
  31
0.0
   0
LINE
   5
163
 100
AcDbEntity
   8
LEVEL001
 100
AcDbLine
   6
DOT
  62
3
  10
 724.99999012798
  20
 316.61204857212
  30
0.0
  11
 734.99998997897
  21
 316.61204857212
  31
0.0
   0
LINE
   5
164
 100
AcDbEntity
   8
LEVEL001
 100
AcDbLine
   6
DOT
  62
3
  10
 734.99998997897
  20
 314.99999567866
  30
0.0
  11
 734.99998997897
  21
 316.61204857212
  31
0.0
   0
LINE
   5
165
 100
AcDbEntity
   8
LEVEL001
 100
AcDbLine
   6
DOT
  62
3
  10
 734.99998997897
  20
 325.11203318667
  30
0.0
  11
 734.99998997897
  21
 327.00000312924
  31
0.0
   0
LINE
   5
166
 100
AcDbEntity
   8
LEVEL001
 100
AcDbLine
   6
DOT
  62
3
  10
 734.99998997897
  20
 327.00000312924
  30
0.0
  11
 734.25002050772
  21
 329.79903720619
  31
0.0
   0
LINE
   5
167
 100
AcDbEntity
   8
LEVEL001
 100
AcDbLine
   6
DOT
  62
3
  10
 725.74995959923
  20
 329.79903720619
  30
0.0
  11
 724.99999012798
  21
 327.00000312924
  31
0.0
   0
LINE
   5
168
 100
AcDbEntity
   8
LEVEL001
 100
AcDbLine
   6
DOT
  62
3
  10
 724.99999012798
  20
 327.00000312924
  30
0.0
  11
 724.99999012798
  21
 325.11203318667
  31
0.0
   0
LINE
   5
169
 100
AcDbEntity
   8
LEVEL001
 100
AcDbLine
   6
DOT
  62
3
  10
 724.99999012798
  20
 316.61204857212
  30
0.0
  11
 724.99999012798
  21
 314.99999567866
  31
0.0
   0
LINE
   5
16A
 100
AcDbEntity
   8
LEVEL001
 100
AcDbLine
   6
DOT
  62
3
  10
 734.99998997897
  20
 327.00000312924
  30
0.0
  11
 732.35213235241
  21
 327.00000312924
  31
0.0
   0
LINE
   5
16B
 100
AcDbEntity
   8
LEVEL001
 100
AcDbLine
   6
DOT
  62
3
  10
 727.64784775454
  20
 327.00000312924
  30
0.0
  11
 724.99999012798
  21
 327.00000312924
  31
0.0
   0
LINE
   5
16C
 100
AcDbEntity
   8
LEVEL001
 100
AcDbLine
   6
DOT
  62
3
  10
 734.25002050772
  20
 329.79903720619
  30
0.0
  11
 732.84987404421
  21
 329.79903720619
  31
0.0
   0
LINE
   5
16D
 100
AcDbEntity
   8
LEVEL001
 100
AcDbLine
   6
DOT
  62
3
  10
 727.15010606274
  20
 329.79903720619
  30
0.0
  11
 725.74995959923
  21
 329.79903720619
  31
0.0
   0
LINE
   5
16E
 100
AcDbEntity
   8
LEVEL001
 100
AcDbLine
   6
DOT
  62
3
  10
 731.99995950610
  20
 331.09805604669
  30
0.0
  11
 732.00003580004
  21
 334.99999538064
  31
0.0
   0
LINE
   5
16F
 100
AcDbEntity
   8
LEVEL001
 100
AcDbLine
   6
DOT
  62
3
  10
 728.00002060086
  20
 334.99999538064
  30
0.0
  11
 728.00002060086
  21
 331.09809419367
  31
0.0
   0
TEXT
   5
170
 100
AcDbEntity
   8
LEVEL003
  62
3
 100
AcDbText
  10
 837.49998845160
  20
 574.99999180436
  30
0.0
  40
 9.9999998509884
   1
２－Ｍ１６
   7
STANDARD
 100
AcDbText
   0
TEXT
   5
171
 100
AcDbEntity
   8
LEVEL003
  62
3
 100
AcDbText
  10
 837.49998845160
  20
 561.66665866971
  30
0.0
  40
 9.9999998509884
   1
タップ　３２
   7
STANDARD
 100
AcDbText
   0
LEADER
   5
172
 100
AcDbEntity
   8
LEVEL003
   6
CONTINUOUS
  62
3
 100
AcDbLeader
   3
GMM002
  73
0
  74
1
  75
0
  40
 10.000000000000
  41
0.0
  76
3
  10
 799.99998901039
  20
 532.49995429069
  30
0.0
  10
 837.49998845160
  20
 574.99999180436
  30
0.0
  10
 899.99998752028
  20
 574.99999180436
  30
0.0
  77
3
   0
LINE
   5
173
 100
AcDbEntity
   8
LEVEL001
 100
AcDbLine
   6
CONTINUOUS
  62
3
  10
 721.35649652993
  20
 594.99999150634
  30
0.0
  11
 722.32550591490
  21
 591.38365855241
  31
0.0
   0
LINE
   5
174
 100
AcDbEntity
   8
LEVEL001
 100
AcDbLine
   6
CONTINUOUS
  62
3
  10
 738.64348357702
  20
 594.99999150634
  30
0.0
  11
 737.67447419205
  21
 591.38362040544
  31
0.0
   0
LINE
   5
175
 100
AcDbEntity
   8
LEVEL001
 100
AcDbLine
   6
CONTINUOUS
  62
3
  10
 722.32550591490
  20
 591.38365855241
  30
0.0
  11
 737.67447419205
  21
 591.38354411150
  31
0.0
   0
ARC
   5
176
 100
AcDbEntity
   8
LEVEL001
   6
CONTINUOUS
  62
7
 100
AcDbCircle
  10
 713.81308891326
  20
 612.59899976089
  30
0.0
  40
 17.600000834465
 100
AcDbArc
  50
 270.60850768574
  51
 293.25642915298
   0
ARC
   5
177
 100
AcDbEntity
   8
LEVEL001
   6
CONTINUOUS
  62
7
 100
AcDbCircle
  10
 746.18689119370
  20
 612.59899976089
  30
0.0
  40
 17.600000834465
 100
AcDbArc
  50
 246.74357084702
  51
 269.39149231426
   0
ARC
   5
178
 100
AcDbEntity
   8
LEVEL001
   6
CONTINUOUS
  62
7
 100
AcDbCircle
  10
 729.99999005347
  20
 625.57094979772
  30
0.0
  40
 30.570954820947
 100
AcDbArc
  50
 252.41207577966
  51
 287.58792422034
   0
LINE
   5
179
 100
AcDbEntity
   8
LEVEL001
 100
AcDbLine
   6
CONTINUOUS
  62
7
  10
 711.52480111979
  20
 596.42905337469
  30
0.0
  11
 714.00000555068
  21
 594.99999150634
  31
0.0
   0
LINE
   5
17A
 100
AcDbEntity
   8
LEVEL001
 100
AcDbLine
   6
CONTINUOUS
  62
7
  10
 714.00000555068
  20
 594.99999150634
  30
0.0
  11
 745.99997455627
  21
 594.99999150634
  31
0.0
   0
LINE
   5
17B
 100
AcDbEntity
   8
LEVEL001
 100
AcDbLine
   6
CONTINUOUS
  62
7
  10
 745.99997455627
  20
 594.99999150634
  30
0.0
  11
 748.47517898716
  21
 596.42905337469
  31
0.0
   0
LINE
   5
17C
 100
AcDbEntity
   8
LEVEL001
 100
AcDbLine
   6
CONTINUOUS
  62
7
  10
 748.47517898716
  20
 596.42905337469
  30
0.0
  11
 748.47517898716
  21
 623.57092919095
  31
0.0
   0
LINE
   5
17D
 100
AcDbEntity
   8
LEVEL001
 100
AcDbLine
   6
CONTINUOUS
  62
7
  10
 748.47517898716
  20
 623.57092919095
  30
0.0
  11
 745.99997455627
  21
 624.99999105930
  31
0.0
   0
LINE
   5
17E
 100
AcDbEntity
   8
LEVEL001
 100
AcDbLine
   6
CONTINUOUS
  62
7
  10
 745.99997455627
  20
 624.99999105930
  30
0.0
  11
 714.00000555068
  21
 624.99999105930
  31
0.0
   0
LINE
   5
17F
 100
AcDbEntity
   8
LEVEL001
 100
AcDbLine
   6
CONTINUOUS
  62
7
  10
 714.00000555068
  20
 624.99999105930
  30
0.0
  11
 711.52480111979
  21
 623.57092919095
  31
0.0
   0
LINE
   5
180
 100
AcDbEntity
   8
LEVEL001
 100
AcDbLine
   6
CONTINUOUS
  62
7
  10
 711.52480111979
  20
 623.57092919095
  30
0.0
  11
 711.52480111979
  21
 596.42905337469
  31
0.0
   0
ARC
   5
181
 100
AcDbEntity
   8
LEVEL001
   6
CONTINUOUS
  62
7
 100
AcDbCircle
  10
 746.18689119369
  20
 607.40098280475
  30
0.0
  40
 17.600000834465
 100
AcDbArc
  50
 90.608507685743
  51
 113.25642915298
   0
ARC
   5
182
 100
AcDbEntity
   8
LEVEL001
   6
CONTINUOUS
  62
7
 100
AcDbCircle
  10
 713.81308891326
  20
 607.40098280475
  30
0.0
  40
 17.600000834465
 100
AcDbArc
  50
 66.743570847017
  51
 89.391492314259
   0
ARC
   5
183
 100
AcDbEntity
   8
LEVEL001
   6
CONTINUOUS
  62
7
 100
AcDbCircle
  10
 729.99999005347
  20
 594.42903526902
  30
0.0
  40
 30.570952436761
 100
AcDbArc
  50
 72.412074363231
  51
 107.58792563676
   0
LINE
   5
184
 100
AcDbEntity
   8
LEVEL001
 100
AcDbLine
   6
CONTINUOUS
  62
7
  10
 720.76239558663
  20
 596.42905337469
  30
0.0
  11
 720.76239558663
  21
 623.57092919095
  31
0.0
   0
LINE
   5
185
 100
AcDbEntity
   8
LEVEL001
 100
AcDbLine
   6
CONTINUOUS
  62
7
  10
 739.23758452032
  20
 596.42905337469
  30
0.0
  11
 739.23758452032
  21
 623.57092919095
  31
0.0
   0
LINE
   5
186
 100
AcDbEntity
   8
LEVEL001
 100
AcDbLine
   6
CONTINUOUS
  62
3
  10
 739.50583402804
  20
 631.09068921073
  30
0.0
  11
 720.49414607891
  21
 631.09084179862
  31
0.0
   0
LINE
   5
187
 100
AcDbEntity
   8
LEVEL001
 100
AcDbLine
   6
CONTINUOUS
  62
3
  10
 719.17868589344
  20
 635.99997563660
  30
0.0
  11
 720.49414607891
  21
 631.09084179862
  31
0.0
   0
LINE
   5
188
 100
AcDbEntity
   8
LEVEL001
 100
AcDbLine
   6
CONTINUOUS
  62
3
  10
 740.82129421351
  20
 635.99997563660
  30
0.0
  11
 739.50583402804
  21
 631.09068921073
  31
0.0
   0
LINE
   5
189
 100
AcDbEntity
   8
LEVEL001
 100
AcDbLine
   6
CONTINUOUS
  62
7
  10
 718.00002074987
  20
 638.04160158274
  30
0.0
  11
 724.19051138028
  21
 638.04160158274
  31
0.0
   0
LINE
   5
18A
 100
AcDbEntity
   8
LEVEL001
 100
AcDbLine
   6
CONTINUOUS
  62
7
  10
 735.80946872667
  20
 638.04160158274
  30
0.0
  11
 741.99995935708
  21
 638.04160158274
  31
0.0
   0
LINE
   5
18B
 100
AcDbEntity
   8
LEVEL001
 100
AcDbLine
   6
CONTINUOUS
  62
7
  10
 735.80946872667
  20
 638.04160158274
  30
0.0
  11
 724.19051138028
  21
 646.99996021390
  31
0.0
   0
LINE
   5
18C
 100
AcDbEntity
   8
LEVEL001
 100
AcDbLine
   6
CONTINUOUS
  62
7
  10
 724.19051138028
  20
 638.04160158274
  30
0.0
  11
 735.80946872667
  21
 646.99996021390
  31
0.0
   0
LINE
   5
18D
 100
AcDbEntity
   8
LEVEL001
 100
AcDbLine
   6
CONTINUOUS
  62
7
  10
 719.17868589344
  20
 635.99997563660
  30
0.0
  11
 719.52246640589
  21
 624.99999105930
  31
0.0
   0
LINE
   5
18E
 100
AcDbEntity
   8
LEVEL001
 100
AcDbLine
   6
CONTINUOUS
  62
7
  10
 740.82129421351
  20
 635.99997563660
  30
0.0
  11
 740.47751370106
  21
 624.99999105930
  31
0.0
   0
LINE
   5
18F
 100
AcDbEntity
   8
LEVEL001
 100
AcDbLine
   6
CONTINUOUS
  62
3
  10
 720.49414607891
  20
 631.09084179862
  30
0.0
  11
 720.68449946963
  21
 624.99999105930
  31
0.0
   0
LINE
   5
190
 100
AcDbEntity
   8
LEVEL001
 100
AcDbLine
   6
CONTINUOUS
  62
3
  10
 739.50583402804
  20
 631.09068921073
  30
0.0
  11
 739.31548063732
  21
 624.99999105930
  31
0.0
   0
LINE
   5
191
 100
AcDbEntity
   8
LEVEL001
 100
AcDbLine
   6
CONTINUOUS
  62
7
  10
 727.38272629853
  20
 635.99997563660
  30
0.0
  11
 724.19051138028
  21
 638.04160158274
  31
0.0
   0
LINE
   5
192
 100
AcDbEntity
   8
LEVEL001
 100
AcDbLine
   6
CONTINUOUS
  62
7
  10
 724.19051138028
  20
 638.04160158274
  30
0.0
  11
 724.19051138028
  21
 646.99996021390
  31
0.0
   0
LINE
   5
193
 100
AcDbEntity
   8
LEVEL001
 100
AcDbLine
   6
CONTINUOUS
  62
7
  10
 724.19051138028
  20
 646.99996021390
  30
0.0
  11
 735.80946872667
  21
 646.99996021390
  31
0.0
   0
LINE
   5
194
 100
AcDbEntity
   8
LEVEL001
 100
AcDbLine
   6
CONTINUOUS
  62
7
  10
 735.80946872667
  20
 646.99996021390
  30
0.0
  11
 735.80946872667
  21
 638.04160158274
  31
0.0
   0
LINE
   5
195
 100
AcDbEntity
   8
LEVEL001
 100
AcDbLine
   6
CONTINUOUS
  62
7
  10
 735.80946872667
  20
 638.04160158274
  30
0.0
  11
 732.61725380842
  21
 635.99997563660
  31
0.0
   0
LINE
   5
196
 100
AcDbEntity
   8
LEVEL001
 100
AcDbLine
   6
CONTINUOUS
  62
7
  10
 741.99995935708
  20
 654.19997231364
  30
0.0
  11
 741.99995935708
  21
 638.04160158274
  31
0.0
   0
LINE
   5
197
 100
AcDbEntity
   8
LEVEL001
 100
AcDbLine
   6
CONTINUOUS
  62
7
  10
 741.99995935708
  20
 638.04160158274
  30
0.0
  11
 740.82129421351
  21
 635.99997563660
  31
0.0
   0
LINE
   5
198
 100
AcDbEntity
   8
LEVEL001
 100
AcDbLine
   6
CONTINUOUS
  62
7
  10
 740.82129421351
  20
 635.99997563660
  30
0.0
  11
 719.17868589344
  21
 635.99997563660
  31
0.0
   0
LINE
   5
199
 100
AcDbEntity
   8
LEVEL001
 100
AcDbLine
   6
CONTINUOUS
  62
7
  10
 719.17868589344
  20
 635.99997563660
  30
0.0
  11
 718.00002074987
  21
 638.04160158274
  31
0.0
   0
LINE
   5
19A
 100
AcDbEntity
   8
LEVEL001
 100
AcDbLine
   6
CONTINUOUS
  62
7
  10
 718.00002074987
  20
 638.04160158274
  30
0.0
  11
 718.00002074987
  21
 654.19997231364
  31
0.0
   0
LINE
   5
19B
 100
AcDbEntity
   8
LEVEL001
 100
AcDbLine
   6
CONTINUOUS
  62
3
  10
 306.35650271391
  20
 594.99999150634
  30
0.0
  11
 307.32551209889
  21
 591.38365855241
  31
0.0
   0
LINE
   5
19C
 100
AcDbEntity
   8
LEVEL001
 100
AcDbLine
   6
CONTINUOUS
  62
3
  10
 323.64348976100
  20
 594.99999150634
  30
0.0
  11
 322.67448037603
  21
 591.38362040544
  31
0.0
   0
LINE
   5
19D
 100
AcDbEntity
   8
LEVEL001
 100
AcDbLine
   6
CONTINUOUS
  62
3
  10
 307.32551209889
  20
 591.38365855241
  30
0.0
  11
 322.67448037603
  21
 591.38354411150
  31
0.0
   0
ARC
   5
19E
 100
AcDbEntity
   8
LEVEL001
   6
CONTINUOUS
  62
7
 100
AcDbCircle
  10
 298.81309509724
  20
 612.59899976089
  30
0.0
  40
 17.600000834465
 100
AcDbArc
  50
 270.60850768573
  51
 293.25642915297
   0
ARC
   5
19F
 100
AcDbEntity
   8
LEVEL001
   6
CONTINUOUS
  62
7
 100
AcDbCircle
  10
 331.18689737768
  20
 612.59899976089
  30
0.0
  40
 17.600000834465
 100
AcDbArc
  50
 246.74357084701
  51
 269.39149231425
   0
ARC
   5
1A0
 100
AcDbEntity
   8
LEVEL001
   6
CONTINUOUS
  62
7
 100
AcDbCircle
  10
 314.99999623746
  20
 625.57094979772
  30
0.0
  40
 30.570954820947
 100
AcDbArc
  50
 252.41207577966
  51
 287.58792422034
   0
LINE
   5
1A1
 100
AcDbEntity
   8
LEVEL001
 100
AcDbLine
   6
CONTINUOUS
  62
7
  10
 296.52480730377
  20
 596.42905337469
  30
0.0
  11
 299.00001173466
  21
 594.99999150634
  31
0.0
   0
LINE
   5
1A2
 100
AcDbEntity
   8
LEVEL001
 100
AcDbLine
   6
CONTINUOUS
  62
7
  10
 299.00001173466
  20
 594.99999150634
  30
0.0
  11
 330.99998074025
  21
 594.99999150634
  31
0.0
   0
LINE
   5
1A3
 100
AcDbEntity
   8
LEVEL001
 100
AcDbLine
   6
CONTINUOUS
  62
7
  10
 330.99998074025
  20
 594.99999150634
  30
0.0
  11
 333.47518517114
  21
 596.42905337469
  31
0.0
   0
LINE
   5
1A4
 100
AcDbEntity
   8
LEVEL001
 100
AcDbLine
   6
CONTINUOUS
  62
7
  10
 333.47518517114
  20
 596.42905337469
  30
0.0
  11
 333.47518517114
  21
 623.57092919095
  31
0.0
   0
LINE
   5
1A5
 100
AcDbEntity
   8
LEVEL001
 100
AcDbLine
   6
CONTINUOUS
  62
7
  10
 333.47518517114
  20
 623.57092919095
  30
0.0
  11
 330.99998074025
  21
 624.99999105930
  31
0.0
   0
LINE
   5
1A6
 100
AcDbEntity
   8
LEVEL001
 100
AcDbLine
   6
CONTINUOUS
  62
7
  10
 330.99998074025
  20
 624.99999105930
  30
0.0
  11
 299.00001173466
  21
 624.99999105930
  31
0.0
   0
LINE
   5
1A7
 100
AcDbEntity
   8
LEVEL001
 100
AcDbLine
   6
CONTINUOUS
  62
7
  10
 299.00001173466
  20
 624.99999105930
  30
0.0
  11
 296.52480730377
  21
 623.57092919095
  31
0.0
   0
LINE
   5
1A8
 100
AcDbEntity
   8
LEVEL001
 100
AcDbLine
   6
CONTINUOUS
  62
7
  10
 296.52480730377
  20
 623.57092919095
  30
0.0
  11
 296.52480730377
  21
 596.42905337469
  31
0.0
   0
ARC
   5
1A9
 100
AcDbEntity
   8
LEVEL001
   6
CONTINUOUS
  62
7
 100
AcDbCircle
  10
 331.18689737767
  20
 607.40098280475
  30
0.0
  40
 17.600000834465
 100
AcDbArc
  50
 90.608507685746
  51
 113.25642915299
   0
ARC
   5
1AA
 100
AcDbEntity
   8
LEVEL001
   6
CONTINUOUS
  62
7
 100
AcDbCircle
  10
 298.81309509724
  20
 607.40098280475
  30
0.0
  40
 17.600000834465
 100
AcDbArc
  50
 66.743570847014
  51
 89.391492314255
   0
ARC
   5
1AB
 100
AcDbEntity
   8
LEVEL001
   6
CONTINUOUS
  62
7
 100
AcDbCircle
  10
 314.99999623746
  20
 594.42903526902
  30
0.0
  40
 30.570952436761
 100
AcDbArc
  50
 72.412074363231
  51
 107.58792563677
   0
LINE
   5
1AC
 100
AcDbEntity
   8
LEVEL001
 100
AcDbLine
   6
CONTINUOUS
  62
7
  10
 305.76240177062
  20
 596.42905337469
  30
0.0
  11
 305.76240177062
  21
 623.57092919095
  31
0.0
   0
LINE
   5
1AD
 100
AcDbEntity
   8
LEVEL001
 100
AcDbLine
   6
CONTINUOUS
  62
7
  10
 324.23759070430
  20
 596.42905337469
  30
0.0
  11
 324.23759070430
  21
 623.57092919095
  31
0.0
   0
LINE
   5
1AE
 100
AcDbEntity
   8
LEVEL001
 100
AcDbLine
   6
CONTINUOUS
  62
3
  10
 324.50584021202
  20
 631.09068921073
  30
0.0
  11
 305.49415226289
  21
 631.09084179862
  31
0.0
   0
LINE
   5
1AF
 100
AcDbEntity
   8
LEVEL001
 100
AcDbLine
   6
CONTINUOUS
  62
3
  10
 304.17869207742
  20
 635.99997563660
  30
0.0
  11
 305.49415226289
  21
 631.09084179862
  31
0.0
   0
LINE
   5
1B0
 100
AcDbEntity
   8
LEVEL001
 100
AcDbLine
   6
CONTINUOUS
  62
3
  10
 325.82130039750
  20
 635.99997563660
  30
0.0
  11
 324.50584021202
  21
 631.09068921073
  31
0.0
   0
LINE
   5
1B1
 100
AcDbEntity
   8
LEVEL001
 100
AcDbLine
   6
CONTINUOUS
  62
7
  10
 303.00002693385
  20
 638.04160158274
  30
0.0
  11
 309.19051756426
  21
 638.04160158274
  31
0.0
   0
LINE
   5
1B2
 100
AcDbEntity
   8
LEVEL001
 100
AcDbLine
   6
CONTINUOUS
  62
7
  10
 320.80947491065
  20
 638.04160158274
  30
0.0
  11
 326.99996554107
  21
 638.04160158274
  31
0.0
   0
LINE
   5
1B3
 100
AcDbEntity
   8
LEVEL001
 100
AcDbLine
   6
CONTINUOUS
  62
7
  10
 320.80947491065
  20
 638.04160158274
  30
0.0
  11
 309.19051756426
  21
 646.99996021390
  31
0.0
   0
LINE
   5
1B4
 100
AcDbEntity
   8
LEVEL001
 100
AcDbLine
   6
CONTINUOUS
  62
7
  10
 309.19051756426
  20
 638.04160158274
  30
0.0
  11
 320.80947491065
  21
 646.99996021390
  31
0.0
   0
LINE
   5
1B5
 100
AcDbEntity
   8
LEVEL001
 100
AcDbLine
   6
CONTINUOUS
  62
7
  10
 304.17869207742
  20
 635.99997563660
  30
0.0
  11
 304.52247258987
  21
 624.99999105930
  31
0.0
   0
LINE
   5
1B6
 100
AcDbEntity
   8
LEVEL001
 100
AcDbLine
   6
CONTINUOUS
  62
7
  10
 325.82130039750
  20
 635.99997563660
  30
0.0
  11
 325.47751988504
  21
 624.99999105930
  31
0.0
   0
LINE
   5
1B7
 100
AcDbEntity
   8
LEVEL001
 100
AcDbLine
   6
CONTINUOUS
  62
3
  10
 305.49415226289
  20
 631.09084179862
  30
0.0
  11
 305.68450565361
  21
 624.99999105930
  31
0.0
   0
LINE
   5
1B8
 100
AcDbEntity
   8
LEVEL001
 100
AcDbLine
   6
CONTINUOUS
  62
3
  10
 324.50584021202
  20
 631.09068921073
  30
0.0
  11
 324.31548682130
  21
 624.99999105930
  31
0.0
   0
LINE
   5
1B9
 100
AcDbEntity
   8
LEVEL001
 100
AcDbLine
   6
CONTINUOUS
  62
7
  10
 312.38273248251
  20
 635.99997563660
  30
0.0
  11
 309.19051756426
  21
 638.04160158274
  31
0.0
   0
LINE
   5
1BA
 100
AcDbEntity
   8
LEVEL001
 100
AcDbLine
   6
CONTINUOUS
  62
7
  10
 309.19051756426
  20
 638.04160158274
  30
0.0
  11
 309.19051756426
  21
 646.99996021390
  31
0.0
   0
LINE
   5
1BB
 100
AcDbEntity
   8
LEVEL001
 100
AcDbLine
   6
CONTINUOUS
  62
7
  10
 309.19051756426
  20
 646.99996021390
  30
0.0
  11
 320.80947491065
  21
 646.99996021390
  31
0.0
   0
LINE
   5
1BC
 100
AcDbEntity
   8
LEVEL001
 100
AcDbLine
   6
CONTINUOUS
  62
7
  10
 320.80947491065
  20
 646.99996021390
  30
0.0
  11
 320.80947491065
  21
 638.04160158274
  31
0.0
   0
LINE
   5
1BD
 100
AcDbEntity
   8
LEVEL001
 100
AcDbLine
   6
CONTINUOUS
  62
7
  10
 320.80947491065
  20
 638.04160158274
  30
0.0
  11
 317.61725999240
  21
 635.99997563660
  31
0.0
   0
LINE
   5
1BE
 100
AcDbEntity
   8
LEVEL001
 100
AcDbLine
   6
CONTINUOUS
  62
7
  10
 326.99996554107
  20
 654.19997231364
  30
0.0
  11
 326.99996554107
  21
 638.04160158274
  31
0.0
   0
LINE
   5
1BF
 100
AcDbEntity
   8
LEVEL001
 100
AcDbLine
   6
CONTINUOUS
  62
7
  10
 326.99996554107
  20
 638.04160158274
  30
0.0
  11
 325.82130039750
  21
 635.99997563660
  31
0.0
   0
LINE
   5
1C0
 100
AcDbEntity
   8
LEVEL001
 100
AcDbLine
   6
CONTINUOUS
  62
7
  10
 325.82130039750
  20
 635.99997563660
  30
0.0
  11
 304.17869207742
  21
 635.99997563660
  31
0.0
   0
LINE
   5
1C1
 100
AcDbEntity
   8
LEVEL001
 100
AcDbLine
   6
CONTINUOUS
  62
7
  10
 304.17869207742
  20
 635.99997563660
  30
0.0
  11
 303.00002693385
  21
 638.04160158274
  31
0.0
   0
LINE
   5
1C2
 100
AcDbEntity
   8
LEVEL001
 100
AcDbLine
   6
CONTINUOUS
  62
7
  10
 303.00002693385
  20
 638.04160158274
  30
0.0
  11
 303.00002693385
  21
 654.19997231364
  31
0.0
   0
ARC
   5
1C3
 100
AcDbEntity
   8
LEVEL001
   6
CONTINUOUS
  62
7
 100
AcDbCircle
  10
 713.99995980360
  20
 656.19997231313
  30
0.0
  40
 2.0000000000000
 100
AcDbArc
  50
 179.99868944282
  51
 270.00131055761
   0
LINE
   5
1C4
 100
AcDbEntity
   8
LEVEL001
 100
AcDbLine
   6
CONTINUOUS
  62
7
  10
 711.99995980412
  20
 656.20001806021
  30
0.0
  11
 711.99995980412
  21
 662.20000271201
  31
0.0
   0
ARC
   5
1C5
 100
AcDbEntity
   8
LEVEL001
   6
CONTINUOUS
  62
7
 100
AcDbCircle
  10
 712.99995980400
  20
 678.19997194297
  30
0.0
  40
 1.0000000000000
 100
AcDbArc
  50
 89.996503790181
  51
 179.99912498808
   0
LINE
   5
1C6
 100
AcDbEntity
   8
LEVEL001
 100
AcDbLine
   6
CONTINUOUS
  62
7
  10
 711.99995980412
  20
 672.20000256300
  30
0.0
  11
 711.99995980412
  21
 678.19998721480
  31
0.0
   0
ARC
   5
1C7
 100
AcDbEntity
   8
LEVEL001
   6
CONTINUOUS
  62
7
 100
AcDbCircle
  10
 746.00002030335
  20
 656.19997231313
  30
0.0
  40
 2.0000000000000
 100
AcDbArc
  50
 269.99868944248
  51
 0.13105570663171E-2
   0
LINE
   5
1C8
 100
AcDbEntity
   8
LEVEL001
 100
AcDbLine
   6
CONTINUOUS
  62
7
  10
 748.00002030283
  20
 656.20001806021
  30
0.0
  11
 748.00002030283
  21
 662.20000271201
  31
0.0
   0
ARC
   5
1C9
 100
AcDbEntity
   8
LEVEL001
   6
CONTINUOUS
  62
7
 100
AcDbCircle
  10
 747.00002030288
  20
 678.19997194298
  30
0.0
  40
 1.0000000000000
 100
AcDbArc
  50
 0.87501130480169E-3
  51
 90.003496205904
   0
LINE
   5
1CA
 100
AcDbEntity
   8
LEVEL001
 100
AcDbLine
   6
CONTINUOUS
  62
7
  10
 748.00002030283
  20
 672.20000256300
  30
0.0
  11
 748.00002030283
  21
 678.19998721480
  31
0.0
   0
LINE
   5
1CB
 100
AcDbEntity
   8
LEVEL001
 100
AcDbLine
   6
CONTINUOUS
  62
7
  10
 745.99997455627
  20
 654.19997231364
  30
0.0
  11
 714.00000555068
  21
 654.19997231364
  31
0.0
   0
LINE
   5
1CC
 100
AcDbEntity
   8
LEVEL001
 100
AcDbLine
   6
CONTINUOUS
  62
7
  10
 713.00002082437
  20
 679.19997194111
  30
0.0
  11
 746.99995928258
  21
 679.19997194111
  31
0.0
   0
LINE
   5
1CD
 100
AcDbEntity
   8
LEVEL001
 100
AcDbLine
   6
CONTINUOUS
  62
3
  10
 746.50000506639
  20
 662.20000271201
  30
0.0
  11
 746.50000506639
  21
 672.20000256300
  31
0.0
   0
LINE
   5
1CE
 100
AcDbEntity
   8
LEVEL001
 100
AcDbLine
   6
CONTINUOUS
  62
3
  10
 744.49995931983
  20
 662.20000271201
  30
0.0
  11
 744.49995931983
  21
 672.20000256300
  31
0.0
   0
LINE
   5
1CF
 100
AcDbEntity
   8
LEVEL001
 100
AcDbLine
   6
CONTINUOUS
  62
3
  10
 742.49998986721
  20
 662.20000271201
  30
0.0
  11
 742.49998986721
  21
 672.20000256300
  31
0.0
   0
LINE
   5
1D0
 100
AcDbEntity
   8
LEVEL001
 100
AcDbLine
   6
CONTINUOUS
  62
3
  10
 740.50002041459
  20
 662.20000271201
  30
0.0
  11
 740.50002041459
  21
 672.20000256300
  31
0.0
   0
LINE
   5
1D1
 100
AcDbEntity
   8
LEVEL001
 100
AcDbLine
   6
CONTINUOUS
  62
3
  10
 738.49997466803
  20
 662.20000271201
  30
0.0
  11
 738.49997466803
  21
 672.20000256300
  31
0.0
   0
LINE
   5
1D2
 100
AcDbEntity
   8
LEVEL001
 100
AcDbLine
   6
CONTINUOUS
  62
3
  10
 736.50000521541
  20
 662.20000271201
  30
0.0
  11
 736.50000521541
  21
 672.20000256300
  31
0.0
   0
LINE
   5
1D3
 100
AcDbEntity
   8
LEVEL001
 100
AcDbLine
   6
CONTINUOUS
  62
3
  10
 734.49995946884
  20
 662.20000271201
  30
0.0
  11
 734.49995946884
  21
 672.20000256300
  31
0.0
   0
LINE
   5
1D4
 100
AcDbEntity
   8
LEVEL001
 100
AcDbLine
   6
CONTINUOUS
  62
3
  10
 732.49999001622
  20
 662.20000271201
  30
0.0
  11
 732.49999001622
  21
 672.20000256300
  31
0.0
   0
LINE
   5
1D5
 100
AcDbEntity
   8
LEVEL001
 100
AcDbLine
   6
CONTINUOUS
  62
3
  10
 730.50002056360
  20
 662.20000271201
  30
0.0
  11
 730.50002056360
  21
 672.20000256300
  31
0.0
   0
LINE
   5
1D6
 100
AcDbEntity
   8
LEVEL001
 100
AcDbLine
   6
CONTINUOUS
  62
3
  10
 728.49997481704
  20
 662.20000271201
  30
0.0
  11
 728.49997481704
  21
 672.20000256300
  31
0.0
   0
LINE
   5
1D7
 100
AcDbEntity
   8
LEVEL001
 100
AcDbLine
   6
CONTINUOUS
  62
3
  10
 726.50000536442
  20
 662.20000271201
  30
0.0
  11
 726.50000536442
  21
 672.20000256300
  31
0.0
   0
LINE
   5
1D8
 100
AcDbEntity
   8
LEVEL001
 100
AcDbLine
   6
CONTINUOUS
  62
3
  10
 724.49995961785
  20
 662.20000271201
  30
0.0
  11
 724.49995961785
  21
 672.20000256300
  31
0.0
   0
LINE
   5
1D9
 100
AcDbEntity
   8
LEVEL001
 100
AcDbLine
   6
CONTINUOUS
  62
3
  10
 722.49999016523
  20
 662.20000271201
  30
0.0
  11
 722.49999016523
  21
 672.20000256300
  31
0.0
   0
LINE
   5
1DA
 100
AcDbEntity
   8
LEVEL001
 100
AcDbLine
   6
CONTINUOUS
  62
3
  10
 720.50002071261
  20
 662.20000271201
  30
0.0
  11
 720.50002071261
  21
 672.20000256300
  31
0.0
   0
LINE
   5
1DB
 100
AcDbEntity
   8
LEVEL001
 100
AcDbLine
   6
CONTINUOUS
  62
3
  10
 718.49997496605
  20
 662.20000271201
  30
0.0
  11
 718.49997496605
  21
 672.20000256300
  31
0.0
   0
LINE
   5
1DC
 100
AcDbEntity
   8
LEVEL001
 100
AcDbLine
   6
CONTINUOUS
  62
3
  10
 716.50000551343
  20
 662.20000271201
  30
0.0
  11
 716.50000551343
  21
 672.20000256300
  31
0.0
   0
LINE
   5
1DD
 100
AcDbEntity
   8
LEVEL001
 100
AcDbLine
   6
CONTINUOUS
  62
3
  10
 714.49995976687
  20
 662.20000271201
  30
0.0
  11
 714.49995976687
  21
 672.20000256300
  31
0.0
   0
LINE
   5
1DE
 100
AcDbEntity
   8
LEVEL001
 100
AcDbLine
   6
CONTINUOUS
  62
3
  10
 712.49999031425
  20
 662.20000271201
  30
0.0
  11
 712.49999031425
  21
 672.20000256300
  31
0.0
   0
LINE
   5
1DF
 100
AcDbEntity
   8
LEVEL001
 100
AcDbLine
   6
DASHDOT
  62
1
  10
 713.00002082437
  20
 679.19997194111
  30
0.0
  11
 711.99995980412
  21
 679.19997194111
  31
0.0
   0
LINE
   5
1E0
 100
AcDbEntity
   8
LEVEL001
 100
AcDbLine
   6
DASHDOT
  62
1
  10
 711.99995980412
  20
 679.19997194111
  30
0.0
  11
 711.99995980412
  21
 687.20000233948
  31
0.0
   0
LINE
   5
1E1
 100
AcDbEntity
   8
LEVEL001
 100
AcDbLine
   6
DASHDOT
  62
1
  10
 711.99995980412
  20
 687.20000233948
  30
0.0
  11
 748.00002030283
  21
 687.20000233948
  31
0.0
   0
LINE
   5
1E2
 100
AcDbEntity
   8
LEVEL001
 100
AcDbLine
   6
DASHDOT
  62
1
  10
 748.00002030283
  20
 687.20000233948
  30
0.0
  11
 748.00002030283
  21
 679.19997194111
  31
0.0
   0
LINE
   5
1E3
 100
AcDbEntity
   8
LEVEL001
 100
AcDbLine
   6
DASHDOT
  62
1
  10
 748.00002030283
  20
 679.19997194111
  30
0.0
  11
 746.99995928258
  21
 679.19997194111
  31
0.0
   0
LINE
   5
1E4
 100
AcDbEntity
   8
LEVEL001
 100
AcDbLine
   6
CONTINUOUS
  62
7
  10
 748.49997451901
  20
 662.20000271201
  30
0.0
  11
 711.50000558794
  21
 662.20000271201
  31
0.0
   0
LINE
   5
1E5
 100
AcDbEntity
   8
LEVEL001
 100
AcDbLine
   6
CONTINUOUS
  62
7
  10
 711.50000558794
  20
 662.20000271201
  30
0.0
  11
 711.50000558794
  21
 672.20000256300
  31
0.0
   0
LINE
   5
1E6
 100
AcDbEntity
   8
LEVEL001
 100
AcDbLine
   6
CONTINUOUS
  62
7
  10
 711.50000558794
  20
 672.20000256300
  30
0.0
  11
 748.49997451901
  21
 672.20000256300
  31
0.0
   0
LINE
   5
1E7
 100
AcDbEntity
   8
LEVEL001
 100
AcDbLine
   6
CONTINUOUS
  62
7
  10
 748.49997451901
  20
 672.20000256300
  30
0.0
  11
 748.49997451901
  21
 662.20000271201
  31
0.0
   0
ARC
   5
1E8
 100
AcDbEntity
   8
LEVEL001
   6
CONTINUOUS
  62
7
 100
AcDbCircle
  10
 298.99996598757
  20
 656.19997231312
  30
0.0
  40
 2.0000000000000
 100
AcDbArc
  50
 179.99868944258
  51
 270.00131055773
   0
LINE
   5
1E9
 100
AcDbEntity
   8
LEVEL001
 100
AcDbLine
   6
CONTINUOUS
  62
7
  10
 296.99996598810
  20
 656.20001806021
  30
0.0
  11
 296.99996598810
  21
 662.20000271201
  31
0.0
   0
ARC
   5
1EA
 100
AcDbEntity
   8
LEVEL001
   6
CONTINUOUS
  62
7
 100
AcDbCircle
  10
 297.99996598798
  20
 678.19997194295
  30
0.0
  40
 1.0000000000000
 100
AcDbArc
  50
 89.996503790295
  51
 179.99912498714
   0
LINE
   5
1EB
 100
AcDbEntity
   8
LEVEL001
 100
AcDbLine
   6
CONTINUOUS
  62
7
  10
 296.99996598810
  20
 672.20000256300
  30
0.0
  11
 296.99996598810
  21
 678.19998721480
  31
0.0
   0
ARC
   5
1EC
 100
AcDbEntity
   8
LEVEL001
   6
CONTINUOUS
  62
7
 100
AcDbCircle
  10
 331.00002648734
  20
 656.19997231313
  30
0.0
  40
 2.0000000000000
 100
AcDbArc
  50
 269.99868944248
  51
 0.13105573138406E-2
   0
LINE
   5
1ED
 100
AcDbEntity
   8
LEVEL001
 100
AcDbLine
   6
CONTINUOUS
  62
7
  10
 333.00002648681
  20
 656.20001806021
  30
0.0
  11
 333.00002648681
  21
 662.20000271201
  31
0.0
   0
ARC
   5
1EE
 100
AcDbEntity
   8
LEVEL001
   6
CONTINUOUS
  62
7
 100
AcDbCircle
  10
 332.00002648691
  20
 678.19997194298
  30
0.0
  40
 1.0000000000000
 100
AcDbArc
  50
 0.87501130481541E-3
  51
 90.003496208581
   0
LINE
   5
1EF
 100
AcDbEntity
   8
LEVEL001
 100
AcDbLine
   6
CONTINUOUS
  62
7
  10
 333.00002648681
  20
 672.20000256300
  30
0.0
  11
 333.00002648681
  21
 678.19998721480
  31
0.0
   0
LINE
   5
1F0
 100
AcDbEntity
   8
LEVEL001
 100
AcDbLine
   6
CONTINUOUS
  62
7
  10
 330.99998074025
  20
 654.19997231364
  30
0.0
  11
 299.00001173466
  21
 654.19997231364
  31
0.0
   0
LINE
   5
1F1
 100
AcDbEntity
   8
LEVEL001
 100
AcDbLine
   6
CONTINUOUS
  62
7
  10
 298.00002700835
  20
 679.19997194111
  30
0.0
  11
 331.99996546656
  21
 679.19997194111
  31
0.0
   0
LINE
   5
1F2
 100
AcDbEntity
   8
LEVEL001
 100
AcDbLine
   6
CONTINUOUS
  62
3
  10
 331.50001125038
  20
 662.20000271201
  30
0.0
  11
 331.50001125038
  21
 672.20000256300
  31
0.0
   0
LINE
   5
1F3
 100
AcDbEntity
   8
LEVEL001
 100
AcDbLine
   6
CONTINUOUS
  62
3
  10
 329.49996550381
  20
 662.20000271201
  30
0.0
  11
 329.49996550381
  21
 672.20000256300
  31
0.0
   0
LINE
   5
1F4
 100
AcDbEntity
   8
LEVEL001
 100
AcDbLine
   6
CONTINUOUS
  62
3
  10
 327.49999605119
  20
 662.20000271201
  30
0.0
  11
 327.49999605119
  21
 672.20000256300
  31
0.0
   0
LINE
   5
1F5
 100
AcDbEntity
   8
LEVEL001
 100
AcDbLine
   6
CONTINUOUS
  62
3
  10
 325.50002659857
  20
 662.20000271201
  30
0.0
  11
 325.50002659857
  21
 672.20000256300
  31
0.0
   0
LINE
   5
1F6
 100
AcDbEntity
   8
LEVEL001
 100
AcDbLine
   6
CONTINUOUS
  62
3
  10
 323.49998085201
  20
 662.20000271201
  30
0.0
  11
 323.49998085201
  21
 672.20000256300
  31
0.0
   0
LINE
   5
1F7
 100
AcDbEntity
   8
LEVEL001
 100
AcDbLine
   6
CONTINUOUS
  62
3
  10
 321.50001139939
  20
 662.20000271201
  30
0.0
  11
 321.50001139939
  21
 672.20000256300
  31
0.0
   0
LINE
   5
1F8
 100
AcDbEntity
   8
LEVEL001
 100
AcDbLine
   6
CONTINUOUS
  62
3
  10
 319.49996565282
  20
 662.20000271201
  30
0.0
  11
 319.49996565282
  21
 672.20000256300
  31
0.0
   0
LINE
   5
1F9
 100
AcDbEntity
   8
LEVEL001
 100
AcDbLine
   6
CONTINUOUS
  62
3
  10
 317.49999620020
  20
 662.20000271201
  30
0.0
  11
 317.49999620020
  21
 672.20000256300
  31
0.0
   0
LINE
   5
1FA
 100
AcDbEntity
   8
LEVEL001
 100
AcDbLine
   6
CONTINUOUS
  62
3
  10
 315.50002674758
  20
 662.20000271201
  30
0.0
  11
 315.50002674758
  21
 672.20000256300
  31
0.0
   0
LINE
   5
1FB
 100
AcDbEntity
   8
LEVEL001
 100
AcDbLine
   6
CONTINUOUS
  62
3
  10
 313.49998100102
  20
 662.20000271201
  30
0.0
  11
 313.49998100102
  21
 672.20000256300
  31
0.0
   0
LINE
   5
1FC
 100
AcDbEntity
   8
LEVEL001
 100
AcDbLine
   6
CONTINUOUS
  62
3
  10
 311.50001154840
  20
 662.20000271201
  30
0.0
  11
 311.50001154840
  21
 672.20000256300
  31
0.0
   0
LINE
   5
1FD
 100
AcDbEntity
   8
LEVEL001
 100
AcDbLine
   6
CONTINUOUS
  62
3
  10
 309.49996580184
  20
 662.20000271201
  30
0.0
  11
 309.49996580184
  21
 672.20000256300
  31
0.0
   0
LINE
   5
1FE
 100
AcDbEntity
   8
LEVEL001
 100
AcDbLine
   6
CONTINUOUS
  62
3
  10
 307.49999634922
  20
 662.20000271201
  30
0.0
  11
 307.49999634922
  21
 672.20000256300
  31
0.0
   0
LINE
   5
1FF
 100
AcDbEntity
   8
LEVEL001
 100
AcDbLine
   6
CONTINUOUS
  62
3
  10
 305.50002689660
  20
 662.20000271201
  30
0.0
  11
 305.50002689660
  21
 672.20000256300
  31
0.0
   0
LINE
   5
200
 100
AcDbEntity
   8
LEVEL001
 100
AcDbLine
   6
CONTINUOUS
  62
3
  10
 303.49998115003
  20
 662.20000271201
  30
0.0
  11
 303.49998115003
  21
 672.20000256300
  31
0.0
   0
LINE
   5
201
 100
AcDbEntity
   8
LEVEL001
 100
AcDbLine
   6
CONTINUOUS
  62
3
  10
 301.50001169741
  20
 662.20000271201
  30
0.0
  11
 301.50001169741
  21
 672.20000256300
  31
0.0
   0
LINE
   5
202
 100
AcDbEntity
   8
LEVEL001
 100
AcDbLine
   6
CONTINUOUS
  62
3
  10
 299.49996595085
  20
 662.20000271201
  30
0.0
  11
 299.49996595085
  21
 672.20000256300
  31
0.0
   0
LINE
   5
203
 100
AcDbEntity
   8
LEVEL001
 100
AcDbLine
   6
CONTINUOUS
  62
3
  10
 297.49999649823
  20
 662.20000271201
  30
0.0
  11
 297.49999649823
  21
 672.20000256300
  31
0.0
   0
LINE
   5
204
 100
AcDbEntity
   8
LEVEL001
 100
AcDbLine
   6
DASHDOT
  62
1
  10
 298.00002700835
  20
 679.19997194111
  30
0.0
  11
 296.99996598810
  21
 679.19997194111
  31
0.0
   0
LINE
   5
205
 100
AcDbEntity
   8
LEVEL001
 100
AcDbLine
   6
DASHDOT
  62
1
  10
 296.99996598810
  20
 679.19997194111
  30
0.0
  11
 296.99996598810
  21
 687.20000233948
  31
0.0
   0
LINE
   5
206
 100
AcDbEntity
   8
LEVEL001
 100
AcDbLine
   6
DASHDOT
  62
1
  10
 296.99996598810
  20
 687.20000233948
  30
0.0
  11
 333.00002648681
  21
 687.20000233948
  31
0.0
   0
LINE
   5
207
 100
AcDbEntity
   8
LEVEL001
 100
AcDbLine
   6
DASHDOT
  62
1
  10
 333.00002648681
  20
 687.20000233948
  30
0.0
  11
 333.00002648681
  21
 679.19997194111
  31
0.0
   0
LINE
   5
208
 100
AcDbEntity
   8
LEVEL001
 100
AcDbLine
   6
DASHDOT
  62
1
  10
 333.00002648681
  20
 679.19997194111
  30
0.0
  11
 331.99996546656
  21
 679.19997194111
  31
0.0
   0
LINE
   5
209
 100
AcDbEntity
   8
LEVEL001
 100
AcDbLine
   6
CONTINUOUS
  62
7
  10
 333.49998070300
  20
 662.20000271201
  30
0.0
  11
 296.50001177192
  21
 662.20000271201
  31
0.0
   0
LINE
   5
20A
 100
AcDbEntity
   8
LEVEL001
 100
AcDbLine
   6
CONTINUOUS
  62
7
  10
 296.50001177192
  20
 662.20000271201
  30
0.0
  11
 296.50001177192
  21
 672.20000256300
  31
0.0
   0
LINE
   5
20B
 100
AcDbEntity
   8
LEVEL001
 100
AcDbLine
   6
CONTINUOUS
  62
7
  10
 296.50001177192
  20
 672.20000256300
  30
0.0
  11
 333.49998070300
  21
 672.20000256300
  31
0.0
   0
LINE
   5
20C
 100
AcDbEntity
   8
LEVEL001
 100
AcDbLine
   6
CONTINUOUS
  62
7
  10
 333.49998070300
  20
 672.20000256300
  30
0.0
  11
 333.49998070300
  21
 662.20000271201
  31
0.0
   0
LEADER
   5
20D
 100
AcDbEntity
   8
LEVEL003
   6
CONTINUOUS
  62
3
 100
AcDbLeader
   3
GMM002
  73
0
  74
1
  75
0
  40
 10.000000000000
  41
0.0
  76
3
  10
 325.69083775296
  20
 631.82570506892
  30
0.0
  10
 362.49999552965
  20
 662.49999050051
  30
0.0
  10
 412.49999478459
  20
 662.49999050051
  30
0.0
  77
3
   0
LEADER
   5
20E
 100
AcDbEntity
   8
LEVEL003
   6
CONTINUOUS
  62
3
 100
AcDbLeader
   3
GMM002
  73
0
  74
1
  75
0
  40
 10.000000000000
  41
0.0
  76
3
  10
 323.57570259160
  20
 588.14906234817
  30
0.0
  10
 362.49999552965
  20
 612.49999124557
  30
0.0
  10
 424.99999459833
  20
 612.49999124557
  30
0.0
  77
3
   0
TEXT
   5
20F
 100
AcDbEntity
   8
LEVEL003
  62
3
 100
AcDbText
  10
 362.49999552965
  20
 612.49999124557
  30
0.0
  40
 9.9999998509884
   1
ＮＰＴ３／８
   7
STANDARD
 100
AcDbText
   0
DIMENSION
   5
210
 100
AcDbEntity
   8
LEVEL003
   6
CONTINUOUS
  62
3
 100
AcDbDimension
   2
*D5
  10
 799.99998901039
  20
 281.24999618158
  30
0.0
  11
 591.50000737607
  21
 281.24999618158
  31
0.0
  70
128
   1
\A1;417
   3
GMM003
 100
AcDbAlignedDimension
  13
 383.00002574176
  23
 449.99999366701
  33
0.0
  14
 799.99998901039
  24
 348.49997992069
  34
0.0
 100
AcDbRotatedDimension
   0
DIMENSION
   5
212
 100
AcDbEntity
   8
LEVEL003
   6
CONTINUOUS
  62
3
 100
AcDbDimension
   2
*D6
  10
 799.99998901039
  20
 299.99999590218
  30
0.0
  11
 812.65897892831
  21
 299.99999590218
  31
0.0
  70
128
   1
\A1;15
   3
GMM001
 100
AcDbAlignedDimension
  13
 784.99998923391
  23
 315.99998040497
  33
0.0
  14
 799.99998901039
  24
 348.49997992069
  34
0.0
 100
AcDbRotatedDimension
   0
DIMENSION
   5
214
 100
AcDbEntity
   8
LEVEL003
   6
CONTINUOUS
  62
3
 100
AcDbDimension
   2
*D7
  10
 204.99999787658
  20
 299.99999590218
  30
0.0
  11
 179.90024624920
  21
 299.99999590218
  31
0.0
  70
128
   1
\A1;5
   3
GMM001
 100
AcDbAlignedDimension
  13
 199.99999795109
  23
 368.83975470305
  33
0.0
  14
 204.99999787658
  24
 317.99998800457
  34
0.0
 100
AcDbRotatedDimension
   0
TEXT
   5
216
 100
AcDbEntity
   8
LEVEL003
  62
3
 100
AcDbText
  10
 362.49999552965
  20
 662.49999050051
  30
0.0
  40
 9.9999998509884
   1
Ｒ　１／２
   7
STANDARD
 100
AcDbText
   0
DIMENSION
   5
217
 100
AcDbEntity
   8
LEVEL003
   6
CONTINUOUS
  62
3
 100
AcDbDimension
   2
*D8
  10
 729.99999005348
  20
 699.99998994951
  30
0.0
  11
 835.05706989720
  21
 699.99998994951
  31
0.0
  70
128
   1
\A1;70
   3
GMM004
 100
AcDbAlignedDimension
  13
 799.99998901039
  23
 551.50000741333
  33
0.0
  14
 729.99999005348
  24
 689.99999009073
  34
0.0
  50
 180.00000000000
 100
AcDbRotatedDimension
   0
DIMENSION
   5
219
 100
AcDbEntity
   8
LEVEL003
   6
CONTINUOUS
  62
3
 100
AcDbDimension
   2
*D9
  10
 314.99999623746
  20
 699.99998382993
  30
0.0
  11
 522.49999419454
  21
 699.99998382993
  31
0.0
  70
128
   1
\A1;415
   3
GMM005
 100
AcDbAlignedDimension
  13
 729.99999005348
  23
 689.99999009073
  33
0.0
  14
 314.99999623746
  24
 689.99999009073
  34
0.0
  50
 180.00000000000
 100
AcDbRotatedDimension
   0
LINE
   5
21B
 100
AcDbEntity
   8
LEVEL001
 100
AcDbLine
   6
DOT
  62
3
  10
 309.99999631196
  20
 499.99999292195
  30
0.0
  11
 756.99995913357
  21
 499.99999292195
  31
0.0
   0
LINE
   5
21C
 100
AcDbEntity
   8
LEVEL001
 100
AcDbLine
   6
DOT
  62
3
  10
 304.99999638647
  20
 498.66023311525
  30
0.0
  11
 309.99999631196
  21
 499.99999292195
  31
0.0
   0
LINE
   5
21D
 100
AcDbEntity
   8
LEVEL001
 100
AcDbLine
   6
DOT
  62
3
  10
 304.99999638647
  20
 488.83975291491
  30
0.0
  11
 309.99999631196
  21
 487.49999310821
  31
0.0
   0
LINE
   5
21E
 100
AcDbEntity
   8
LEVEL001
 100
AcDbLine
   6
DOT
  62
3
  10
 304.99999638647
  20
 498.66023311525
  30
0.0
  11
 304.99999638647
  21
 449.99999366701
  31
0.0
   0
LINE
   5
21F
 100
AcDbEntity
   8
LEVEL001
 100
AcDbLine
   6
DOT
  62
3
  10
 199.99999795109
  20
 488.83975291491
  30
0.0
  11
 204.99999787658
  21
 487.49999310821
  31
0.0
   0
ARC
   5
220
 100
AcDbEntity
   8
LEVEL001
   6
DOT
  62
3
 100
AcDbCircle
  10
 274.41148637743
  20
 492.49999303367
  30
0.0
  40
 4.9999999254942
 100
AcDbArc
  50
 270.00019615417
  51
 299.99972174303
   0
LINE
   5
221
 100
AcDbEntity
   8
LEVEL001
 100
AcDbLine
   6
DOT
  62
3
  10
 205.00999238327
  20
 487.49999310821
  30
0.0
  11
 274.41150349510
  21
 487.49999310821
  31
0.0
   0
ARC
   5
222
 100
AcDbEntity
   8
LEVEL001
   6
DOT
  62
3
 100
AcDbCircle
  10
 301.33973523839
  20
 496.50000823294
  30
0.0
  40
 4.9999999254942
 100
AcDbArc
  50
 89.999759022159
  51
 119.99972174317
   0
LINE
   5
223
 100
AcDbEntity
   8
LEVEL001
 100
AcDbLine
   6
DOT
  62
3
  10
 298.83975630492
  20
 500.83014732852
  30
0.0
  11
 276.91146531088
  21
 488.16985393808
  31
0.0
   0
LINE
   5
224
 100
AcDbEntity
   8
LEVEL001
 100
AcDbLine
   6
DOT
  62
3
  10
 304.99999638647
  20
 501.50000815839
  30
0.0
  11
 301.33975626767
  21
 501.50000815839
  31
0.0
   0
LINE
   5
225
 100
AcDbEntity
   8
LEVEL001
 100
AcDbLine
   6
DOT
  62
3
  10
 325.18577184251
  20
 557.49999206513
  30
0.0
  11
 725.99997485429
  21
 557.49999206513
  31
0.0
   0
LINE
   5
226
 100
AcDbEntity
   8
LEVEL001
 100
AcDbLine
   6
DOT
  62
3
  10
 204.99999787658
  20
 532.49999243766
  30
0.0
  11
 654.99999117106
  21
 532.49999243766
  31
0.0
   0
LINE
   5
227
 100
AcDbEntity
   8
LEVEL001
 100
AcDbLine
   6
DOT
  62
3
  10
 799.99998901039
  20
 488.83975291491
  30
0.0
  11
 794.99998908490
  21
 487.49999310821
  31
0.0
   0
LINE
   5
228
 100
AcDbEntity
   8
LEVEL001
 100
AcDbLine
   6
DOT
  62
3
  10
 794.98999457821
  20
 487.49999310821
  30
0.0
  11
 310.00999081865
  21
 487.49999310821
  31
0.0
   0
LINE
   5
229
 100
AcDbEntity
   8
LEVEL001
 100
AcDbLine
   6
DOT
  62
3
  10
 799.00000428408
  20
 539.49992366880
  30
0.0
  11
 799.00000428408
  21
 525.49998491257
  31
0.0
   0
LINE
   5
22A
 100
AcDbEntity
   8
LEVEL001
 100
AcDbLine
   6
DOT
  62
3
  10
 799.99998901039
  20
 540.49998468906
  30
0.0
  11
 799.00000428408
  21
 539.49992366880
  31
0.0
   0
LINE
   5
22B
 100
AcDbEntity
   8
LEVEL001
 100
AcDbLine
   6
DOT
  62
3
  10
 799.00000428408
  20
 539.49992366880
  30
0.0
  11
 764.26794913757
  21
 539.49992366880
  31
0.0
   0
LINE
   5
22C
 100
AcDbEntity
   8
LEVEL001
 100
AcDbLine
   6
DOT
  62
3
  10
 764.26794913757
  20
 539.49992366880
  30
0.0
  11
 760.22650632670
  21
 532.49995429069
  31
0.0
   0
LINE
   5
22D
 100
AcDbEntity
   8
LEVEL001
 100
AcDbLine
   6
DOT
  62
3
  10
 760.22650632670
  20
 532.49995429069
  30
0.0
  11
 764.26794913757
  21
 525.49998491257
  31
0.0
   0
LINE
   5
22E
 100
AcDbEntity
   8
LEVEL001
 100
AcDbLine
   6
DOT
  62
3
  10
 764.26794913757
  20
 525.49998491257
  30
0.0
  11
 799.00000428408
  21
 525.49998491257
  31
0.0
   0
LINE
   5
22F
 100
AcDbEntity
   8
LEVEL001
 100
AcDbLine
   6
DOT
  62
3
  10
 799.00000428408
  20
 525.49998491257
  30
0.0
  11
 799.99998901039
  21
 524.49992389232
  31
0.0
   0
LINE
   5
230
 100
AcDbEntity
   8
LEVEL001
 100
AcDbLine
   6
DOT
  62
3
  10
 764.26794913757
  20
 539.49992366880
  30
0.0
  11
 764.26794913757
  21
 525.49998491257
  31
0.0
   0
LINE
   5
231
 100
AcDbEntity
   8
LEVEL001
 100
AcDbLine
   6
DOT
  62
3
  10
 799.99998901039
  20
 540.49998468906
  30
0.0
  11
 767.99994371086
  21
 540.49998468906
  31
0.0
   0
LINE
   5
232
 100
AcDbEntity
   8
LEVEL001
 100
AcDbLine
   6
DOT
  62
3
  10
 767.99994371086
  20
 540.49998468906
  30
0.0
  11
 764.26794913757
  21
 539.49992366880
  31
0.0
   0
LINE
   5
233
 100
AcDbEntity
   8
LEVEL001
 100
AcDbLine
   6
DOT
  62
3
  10
 764.26794913757
  20
 525.49998491257
  30
0.0
  11
 767.99994371086
  21
 524.49992389232
  31
0.0
   0
LINE
   5
234
 100
AcDbEntity
   8
LEVEL001
 100
AcDbLine
   6
DOT
  62
3
  10
 767.99994371086
  20
 524.49992389232
  30
0.0
  11
 799.99998901039
  21
 524.49992389232
  31
0.0
   0
LINE
   5
235
 100
AcDbEntity
   8
LEVEL001
 100
AcDbLine
   6
DOT
  62
3
  10
 767.99994371086
  20
 540.49998468906
  30
0.0
  11
 767.99994371086
  21
 524.49992389232
  31
0.0
   0
LINE
   5
236
 100
AcDbEntity
   8
LEVEL001
 100
AcDbLine
   6
CONTINUOUS
  62
7
  10
 207.99999020249
  20
 584.99999165535
  30
0.0
  11
 784.00000450760
  21
 584.99999165535
  31
0.0
   0
LINE
   5
237
 100
AcDbEntity
   8
LEVEL001
 100
AcDbLine
   6
CONTINUOUS
  62
7
  10
 721.35649652993
  20
 594.99999150634
  30
0.0
  11
 721.66900209697
  21
 584.99999165535
  31
0.0
   0
LINE
   5
238
 100
AcDbEntity
   8
LEVEL001
 100
AcDbLine
   6
CONTINUOUS
  62
3
  10
 722.32550591490
  20
 591.38365855241
  30
0.0
  11
 722.52501749561
  21
 584.99999165535
  31
0.0
   0
LINE
   5
239
 100
AcDbEntity
   8
LEVEL001
 100
AcDbLine
   6
CONTINUOUS
  62
3
  10
 737.67447419205
  20
 591.38362040544
  30
0.0
  11
 737.47496275630
  21
 584.99999165535
  31
0.0
   0
LINE
   5
23A
 100
AcDbEntity
   8
LEVEL001
 100
AcDbLine
   6
CONTINUOUS
  62
7
  10
 738.64348357702
  20
 594.99999150634
  30
0.0
  11
 738.33102258358
  21
 584.99999165535
  31
0.0
   0
LINE
   5
23B
 100
AcDbEntity
   8
LEVEL001
 100
AcDbLine
   6
DASHDOT
  62
1
  10
 729.99999005348
  20
 689.99999009073
  30
0.0
  11
 729.99999005348
  21
 557.49999206513
  31
0.0
   0
LINE
   5
23C
 100
AcDbEntity
   8
LEVEL001
 100
AcDbLine
   6
CONTINUOUS
  62
3
  10
 307.32551209889
  20
 591.38365855241
  30
0.0
  11
 307.52502367959
  21
 584.99999165535
  31
0.0
   0
LINE
   5
23D
 100
AcDbEntity
   8
LEVEL001
 100
AcDbLine
   6
CONTINUOUS
  62
3
  10
 322.67448037603
  20
 591.38362040544
  30
0.0
  11
 322.47496894028
  21
 584.99999165535
  31
0.0
   0
LINE
   5
23E
 100
AcDbEntity
   8
LEVEL001
 100
AcDbLine
   6
CONTINUOUS
  62
7
  10
 306.35650271391
  20
 594.99999150634
  30
0.0
  11
 306.66900828096
  21
 584.99999165535
  31
0.0
   0
LINE
   5
23F
 100
AcDbEntity
   8
LEVEL001
 100
AcDbLine
   6
CONTINUOUS
  62
7
  10
 323.64348976100
  20
 594.99999150634
  30
0.0
  11
 323.33102876757
  21
 584.99999165535
  31
0.0
   0
LINE
   5
240
 100
AcDbEntity
   8
LEVEL001
 100
AcDbLine
   6
DASHDOT
  62
1
  10
 314.99999623746
  20
 689.99999009073
  30
0.0
  11
 314.99999623746
  21
 557.49999206513
  31
0.0
   0
LINE
   5
241
 100
AcDbEntity
   8
LEVEL001
 100
AcDbLine
   6
DOT
  62
3
  10
 309.99999631196
  20
 400.00000707805
  30
0.0
  11
 756.99995913357
  21
 400.00000707805
  31
0.0
   0
LINE
   5
242
 100
AcDbEntity
   8
LEVEL001
 100
AcDbLine
   6
DOT
  62
3
  10
 304.99999638647
  20
 401.33976688475
  30
0.0
  11
 309.99999631196
  21
 400.00000707805
  31
0.0
   0
LINE
   5
243
 100
AcDbEntity
   8
LEVEL001
 100
AcDbLine
   6
DOT
  62
3
  10
 304.99999638647
  20
 411.16024708509
  30
0.0
  11
 309.99999631196
  21
 412.50000689179
  31
0.0
   0
LINE
   5
244
 100
AcDbEntity
   8
LEVEL001
 100
AcDbLine
   6
DOT
  62
3
  10
 304.99999638647
  20
 401.33976688475
  30
0.0
  11
 304.99999638647
  21
 450.00000633299
  31
0.0
   0
ARC
   5
245
 100
AcDbEntity
   8
LEVEL001
   6
DOT
  62
3
 100
AcDbCircle
  10
 274.41148637743
  20
 407.50000696632
  30
0.0
  40
 4.9999999254942
 100
AcDbArc
  50
 60.000278257108
  51
 89.999803845962
   0
LINE
   5
246
 100
AcDbEntity
   8
LEVEL001
 100
AcDbLine
   6
DOT
  62
3
  10
 205.00999238327
  20
 412.50000689179
  30
0.0
  11
 274.41150349510
  21
 412.50000689179
  31
0.0
   0
ARC
   5
247
 100
AcDbEntity
   8
LEVEL001
   6
DOT
  62
3
 100
AcDbCircle
  10
 301.33973523840
  20
 403.49999176706
  30
0.0
  40
 4.9999999254942
 100
AcDbArc
  50
 240.00027825669
  51
 270.00024097768
   0
LINE
   5
248
 100
AcDbEntity
   8
LEVEL001
 100
AcDbLine
   6
DOT
  62
3
  10
 298.83975630492
  20
 399.16985267148
  30
0.0
  11
 276.91146531088
  21
 411.83014606192
  31
0.0
   0
LINE
   5
249
 100
AcDbEntity
   8
LEVEL001
 100
AcDbLine
   6
DOT
  62
3
  10
 304.99999638647
  20
 398.49999184161
  30
0.0
  11
 301.33975626767
  21
 398.49999184161
  31
0.0
   0
LINE
   5
24A
 100
AcDbEntity
   8
LEVEL001
 100
AcDbLine
   6
DOT
  62
3
  10
 204.99999787658
  20
 367.50000756234
  30
0.0
  11
 654.99999117106
  21
 367.50000756234
  31
0.0
   0
LINE
   5
24B
 100
AcDbEntity
   8
LEVEL001
 100
AcDbLine
   6
DOT
  62
3
  10
 794.98999457821
  20
 412.50000689179
  30
0.0
  11
 310.00999081865
  21
 412.50000689179
  31
0.0
   0
LINE
   5
24C
 100
AcDbEntity
   8
LEVEL001
 100
AcDbLine
   6
DOT
  62
3
  10
 325.18577184251
  20
 342.50000793487
  30
0.0
  11
 725.99997485429
  21
 342.50000793487
  31
0.0
   0
LINE
   5
24D
 100
AcDbEntity
   8
LEVEL001
 100
AcDbLine
   6
CONTINUOUS
  62
7
  10
 204.99999787658
  20
 450.00000633299
  30
0.0
  11
 204.99999787658
  21
 582.00001199543
  31
0.0
   0
LINE
   5
24E
 100
AcDbEntity
   8
LEVEL001
 100
AcDbLine
   6
CONTINUOUS
  62
7
  10
 207.99999020249
  20
 585.00000432134
  30
0.0
  11
 207.99999020249
  21
 450.00000633299
  31
0.0
   0
LINE
   5
24F
 100
AcDbEntity
   8
LEVEL001
 100
AcDbLine
   6
CONTINUOUS
  62
7
  10
 398.00002551824
  20
 458.49999094754
  30
0.0
  11
 399.00001024455
  21
 459.50001382083
  31
0.0
   0
ARC
   5
250
 100
AcDbEntity
   8
LEVEL001
   6
DASHDOT
  62
1
 100
AcDbCircle
  10
 427.00004034489
  20
 450.00000633299
  30
0.0
  40
 44.000014603138
 100
AcDbArc
  50
0.0
  51
 180.00000000000
   0
ARC
   5
251
 100
AcDbEntity
   8
LEVEL001
   6
CONTINUOUS
  62
7
 100
AcDbCircle
  10
 427.00003080817
  20
 449.99996239368
  30
0.0
  40
 50.500001154840
 100
AcDbArc
  50
 0.49852214441061E-4
  51
 169.15692031805
   0
ARC
   5
252
 100
AcDbEntity
   8
LEVEL001
   6
CONTINUOUS
  62
7
 100
AcDbCircle
  10
 427.00004034505
  20
 450.00011604778
  30
0.0
  40
 37.499999441206
 100
AcDbArc
  50
0.0
  51
 165.32531149169
   0
LINE
   5
253
 100
AcDbEntity
   8
LEVEL001
 100
AcDbLine
   6
CONTINUOUS
  62
7
  10
 367.00004123896
  20
 450.00000633299
  30
0.0
  11
 367.00004123896
  21
 459.50001382083
  31
0.0
   0
LINE
   5
254
 100
AcDbEntity
   8
LEVEL001
 100
AcDbLine
   6
CONTINUOUS
  62
7
  10
 367.00004123896
  20
 459.50001382083
  30
0.0
  11
 399.00001024455
  21
 459.50001382083
  31
0.0
   0
LINE
   5
255
 100
AcDbEntity
   8
LEVEL001
 100
AcDbLine
   6
CONTINUOUS
  62
7
  10
 399.00001024455
  20
 459.50001382083
  30
0.0
  11
 399.00001024455
  21
 450.00000633299
  31
0.0
   0
LINE
   5
256
 100
AcDbEntity
   8
LEVEL001
 100
AcDbLine
   6
CONTINUOUS
  62
7
  10
 368.00002596527
  20
 450.00000633299
  30
0.0
  11
 368.00002596527
  21
 458.49999094754
  31
0.0
   0
LINE
   5
257
 100
AcDbEntity
   8
LEVEL001
 100
AcDbLine
   6
CONTINUOUS
  62
7
  10
 368.00002596527
  20
 458.49999094754
  30
0.0
  11
 398.00002551824
  21
 458.49999094754
  31
0.0
   0
LINE
   5
258
 100
AcDbEntity
   8
LEVEL001
 100
AcDbLine
   6
CONTINUOUS
  62
7
  10
 398.00002551824
  20
 458.49999094754
  30
0.0
  11
 398.00002551824
  21
 450.00000633299
  31
0.0
   0
LINE
   5
259
 100
AcDbEntity
   8
LEVEL001
 100
AcDbLine
   6
CONTINUOUS
  62
7
  10
 784.99998923391
  20
 584.00001959503
  30
0.0
  11
 784.99998923391
  21
 450.00000633299
  31
0.0
   0
DIMENSION
   5
25A
 100
AcDbEntity
   8
LEVEL003
   6
CONTINUOUS
  62
3
 100
AcDbDimension
   2
*D10
  10
 875.00000000000
  20
 552.49999213964
  30
0.0
  11
 875.00000000000
  21
 437.49999369029
  31
0.0
  70
128
   1
\A1;%%c205{\H0.625x;\S-0.2^ -0.3;}
   3
GMM006
 100
AcDbAlignedDimension
  13
 799.00000428408
  23
 347.49999519438
  33
0.0
  14
 799.00000428408
  24
 552.49999213964
  34
0.0
  50
 90.000000000000
 100
AcDbRotatedDimension
   0
DIMENSION
   5
25C
 100
AcDbEntity
   8
LEVEL003
   6
CONTINUOUS
  62
3
 100
AcDbDimension
   2
*D11
  10
 850.00000000000
  20
 532.49995429069
  30
0.0
  11
 850.00000000000
  21
 449.99999366701
  31
0.0
  70
128
   1
\A1;PCD 165
   3
GMM007
 100
AcDbAlignedDimension
  13
 802.99994318932
  23
 367.50003304332
  33
0.0
  14
 802.99994318932
  24
 532.49995429069
  34
0.0
  50
 90.000000000000
 100
AcDbRotatedDimension
   0
DIMENSION
   5
25E
 100
AcDbEntity
   8
LEVEL003
   6
CONTINUOUS
  62
3
 100
AcDbDimension
   2
*D12
  10
 574.99999236316
  20
 584.99999165535
  30
0.0
  11
 574.99999236316
  21
 449.99999366701
  31
0.0
  70
128
   1
\A1;%%c270
   3
GMM008
 100
AcDbAlignedDimension
  13
 574.99999236316
  23
 314.99999567866
  33
0.0
  14
 574.99999236316
  24
 584.99999165535
  34
0.0
  50
 90.000000000000
 100
AcDbRotatedDimension
   0
DIMENSION
   5
260
 100
AcDbEntity
   8
LEVEL003
   6
CONTINUOUS
  62
3
 100
AcDbDimension
   2
*D13
  10
 500.00000000000
  20
 400.00000707805
  30
0.0
  11
 500.00000000000
  21
 450.00000000000
  31
0.0
  70
0
   1
\A1;%%c100
   3
GMM009
 100
AcDbAlignedDimension
  13
 500.00000000000
  23
 499.99999292195
  33
0.0
  14
 500.00000000000
  24
 400.00000707805
  34
0.0
  50
 270.00000000000
 100
AcDbRotatedDimension
   0
DIMENSION
   5
262
 100
AcDbEntity
   8
LEVEL003
   6
CONTINUOUS
  62
3
 100
AcDbDimension
   2
*D14
  10
 525.00000000000
  20
 532.49999243766
  30
0.0
  11
 525.00000000000
  21
 450.00000000000
  31
0.0
  70
0
   1
\A1;%%c165
   3
GMM009
 100
AcDbAlignedDimension
  13
 525.00000000000
  23
 367.50000756234
  33
0.0
  14
 525.00000000000
  24
 532.49999243766
  34
0.0
  50
 90.000000000000
 100
AcDbRotatedDimension
   0
DIMENSION
   5
264
 100
AcDbEntity
   8
LEVEL003
   6
CONTINUOUS
  62
3
 100
AcDbDimension
   2
*D15
  10
 550.00000000000
  20
 342.50000793487
  30
0.0
  11
 550.00000000000
  21
 450.00000000000
  31
0.0
  70
0
   1
\A1;%%c215
   3
GMM009
 100
AcDbAlignedDimension
  13
 550.00000000000
  23
 557.49999206513
  33
0.0
  14
 550.00000000000
  24
 342.50000793487
  34
0.0
  50
 270.00000000000
 100
AcDbRotatedDimension
   0
DIMENSION
   5
266
 100
AcDbEntity
   8
LEVEL003
   6
CONTINUOUS
  62
3
 100
AcDbDimension
   2
*D16
  10
 825.00000000000
  20
 412.50000689179
  30
0.0
  11
 825.00000000000
  21
 450.00000000000
  31
0.0
  70
0
   1
\A1;%%c75
   3
GMM010
 100
AcDbAlignedDimension
  13
 794.98999457821
  23
 487.49999310821
  33
0.0
  14
 794.98999457821
  24
 412.50000689179
  34
0.0
  50
 270.00000000000
 100
AcDbRotatedDimension
   0
DIMENSION
   5
268
 100
AcDbEntity
   8
LEVEL003
   6
CONTINUOUS
  62
3
 100
AcDbDimension
   2
*D17
  10
 162.50000000000
  20
 412.50000689179
  30
0.0
  11
 162.50000000000
  21
 450.00000000000
  31
0.0
  70
0
   1
\A1;%%c75
   3
GMM010
 100
AcDbAlignedDimension
  13
 205.00999238327
  23
 487.49999310821
  33
0.0
  14
 205.00999238327
  24
 412.50000689179
  34
0.0
  50
 270.00000000000
 100
AcDbRotatedDimension
   0
TEXT
   5
26A
 100
AcDbEntity
   8
LEVEL003
  62
7
 100
AcDbText
  10
 893.57139949138
  20
 66.005514732789
  30
0.0
  40
 10.000000000000
   1
ＯＳＡＫＡ ＪＡＣＫ
   7
STANDARD
 100
AcDbText
   0
CIRCLE
   5
26B
 100
AcDbEntity
   8
LEVEL003
 100
AcDbCircle
   6
CONTINUOUS
  62
7
  10
 873.12498564102
  20
 72.719486570320
  30
0.0
  40
 3.0000000000000
   0
LINE
   5
26C
 100
AcDbEntity
   8
LEVEL003
 100
AcDbLine
   6
CONTINUOUS
  62
7
  10
 879.01298564102
  20
 75.719486570320
  30
0.0
  11
 875.20398564102
  21
 69.119486570320
  31
0.0
   0
LINE
   5
26D
 100
AcDbEntity
   8
LEVEL003
 100
AcDbLine
   6
CONTINUOUS
  62
7
  10
 875.20398564102
  20
 69.119486570320
  30
0.0
  11
 867.58298564102
  21
 69.119486570320
  31
0.0
   0
LINE
   5
26E
 100
AcDbEntity
   8
LEVEL003
 100
AcDbLine
   6
CONTINUOUS
  62
7
  10
 866.71598564102
  20
 67.619486570320
  30
0.0
  11
 880.33698564102
  21
 67.619486570320
  31
0.0
   0
LINE
   5
26F
 100
AcDbEntity
   8
LEVEL003
 100
AcDbLine
   6
CONTINUOUS
  62
7
  10
 880.33698564102
  20
 67.619486570320
  30
0.0
  11
 885.01298564102
  21
 75.719486570320
  31
0.0
   0
LINE
   5
270
 100
AcDbEntity
   8
LEVEL003
 100
AcDbLine
   6
CONTINUOUS
  62
7
  10
 885.01298564102
  20
 75.719486570320
  30
0.0
  11
 879.01298564102
  21
 75.719486570320
  31
0.0
   0
LINE
   5
271
 100
AcDbEntity
   8
LEVEL003
 100
AcDbLine
   6
CONTINUOUS
  62
7
  10
 867.58298564102
  20
 69.119486570320
  30
0.0
  11
 866.71598564102
  21
 67.619486570320
  31
0.0
   0
TEXT
   5
272
 100
AcDbEntity
   8
LEVEL003
  62
7
 100
AcDbText
  10
 896.48239949138
  20
 82.898914732789
  30
0.0
  40
 6.0000000000000
   1
Model : ＥＣ２００Ｈ３５
   7
STANDARD
 100
AcDbText
   0
ENDSEC
  0
SECTION
  2
OBJECTS
  0
DICTIONARY
  5
C
100
AcDbDictionary
  3
ACAD_GROUP
350
D
  3
ACAD_MLINESTYLE
350
1B
  0
DICTIONARY
  5
D
102
{ACAD_REACTORS
330
C
102
}
100
AcDbDictionary
  0
DICTIONARY
  5
1B
102
{ACAD_REACTORS
330
C
102
}
100
AcDbDictionary
  3
STANDARD
350
1C
  0
MLINESTYLE
  5
1C
102
{ACAD_REACTORS
330
1B
102
}
100
AcDbMlineStyle
  2
STANDARD
 70
     0
  3

 62
   256
 51
90.0
 52
90.0
 71
     2
 49
0.5
 62
   256
  6
BYLAYER
 49
-0.5
 62
   256
  6
BYLAYER
  0
ENDSEC
   0
EOF
