   0
SECTION
   2
HEADER
   9
$ACADVER
   1
AC1014
   9
$LIMMIN
  10
0.0
  20
0.0
   9
$LIMMAX
  10
 630.00000000000
  20
 446.00000000000
   9
$EXTMIN
  10
0.0
  20
0.0
  30
0.0
   9
$EXTMAX
  10
 630.00000000000
  20
 446.00000000000
  30
0.0
   9
$LTSCALE
  40
 12.600000000000
   9
$HANDSEED
   5
2B5
   0
ENDSEC
   0
SECTION
   2
TABLES
  0
TABLE
  2
VPORT
  5
8
100
AcDbSymbolTable
 70
     1
  0
VPORT
  5
2B4
100
AcDbSymbolTableRecord
100
AcDbViewportTableRecord
  2
*ACTIVE
 70
     0
 10
0.0
 20
0.0
 11
1.0
 21
1.0
  12
 315.00000000000
  22
 223.00000000000
 13
0.0
 23
0.0
 14
1.0
 24
1.0
 15
0.0
 25
0.0
 16
0.0
 26
0.0
 36
1.0
 17
0.0
 27
0.0
 37
0.0
  40
 630.00000000000
  41
 1.4787878787879
 42
50.0
 43
0.0
 44
0.0
 50
0.0
 51
0.0
 71
     0
 72
   100
 73
     1
 74
     1
 75
     0
 76
     0
 77
     0
 78
     0
  0
ENDTAB
  0
TABLE
  2
LTYPE
  5
5
100
AcDbSymbolTable
 70
    25
  0
LTYPE
  5
12
100
AcDbSymbolTableRecord
100
AcDbLinetypeTableRecord
  2
BYBLOCK
 70
     0
  3

 72
    65
 73
     0
 40
0.0
  0
LTYPE
  5
13
100
AcDbSymbolTableRecord
100
AcDbLinetypeTableRecord
  2
BYLAYER
 70
     0
  3

 72
    65
 73
     0
 40
0.0
  0
LTYPE
  5
14
100
AcDbSymbolTableRecord
100
AcDbLinetypeTableRecord
  2
CONTINUOUS
 70
     0
  3
Solid line
 72
    65
 73
     0
 40
0.0
  0
LTYPE
  5
20
100
AcDbSymbolTableRecord
100
AcDbLinetypeTableRecord
  2
BORDER
 70
     0
  3
__ __ . __ __ . __ __ . __ __ . __ __ . __ __ .
 72
    65
 73
     6
 40
1.75
 49
0.5
 74
     0
 49
-0.25
 74
     0
 49
0.5
 74
     0
 49
-0.25
 74
     0
 49
0.0
 74
     0
 49
-0.25
 74
     0
  0
LTYPE
  5
21
100
AcDbSymbolTableRecord
100
AcDbLinetypeTableRecord
  2
BORDER2
 70
     0
  3
__.__.__.__.__.__.__.__.__.__.__.__.__.__.__.__
 72
    65
 73
     6
 40
0.875
 49
0.25
 74
     0
 49
-0.125
 74
     0
 49
0.25
 74
     0
 49
-0.125
 74
     0
 49
0.0
 74
     0
 49
-0.125
 74
     0
  0
LTYPE
  5
22
100
AcDbSymbolTableRecord
100
AcDbLinetypeTableRecord
  2
BORDERX2
 70
     0
  3
____  ____  .  ____  ____  .  ____  ____  .  __
 72
    65
 73
     6
 40
3.5
 49
1.0
 74
     0
 49
-0.5
 74
     0
 49
1.0
 74
     0
 49
-0.5
 74
     0
 49
0.0
 74
     0
 49
-0.5
 74
     0
  0
LTYPE
  5
23
100
AcDbSymbolTableRecord
100
AcDbLinetypeTableRecord
  2
CENTER
 70
     0
  3
____ _ ____ _ ____ _ ____ _ ____ _ ____ _ ____ 
 72
    65
 73
     4
 40
2.0
 49
1.25
 74
     0
 49
-0.25
 74
     0
 49
0.25
 74
     0
 49
-0.25
 74
     0
  0
LTYPE
  5
24
100
AcDbSymbolTableRecord
100
AcDbLinetypeTableRecord
  2
CENTER2
 70
     0
  3
___ _ ___ _ ___ _ ___ _ ___ _ ___ _ ___ _ ___ _
 72
    65
 73
     4
 40
1.125
 49
0.75
 74
     0
 49
-0.125
 74
     0
 49
0.125
 74
     0
 49
-0.125
 74
     0
  0
LTYPE
  5
25
100
AcDbSymbolTableRecord
100
AcDbLinetypeTableRecord
  2
CENTERX2
 70
     0
  3
________  __  ________  __  ________  __  _____
 72
    65
 73
     4
 40
4.0
 49
2.5
 74
     0
 49
-0.5
 74
     0
 49
0.5
 74
     0
 49
-0.5
 74
     0
  0
LTYPE
  5
26
100
AcDbSymbolTableRecord
100
AcDbLinetypeTableRecord
  2
DASHDOT
 70
     0
  3
__ . __ . __ . __ . __ . __ . __ . __ . __ . __
 72
    65
 73
     4
 40
1.0
 49
0.5
 74
     0
 49
-0.25
 74
     0
 49
0.0
 74
     0
 49
-0.25
 74
     0
  0
LTYPE
  5
27
100
AcDbSymbolTableRecord
100
AcDbLinetypeTableRecord
  2
DASHDOT2
 70
     0
  3
_._._._._._._._._._._._._._._._._._._._._._._._
 72
    65
 73
     4
 40
0.5
 49
0.25
 74
     0
 49
-0.125
 74
     0
 49
0.0
 74
     0
 49
-0.125
 74
     0
  0
LTYPE
  5
28
100
AcDbSymbolTableRecord
100
AcDbLinetypeTableRecord
  2
DASHDOTX2
 70
     0
  3
____  .  ____  .  ____  .  ____  .  ____  .  __
 72
    65
 73
     4
 40
2.0
 49
1.0
 74
     0
 49
-0.5
 74
     0
 49
0.0
 74
     0
 49
-0.5
 74
     0
  0
LTYPE
  5
29
100
AcDbSymbolTableRecord
100
AcDbLinetypeTableRecord
  2
DASHED
 70
     0
  3
__ __ __ __ __ __ __ __ __ __ __ __ __ __ __ __
 72
    65
 73
     2
 40
0.75
 49
0.5
 74
     0
 49
-0.25
 74
     0
  0
LTYPE
  5
2A
100
AcDbSymbolTableRecord
100
AcDbLinetypeTableRecord
  2
DASHED2
 70
     0
  3
_ _ _ _ _ _ _ _ _ _ _ _ _ _ _ _ _ _ _ _ _ _ _ _
 72
    65
 73
     2
 40
0.375
 49
0.25
 74
     0
 49
-0.125
 74
     0
  0
LTYPE
  5
2B
100
AcDbSymbolTableRecord
100
AcDbLinetypeTableRecord
  2
DASHEDX2
 70
     0
  3
____  ____  ____  ____  ____  ____  ____  ____ 
 72
    65
 73
     2
 40
1.5
 49
1.0
 74
     0
 49
-0.5
 74
     0
  0
LTYPE
  5
2C
100
AcDbSymbolTableRecord
100
AcDbLinetypeTableRecord
  2
DIVIDE
 70
     0
  3
____ . . ____ . . ____ . . ____ . . ____ . . __
 72
    65
 73
     6
 40
1.25
 49
0.5
 74
     0
 49
-0.25
 74
     0
 49
0.0
 74
     0
 49
-0.25
 74
     0
 49
0.0
 74
     0
 49
-0.25
 74
     0
  0
LTYPE
  5
2D
100
AcDbSymbolTableRecord
100
AcDbLinetypeTableRecord
  2
DIVIDE2
 70
     0
  3
__..__..__..__..__..__..__..__..__..__..__..__.
 72
    65
 73
     6
 40
0.625
 49
0.25
 74
     0
 49
-0.125
 74
     0
 49
0.0
 74
     0
 49
-0.125
 74
     0
 49
0.0
 74
     0
 49
-0.125
 74
     0
  0
LTYPE
  5
2E
100
AcDbSymbolTableRecord
100
AcDbLinetypeTableRecord
  2
DIVIDEX2
 70
     0
  3
________  .  .  ________  .  .  ________  .  . 
 72
    65
 73
     6
 40
2.5
 49
1.0
 74
     0
 49
-0.5
 74
     0
 49
0.0
 74
     0
 49
-0.5
 74
     0
 49
0.0
 74
     0
 49
-0.5
 74
     0
  0
LTYPE
  5
2F
100
AcDbSymbolTableRecord
100
AcDbLinetypeTableRecord
  2
DOT
 70
     0
  3
. . . . . . . . . . . . . . . . . . . . . . . .
 72
    65
 73
     2
 40
0.25
 49
0.0
 74
     0
 49
-0.25
 74
     0
  0
LTYPE
  5
30
100
AcDbSymbolTableRecord
100
AcDbLinetypeTableRecord
  2
DOT2
 70
     0
  3
...............................................
 72
    65
 73
     2
 40
0.125
 49
0.0
 74
     0
 49
-0.125
 74
     0
  0
LTYPE
  5
31
100
AcDbSymbolTableRecord
100
AcDbLinetypeTableRecord
  2
DOTX2
 70
     0
  3
.  .  .  .  .  .  .  .  .  .  .  .  .  .  .  . 
 72
    65
 73
     2
 40
0.5
 49
0.0
 74
     0
 49
-0.5
 74
     0
  0
LTYPE
  5
32
100
AcDbSymbolTableRecord
100
AcDbLinetypeTableRecord
  2
HIDDEN
 70
     0
  3
__ __ __ __ __ __ __ __ __ __ __ __ __ __ __ __
 72
    65
 73
     2
 40
0.375
 49
0.25
 74
     0
 49
-0.125
 74
     0
  0
LTYPE
  5
33
100
AcDbSymbolTableRecord
100
AcDbLinetypeTableRecord
  2
HIDDEN2
 70
     0
  3
_ _ _ _ _ _ _ _ _ _ _ _ _ _ _ _ _ _ _ _ _ _ _ _
 72
    65
 73
     2
 40
0.1875
 49
0.125
 74
     0
 49
-0.0625
 74
     0
  0
LTYPE
  5
34
100
AcDbSymbolTableRecord
100
AcDbLinetypeTableRecord
  2
HIDDENX2
 70
     0
  3
____ ____ ____ ____ ____ ____ ____ ____ ____ __
 72
    65
 73
     2
 40
0.75
 49
0.5
 74
     0
 49
-0.25
 74
     0
  0
LTYPE
  5
35
100
AcDbSymbolTableRecord
100
AcDbLinetypeTableRecord
  2
PHANTOM
 70
     0
  3
______  __  __  ______  __  __  ______  __  __ 
 72
    65
 73
     6
 40
2.5
 49
1.25
 74
     0
 49
-0.25
 74
     0
 49
0.25
 74
     0
 49
-0.25
 74
     0
 49
0.25
 74
     0
 49
-0.25
 74
     0
  0
LTYPE
  5
36
100
AcDbSymbolTableRecord
100
AcDbLinetypeTableRecord
  2
PHANTOM2
 70
     0
  3
___ _ _ ___ _ _ ___ _ _ ___ _ _ ___ _ _ ___ _ _
 72
    65
 73
     6
 40
1.25
 49
0.625
 74
     0
 49
-0.125
 74
     0
 49
0.125
 74
     0
 49
-0.125
 74
     0
 49
0.125
 74
     0
 49
-0.125
 74
     0
  0
LTYPE
  5
37
100
AcDbSymbolTableRecord
100
AcDbLinetypeTableRecord
  2
PHANTOMX2
 70
     0
  3
____________    ____    ____    ____________   
 72
    65
 73
     6
 40
5.0
 49
2.5
 74
     0
 49
-0.5
 74
     0
 49
0.5
 74
     0
 49
-0.5
 74
     0
 49
0.5
 74
     0
 49
-0.5
 74
     0
  0
ENDTAB
   0
TABLE
   2
LAYER
   5
2
 100
AcDbSymbolTable
  70
6
   0
LAYER
   5
E
 100
AcDbSymbolTableRecord
 100
AcDbLayerTableRecord
   2
0
  70
0
  62
7
   6
CONTINUOUS
   0
LAYER
   5
39
 100
AcDbSymbolTableRecord
 100
AcDbLayerTableRecord
   2
LEVEL001
  70
0
  62
7
   6
CONTINUOUS
   0
LAYER
   5
3A
 100
AcDbSymbolTableRecord
 100
AcDbLayerTableRecord
   2
LEVEL003
  70
0
  62
7
   6
CONTINUOUS
   0
LAYER
   5
3B
 100
AcDbSymbolTableRecord
 100
AcDbLayerTableRecord
   2
LEVEL020
  70
0
  62
7
   6
CONTINUOUS
   0
LAYER
   5
3C
 100
AcDbSymbolTableRecord
 100
AcDbLayerTableRecord
   2
LEVEL050
  70
0
  62
7
   6
CONTINUOUS
   0
LAYER
   5
3D
 100
AcDbSymbolTableRecord
 100
AcDbLayerTableRecord
   2
LEVEL110
  70
0
  62
7
   6
CONTINUOUS
   0
ENDTAB
  0
TABLE
  2
STYLE
  5
3
100
AcDbSymbolTable
  70
5
  0
STYLE
  5
F
100
AcDbSymbolTableRecord
100
AcDbTextStyleTableRecord
  2
STANDARD
 70
     0
 40
0.0
 41
1.0
 50
0.0
 71
     0
 42
0.2
  3
TXT
  4
BIGFONT
  0
STYLE
  5
38
100
AcDbSymbolTableRecord
100
AcDbTextStyleTableRecord
  2
STANDARD1
 70
     4
 40
0.0
 41
1.0
 50
0.0
 71
     0
 42
0.2
  3
TXT
  4
BIGFONT
   0
STYLE
   5
3E
 100
AcDbSymbolTableRecord
 100
AcDbTextStyleTableRecord
   2
GMM001
  70
0
  40
0.0
  41
 1.0000000000000
  50
0.0
  71
     0
  42
1.0
   3
txt.shx
   4
bigfont.shx
   0
STYLE
   5
3F
 100
AcDbSymbolTableRecord
 100
AcDbTextStyleTableRecord
   2
GMM002
  70
0
  40
0.0
  41
 0.62500000000000
  50
0.0
  71
     0
  42
1.0
   3
txt.shx
   4
bigfont.shx
   0
STYLE
   5
40
 100
AcDbSymbolTableRecord
 100
AcDbTextStyleTableRecord
   2
GMM003
  70
0
  40
0.0
  41
 1.0000000000000
  50
0.0
  71
     0
  42
1.0
   3

   4

1001
ACAD
1000
ＭＳ ゴシック
1071
32817
   0
ENDTAB
  0
TABLE
  2
VIEW
  5
6
100
AcDbSymbolTable
 70
     0
  0
ENDTAB
  0
TABLE
  2
UCS
  5
7
100
AcDbSymbolTable
 70
     0
  0
ENDTAB
  0
TABLE
  2
APPID
  5
9
100
AcDbSymbolTable
 70
     1
  0
APPID
  5
10
100
AcDbSymbolTableRecord
100
AcDbRegAppTableRecord
  2
ACAD
 70
     0
  0
ENDTAB
   0
TABLE
   2
DIMSTYLE
   5
A
 100
AcDbSymbolTable
  70
16
  0
DIMSTYLE
105
1D
100
AcDbSymbolTableRecord
100
AcDbDimStyleTableRecord
  2
STANDARD
 70
     0
  3

  4

  5

  6

  7

 40
1.0
 41
0.18
 42
0.0625
 43
0.38
 44
0.18
 45
0.0
 46
0.0
 47
0.0
 48
0.0
140
0.18
141
0.09
142
0.0
143
25.4
144
1.0
145
0.0
146
1.0
147
0.09
 71
     0
 72
     0
 73
     1
 74
     1
 75
     0
 76
     0
 77
     0
 78
     0
170
     0
171
     2
172
     0
173
     0
174
     0
175
     0
176
     0
177
     0
178
     0
270
     2
271
     4
272
     4
273
     2
274
     2
340
F
275
     0
280
     0
281
     0
282
     0
283
     1
284
     0
285
     0
286
     0
287
     3
288
     0
   0
DIMSTYLE
 105
41
 100
AcDbSymbolTableRecord
 100
AcDbDimStyleTableRecord
   2
GMM001
  70
0
   3

   4

   5

   6
_OPEN
   7
_OPEN
  40
 1.0000000000000
  41
 4.5000000000000
  42
 1.5000000000000
  43
 0.10000000000000E-5
  44
 3.0000000000000
  45
0.0
  46
0.0
  47
0.0
  48
0.0
 140
 6.0000000000000
 141
 1.5000000000000
 142
0.0
 143
 0.39400000000000E-1
 144
 1.0000000000000
 145
0.0
 146
 0.62500000000000
 147
 1.2000045776367
  71
0
  72
0
  73
0
  74
0
  75
0
  76
0
  77
3
  78
0
 170
0
 171
2
 172
1
 173
1
 174
0
 175
0
 176
3
 177
3
 178
3
 270
2
 271
0
 272
0
 273
2
 274
2
 340
3E
 275
1
 280
0
 281
0
 282
0
 283
1
 284
0
 285
0
 286
0
 287
3
 288
1
   0
DIMSTYLE
 105
42
 100
AcDbSymbolTableRecord
 100
AcDbDimStyleTableRecord
   2
GMM002
  70
0
   3

   4

   5

   6
_OPEN
   7
_OPEN
  40
 1.0000000000000
  41
 4.5000000000000
  42
 1.5000000000000
  43
 12.000000000000
  44
 3.0000000000000
  45
0.0
  46
0.0
  47
0.0
  48
0.0
 140
 6.0000000000000
 141
 1.5000000000000
 142
0.0
 143
 0.39400000000000E-1
 144
 1.0000000000000
 145
0.0
 146
 0.62500000000000
 147
 1.2000000000000
  71
0
  72
0
  73
0
  74
0
  75
1
  76
1
  77
3
  78
8
 170
0
 171
2
 172
1
 173
1
 174
0
 175
0
 176
3
 177
3
 178
3
 270
2
 271
1
 272
0
 273
2
 274
2
 340
3F
 275
0
 280
0
 281
0
 282
0
 283
1
 284
0
 285
0
 286
0
 287
3
 288
0
   0
DIMSTYLE
 105
43
 100
AcDbSymbolTableRecord
 100
AcDbDimStyleTableRecord
   2
GMM003
  70
0
   3

   4

   5

   6
_OPEN
   7
_OPEN
  40
 1.0000000000000
  41
 4.5000000000000
  42
 1.5000000000000
  43
 0.10000000000000E-5
  44
 3.0000000000000
  45
0.0
  46
0.0
  47
0.0
  48
0.0
 140
 6.0000000000000
 141
 1.5000000000000
 142
0.0
 143
 0.39400000000000E-1
 144
 1.0000000000000
 145
0.0
 146
 0.62500000000000
 147
 1.2000045418738
  71
0
  72
0
  73
0
  74
0
  75
0
  76
0
  77
3
  78
0
 170
0
 171
2
 172
1
 173
1
 174
0
 175
0
 176
3
 177
3
 178
3
 270
2
 271
0
 272
0
 273
2
 274
2
 340
3E
 275
1
 280
0
 281
0
 282
0
 283
1
 284
0
 285
0
 286
0
 287
3
 288
1
   0
DIMSTYLE
 105
44
 100
AcDbSymbolTableRecord
 100
AcDbDimStyleTableRecord
   2
GMM004
  70
0
   3

   4

   5

   6
_OPEN
   7
_OPEN
  40
 1.0000000000000
  41
 4.5000000000000
  42
 1.5000000000000
  43
 0.10000000000000E-5
  44
 3.0000000000000
  45
0.0
  46
0.0
  47
0.0
  48
0.0
 140
 6.0000000000000
 141
 1.5000000000000
 142
0.0
 143
 0.39400000000000E-1
 144
 1.0000000000000
 145
0.0
 146
 0.62500000000000
 147
 1.2000045418738
  71
0
  72
0
  73
0
  74
0
  75
1
  76
1
  77
3
  78
0
 170
0
 171
2
 172
1
 173
1
 174
0
 175
0
 176
3
 177
3
 178
3
 270
2
 271
0
 272
0
 273
2
 274
2
 340
3E
 275
1
 280
0
 281
0
 282
0
 283
1
 284
0
 285
0
 286
0
 287
3
 288
1
   0
DIMSTYLE
 105
45
 100
AcDbSymbolTableRecord
 100
AcDbDimStyleTableRecord
   2
GMM005
  70
0
   3

   4

   5

   6
_OPEN
   7
_OPEN
  40
 1.0000000000000
  41
 4.5000000000000
  42
 1.5000000000000
  43
 0.10000000000000E-5
  44
 3.0000000000000
  45
0.0
  46
0.0
  47
0.0
  48
0.0
 140
 6.0000000000000
 141
 1.5000000000000
 142
0.0
 143
 0.39400000000000E-1
 144
 1.0000000000000
 145
0.0
 146
 0.62500000000000
 147
0.0
  71
0
  72
0
  73
0
  74
0
  75
0
  76
0
  77
1
  78
0
 170
0
 171
2
 172
1
 173
1
 174
0
 175
0
 176
3
 177
3
 178
7
 270
2
 271
0
 272
0
 273
2
 274
2
 340
F
 275
1
 280
0
 281
0
 282
0
 283
1
 284
0
 285
0
 286
0
 287
3
 288
1
   0
DIMSTYLE
 105
46
 100
AcDbSymbolTableRecord
 100
AcDbDimStyleTableRecord
   2
GMM006
  70
0
   3

   4

   5

   6
_OPEN
   7
_OPEN
  40
 1.0000000000000
  41
 4.5000000000000
  42
 1.5000000000000
  43
 0.10000000000000E-5
  44
 3.0000000000000
  45
0.0
  46
0.0
  47
0.0
  48
0.0
 140
 6.0000000000000
 141
 1.5000000000000
 142
0.0
 143
 0.39400000000000E-1
 144
 1.0000000000000
 145
0.0
 146
 0.62500000000000
 147
0.0
  71
0
  72
0
  73
0
  74
0
  75
0
  76
0
  77
0
  78
0
 170
0
 171
2
 172
1
 173
1
 174
0
 175
0
 176
3
 177
3
 178
7
 270
2
 271
0
 272
0
 273
2
 274
2
 340
F
 275
1
 280
0
 281
0
 282
0
 283
1
 284
0
 285
0
 286
0
 287
3
 288
1
   0
DIMSTYLE
 105
47
 100
AcDbSymbolTableRecord
 100
AcDbDimStyleTableRecord
   2
GMM007
  70
0
   3

   4

   5

   6
_OPEN
   7
_OPEN
  40
 1.0000000000000
  41
 4.5000000000000
  42
 1.5000000000000
  43
 0.10000000000000E-5
  44
 3.0000000000000
  45
0.0
  46
0.0
  47
0.0
  48
0.0
 140
 6.0000000000000
 141
 1.5000000000000
 142
0.0
 143
 0.39400000000000E-1
 144
 1.0000000000000
 145
0.0
 146
 0.62500000000000
 147
 1.2000045418738
  71
0
  72
0
  73
0
  74
0
  75
0
  76
0
  77
3
  78
0
 170
0
 171
2
 172
1
 173
1
 174
0
 175
0
 176
3
 177
3
 178
3
 270
2
 271
0
 272
0
 273
2
 274
2
 340
3E
 275
1
 280
0
 281
0
 282
0
 283
1
 284
0
 285
0
 286
0
 287
3
 288
1
   0
DIMSTYLE
 105
48
 100
AcDbSymbolTableRecord
 100
AcDbDimStyleTableRecord
   2
GMM008
  70
0
   3

   4

   5

   6
_OPEN
   7
_OPEN
  40
 1.0000000000000
  41
 4.5000000000000
  42
 1.5000000000000
  43
 0.10000000000000E-5
  44
 3.0000000000000
  45
0.0
  46
0.0
  47
0.0
  48
0.0
 140
 6.0000000000000
 141
 1.5000000000000
 142
0.0
 143
 0.39400000000000E-1
 144
 1.0000000000000
 145
0.0
 146
 0.62500000000000
 147
0.0
  71
0
  72
0
  73
0
  74
0
  75
0
  76
0
  77
0
  78
0
 170
0
 171
2
 172
1
 173
1
 174
0
 175
0
 176
3
 177
3
 178
7
 270
2
 271
0
 272
0
 273
2
 274
2
 340
F
 275
1
 280
0
 281
0
 282
0
 283
1
 284
0
 285
0
 286
0
 287
3
 288
1
   0
DIMSTYLE
 105
49
 100
AcDbSymbolTableRecord
 100
AcDbDimStyleTableRecord
   2
GMM009
  70
0
   3

   4

   5

   6
_OPEN
   7
_OPEN
  40
 1.0000000000000
  41
 4.5000000000000
  42
 1.5000000000000
  43
 0.10000000000000E-5
  44
 3.0000000000000
  45
0.0
  46
0.0
  47
0.0
  48
0.0
 140
 6.0000000000000
 141
 1.5000000000000
 142
0.0
 143
 0.39400000000000E-1
 144
 1.0000000000000
 145
0.0
 146
 0.62500000000000
 147
 1.2000045776367
  71
0
  72
0
  73
0
  74
0
  75
1
  76
1
  77
3
  78
0
 170
0
 171
2
 172
1
 173
1
 174
0
 175
0
 176
3
 177
3
 178
3
 270
2
 271
0
 272
0
 273
2
 274
2
 340
3E
 275
1
 280
0
 281
0
 282
0
 283
1
 284
0
 285
0
 286
0
 287
3
 288
1
   0
DIMSTYLE
 105
4A
 100
AcDbSymbolTableRecord
 100
AcDbDimStyleTableRecord
   2
GMM010
  70
0
   3

   4

   5

   6
_OPEN
   7
_OPEN
  40
 1.0000000000000
  41
 4.5000000000000
  42
 1.5000000000000
  43
 12.000000000000
  44
 3.0000000000000
  45
0.0
  46
0.0
  47
0.0
  48
0.0
 140
 6.0000000000000
 141
 1.5000000000000
 142
0.0
 143
 0.39400000000000E-1
 144
 1.0000000000000
 145
0.0
 146
 0.62500000000000
 147
 1.2000000000000
  71
0
  72
0
  73
0
  74
0
  75
0
  76
0
  77
3
  78
8
 170
0
 171
2
 172
1
 173
1
 174
0
 175
0
 176
3
 177
3
 178
3
 270
2
 271
1
 272
0
 273
2
 274
2
 340
3E
 275
0
 280
0
 281
0
 282
0
 283
1
 284
0
 285
0
 286
0
 287
3
 288
0
   0
DIMSTYLE
 105
4B
 100
AcDbSymbolTableRecord
 100
AcDbDimStyleTableRecord
   2
GMM011
  70
0
   3

   4

   5

   6
_OPEN
   7
_OPEN
  40
 1.0000000000000
  41
 4.5000000000000
  42
 1.5000000000000
  43
 0.10000000000000E-5
  44
 3.0000000000000
  45
0.0
  46
0.0
  47
0.0
  48
0.0
 140
 6.0000000000000
 141
 1.5000000000000
 142
0.0
 143
 0.39400000000000E-1
 144
 1.0000000000000
 145
0.0
 146
 0.62500000000000
 147
 1.1999816894531
  71
0
  72
0
  73
0
  74
0
  75
0
  76
0
  77
3
  78
0
 170
0
 171
2
 172
1
 173
1
 174
0
 175
0
 176
3
 177
3
 178
3
 270
2
 271
0
 272
0
 273
2
 274
2
 340
3E
 275
1
 280
0
 281
0
 282
0
 283
1
 284
0
 285
0
 286
0
 287
3
 288
1
   0
DIMSTYLE
 105
4C
 100
AcDbSymbolTableRecord
 100
AcDbDimStyleTableRecord
   2
GMM012
  70
0
   3

   4

   5

   6
_OPEN
   7
_OPEN
  40
 1.0000000000000
  41
 4.5000000000000
  42
 1.5000000000000
  43
 0.10000000000000E-5
  44
 3.0000000000000
  45
0.0
  46
0.0
  47
0.0
  48
0.0
 140
 6.0000000000000
 141
 1.5000000000000
 142
0.0
 143
 0.39400000000000E-1
 144
 1.0000000000000
 145
0.0
 146
 0.62500000000000
 147
0.0
  71
0
  72
0
  73
0
  74
0
  75
0
  76
0
  77
1
  78
0
 170
0
 171
2
 172
1
 173
1
 174
0
 175
0
 176
3
 177
3
 178
7
 270
2
 271
0
 272
0
 273
2
 274
2
 340
F
 275
1
 280
0
 281
0
 282
0
 283
1
 284
0
 285
0
 286
0
 287
3
 288
1
   0
DIMSTYLE
 105
4D
 100
AcDbSymbolTableRecord
 100
AcDbDimStyleTableRecord
   2
GMM013
  70
0
   3

   4

   5

   6
_OPEN
   7
_OPEN
  40
 1.0000000000000
  41
 4.5000000000000
  42
 1.5000000000000
  43
 0.10000000000000E-5
  44
 3.0000000000000
  45
0.0
  46
0.0
  47
0.0
  48
0.0
 140
 6.0000000000000
 141
 1.5000000000000
 142
0.0
 143
 0.39400000000000E-1
 144
 1.0000000000000
 145
0.0
 146
 0.62500000000000
 147
 1.2000045418738
  71
0
  72
0
  73
0
  74
0
  75
0
  76
0
  77
3
  78
0
 170
0
 171
2
 172
1
 173
1
 174
0
 175
0
 176
3
 177
3
 178
3
 270
2
 271
0
 272
0
 273
2
 274
2
 340
3E
 275
1
 280
0
 281
0
 282
0
 283
1
 284
0
 285
0
 286
0
 287
3
 288
1
   0
DIMSTYLE
 105
4E
 100
AcDbSymbolTableRecord
 100
AcDbDimStyleTableRecord
   2
GMM014
  70
0
   3

   4

   5

   6
_OPEN
   7
_OPEN
  40
 1.0000000000000
  41
 4.5000000000000
  42
 1.5000000000000
  43
 12.000000000000
  44
 3.0000000000000
  45
0.0
  46
0.0
  47
0.0
  48
0.0
 140
 6.0000000000000
 141
 1.5000000000000
 142
0.0
 143
 0.39400000000000E-1
 144
 1.0000000000000
 145
0.0
 146
 0.62500000000000
 147
 1.2000000000000
  71
0
  72
0
  73
0
  74
0
  75
1
  76
1
  77
3
  78
8
 170
0
 171
2
 172
1
 173
1
 174
0
 175
0
 176
3
 177
3
 178
3
 270
2
 271
1
 272
0
 273
2
 274
2
 340
3E
 275
0
 280
0
 281
0
 282
0
 283
1
 284
0
 285
0
 286
0
 287
3
 288
0
   0
ENDTAB
  0
TABLE
  2
BLOCK_RECORD
  5
1
100
AcDbSymbolTable
 70
     0
  0
BLOCK_RECORD
  5
18
100
AcDbSymbolTableRecord
100
AcDbBlockTableRecord
  2
*MODEL_SPACE
  0
BLOCK_RECORD
  5
15
100
AcDbSymbolTableRecord
100
AcDbBlockTableRecord
  2
*PAPER_SPACE
   0
BLOCK_RECORD
   5
4F
 100
AcDbSymbolTableRecord
 100
AcDbBlockTableRecord
   2
*D1
   0
BLOCK_RECORD
   5
50
 100
AcDbSymbolTableRecord
 100
AcDbBlockTableRecord
   2
*D2
   0
BLOCK_RECORD
   5
51
 100
AcDbSymbolTableRecord
 100
AcDbBlockTableRecord
   2
*D3
   0
BLOCK_RECORD
   5
52
 100
AcDbSymbolTableRecord
 100
AcDbBlockTableRecord
   2
*D4
   0
BLOCK_RECORD
   5
53
 100
AcDbSymbolTableRecord
 100
AcDbBlockTableRecord
   2
*D8
   0
BLOCK_RECORD
   5
54
 100
AcDbSymbolTableRecord
 100
AcDbBlockTableRecord
   2
*D9
   0
BLOCK_RECORD
   5
55
 100
AcDbSymbolTableRecord
 100
AcDbBlockTableRecord
   2
*D11
   0
BLOCK_RECORD
   5
56
 100
AcDbSymbolTableRecord
 100
AcDbBlockTableRecord
   2
*D12
   0
BLOCK_RECORD
   5
57
 100
AcDbSymbolTableRecord
 100
AcDbBlockTableRecord
   2
*D13
   0
BLOCK_RECORD
   5
58
 100
AcDbSymbolTableRecord
 100
AcDbBlockTableRecord
   2
*D14
   0
BLOCK_RECORD
   5
59
 100
AcDbSymbolTableRecord
 100
AcDbBlockTableRecord
   2
*D17
   0
BLOCK_RECORD
   5
5A
 100
AcDbSymbolTableRecord
 100
AcDbBlockTableRecord
   2
*D18
   0
BLOCK_RECORD
   5
5B
 100
AcDbSymbolTableRecord
 100
AcDbBlockTableRecord
   2
*D19
   0
BLOCK_RECORD
   5
5C
 100
AcDbSymbolTableRecord
 100
AcDbBlockTableRecord
   2
*D20
   0
BLOCK_RECORD
   5
5D
 100
AcDbSymbolTableRecord
 100
AcDbBlockTableRecord
   2
*D21
   0
BLOCK_RECORD
   5
5E
 100
AcDbSymbolTableRecord
 100
AcDbBlockTableRecord
   2
*D22
   0
BLOCK_RECORD
   5
5F
 100
AcDbSymbolTableRecord
 100
AcDbBlockTableRecord
   2
_ARCHTICK
   0
BLOCK_RECORD
   5
60
 100
AcDbSymbolTableRecord
 100
AcDbBlockTableRecord
   2
_BOXBLANK
   0
BLOCK_RECORD
   5
61
 100
AcDbSymbolTableRecord
 100
AcDbBlockTableRecord
   2
_BOXFILLED
   0
BLOCK_RECORD
   5
62
 100
AcDbSymbolTableRecord
 100
AcDbBlockTableRecord
   2
_CLOSED
   0
BLOCK_RECORD
   5
63
 100
AcDbSymbolTableRecord
 100
AcDbBlockTableRecord
   2
_CLOSEDBLANK
   0
BLOCK_RECORD
   5
64
 100
AcDbSymbolTableRecord
 100
AcDbBlockTableRecord
   2
_DATUMBLANK
   0
BLOCK_RECORD
   5
65
 100
AcDbSymbolTableRecord
 100
AcDbBlockTableRecord
   2
_DATUMFILLED
   0
BLOCK_RECORD
   5
66
 100
AcDbSymbolTableRecord
 100
AcDbBlockTableRecord
   2
_DOT
   0
BLOCK_RECORD
   5
67
 100
AcDbSymbolTableRecord
 100
AcDbBlockTableRecord
   2
_DOTBLANK
   0
BLOCK_RECORD
   5
68
 100
AcDbSymbolTableRecord
 100
AcDbBlockTableRecord
   2
_DOTSMALL
   0
BLOCK_RECORD
   5
69
 100
AcDbSymbolTableRecord
 100
AcDbBlockTableRecord
   2
_INTEGRAL
   0
BLOCK_RECORD
   5
6A
 100
AcDbSymbolTableRecord
 100
AcDbBlockTableRecord
   2
_NONE
   0
BLOCK_RECORD
   5
6B
 100
AcDbSymbolTableRecord
 100
AcDbBlockTableRecord
   2
_OBLIQUE
   0
BLOCK_RECORD
   5
6C
 100
AcDbSymbolTableRecord
 100
AcDbBlockTableRecord
   2
_OPEN
   0
BLOCK_RECORD
   5
6D
 100
AcDbSymbolTableRecord
 100
AcDbBlockTableRecord
   2
_OPEN30
   0
BLOCK_RECORD
   5
6E
 100
AcDbSymbolTableRecord
 100
AcDbBlockTableRecord
   2
_OPEN90
   0
BLOCK_RECORD
   5
6F
 100
AcDbSymbolTableRecord
 100
AcDbBlockTableRecord
   2
_ORIGIN
   0
ENDTAB
   0
ENDSEC
  0
SECTION
  2
BLOCKS
  0
BLOCK
  5
19
100
AcDbEntity
  8
0
100
AcDbBlockBegin
  2
*MODEL_SPACE
 70
     0
 10
0.0
 20
0.0
 30
0.0
  3
*MODEL_SPACE
  1

  0
ENDBLK
  5
1A
100
AcDbEntity
  8
0
100
AcDbBlockEnd
  0
BLOCK
  5
16
100
AcDbEntity
 67
     1
  8
0
100
AcDbBlockBegin
  2
*PAPER_SPACE
 70
     0
 10
0.0
 20
0.0
 30
0.0
  3
*PAPER_SPACE
  1

  0
ENDBLK
  5
17
100
AcDbEntity
 67
     1
  8
0
100
AcDbBlockEnd
   0
BLOCK
   5
70
 100
AcDbEntity
   8
0
 100
AcDbBlockBegin
   2
_ARCHTICK
  70
0
  10
0.0
  20
0.0
  30
0.0
   3
_ARCHTICK
   0
POLYLINE
   5
71
 100
AcDbEntity
   8
0
   6
BYBLOCK
  62
0
 100
AcDb2dPolyline
  66
1
  10
0.0
  20
0.0
  30
0.0
  70
1
  40
 0.15000000000000
  41
 0.15000000000000
   0
VERTEX
   5
72
 100
AcDbEntity
   8
0
   6
BYBLOCK
  62
0
 100
AcDbVertex
 100
AcDb2dVertex
  10
-0.50000000000000
  20
-0.50000000000000
  30
0.0
  40
 0.15000000000000
  41
 0.15000000000000
   0
VERTEX
   5
73
 100
AcDbEntity
   8
0
   6
BYBLOCK
  62
0
 100
AcDbVertex
 100
AcDb2dVertex
  10
 0.50000000000000
  20
 0.50000000000000
  30
0.0
  40
 0.15000000000000
  41
 0.15000000000000
   0
SEQEND
   5
74
 100
AcDbEntity
   8
0
   6
BYBLOCK
  62
0
   0
ENDBLK
   5
75
 100
AcDbEntity
   8
0
 100
AcDbBlockEnd
   0
BLOCK
   5
76
 100
AcDbEntity
   8
0
 100
AcDbBlockBegin
   2
_OBLIQUE
  70
0
  10
0.0
  20
0.0
  30
0.0
   3
_OBLIQUE
   0
LINE
   5
77
 100
AcDbEntity
   8
0
 100
AcDbLine
   6
BYBLOCK
  62
0
  10
-0.50000000000000
  20
-0.50000000000000
  30
0.0
  11
 0.50000000000000
  21
 0.50000000000000
  31
0.0
   0
ENDBLK
   5
78
 100
AcDbEntity
   8
0
 100
AcDbBlockEnd
   0
BLOCK
   5
79
 100
AcDbEntity
   8
0
 100
AcDbBlockBegin
   2
_BOXBLANK
  70
0
  10
0.0
  20
0.0
  30
0.0
   3
_BOXBLANK
   0
LINE
   5
7A
 100
AcDbEntity
   8
0
 100
AcDbLine
   6
BYBLOCK
  62
0
  10
-0.50000000000000
  20
-0.50000000000000
  30
0.0
  11
 0.50000000000000
  21
-0.50000000000000
  31
0.0
   0
LINE
   5
7B
 100
AcDbEntity
   8
0
 100
AcDbLine
   6
BYBLOCK
  62
0
  10
 0.50000000000000
  20
-0.50000000000000
  30
0.0
  11
 0.50000000000000
  21
 0.50000000000000
  31
0.0
   0
LINE
   5
7C
 100
AcDbEntity
   8
0
 100
AcDbLine
   6
BYBLOCK
  62
0
  10
 0.50000000000000
  20
 0.50000000000000
  30
0.0
  11
-0.50000000000000
  21
 0.50000000000000
  31
0.0
   0
LINE
   5
7D
 100
AcDbEntity
   8
0
 100
AcDbLine
   6
BYBLOCK
  62
0
  10
-0.50000000000000
  20
 0.50000000000000
  30
0.0
  11
-0.50000000000000
  21
-0.50000000000000
  31
0.0
   0
LINE
   5
7E
 100
AcDbEntity
   8
0
 100
AcDbLine
   6
BYBLOCK
  62
0
  10
-0.50000000000000
  20
0.0
  30
0.0
  11
-1.0000000000000
  21
0.0
  31
0.0
   0
ENDBLK
   5
7F
 100
AcDbEntity
   8
0
 100
AcDbBlockEnd
   0
BLOCK
   5
80
 100
AcDbEntity
   8
0
 100
AcDbBlockBegin
   2
_BOXFILLED
  70
0
  10
0.0
  20
0.0
  30
0.0
   3
_BOXFILLED
   0
SOLID
   5
81
 100
AcDbEntity
   8
0
 100
AcDbTrace
   6
BYBLOCK
  62
0
  10
-0.50000000000000
  20
 0.50000000000000
  30
0.0
  11
 0.50000000000000
  21
 0.50000000000000
  31
0.0
  12
-0.50000000000000
  22
-0.50000000000000
  32
0.0
  13
 0.50000000000000
  23
-0.50000000000000
  33
0.0
   0
LINE
   5
82
 100
AcDbEntity
   8
0
 100
AcDbLine
   6
BYBLOCK
  62
0
  10
-0.50000000000000
  20
0.0
  30
0.0
  11
-1.0000000000000
  21
0.0
  31
0.0
   0
ENDBLK
   5
83
 100
AcDbEntity
   8
0
 100
AcDbBlockEnd
   0
BLOCK
   5
84
 100
AcDbEntity
   8
0
 100
AcDbBlockBegin
   2
_CLOSED
  70
0
  10
0.0
  20
0.0
  30
0.0
   3
_CLOSED
   0
LINE
   5
85
 100
AcDbEntity
   8
0
 100
AcDbLine
   6
BYBLOCK
  62
0
  10
-1.0000000000000
  20
 0.16666666666667
  30
0.0
  11
0.0
  21
0.0
  31
0.0
   0
LINE
   5
86
 100
AcDbEntity
   8
0
 100
AcDbLine
   6
BYBLOCK
  62
0
  10
0.0
  20
0.0
  30
0.0
  11
-1.0000000000000
  21
-0.16666666666667
  31
0.0
   0
LINE
   5
87
 100
AcDbEntity
   8
0
 100
AcDbLine
   6
BYBLOCK
  62
0
  10
-1.0000000000000
  20
 0.16666666666667
  30
0.0
  11
-1.0000000000000
  21
-0.16666666666667
  31
0.0
   0
LINE
   5
88
 100
AcDbEntity
   8
0
 100
AcDbLine
   6
BYBLOCK
  62
0
  10
0.0
  20
0.0
  30
0.0
  11
-1.0000000000000
  21
0.0
  31
0.0
   0
ENDBLK
   5
89
 100
AcDbEntity
   8
0
 100
AcDbBlockEnd
   0
BLOCK
   5
8A
 100
AcDbEntity
   8
0
 100
AcDbBlockBegin
   2
_OPEN
  70
0
  10
0.0
  20
0.0
  30
0.0
   3
_OPEN
   0
LINE
   5
8B
 100
AcDbEntity
   8
0
 100
AcDbLine
   6
BYBLOCK
  62
0
  10
-1.0000000000000
  20
 0.16666666666667
  30
0.0
  11
0.0
  21
0.0
  31
0.0
   0
LINE
   5
8C
 100
AcDbEntity
   8
0
 100
AcDbLine
   6
BYBLOCK
  62
0
  10
0.0
  20
0.0
  30
0.0
  11
-1.0000000000000
  21
-0.16666666666667
  31
0.0
   0
LINE
   5
8D
 100
AcDbEntity
   8
0
 100
AcDbLine
   6
BYBLOCK
  62
0
  10
0.0
  20
0.0
  30
0.0
  11
-1.0000000000000
  21
0.0
  31
0.0
   0
ENDBLK
   5
8E
 100
AcDbEntity
   8
0
 100
AcDbBlockEnd
   0
BLOCK
   5
8F
 100
AcDbEntity
   8
0
 100
AcDbBlockBegin
   2
_OPEN30
  70
0
  10
0.0
  20
0.0
  30
0.0
   3
_OPEN30
   0
LINE
   5
90
 100
AcDbEntity
   8
0
 100
AcDbLine
   6
BYBLOCK
  62
0
  10
-1.0000000000000
  20
 0.26794919243110
  30
0.0
  11
0.0
  21
0.0
  31
0.0
   0
LINE
   5
91
 100
AcDbEntity
   8
0
 100
AcDbLine
   6
BYBLOCK
  62
0
  10
0.0
  20
0.0
  30
0.0
  11
-1.0000000000000
  21
-0.26794919243110
  31
0.0
   0
LINE
   5
92
 100
AcDbEntity
   8
0
 100
AcDbLine
   6
BYBLOCK
  62
0
  10
0.0
  20
0.0
  30
0.0
  11
-1.0000000000000
  21
0.0
  31
0.0
   0
ENDBLK
   5
93
 100
AcDbEntity
   8
0
 100
AcDbBlockEnd
   0
BLOCK
   5
94
 100
AcDbEntity
   8
0
 100
AcDbBlockBegin
   2
_OPEN90
  70
0
  10
0.0
  20
0.0
  30
0.0
   3
_OPEN90
   0
LINE
   5
95
 100
AcDbEntity
   8
0
 100
AcDbLine
   6
BYBLOCK
  62
0
  10
-0.50000000000000
  20
 0.50000000000000
  30
0.0
  11
0.0
  21
0.0
  31
0.0
   0
LINE
   5
96
 100
AcDbEntity
   8
0
 100
AcDbLine
   6
BYBLOCK
  62
0
  10
0.0
  20
0.0
  30
0.0
  11
-0.50000000000000
  21
-0.50000000000000
  31
0.0
   0
LINE
   5
97
 100
AcDbEntity
   8
0
 100
AcDbLine
   6
BYBLOCK
  62
0
  10
0.0
  20
0.0
  30
0.0
  11
-1.0000000000000
  21
0.0
  31
0.0
   0
ENDBLK
   5
98
 100
AcDbEntity
   8
0
 100
AcDbBlockEnd
   0
BLOCK
   5
99
 100
AcDbEntity
   8
0
 100
AcDbBlockBegin
   2
_CLOSEDBLANK
  70
0
  10
0.0
  20
0.0
  30
0.0
   3
_CLOSEDBLANK
   0
LINE
   5
9A
 100
AcDbEntity
   8
0
 100
AcDbLine
   6
BYBLOCK
  62
0
  10
-1.0000000000000
  20
 0.16666666666667
  30
0.0
  11
0.0
  21
0.0
  31
0.0
   0
LINE
   5
9B
 100
AcDbEntity
   8
0
 100
AcDbLine
   6
BYBLOCK
  62
0
  10
0.0
  20
0.0
  30
0.0
  11
-1.0000000000000
  21
-0.16666666666667
  31
0.0
   0
LINE
   5
9C
 100
AcDbEntity
   8
0
 100
AcDbLine
   6
BYBLOCK
  62
0
  10
-1.0000000000000
  20
 0.16666666666667
  30
0.0
  11
-1.0000000000000
  21
-0.16666666666667
  31
0.0
   0
ENDBLK
   5
9D
 100
AcDbEntity
   8
0
 100
AcDbBlockEnd
   0
BLOCK
   5
9E
 100
AcDbEntity
   8
0
 100
AcDbBlockBegin
   2
_DOT
  70
0
  10
0.0
  20
0.0
  30
0.0
   3
_DOT
   0
POLYLINE
   5
9F
 100
AcDbEntity
   8
0
   6
BYBLOCK
  62
0
 100
AcDb2dPolyline
  66
1
  10
0.0
  20
0.0
  30
0.0
  70
1
  40
 0.50000000000000
  41
 0.50000000000000
   0
VERTEX
   5
A0
 100
AcDbEntity
   8
0
   6
BYBLOCK
  62
0
 100
AcDbVertex
 100
AcDb2dVertex
  10
-0.25000000000000
  20
0.0
  30
0.0
  42
 1.0000000000000
  40
 0.50000000000000
  41
 0.50000000000000
   0
VERTEX
   5
A1
 100
AcDbEntity
   8
0
   6
BYBLOCK
  62
0
 100
AcDbVertex
 100
AcDb2dVertex
  10
 0.25000000000000
  20
0.0
  30
0.0
  42
 1.0000000000000
  40
 0.50000000000000
  41
 0.50000000000000
   0
SEQEND
   5
A2
 100
AcDbEntity
   8
0
   6
BYBLOCK
  62
0
   0
LINE
   5
A3
 100
AcDbEntity
   8
0
 100
AcDbLine
   6
BYBLOCK
  62
0
  10
-0.50000000000000
  20
0.0
  30
0.0
  11
-1.0000000000000
  21
0.0
  31
0.0
   0
ENDBLK
   5
A4
 100
AcDbEntity
   8
0
 100
AcDbBlockEnd
   0
BLOCK
   5
A5
 100
AcDbEntity
   8
0
 100
AcDbBlockBegin
   2
_DOTSMALL
  70
0
  10
0.0
  20
0.0
  30
0.0
   3
_DOTSMALL
   0
POLYLINE
   5
A6
 100
AcDbEntity
   8
0
   6
BYBLOCK
  62
0
 100
AcDb2dPolyline
  66
1
  10
0.0
  20
0.0
  30
0.0
  70
1
  40
 0.50000000000000
  41
 0.50000000000000
   0
VERTEX
   5
A7
 100
AcDbEntity
   8
0
   6
BYBLOCK
  62
0
 100
AcDbVertex
 100
AcDb2dVertex
  10
-0.62500000000000E-1
  20
0.0
  30
0.0
  42
 1.0000000000000
  40
 0.50000000000000
  41
 0.50000000000000
   0
VERTEX
   5
A8
 100
AcDbEntity
   8
0
   6
BYBLOCK
  62
0
 100
AcDbVertex
 100
AcDb2dVertex
  10
 0.62500000000000E-1
  20
0.0
  30
0.0
  42
 1.0000000000000
  40
 0.50000000000000
  41
 0.50000000000000
   0
SEQEND
   5
A9
 100
AcDbEntity
   8
0
   6
BYBLOCK
  62
0
   0
ENDBLK
   5
AA
 100
AcDbEntity
   8
0
 100
AcDbBlockEnd
   0
BLOCK
   5
AB
 100
AcDbEntity
   8
0
 100
AcDbBlockBegin
   2
_DATUMBLANK
  70
0
  10
0.0
  20
0.0
  30
0.0
   3
_DATUMBLANK
   0
LINE
   5
AC
 100
AcDbEntity
   8
0
 100
AcDbLine
   6
BYBLOCK
  62
0
  10
0.0
  20
 0.57735027000000
  30
0.0
  11
-1.0000000000000
  21
0.0
  31
0.0
   0
LINE
   5
AD
 100
AcDbEntity
   8
0
 100
AcDbLine
   6
BYBLOCK
  62
0
  10
-1.0000000000000
  20
0.0
  30
0.0
  11
0.0
  21
-0.57735027000000
  31
0.0
   0
LINE
   5
AE
 100
AcDbEntity
   8
0
 100
AcDbLine
   6
BYBLOCK
  62
0
  10
0.0
  20
-0.57735027000000
  30
0.0
  11
0.0
  21
 0.57735027000000
  31
0.0
   0
ENDBLK
   5
AF
 100
AcDbEntity
   8
0
 100
AcDbBlockEnd
   0
BLOCK
   5
B0
 100
AcDbEntity
   8
0
 100
AcDbBlockBegin
   2
_DATUMFILLED
  70
0
  10
0.0
  20
0.0
  30
0.0
   3
_DATUMFILLED
   0
SOLID
   5
B1
 100
AcDbEntity
   8
0
 100
AcDbTrace
   6
BYBLOCK
  62
0
  10
0.0
  20
 0.57735027000000
  30
0.0
  11
-1.0000000000000
  21
0.0
  31
0.0
  12
0.0
  22
-0.57735027000000
  32
0.0
  13
0.0
  23
-0.57735027000000
  33
0.0
   0
ENDBLK
   5
B2
 100
AcDbEntity
   8
0
 100
AcDbBlockEnd
   0
BLOCK
   5
B3
 100
AcDbEntity
   8
0
 100
AcDbBlockBegin
   2
_ORIGIN
  70
0
  10
0.0
  20
0.0
  30
0.0
   3
_ORIGIN
   0
CIRCLE
   5
B4
 100
AcDbEntity
   8
0
 100
AcDbCircle
   6
BYBLOCK
  62
0
  10
0.0
  20
0.0
  30
0.0
  40
 0.50000000000000
   0
LINE
   5
B5
 100
AcDbEntity
   8
0
 100
AcDbLine
   6
BYBLOCK
  62
0
  10
0.0
  20
0.0
  30
0.0
  11
-1.0000000000000
  21
0.0
  31
0.0
   0
ENDBLK
   5
B6
 100
AcDbEntity
   8
0
 100
AcDbBlockEnd
   0
BLOCK
   5
B7
 100
AcDbEntity
   8
0
 100
AcDbBlockBegin
   2
_NONE
  70
0
  10
0.0
  20
0.0
  30
0.0
   3
_NONE
   0
CIRCLE
   5
B8
 100
AcDbEntity
   8
0
 100
AcDbCircle
   6
BYBLOCK
  62
0
  10
0.0
  20
0.0
  30
0.0
  40
 0.25000000000000
   0
ENDBLK
   5
B9
 100
AcDbEntity
   8
0
 100
AcDbBlockEnd
   0
BLOCK
   5
BA
 100
AcDbEntity
   8
0
 100
AcDbBlockBegin
   2
_DOTBLANK
  70
0
  10
0.0
  20
0.0
  30
0.0
   3
_DOTBLANK
   0
CIRCLE
   5
BB
 100
AcDbEntity
   8
0
 100
AcDbCircle
   6
BYBLOCK
  62
0
  10
0.0
  20
0.0
  30
0.0
  40
 0.50000000000000
   0
LINE
   5
BC
 100
AcDbEntity
   8
0
 100
AcDbLine
   6
BYBLOCK
  62
0
  10
-0.50000000000000
  20
0.0
  30
0.0
  11
-1.0000000000000
  21
0.0
  31
0.0
   0
ENDBLK
   5
BD
 100
AcDbEntity
   8
0
 100
AcDbBlockEnd
   0
BLOCK
   5
BE
 100
AcDbEntity
   8
0
 100
AcDbBlockBegin
   2
_INTEGRAL
  70
0
  10
0.0
  20
0.0
  30
0.0
   3
_INTEGRAL
   0
ARC
   5
BF
 100
AcDbEntity
   8
0
   6
BYBLOCK
  62
0
 100
AcDbCircle
  10
 0.44488800000000
  20
-0.91335000000000E-1
  30
0.0
  40
 0.45416700000000
 100
AcDbArc
  50
 102.00000000000
  51
 168.00000000000
   0
ARC
   5
C0
 100
AcDbEntity
   8
0
   6
BYBLOCK
  62
0
 100
AcDbCircle
  10
-0.44488800000000
  20
 0.91335000000000E-1
  30
0.0
  40
 0.45416700000000
 100
AcDbArc
  50
 282.00000000000
  51
 348.00000000000
   0
ENDBLK
   5
C1
 100
AcDbEntity
   8
0
 100
AcDbBlockEnd
   0
BLOCK
   5
C2
 100
AcDbEntity
   8
0
 100
AcDbBlockBegin
   2
*D1
  70
65
  10
0.0
  20
0.0
  30
0.0
   3
*D1
   0
LINE
   5
C3
 100
AcDbEntity
   8
LEVEL003
 100
AcDbLine
   6
CONTINUOUS
  62
3
  10
 176.00000000000
  20
 380.00000460446
  30
0.0
  11
 159.50000000000
  21
 380.00000460446
  31
0.0
   0
LINE
   5
C4
 100
AcDbEntity
   8
LEVEL003
 100
AcDbLine
   6
CONTINUOUS
  62
3
  10
 175.25000000000
  20
 355.00000460446
  30
0.0
  11
 159.50000000000
  21
 355.00000460446
  31
0.0
   0
LINE
   5
C5
 100
AcDbEntity
   8
LEVEL003
 100
AcDbLine
   6
CONTINUOUS
  62
3
  10
 162.50000000000
  20
 380.00000460446
  30
0.0
  11
 162.50000000000
  21
 374.78750460446
  31
0.0
   0
LINE
   5
C6
 100
AcDbEntity
   8
LEVEL003
 100
AcDbLine
   6
CONTINUOUS
  62
3
  10
 162.50000000000
  20
 355.00000460446
  30
0.0
  11
 162.50000000000
  21
 362.71250460446
  31
0.0
   0
INSERT
   5
C7
 100
AcDbEntity
   8
LEVEL003
   6
CONTINUOUS
  62
3
 100
AcDbBlockReference
   2
_OPEN
  10
 162.50000000000
  20
 380.00000460446
  30
0.0
  41
 4.5000000000000
  42
 4.5000000000000
  43
 4.5000000000000
  50
 90.000000000000
   0
INSERT
   5
C8
 100
AcDbEntity
   8
LEVEL003
   6
CONTINUOUS
  62
3
 100
AcDbBlockReference
   2
_OPEN
  10
 162.50000000000
  20
 355.00000460446
  30
0.0
  41
 4.5000000000000
  42
 4.5000000000000
  43
 4.5000000000000
  50
 270.00000000000
   0
MTEXT
   5
C9
 100
AcDbEntity
   8
LEVEL003
  62
3
 100
AcDbMText
  10
 161.29999542236
  20
 368.75000460446
  30
0.0
  40
 6.0000000000000
  41
0.0
  71
8
  72
1
   1
\A1;25
   7
GMM001
  11
0.0
  21
 1.0000000000000
  31
0.0
   0
ENDBLK
   5
CA
 100
AcDbEntity
   8
0
 100
AcDbBlockEnd
   0
BLOCK
   5
CB
 100
AcDbEntity
   8
0
 100
AcDbBlockBegin
   2
*D2
  70
65
  10
0.0
  20
0.0
  30
0.0
   3
*D2
   0
LINE
   5
CC
 100
AcDbEntity
   8
LEVEL003
 100
AcDbLine
   6
CONTINUOUS
  62
3
  10
 137.50000000000
  20
 357.50000460446
  30
0.0
  11
 157.50000000000
  21
 357.50000460446
  31
0.0
   0
LINE
   5
CD
 100
AcDbEntity
   8
LEVEL003
 100
AcDbLine
   6
CONTINUOUS
  62
3
  10
 177.50000000000
  20
 357.50000460446
  30
0.0
  11
 157.50000000000
  21
 357.50000460446
  31
0.0
   0
INSERT
   5
CE
 100
AcDbEntity
   8
LEVEL003
   6
CONTINUOUS
  62
3
 100
AcDbBlockReference
   2
_OPEN
  10
 137.50000000000
  20
 357.50000460446
  30
0.0
  41
 4.5000000000000
  42
 4.5000000000000
  43
 4.5000000000000
  50
 180.00000000000
   0
INSERT
   5
CF
 100
AcDbEntity
   8
LEVEL003
   6
CONTINUOUS
  62
3
 100
AcDbBlockReference
   2
_OPEN
  10
 177.50000000000
  20
 357.50000460446
  30
0.0
  41
 4.5000000000000
  42
 4.5000000000000
  43
 4.5000000000000
  50
0.0
   0
MTEXT
   5
D0
 100
AcDbEntity
   8
LEVEL003
  62
3
 100
AcDbMText
  10
 157.50000000000
  20
 358.70000460446
  30
0.0
  40
 6.0000000000000
  41
0.0
  71
8
  72
1
   1
\A1;M40×1.5
   7
GMM002
   0
ENDBLK
   5
D1
 100
AcDbEntity
   8
0
 100
AcDbBlockEnd
   0
BLOCK
   5
D2
 100
AcDbEntity
   8
0
 100
AcDbBlockBegin
   2
*D3
  70
65
  10
0.0
  20
0.0
  30
0.0
   3
*D3
   0
LINE
   5
D3
 100
AcDbEntity
   8
LEVEL003
 100
AcDbLine
   6
CONTINUOUS
  62
3
  10
 236.99999476969
  20
 154.99998797476
  30
0.0
  11
 280.49999351800
  21
 154.99998797476
  31
0.0
   0
LINE
   5
D4
 100
AcDbEntity
   8
LEVEL003
 100
AcDbLine
   6
CONTINUOUS
  62
3
  10
 236.99999476969
  20
 274.99998439848
  30
0.0
  11
 280.49999351800
  21
 274.99998439848
  31
0.0
   0
LINE
   5
D5
 100
AcDbEntity
   8
LEVEL003
 100
AcDbLine
   6
CONTINUOUS
  62
3
  10
 277.49999351800
  20
 154.99998797476
  30
0.0
  11
 277.49999351800
  21
 207.45311118662
  31
0.0
   0
LINE
   5
D6
 100
AcDbEntity
   8
LEVEL003
 100
AcDbLine
   6
CONTINUOUS
  62
3
  10
 277.49999351800
  20
 274.99998439848
  30
0.0
  11
 277.49999351800
  21
 222.54686118662
  31
0.0
   0
INSERT
   5
D7
 100
AcDbEntity
   8
LEVEL003
   6
CONTINUOUS
  62
3
 100
AcDbBlockReference
   2
_OPEN
  10
 277.49999351800
  20
 154.99998797476
  30
0.0
  41
 4.5000000000000
  42
 4.5000000000000
  43
 4.5000000000000
  50
 270.00000000000
   0
INSERT
   5
D8
 100
AcDbEntity
   8
LEVEL003
   6
CONTINUOUS
  62
3
 100
AcDbBlockReference
   2
_OPEN
  10
 277.49999351800
  20
 274.99998439848
  30
0.0
  41
 4.5000000000000
  42
 4.5000000000000
  43
 4.5000000000000
  50
 90.000000000000
   0
MTEXT
   5
D9
 100
AcDbEntity
   8
LEVEL003
  62
3
 100
AcDbMText
  10
 276.29998897613
  20
 214.99998618662
  30
0.0
  40
 6.0000000000000
  41
0.0
  71
8
  72
1
   1
\A1;120
   7
GMM001
  11
0.0
  21
 1.0000000000000
  31
0.0
   0
ENDBLK
   5
DA
 100
AcDbEntity
   8
0
 100
AcDbBlockEnd
   0
BLOCK
   5
DB
 100
AcDbEntity
   8
0
 100
AcDbBlockBegin
   2
*D4
  70
65
  10
0.0
  20
0.0
  30
0.0
   3
*D4
   0
LINE
   5
DC
 100
AcDbEntity
   8
LEVEL003
 100
AcDbLine
   6
CONTINUOUS
  62
3
  10
 258.50000934303
  20
 172.49999508261
  30
0.0
  11
 238.05313520790
  21
 172.49999508261
  31
0.0
   0
LINE
   5
DD
 100
AcDbEntity
   8
LEVEL003
 100
AcDbLine
   6
CONTINUOUS
  62
3
  10
 207.50001086295
  20
 172.49999508261
  30
0.0
  11
 227.94688520790
  21
 172.49999508261
  31
0.0
   0
INSERT
   5
DE
 100
AcDbEntity
   8
LEVEL003
   6
CONTINUOUS
  62
3
 100
AcDbBlockReference
   2
_OPEN
  10
 258.50000934303
  20
 172.49999508261
  30
0.0
  41
 4.5000000000000
  42
 4.5000000000000
  43
 4.5000000000000
  50
0.0
   0
INSERT
   5
DF
 100
AcDbEntity
   8
LEVEL003
   6
CONTINUOUS
  62
3
 100
AcDbBlockReference
   2
_OPEN
  10
 207.50001086295
  20
 172.49999508261
  30
0.0
  41
 4.5000000000000
  42
 4.5000000000000
  43
 4.5000000000000
  50
 180.00000000000
   0
MTEXT
   5
E0
 100
AcDbEntity
   8
LEVEL003
  62
3
 100
AcDbMText
  10
 233.00001020790
  20
 173.69999962448
  30
0.0
  40
 6.0000000000000
  41
0.0
  71
8
  72
1
   1
\A1;51
   7
GMM001
   0
ENDBLK
   5
E1
 100
AcDbEntity
   8
0
 100
AcDbBlockEnd
   0
BLOCK
   5
E2
 100
AcDbEntity
   8
0
 100
AcDbBlockBegin
   2
*D8
  70
65
  10
0.0
  20
0.0
  30
0.0
   3
*D8
   0
LINE
   5
E3
 100
AcDbEntity
   8
LEVEL003
 100
AcDbLine
   6
CONTINUOUS
  62
3
  10
 279.00001640618
  20
 79.999967321754
  30
0.0
  11
 288.00000000000
  21
 79.999967321754
  31
0.0
   0
LINE
   5
E4
 100
AcDbEntity
   8
LEVEL003
 100
AcDbLine
   6
CONTINUOUS
  62
3
  10
 290.99999307096
  20
 54.999983325601
  30
0.0
  11
 282.00000000000
  21
 54.999983325601
  31
0.0
   0
LINE
   5
E5
 100
AcDbEntity
   8
LEVEL003
 100
AcDbLine
   6
CONTINUOUS
  62
3
  10
 285.00000000000
  20
 79.999967321754
  30
0.0
  11
 285.00000000000
  21
 73.537475323678
  31
0.0
   0
LINE
   5
E6
 100
AcDbEntity
   8
LEVEL003
 100
AcDbLine
   6
CONTINUOUS
  62
3
  10
 285.00000000000
  20
 54.999983325601
  30
0.0
  11
 285.00000000000
  21
 61.462475323678
  31
0.0
   0
INSERT
   5
E7
 100
AcDbEntity
   8
LEVEL003
   6
CONTINUOUS
  62
3
 100
AcDbBlockReference
   2
_OPEN
  10
 285.00000000000
  20
 79.999967321754
  30
0.0
  41
 4.5000000000000
  42
 4.5000000000000
  43
 4.5000000000000
  50
 90.000000000000
   0
INSERT
   5
E8
 100
AcDbEntity
   8
LEVEL003
   6
CONTINUOUS
  62
3
 100
AcDbBlockReference
   2
_OPEN
  10
 285.00000000000
  20
 54.999983325601
  30
0.0
  41
 4.5000000000000
  42
 4.5000000000000
  43
 4.5000000000000
  50
 270.00000000000
   0
MTEXT
   5
E9
 100
AcDbEntity
   8
LEVEL003
  62
3
 100
AcDbMText
  10
 283.79999545813
  20
 67.499975323678
  30
0.0
  40
 6.0000000000000
  41
0.0
  71
8
  72
1
   1
\A1;25
   7
GMM001
  11
0.0
  21
 1.0000000000000
  31
0.0
   0
ENDBLK
   5
EA
 100
AcDbEntity
   8
0
 100
AcDbBlockEnd
   0
BLOCK
   5
EB
 100
AcDbEntity
   8
0
 100
AcDbBlockBegin
   2
*D9
  70
65
  10
0.0
  20
0.0
  30
0.0
   3
*D9
   0
LINE
   5
EC
 100
AcDbEntity
   8
LEVEL003
 100
AcDbLine
   6
CONTINUOUS
  62
3
  10
 207.00001855195
  20
 54.999983325601
  30
0.0
  11
 303.00000000000
  21
 54.999983325601
  31
0.0
   0
LINE
   5
ED
 100
AcDbEntity
   8
LEVEL003
 100
AcDbLine
   6
CONTINUOUS
  62
3
  10
 182.99999637902
  20
 389.99998904765
  30
0.0
  11
 303.00000000000
  21
 389.99998904765
  31
0.0
   0
LINE
   5
EE
 100
AcDbEntity
   8
LEVEL003
 100
AcDbLine
   6
CONTINUOUS
  62
3
  10
 300.00000000000
  20
 54.999983325601
  30
0.0
  11
 300.00000000000
  21
 213.44373618662
  31
0.0
   0
LINE
   5
EF
 100
AcDbEntity
   8
LEVEL003
 100
AcDbLine
   6
CONTINUOUS
  62
3
  10
 300.00000000000
  20
 389.99998904765
  30
0.0
  11
 300.00000000000
  21
 231.55623618662
  31
0.0
   0
INSERT
   5
F0
 100
AcDbEntity
   8
LEVEL003
   6
CONTINUOUS
  62
3
 100
AcDbBlockReference
   2
_OPEN
  10
 300.00000000000
  20
 54.999983325601
  30
0.0
  41
 4.5000000000000
  42
 4.5000000000000
  43
 4.5000000000000
  50
 270.00000000000
   0
INSERT
   5
F1
 100
AcDbEntity
   8
LEVEL003
   6
CONTINUOUS
  62
3
 100
AcDbBlockReference
   2
_OPEN
  10
 300.00000000000
  20
 389.99998904765
  30
0.0
  41
 4.5000000000000
  42
 4.5000000000000
  43
 4.5000000000000
  50
 90.000000000000
   0
MTEXT
   5
F2
 100
AcDbEntity
   8
LEVEL003
  62
3
 100
AcDbMText
  10
 298.79999545813
  20
 222.49998618662
  30
0.0
  40
 6.0000000000000
  41
0.0
  71
8
  72
1
   1
\A1;335
   7
GMM001
  11
0.0
  21
 1.0000000000000
  31
0.0
   0
ENDBLK
   5
F3
 100
AcDbEntity
   8
0
 100
AcDbBlockEnd
   0
BLOCK
   5
F4
 100
AcDbEntity
   8
0
 100
AcDbBlockBegin
   2
*D11
  70
65
  10
0.0
  20
0.0
  30
0.0
   3
*D11
   0
LINE
   5
F5
 100
AcDbEntity
   8
LEVEL003
 100
AcDbLine
   6
CONTINUOUS
  62
3
  10
 207.50000000000
  20
 172.49999062406
  30
0.0
  11
 168.72187510491
  21
 172.49999062406
  31
0.0
   0
LINE
   5
F6
 100
AcDbEntity
   8
LEVEL003
 100
AcDbLine
   6
CONTINUOUS
  62
3
  10
 107.50000000000
  20
 172.49999062406
  30
0.0
  11
 146.27812510491
  21
 172.49999062406
  31
0.0
   0
INSERT
   5
F7
 100
AcDbEntity
   8
LEVEL003
   6
CONTINUOUS
  62
3
 100
AcDbBlockReference
   2
_OPEN
  10
 207.50000000000
  20
 172.49999062406
  30
0.0
  41
 4.5000000000000
  42
 4.5000000000000
  43
 4.5000000000000
  50
0.0
   0
INSERT
   5
F8
 100
AcDbEntity
   8
LEVEL003
   6
CONTINUOUS
  62
3
 100
AcDbBlockReference
   2
_OPEN
  10
 107.50000000000
  20
 172.49999062406
  30
0.0
  41
 4.5000000000000
  42
 4.5000000000000
  43
 4.5000000000000
  50
 180.00000000000
   0
MTEXT
   5
F9
 100
AcDbEntity
   8
LEVEL003
  62
3
 100
AcDbMText
  10
 157.50000010491
  20
 173.69999520170
  30
0.0
  40
 6.0000000000000
  41
0.0
  71
8
  72
1
   1
\A1;%%c100
   7
GMM001
   0
ENDBLK
   5
FA
 100
AcDbEntity
   8
0
 100
AcDbBlockEnd
   0
BLOCK
   5
FB
 100
AcDbEntity
   8
0
 100
AcDbBlockBegin
   2
*D12
  70
65
  10
0.0
  20
0.0
  30
0.0
   3
*D12
   0
LINE
   5
FC
 100
AcDbEntity
   8
LEVEL003
 100
AcDbLine
   6
CONTINUOUS
  62
3
  10
 143.25000000000
  20
 62.499983325601
  30
0.0
  11
 143.25000000000
  21
 38.250000000000
  31
0.0
   0
LINE
   5
FD
 100
AcDbEntity
   8
LEVEL003
 100
AcDbLine
   6
CONTINUOUS
  62
3
  10
 171.75000000000
  20
 62.499983325601
  30
0.0
  11
 171.75000000000
  21
 38.250000000000
  31
0.0
   0
LINE
   5
FE
 100
AcDbEntity
   8
LEVEL003
 100
AcDbLine
   6
CONTINUOUS
  62
3
  10
 143.25000000000
  20
 41.250000000000
  30
0.0
  11
 143.25937500000
  21
 41.250000000000
  31
0.0
   0
LINE
   5
FF
 100
AcDbEntity
   8
LEVEL003
 100
AcDbLine
   6
CONTINUOUS
  62
3
  10
 171.75000000000
  20
 41.250000000000
  30
0.0
  11
 171.74062500000
  21
 41.250000000000
  31
0.0
   0
INSERT
   5
100
 100
AcDbEntity
   8
LEVEL003
   6
CONTINUOUS
  62
3
 100
AcDbBlockReference
   2
_OPEN
  10
 143.25000000000
  20
 41.250000000000
  30
0.0
  41
 4.5000000000000
  42
 4.5000000000000
  43
 4.5000000000000
  50
 180.00000000000
   0
INSERT
   5
101
 100
AcDbEntity
   8
LEVEL003
   6
CONTINUOUS
  62
3
 100
AcDbBlockReference
   2
_OPEN
  10
 171.75000000000
  20
 41.250000000000
  30
0.0
  41
 4.5000000000000
  42
 4.5000000000000
  43
 4.5000000000000
  50
0.0
   0
MTEXT
   5
102
 100
AcDbEntity
   8
LEVEL003
  62
3
 100
AcDbMText
  10
 157.50000000000
  20
 42.450000000000
  30
0.0
  40
 6.0000000000000
  41
0.0
  71
8
  72
1
   1
\A1;%%c28.5
   7
GMM001
   0
ENDBLK
   5
103
 100
AcDbEntity
   8
0
 100
AcDbBlockEnd
   0
BLOCK
   5
104
 100
AcDbEntity
   8
0
 100
AcDbBlockBegin
   2
*D13
  70
65
  10
0.0
  20
0.0
  30
0.0
   3
*D13
   0
LINE
   5
105
 100
AcDbEntity
   8
LEVEL003
 100
AcDbLine
   6
CONTINUOUS
  62
3
  10
 143.25000000000
  20
 386.50000460446
  30
0.0
  11
 143.25000000000
  21
 400.50000000000
  31
0.0
   0
LINE
   5
106
 100
AcDbEntity
   8
LEVEL003
 100
AcDbLine
   6
CONTINUOUS
  62
3
  10
 171.75000000000
  20
 386.50000460446
  30
0.0
  11
 171.75000000000
  21
 400.50000000000
  31
0.0
   0
LINE
   5
107
 100
AcDbEntity
   8
LEVEL003
 100
AcDbLine
   6
CONTINUOUS
  62
3
  10
 143.25000000000
  20
 397.50000000000
  30
0.0
  11
 143.25937500000
  21
 397.50000000000
  31
0.0
   0
LINE
   5
108
 100
AcDbEntity
   8
LEVEL003
 100
AcDbLine
   6
CONTINUOUS
  62
3
  10
 171.75000000000
  20
 397.50000000000
  30
0.0
  11
 171.74062500000
  21
 397.50000000000
  31
0.0
   0
INSERT
   5
109
 100
AcDbEntity
   8
LEVEL003
   6
CONTINUOUS
  62
3
 100
AcDbBlockReference
   2
_OPEN
  10
 143.25000000000
  20
 397.50000000000
  30
0.0
  41
 4.5000000000000
  42
 4.5000000000000
  43
 4.5000000000000
  50
 180.00000000000
   0
INSERT
   5
10A
 100
AcDbEntity
   8
LEVEL003
   6
CONTINUOUS
  62
3
 100
AcDbBlockReference
   2
_OPEN
  10
 171.75000000000
  20
 397.50000000000
  30
0.0
  41
 4.5000000000000
  42
 4.5000000000000
  43
 4.5000000000000
  50
0.0
   0
MTEXT
   5
10B
 100
AcDbEntity
   8
LEVEL003
  62
3
 100
AcDbMText
  10
 157.50000000000
  20
 398.70000000000
  30
0.0
  40
 6.0000000000000
  41
0.0
  71
8
  72
1
   1
\A1;%%c28.5
   7
GMM001
   0
ENDBLK
   5
10C
 100
AcDbEntity
   8
0
 100
AcDbBlockEnd
   0
BLOCK
   5
10D
 100
AcDbEntity
   8
0
 100
AcDbBlockBegin
   2
*D14
  70
65
  10
0.0
  20
0.0
  30
0.0
   3
*D14
   0
LINE
   5
10E
 100
AcDbEntity
   8
LEVEL003
 100
AcDbLine
   6
CONTINUOUS
  62
3
  10
 182.50000000000
  20
 390.50000460446
  30
0.0
  11
 182.50000000000
  21
 415.50000152990
  31
0.0
   0
LINE
   5
10F
 100
AcDbEntity
   8
LEVEL003
 100
AcDbLine
   6
CONTINUOUS
  62
3
  10
 132.50000000000
  20
 390.50000460446
  30
0.0
  11
 132.50000000000
  21
 415.50000152990
  31
0.0
   0
LINE
   5
110
 100
AcDbEntity
   8
LEVEL003
 100
AcDbLine
   6
CONTINUOUS
  62
3
  10
 182.50000000000
  20
 412.50000152990
  30
0.0
  11
 167.21250215934
  21
 412.50000152990
  31
0.0
   0
LINE
   5
111
 100
AcDbEntity
   8
LEVEL003
 100
AcDbLine
   6
CONTINUOUS
  62
3
  10
 132.50000000000
  20
 412.50000152990
  30
0.0
  11
 147.78750215934
  21
 412.50000152990
  31
0.0
   0
INSERT
   5
112
 100
AcDbEntity
   8
LEVEL003
   6
CONTINUOUS
  62
3
 100
AcDbBlockReference
   2
_OPEN
  10
 182.50000000000
  20
 412.50000152990
  30
0.0
  41
 4.5000000000000
  42
 4.5000000000000
  43
 4.5000000000000
  50
0.0
   0
INSERT
   5
113
 100
AcDbEntity
   8
LEVEL003
   6
CONTINUOUS
  62
3
 100
AcDbBlockReference
   2
_OPEN
  10
 132.50000000000
  20
 412.50000152990
  30
0.0
  41
 4.5000000000000
  42
 4.5000000000000
  43
 4.5000000000000
  50
 180.00000000000
   0
MTEXT
   5
114
 100
AcDbEntity
   8
LEVEL003
  62
3
 100
AcDbMText
  10
 157.50000215934
  20
 413.69998321935
  30
0.0
  40
 6.0000000000000
  41
0.0
  71
8
  72
1
   1
\A1;%%c50
   7
GMM001
   0
ENDBLK
   5
115
 100
AcDbEntity
   8
0
 100
AcDbBlockEnd
   0
BLOCK
   5
116
 100
AcDbEntity
   8
0
 100
AcDbBlockBegin
   2
*D17
  70
65
  10
0.0
  20
0.0
  30
0.0
   3
*D17
   0
LINE
   5
117
 100
AcDbEntity
   8
LEVEL003
 100
AcDbLine
   6
CONTINUOUS
  62
3
  10
 182.99999928474
  20
 389.99998904765
  30
0.0
  11
 273.00000000000
  21
 389.99998904765
  31
0.0
   0
LINE
   5
118
 100
AcDbEntity
   8
LEVEL003
 100
AcDbLine
   6
CONTINUOUS
  62
3
  10
 184.35962601424
  20
 380.00000460446
  30
0.0
  11
 273.00000000000
  21
 380.00000460446
  31
0.0
   0
LINE
   5
119
 100
AcDbEntity
   8
LEVEL003
 100
AcDbLine
   6
CONTINUOUS
  62
3
  10
 270.00000000000
  20
 389.99998904765
  30
0.0
  11
 270.00000000000
  21
 389.52814471424
  31
0.0
   0
LINE
   5
11A
 100
AcDbEntity
   8
LEVEL003
 100
AcDbLine
   6
CONTINUOUS
  62
3
  10
 270.00000000000
  20
 380.00000460446
  30
0.0
  11
 270.00000000000
  21
 380.47189471424
  31
0.0
   0
INSERT
   5
11B
 100
AcDbEntity
   8
LEVEL003
   6
CONTINUOUS
  62
3
 100
AcDbBlockReference
   2
_OPEN
  10
 270.00000000000
  20
 389.99998904765
  30
0.0
  41
 4.5000000000000
  42
 4.5000000000000
  43
 4.5000000000000
  50
 90.000000000000
   0
INSERT
   5
11C
 100
AcDbEntity
   8
LEVEL003
   6
CONTINUOUS
  62
3
 100
AcDbBlockReference
   2
_OPEN
  10
 270.00000000000
  20
 380.00000460446
  30
0.0
  41
 4.5000000000000
  42
 4.5000000000000
  43
 4.5000000000000
  50
 270.00000000000
   0
MTEXT
   5
11D
 100
AcDbEntity
   8
LEVEL003
  62
3
 100
AcDbMText
  10
 268.79999545813
  20
 385.00001971424
  30
0.0
  40
 6.0000000000000
  41
0.0
  71
8
  72
1
   1
\A1;10
   7
GMM001
  11
0.0
  21
 1.0000000000000
  31
0.0
   0
ENDBLK
   5
11E
 100
AcDbEntity
   8
0
 100
AcDbBlockEnd
   0
BLOCK
   5
11F
 100
AcDbEntity
   8
0
 100
AcDbBlockBegin
   2
*D18
  70
65
  10
0.0
  20
0.0
  30
0.0
   3
*D18
   0
LINE
   5
120
 100
AcDbEntity
   8
LEVEL003
 100
AcDbLine
   6
CONTINUOUS
  62
3
  10
 182.99999928474
  20
 389.99998904765
  30
0.0
  11
 288.00000000000
  21
 389.99998904765
  31
0.0
   0
LINE
   5
121
 100
AcDbEntity
   8
LEVEL003
 100
AcDbLine
   6
CONTINUOUS
  62
3
  10
 206.50000621378
  20
 377.00000469387
  30
0.0
  11
 288.00000000000
  21
 377.00000469387
  31
0.0
   0
LINE
   5
122
 100
AcDbEntity
   8
LEVEL003
 100
AcDbLine
   6
CONTINUOUS
  62
3
  10
 285.00000000000
  20
 389.99998904765
  30
0.0
  11
 285.00000000000
  21
 388.55314475894
  31
0.0
   0
LINE
   5
123
 100
AcDbEntity
   8
LEVEL003
 100
AcDbLine
   6
CONTINUOUS
  62
3
  10
 285.00000000000
  20
 377.00000469387
  30
0.0
  11
 285.00000000000
  21
 378.44689475894
  31
0.0
   0
INSERT
   5
124
 100
AcDbEntity
   8
LEVEL003
   6
CONTINUOUS
  62
3
 100
AcDbBlockReference
   2
_OPEN
  10
 285.00000000000
  20
 389.99998904765
  30
0.0
  41
 4.5000000000000
  42
 4.5000000000000
  43
 4.5000000000000
  50
 90.000000000000
   0
INSERT
   5
125
 100
AcDbEntity
   8
LEVEL003
   6
CONTINUOUS
  62
3
 100
AcDbBlockReference
   2
_OPEN
  10
 285.00000000000
  20
 377.00000469387
  30
0.0
  41
 4.5000000000000
  42
 4.5000000000000
  43
 4.5000000000000
  50
 270.00000000000
   0
MTEXT
   5
126
 100
AcDbEntity
   8
LEVEL003
  62
3
 100
AcDbMText
  10
 283.79999545813
  20
 383.50001975894
  30
0.0
  40
 6.0000000000000
  41
0.0
  71
8
  72
1
   1
\A1;13
   7
GMM001
  11
0.0
  21
 1.0000000000000
  31
0.0
   0
ENDBLK
   5
127
 100
AcDbEntity
   8
0
 100
AcDbBlockEnd
   0
BLOCK
   5
128
 100
AcDbEntity
   8
0
 100
AcDbBlockBegin
   2
*D19
  70
65
  10
0.0
  20
0.0
  30
0.0
   3
*D19
   0
LINE
   5
129
 100
AcDbEntity
   8
LEVEL003
 100
AcDbLine
   6
CONTINUOUS
  62
3
  10
 206.50000621378
  20
 377.00000469387
  30
0.0
  11
 288.00000000000
  21
 377.00000469387
  31
0.0
   0
LINE
   5
12A
 100
AcDbEntity
   8
LEVEL003
 100
AcDbLine
   6
CONTINUOUS
  62
3
  10
 212.00001367927
  20
 341.99999047816
  30
0.0
  11
 288.00000000000
  21
 341.99999047816
  31
0.0
   0
LINE
   5
12B
 100
AcDbEntity
   8
LEVEL003
 100
AcDbLine
   6
CONTINUOUS
  62
3
  10
 285.00000000000
  20
 377.00000469387
  30
0.0
  11
 285.00000000000
  21
 365.53749758601
  31
0.0
   0
LINE
   5
12C
 100
AcDbEntity
   8
LEVEL003
 100
AcDbLine
   6
CONTINUOUS
  62
3
  10
 285.00000000000
  20
 341.99999047816
  30
0.0
  11
 285.00000000000
  21
 353.46249758601
  31
0.0
   0
INSERT
   5
12D
 100
AcDbEntity
   8
LEVEL003
   6
CONTINUOUS
  62
3
 100
AcDbBlockReference
   2
_OPEN
  10
 285.00000000000
  20
 377.00000469387
  30
0.0
  41
 4.5000000000000
  42
 4.5000000000000
  43
 4.5000000000000
  50
 90.000000000000
   0
INSERT
   5
12E
 100
AcDbEntity
   8
LEVEL003
   6
CONTINUOUS
  62
3
 100
AcDbBlockReference
   2
_OPEN
  10
 285.00000000000
  20
 341.99999047816
  30
0.0
  41
 4.5000000000000
  42
 4.5000000000000
  43
 4.5000000000000
  50
 270.00000000000
   0
MTEXT
   5
12F
 100
AcDbEntity
   8
LEVEL003
  62
3
 100
AcDbMText
  10
 283.79999545813
  20
 359.49999758601
  30
0.0
  40
 6.0000000000000
  41
0.0
  71
8
  72
1
   1
\A1;35
   7
GMM001
  11
0.0
  21
 1.0000000000000
  31
0.0
   0
ENDBLK
   5
130
 100
AcDbEntity
   8
0
 100
AcDbBlockEnd
   0
BLOCK
   5
131
 100
AcDbEntity
   8
0
 100
AcDbBlockBegin
   2
*D20
  70
65
  10
0.0
  20
0.0
  30
0.0
   3
*D20
   0
LINE
   5
132
 100
AcDbEntity
   8
LEVEL003
 100
AcDbLine
   6
CONTINUOUS
  62
3
  10
 121.00000000000
  20
 187.50000000000
  30
0.0
  11
 147.26250000000
  21
 187.50000000000
  31
0.0
   0
LINE
   5
133
 100
AcDbEntity
   8
LEVEL003
 100
AcDbLine
   6
CONTINUOUS
  62
3
  10
 194.00000000000
  20
 187.50000000000
  30
0.0
  11
 167.73750000000
  21
 187.50000000000
  31
0.0
   0
INSERT
   5
134
 100
AcDbEntity
   8
LEVEL003
   6
CONTINUOUS
  62
3
 100
AcDbBlockReference
   2
_OPEN
  10
 121.00000000000
  20
 187.50000000000
  30
0.0
  41
 4.5000000000000
  42
 4.5000000000000
  43
 4.5000000000000
  50
 180.00000000000
   0
INSERT
   5
135
 100
AcDbEntity
   8
LEVEL003
   6
CONTINUOUS
  62
3
 100
AcDbBlockReference
   2
_OPEN
  10
 194.00000000000
  20
 187.50000000000
  30
0.0
  41
 4.5000000000000
  42
 4.5000000000000
  43
 4.5000000000000
  50
0.0
   0
MTEXT
   5
136
 100
AcDbEntity
   8
LEVEL003
  62
3
 100
AcDbMText
  10
 157.50000000000
  20
 188.70000000000
  30
0.0
  40
 6.0000000000000
  41
0.0
  71
8
  72
1
   1
\A1;%%c73
   7
GMM001
   0
ENDBLK
   5
137
 100
AcDbEntity
   8
0
 100
AcDbBlockEnd
   0
BLOCK
   5
138
 100
AcDbEntity
   8
0
 100
AcDbBlockBegin
   2
*D21
  70
65
  10
0.0
  20
0.0
  30
0.0
   3
*D21
   0
LINE
   5
139
 100
AcDbEntity
   8
LEVEL003
 100
AcDbLine
   6
CONTINUOUS
  62
3
  10
 138.50000000000
  20
 217.49998188178
  30
0.0
  11
 147.26250000000
  21
 217.49998188178
  31
0.0
   0
LINE
   5
13A
 100
AcDbEntity
   8
LEVEL003
 100
AcDbLine
   6
CONTINUOUS
  62
3
  10
 176.50000000000
  20
 217.49998188178
  30
0.0
  11
 167.73750000000
  21
 217.49998188178
  31
0.0
   0
INSERT
   5
13B
 100
AcDbEntity
   8
LEVEL003
   6
CONTINUOUS
  62
3
 100
AcDbBlockReference
   2
_OPEN
  10
 138.50000000000
  20
 217.49998188178
  30
0.0
  41
 4.5000000000000
  42
 4.5000000000000
  43
 4.5000000000000
  50
 180.00000000000
   0
INSERT
   5
13C
 100
AcDbEntity
   8
LEVEL003
   6
CONTINUOUS
  62
3
 100
AcDbBlockReference
   2
_OPEN
  10
 176.50000000000
  20
 217.49998188178
  30
0.0
  41
 4.5000000000000
  42
 4.5000000000000
  43
 4.5000000000000
  50
0.0
   0
MTEXT
   5
13D
 100
AcDbEntity
   8
LEVEL003
  62
3
 100
AcDbMText
  10
 157.50000000000
  20
 218.69998188178
  30
0.0
  40
 6.0000000000000
  41
0.0
  71
8
  72
1
   1
\A1;%%c38
   7
GMM001
   0
ENDBLK
   5
13E
 100
AcDbEntity
   8
0
 100
AcDbBlockEnd
   0
BLOCK
   5
13F
 100
AcDbEntity
   8
0
 100
AcDbBlockBegin
   2
*D22
  70
65
  10
0.0
  20
0.0
  30
0.0
   3
*D22
   0
LINE
   5
140
 100
AcDbEntity
   8
LEVEL003
 100
AcDbLine
   6
CONTINUOUS
  62
3
  10
 131.00000000000
  20
 202.50000000000
  30
0.0
  11
 147.26250000000
  21
 202.50000000000
  31
0.0
   0
LINE
   5
141
 100
AcDbEntity
   8
LEVEL003
 100
AcDbLine
   6
CONTINUOUS
  62
3
  10
 184.00000000000
  20
 202.50000000000
  30
0.0
  11
 167.73750000000
  21
 202.50000000000
  31
0.0
   0
INSERT
   5
142
 100
AcDbEntity
   8
LEVEL003
   6
CONTINUOUS
  62
3
 100
AcDbBlockReference
   2
_OPEN
  10
 131.00000000000
  20
 202.50000000000
  30
0.0
  41
 4.5000000000000
  42
 4.5000000000000
  43
 4.5000000000000
  50
 180.00000000000
   0
INSERT
   5
143
 100
AcDbEntity
   8
LEVEL003
   6
CONTINUOUS
  62
3
 100
AcDbBlockReference
   2
_OPEN
  10
 184.00000000000
  20
 202.50000000000
  30
0.0
  41
 4.5000000000000
  42
 4.5000000000000
  43
 4.5000000000000
  50
0.0
   0
MTEXT
   5
144
 100
AcDbEntity
   8
LEVEL003
  62
3
 100
AcDbMText
  10
 157.50000000000
  20
 203.70000000000
  30
0.0
  40
 6.0000000000000
  41
0.0
  71
8
  72
1
   1
\A1;%%c53
   7
GMM001
   0
ENDBLK
   5
145
 100
AcDbEntity
   8
0
 100
AcDbBlockEnd
   0
ENDSEC
   0
SECTION
   2
ENTITIES
   0
LINE
   5
146
 100
AcDbEntity
   8
LEVEL001
 100
AcDbLine
   6
CONTINUOUS
  62
7
  10
 207.50000000000
  20
 56.999983325601
  30
0.0
  11
 205.50000000000
  21
 54.999983325601
  31
0.0
   0
LINE
   5
147
 100
AcDbEntity
   8
LEVEL001
 100
AcDbLine
   6
DOT
  62
7
  10
 182.16900634766
  20
 54.999983325601
  30
0.0
  11
 183.05261230469
  21
 55.883589282632
  31
0.0
   0
LINE
   5
148
 100
AcDbEntity
   8
LEVEL001
 100
AcDbLine
   6
DOT
  62
7
  10
 198.83099365234
  20
 54.999983325601
  30
0.0
  11
 197.94738769531
  21
 55.883589282632
  31
0.0
   0
LINE
   5
149
 100
AcDbEntity
   8
LEVEL001
 100
AcDbLine
   6
DOT
  62
3
  10
 198.83099365234
  20
 54.999983325601
  30
0.0
  11
 198.51846313477
  21
 64.999983325601
  31
0.0
   0
LINE
   5
14A
 100
AcDbEntity
   8
LEVEL001
 100
AcDbLine
   6
DOT
  62
7
  10
 197.94738769531
  20
 55.883589282632
  30
0.0
  11
 197.66247558594
  21
 64.999983325601
  31
0.0
   0
LINE
   5
14B
 100
AcDbEntity
   8
LEVEL001
 100
AcDbLine
   6
DOT
  62
7
  10
 182.19662475586
  20
 55.883589282632
  30
0.0
  11
 198.80337524414
  21
 55.883589282632
  31
0.0
   0
LINE
   5
14C
 100
AcDbEntity
   8
LEVEL001
 100
AcDbLine
   6
DOT
  62
7
  10
 183.08023071289
  20
 54.999983325601
  30
0.0
  11
 182.19662475586
  21
 55.883589282632
  31
0.0
   0
LINE
   5
14D
 100
AcDbEntity
   8
LEVEL001
 100
AcDbLine
   6
DOT
  62
7
  10
 197.91976928711
  20
 54.999983325601
  30
0.0
  11
 198.80337524414
  21
 55.883589282632
  31
0.0
   0
LINE
   5
14E
 100
AcDbEntity
   8
LEVEL001
 100
AcDbLine
   6
DOT
  62
7
  10
 198.54972839355
  20
 63.999983325601
  30
0.0
  11
 182.45027160645
  21
 63.999983325601
  31
0.0
   0
LINE
   5
14F
 100
AcDbEntity
   8
LEVEL001
 100
AcDbLine
   6
DOT
  62
7
  10
 197.66247558594
  20
 64.999983325601
  30
0.0
  11
 183.33750915527
  21
 64.999983325601
  31
0.0
   0
LINE
   5
150
 100
AcDbEntity
   8
LEVEL001
 100
AcDbLine
   6
DOT
  62
7
  10
 183.33750915527
  20
 64.999983325601
  30
0.0
  11
 182.45025634766
  21
 63.999983325601
  31
0.0
   0
LINE
   5
151
 100
AcDbEntity
   8
LEVEL001
 100
AcDbLine
   6
DOT
  62
7
  10
 198.54971313477
  20
 63.999983325601
  30
0.0
  11
 197.66247558594
  21
 64.999983325601
  31
0.0
   0
LINE
   5
152
 100
AcDbEntity
   8
LEVEL001
 100
AcDbLine
   6
CONTINUOUS
  62
7
  10
 205.50000000000
  20
 54.999983325601
  30
0.0
  11
 157.50000000000
  21
 54.999983325601
  31
0.0
   0
LINE
   5
153
 100
AcDbEntity
   8
LEVEL001
 100
AcDbLine
   6
CONTINUOUS
  62
7
  10
 107.50000000000
  20
 56.999983325601
  30
0.0
  11
 109.50000000000
  21
 54.999983325601
  31
0.0
   0
LINE
   5
154
 100
AcDbEntity
   8
LEVEL001
 100
AcDbLine
   6
CONTINUOUS
  62
7
  10
 109.50000000000
  20
 54.999983325601
  30
0.0
  11
 157.50000000000
  21
 54.999983325601
  31
0.0
   0
LINE
   5
155
 100
AcDbEntity
   8
LEVEL001
 100
AcDbLine
   6
CONTINUOUS
  62
7
  10
 157.50000000000
  20
 56.999983325601
  30
0.0
  11
 107.50000000000
  21
 56.999983325601
  31
0.0
   0
LINE
   5
156
 100
AcDbEntity
   8
LEVEL001
 100
AcDbLine
   6
DASHDOT
  62
1
  10
 116.50000000000
  20
 51.999983325601
  30
0.0
  11
 116.50000000000
  21
 75.252760425210
  31
0.0
   0
LINE
   5
157
 100
AcDbEntity
   8
LEVEL001
 100
AcDbLine
   6
DOT
  62
7
  10
 121.50000000000
  20
 54.999983325601
  30
0.0
  11
 120.75000000000
  21
 55.749983325601
  31
0.0
   0
LINE
   5
158
 100
AcDbEntity
   8
LEVEL001
 100
AcDbLine
   6
DOT
  62
7
  10
 120.75000000000
  20
 55.749983325601
  30
0.0
  11
 120.75000000000
  21
 69.799025073648
  31
0.0
   0
LINE
   5
159
 100
AcDbEntity
   8
LEVEL001
 100
AcDbLine
   6
DOT
  62
7
  10
 120.75000000000
  20
 69.799025073648
  30
0.0
  11
 116.50000000000
  21
 72.252760425210
  31
0.0
   0
LINE
   5
15A
 100
AcDbEntity
   8
LEVEL001
 100
AcDbLine
   6
DOT
  62
7
  10
 116.50000000000
  20
 72.252760425210
  30
0.0
  11
 112.25000000000
  21
 69.799025073648
  31
0.0
   0
LINE
   5
15B
 100
AcDbEntity
   8
LEVEL001
 100
AcDbLine
   6
DOT
  62
7
  10
 112.25000000000
  20
 69.799025073648
  30
0.0
  11
 112.25000000000
  21
 55.749983325601
  31
0.0
   0
LINE
   5
15C
 100
AcDbEntity
   8
LEVEL001
 100
AcDbLine
   6
DOT
  62
7
  10
 112.25000000000
  20
 55.749983325601
  30
0.0
  11
 111.50000000000
  21
 54.999983325601
  31
0.0
   0
LINE
   5
15D
 100
AcDbEntity
   8
LEVEL001
 100
AcDbLine
   6
DOT
  62
7
  10
 120.75000000000
  20
 69.799025073648
  30
0.0
  11
 112.25000000000
  21
 69.799025073648
  31
0.0
   0
LINE
   5
15E
 100
AcDbEntity
   8
LEVEL001
 100
AcDbLine
   6
DOT
  62
3
  10
 121.50000000000
  20
 54.999983325601
  30
0.0
  11
 121.50000000000
  21
 66.999983325601
  31
0.0
   0
LINE
   5
15F
 100
AcDbEntity
   8
LEVEL001
 100
AcDbLine
   6
DOT
  62
3
  10
 121.50000000000
  20
 66.999983325601
  30
0.0
  11
 120.75000000000
  21
 69.799025073648
  31
0.0
   0
LINE
   5
160
 100
AcDbEntity
   8
LEVEL001
 100
AcDbLine
   6
DOT
  62
3
  10
 121.50000000000
  20
 66.999983325601
  30
0.0
  11
 111.50000000000
  21
 66.999983325601
  31
0.0
   0
LINE
   5
161
 100
AcDbEntity
   8
LEVEL001
 100
AcDbLine
   6
DOT
  62
7
  10
 120.75000000000
  20
 55.749983325601
  30
0.0
  11
 112.25000000000
  21
 55.749983325601
  31
0.0
   0
LINE
   5
162
 100
AcDbEntity
   8
LEVEL001
 100
AcDbLine
   6
DOT
  62
3
  10
 112.25000000000
  20
 69.799025073648
  30
0.0
  11
 111.50000000000
  21
 66.999983325601
  31
0.0
   0
LINE
   5
163
 100
AcDbEntity
   8
LEVEL001
 100
AcDbLine
   6
DOT
  62
3
  10
 111.50000000000
  20
 66.999983325601
  30
0.0
  11
 111.50000000000
  21
 54.999983325601
  31
0.0
   0
LINE
   5
164
 100
AcDbEntity
   8
LEVEL001
 100
AcDbLine
   6
DOT
  62
3
  10
 182.61431884766
  20
 69.249983325601
  30
0.0
  11
 182.16900634766
  21
 54.999983325601
  31
0.0
   0
LINE
   5
165
 100
AcDbEntity
   8
LEVEL001
 100
AcDbLine
   6
DOT
  62
7
  10
 183.47032165527
  20
 69.249983325601
  30
0.0
  11
 183.05261230469
  21
 55.883589282632
  31
0.0
   0
LINE
   5
166
 100
AcDbEntity
   8
LEVEL001
 100
AcDbLine
   6
DASHDOT
  62
1
  10
 190.50000000000
  20
 51.999983325601
  30
0.0
  11
 190.50000000000
  21
 77.999983325601
  31
0.0
   0
LINE
   5
167
 100
AcDbEntity
   8
LEVEL001
 100
AcDbLine
   6
DOT
  62
3
  10
 172.58921813965
  20
 59.803862109781
  30
0.0
  11
 171.75000000000
  21
 63.999983325601
  31
0.0
   0
LINE
   5
168
 100
AcDbEntity
   8
LEVEL001
 100
AcDbLine
   6
DOT
  62
3
  10
 142.41078186035
  20
 59.803862109781
  30
0.0
  11
 143.25000000000
  21
 63.999983325601
  31
0.0
   0
LINE
   5
169
 100
AcDbEntity
   8
LEVEL001
 100
AcDbLine
   6
CONTINUOUS
  62
7
  10
 157.50000000000
  20
 56.999983325601
  30
0.0
  11
 207.50000000000
  21
 56.999983325601
  31
0.0
   0
LINE
   5
16A
 100
AcDbEntity
   8
LEVEL001
 100
AcDbLine
   6
CONTINUOUS
  62
7
  10
 182.50000000000
  20
 389.00000460446
  30
0.0
  11
 181.50000000000
  21
 390.00000460446
  31
0.0
   0
LINE
   5
16B
 100
AcDbEntity
   8
LEVEL001
 100
AcDbLine
   6
CONTINUOUS
  62
7
  10
 182.50000000000
  20
 380.00000460446
  30
0.0
  11
 182.50000000000
  21
 389.00000460446
  31
0.0
   0
LINE
   5
16C
 100
AcDbEntity
   8
LEVEL001
 100
AcDbLine
   6
CONTINUOUS
  62
7
  10
 181.50000000000
  20
 390.00000460446
  30
0.0
  11
 157.50000000000
  21
 390.00000460446
  31
0.0
   0
ARC
   5
16D
 100
AcDbEntity
   8
LEVEL001
   6
CONTINUOUS
  62
7
 100
AcDbCircle
  10
 182.85959653812
  20
 379.50000460451
  30
0.0
  40
 0.50000000000000
 100
AcDbArc
  50
 14.037311602495
  51
 89.999158471093
   0
LINE
   5
16E
 100
AcDbEntity
   8
LEVEL001
 100
AcDbLine
   6
CONTINUOUS
  62
7
  10
 183.34466552734
  20
 379.62128145993
  30
0.0
  11
 184.00000000000
  21
 377.00000460446
  31
0.0
   0
LINE
   5
16F
 100
AcDbEntity
   8
LEVEL001
 100
AcDbLine
   6
CONTINUOUS
  62
3
  10
 206.50000000000
  20
 342.00000460446
  30
0.0
  11
 207.50000000000
  21
 338.26794894040
  31
0.0
   0
LINE
   5
170
 100
AcDbEntity
   8
LEVEL001
 100
AcDbLine
   6
CONTINUOUS
  62
7
  10
 206.00000000000
  20
 372.00000460446
  30
0.0
  11
 207.50000000000
  21
 370.50000460446
  31
0.0
   0
LINE
   5
171
 100
AcDbEntity
   8
LEVEL001
 100
AcDbLine
   6
CONTINUOUS
  62
7
  10
 207.50000000000
  20
 370.50000460446
  30
0.0
  11
 207.50000000000
  21
 338.26794894040
  31
0.0
   0
LINE
   5
172
 100
AcDbEntity
   8
LEVEL001
 100
AcDbLine
   6
CONTINUOUS
  62
7
  10
 206.00000000000
  20
 376.00000460446
  30
0.0
  11
 205.00000000000
  21
 377.00000460446
  31
0.0
   0
LINE
   5
173
 100
AcDbEntity
   8
LEVEL001
 100
AcDbLine
   6
CONTINUOUS
  62
7
  10
 206.00000000000
  20
 376.00000460446
  30
0.0
  11
 206.00000000000
  21
 372.00000460446
  31
0.0
   0
LINE
   5
174
 100
AcDbEntity
   8
LEVEL001
 100
AcDbLine
   6
CONTINUOUS
  62
7
  10
 109.00000000000
  20
 376.00000460446
  30
0.0
  11
 110.00000000000
  21
 377.00000460446
  31
0.0
   0
LINE
   5
175
 100
AcDbEntity
   8
LEVEL001
 100
AcDbLine
   6
CONTINUOUS
  62
7
  10
 109.00000000000
  20
 376.00000460446
  30
0.0
  11
 109.00000000000
  21
 372.00000460446
  31
0.0
   0
LINE
   5
176
 100
AcDbEntity
   8
LEVEL001
 100
AcDbLine
   6
CONTINUOUS
  62
7
  10
 107.50000000000
  20
 338.26794894040
  30
0.0
  11
 107.50000000000
  21
 56.999983325601
  31
0.0
   0
LINE
   5
177
 100
AcDbEntity
   8
LEVEL001
 100
AcDbLine
   6
CONTINUOUS
  62
7
  10
 132.50000000000
  20
 389.00000460446
  30
0.0
  11
 133.50000000000
  21
 390.00000460446
  31
0.0
   0
LINE
   5
178
 100
AcDbEntity
   8
LEVEL001
 100
AcDbLine
   6
CONTINUOUS
  62
7
  10
 132.50000000000
  20
 380.00000460446
  30
0.0
  11
 132.50000000000
  21
 389.00000460446
  31
0.0
   0
LINE
   5
179
 100
AcDbEntity
   8
LEVEL001
 100
AcDbLine
   6
CONTINUOUS
  62
7
  10
 133.50000000000
  20
 390.00000460446
  30
0.0
  11
 157.50000000000
  21
 390.00000460446
  31
0.0
   0
ARC
   5
17A
 100
AcDbEntity
   8
LEVEL001
   6
CONTINUOUS
  62
7
 100
AcDbCircle
  10
 132.14040346191
  20
 379.50000460447
  30
0.0
  40
 0.50000000000000
 100
AcDbArc
  50
 90.000841530597
  51
 165.96268839369
   0
LINE
   5
17B
 100
AcDbEntity
   8
LEVEL001
 100
AcDbLine
   6
CONTINUOUS
  62
7
  10
 131.65533447266
  20
 379.62128145993
  30
0.0
  11
 131.00000000000
  21
 377.00000460446
  31
0.0
   0
LINE
   5
17C
 100
AcDbEntity
   8
LEVEL001
 100
AcDbLine
   6
CONTINUOUS
  62
7
  10
 110.00000000000
  20
 377.00000460446
  30
0.0
  11
 157.50000000000
  21
 377.00000460446
  31
0.0
   0
LINE
   5
17D
 100
AcDbEntity
   8
LEVEL001
 100
AcDbLine
   6
CONTINUOUS
  62
7
  10
 157.50000000000
  20
 380.00000460446
  30
0.0
  11
 132.14039611816
  21
 380.00000460446
  31
0.0
   0
LINE
   5
17E
 100
AcDbEntity
   8
LEVEL001
 100
AcDbLine
   6
CONTINUOUS
  62
7
  10
 157.50000000000
  20
 389.00000460446
  30
0.0
  11
 132.50000000000
  21
 389.00000460446
  31
0.0
   0
LINE
   5
17F
 100
AcDbEntity
   8
LEVEL001
 100
AcDbLine
   6
CONTINUOUS
  62
7
  10
 109.00000000000
  20
 376.00000460446
  30
0.0
  11
 157.50000000000
  21
 376.00000460446
  31
0.0
   0
LINE
   5
180
 100
AcDbEntity
   8
LEVEL001
 100
AcDbLine
   6
CONTINUOUS
  62
7
  10
 107.50000000000
  20
 338.26794894040
  30
0.0
  11
 157.50000000000
  21
 338.26794894040
  31
0.0
   0
LINE
   5
181
 100
AcDbEntity
   8
LEVEL001
 100
AcDbLine
   6
DASHDOT
  62
1
  10
 206.00000000000
  20
 372.00000460446
  30
0.0
  11
 210.50000000000
  21
 372.00000460446
  31
0.0
   0
LINE
   5
182
 100
AcDbEntity
   8
LEVEL001
 100
AcDbLine
   6
DASHDOT
  62
1
  10
 210.50000000000
  20
 372.00000460446
  30
0.0
  11
 210.50000000000
  21
 342.00000460446
  31
0.0
   0
LINE
   5
183
 100
AcDbEntity
   8
LEVEL001
 100
AcDbLine
   6
DASHDOT
  62
1
  10
 210.50000000000
  20
 342.00000460446
  30
0.0
  11
 207.50000000000
  21
 342.00000460446
  31
0.0
   0
LINE
   5
184
 100
AcDbEntity
   8
LEVEL001
 100
AcDbLine
   6
CONTINUOUS
  62
7
  10
 207.50000000000
  20
 338.26794894040
  30
0.0
  11
 207.50000000000
  21
 56.999983325601
  31
0.0
   0
LINE
   5
185
 100
AcDbEntity
   8
LEVEL001
 100
AcDbLine
   6
CONTINUOUS
  62
3
  10
 206.50000000000
  20
 371.50000460446
  30
0.0
  11
 206.50000000000
  21
 342.00000460446
  31
0.0
   0
LINE
   5
186
 100
AcDbEntity
   8
LEVEL001
 100
AcDbLine
   6
CONTINUOUS
  62
3
  10
 157.50000000000
  20
 342.00000460446
  30
0.0
  11
 207.50000000000
  21
 342.00000460446
  31
0.0
   0
ARC
   5
187
 100
AcDbEntity
   8
LEVEL001
   6
DOT
  62
3
 100
AcDbCircle
  10
 177.50000000001
  20
 377.75000460446
  30
0.0
  40
 0.75000000000000
 100
AcDbArc
  50
 180.00000000000
  51
 269.99999999928
   0
ARC
   5
188
 100
AcDbEntity
   8
LEVEL001
   6
DOT
  62
3
 100
AcDbCircle
  10
 177.50000000000
  20
 379.25000460446
  30
0.0
  40
 0.75000000000000
 100
AcDbArc
  50
 90.000000000000
  51
 179.99999999991
   0
LINE
   5
189
 100
AcDbEntity
   8
LEVEL001
 100
AcDbLine
   6
DOT
  62
3
  10
 176.75000000000
  20
 377.75000460446
  30
0.0
  11
 176.75000000000
  21
 379.25000460446
  31
0.0
   0
LINE
   5
18A
 100
AcDbEntity
   8
LEVEL001
 100
AcDbLine
   6
DOT
  62
3
  10
 177.50000000000
  20
 380.00000460446
  30
0.0
  11
 177.50000000000
  21
 377.00000460446
  31
0.0
   0
ARC
   5
18B
 100
AcDbEntity
   8
LEVEL001
   6
DOT
  62
3
 100
AcDbCircle
  10
 173.56979779920
  20
 389.00000460453
  30
0.0
  40
 1.0000000000000
 100
AcDbArc
  50
 89.999360535629
  51
 168.68977066303
   0
LINE
   5
18C
 100
AcDbEntity
   8
LEVEL001
 100
AcDbLine
   6
DOT
  62
3
  10
 172.58921813965
  20
 389.19612582028
  30
0.0
  11
 171.75000000000
  21
 385.00000460446
  31
0.0
   0
LINE
   5
18D
 100
AcDbEntity
   8
LEVEL001
 100
AcDbLine
   6
DOT
  62
3
  10
 171.75000000000
  20
 385.00000460446
  30
0.0
  11
 171.75000000000
  21
 365.00000460446
  31
0.0
   0
LINE
   5
18E
 100
AcDbEntity
   8
LEVEL001
 100
AcDbLine
   6
DOT
  62
3
  10
 176.75000000000
  20
 360.00000460446
  30
0.0
  11
 177.50000000000
  21
 360.75000460446
  31
0.0
   0
LINE
   5
18F
 100
AcDbEntity
   8
LEVEL001
 100
AcDbLine
   6
DOT
  62
3
  10
 177.50000000000
  20
 360.75000460446
  30
0.0
  11
 177.50000000000
  21
 377.00000460446
  31
0.0
   0
LINE
   5
190
 100
AcDbEntity
   8
LEVEL001
 100
AcDbLine
   6
DOT
  62
3
  10
 177.50000000000
  20
 355.00000460446
  30
0.0
  11
 176.75000000000
  21
 352.20096285641
  31
0.0
   0
LINE
   5
191
 100
AcDbEntity
   8
LEVEL001
 100
AcDbLine
   6
DOT
  62
3
  10
 176.75000000000
  20
 360.00000460446
  30
0.0
  11
 176.75000000000
  21
 352.20096285641
  31
0.0
   0
LINE
   5
192
 100
AcDbEntity
   8
LEVEL001
 100
AcDbLine
   6
DOT
  62
3
  10
 177.50000000000
  20
 360.75000460446
  30
0.0
  11
 177.50000000000
  21
 355.00000460446
  31
0.0
   0
LINE
   5
193
 100
AcDbEntity
   8
LEVEL001
 100
AcDbLine
   6
DOT
  62
3
  10
 177.50000000000
  20
 355.00000460446
  30
0.0
  11
 176.75000000000
  21
 355.00000460446
  31
0.0
   0
LINE
   5
194
 100
AcDbEntity
   8
LEVEL001
 100
AcDbLine
   6
DOT
  62
3
  10
 177.50000000000
  20
 380.00000460446
  30
0.0
  11
 176.75000000000
  21
 379.25000460446
  31
0.0
   0
LINE
   5
195
 100
AcDbEntity
   8
LEVEL001
 100
AcDbLine
   6
DOT
  62
3
  10
 176.75000000000
  20
 379.25000460446
  30
0.0
  11
 176.75000000000
  21
 360.00000460446
  31
0.0
   0
ARC
   5
196
 100
AcDbEntity
   8
LEVEL001
   6
DOT
  62
3
 100
AcDbCircle
  10
 173.56980085091
  20
 361.00000460443
  30
0.0
  40
 1.0000000000000
 100
AcDbArc
  50
 191.30933776172
  51
 269.99959034999
   0
LINE
   5
197
 100
AcDbEntity
   8
LEVEL001
 100
AcDbLine
   6
DOT
  62
3
  10
 172.58921813965
  20
 360.80389864743
  30
0.0
  11
 171.75000000000
  21
 365.00000460446
  31
0.0
   0
LINE
   5
198
 100
AcDbEntity
   8
LEVEL001
 100
AcDbLine
   6
DOT
  62
3
  10
 173.56979370117
  20
 360.00000460446
  30
0.0
  11
 176.75000000000
  21
 360.00000460446
  31
0.0
   0
LINE
   5
199
 100
AcDbEntity
   8
LEVEL001
 100
AcDbLine
   6
CONTINUOUS
  62
7
  10
 206.00000000000
  20
 372.00000460446
  30
0.0
  11
 157.50000000000
  21
 372.00000460446
  31
0.0
   0
LINE
   5
19A
 100
AcDbEntity
   8
LEVEL001
 100
AcDbLine
   6
CONTINUOUS
  62
7
  10
 157.50000000000
  20
 380.00000460446
  30
0.0
  11
 182.85960388184
  21
 380.00000460446
  31
0.0
   0
LINE
   5
19B
 100
AcDbEntity
   8
LEVEL001
 100
AcDbLine
   6
CONTINUOUS
  62
7
  10
 205.00000000000
  20
 377.00000460446
  30
0.0
  11
 157.50000000000
  21
 377.00000460446
  31
0.0
   0
LINE
   5
19C
 100
AcDbEntity
   8
LEVEL001
 100
AcDbLine
   6
CONTINUOUS
  62
7
  10
 109.00000000000
  20
 372.00000460446
  30
0.0
  11
 107.50000000000
  21
 370.50000460446
  31
0.0
   0
LINE
   5
19D
 100
AcDbEntity
   8
LEVEL001
 100
AcDbLine
   6
CONTINUOUS
  62
7
  10
 107.50000000000
  20
 370.50000460446
  30
0.0
  11
 107.50000000000
  21
 338.26794894040
  31
0.0
   0
LINE
   5
19E
 100
AcDbEntity
   8
LEVEL001
 100
AcDbLine
   6
CONTINUOUS
  62
3
  10
 108.50000000000
  20
 371.50000460446
  30
0.0
  11
 108.50000000000
  21
 342.00000460446
  31
0.0
   0
LINE
   5
19F
 100
AcDbEntity
   8
LEVEL001
 100
AcDbLine
   6
CONTINUOUS
  62
3
  10
 157.50000000000
  20
 342.00000460446
  30
0.0
  11
 107.50000000000
  21
 342.00000460446
  31
0.0
   0
LINE
   5
1A0
 100
AcDbEntity
   8
LEVEL001
 100
AcDbLine
   6
CONTINUOUS
  62
7
  10
 109.00000000000
  20
 372.00000460446
  30
0.0
  11
 157.50000000000
  21
 372.00000460446
  31
0.0
   0
LINE
   5
1A1
 100
AcDbEntity
   8
LEVEL001
 100
AcDbLine
   6
CONTINUOUS
  62
3
  10
 108.50000000000
  20
 342.00000460446
  30
0.0
  11
 107.50000000000
  21
 338.26794894040
  31
0.0
   0
LINE
   5
1A2
 100
AcDbEntity
   8
LEVEL001
 100
AcDbLine
   6
DASHDOT
  62
1
  10
 109.00000000000
  20
 372.00000460446
  30
0.0
  11
 104.50000000000
  21
 372.00000460446
  31
0.0
   0
LINE
   5
1A3
 100
AcDbEntity
   8
LEVEL001
 100
AcDbLine
   6
DASHDOT
  62
1
  10
 104.50000000000
  20
 372.00000460446
  30
0.0
  11
 104.50000000000
  21
 342.00000460446
  31
0.0
   0
LINE
   5
1A4
 100
AcDbEntity
   8
LEVEL001
 100
AcDbLine
   6
DASHDOT
  62
1
  10
 104.50000000000
  20
 342.00000460446
  30
0.0
  11
 107.50000000000
  21
 342.00000460446
  31
0.0
   0
LINE
   5
1A5
 100
AcDbEntity
   8
LEVEL001
 100
AcDbLine
   6
CONTINUOUS
  62
7
  10
 206.00000000000
  20
 376.00000460446
  30
0.0
  11
 157.50000000000
  21
 376.00000460446
  31
0.0
   0
LINE
   5
1A6
 100
AcDbEntity
   8
LEVEL001
 100
AcDbLine
   6
CONTINUOUS
  62
7
  10
 157.50000000000
  20
 389.00000460446
  30
0.0
  11
 182.50000000000
  21
 389.00000460446
  31
0.0
   0
LINE
   5
1A7
 100
AcDbEntity
   8
LEVEL001
 100
AcDbLine
   6
CONTINUOUS
  62
7
  10
 207.50000000000
  20
 338.26794894040
  30
0.0
  11
 157.50000000000
  21
 338.26794894040
  31
0.0
   0
LINE
   5
1A8
 100
AcDbEntity
   8
LEVEL001
 100
AcDbLine
   6
DOT
  62
3
  10
 143.25000000000
  20
 385.00000460446
  30
0.0
  11
 143.25000000000
  21
 365.00000460446
  31
0.0
   0
LINE
   5
1A9
 100
AcDbEntity
   8
LEVEL001
 100
AcDbLine
   6
DOT
  62
3
  10
 138.25000000000
  20
 360.00000460446
  30
0.0
  11
 137.50000000000
  21
 360.75000460446
  31
0.0
   0
LINE
   5
1AA
 100
AcDbEntity
   8
LEVEL001
 100
AcDbLine
   6
DOT
  62
3
  10
 137.50000000000
  20
 360.75000460446
  30
0.0
  11
 137.50000000000
  21
 377.00000460446
  31
0.0
   0
LINE
   5
1AB
 100
AcDbEntity
   8
LEVEL001
 100
AcDbLine
   6
DOT
  62
3
  10
 137.50000000000
  20
 355.00000460446
  30
0.0
  11
 138.25000000000
  21
 352.20096285641
  31
0.0
   0
LINE
   5
1AC
 100
AcDbEntity
   8
LEVEL001
 100
AcDbLine
   6
DOT
  62
3
  10
 138.25000000000
  20
 360.00000460446
  30
0.0
  11
 138.25000000000
  21
 352.20096285641
  31
0.0
   0
LINE
   5
1AD
 100
AcDbEntity
   8
LEVEL001
 100
AcDbLine
   6
DOT
  62
3
  10
 137.50000000000
  20
 360.75000460446
  30
0.0
  11
 137.50000000000
  21
 355.00000460446
  31
0.0
   0
LINE
   5
1AE
 100
AcDbEntity
   8
LEVEL001
 100
AcDbLine
   6
DOT
  62
3
  10
 137.50000000000
  20
 355.00000460446
  30
0.0
  11
 138.25000000000
  21
 355.00000460446
  31
0.0
   0
LINE
   5
1AF
 100
AcDbEntity
   8
LEVEL001
 100
AcDbLine
   6
DOT
  62
3
  10
 137.50000000000
  20
 380.00000460446
  30
0.0
  11
 138.25000000000
  21
 379.25000460446
  31
0.0
   0
LINE
   5
1B0
 100
AcDbEntity
   8
LEVEL001
 100
AcDbLine
   6
DOT
  62
3
  10
 138.25000000000
  20
 379.25000460446
  30
0.0
  11
 138.25000000000
  21
 360.00000460446
  31
0.0
   0
ARC
   5
1B1
 100
AcDbEntity
   8
LEVEL001
   6
DOT
  62
3
 100
AcDbCircle
  10
 141.43019914909
  20
 361.00000460442
  30
0.0
  40
 1.0000000000000
 100
AcDbArc
  50
 270.00040964994
  51
 348.69066223863
   0
LINE
   5
1B2
 100
AcDbEntity
   8
LEVEL001
 100
AcDbLine
   6
DOT
  62
3
  10
 142.41078186035
  20
 360.80389864743
  30
0.0
  11
 143.25000000000
  21
 365.00000460446
  31
0.0
   0
LINE
   5
1B3
 100
AcDbEntity
   8
LEVEL001
 100
AcDbLine
   6
DOT
  62
3
  10
 141.43020629883
  20
 360.00000460446
  30
0.0
  11
 138.25000000000
  21
 360.00000460446
  31
0.0
   0
LINE
   5
1B4
 100
AcDbEntity
   8
LEVEL001
 100
AcDbLine
   6
DOT
  62
3
  10
 142.41078186035
  20
 389.19612582028
  30
0.0
  11
 143.25000000000
  21
 385.00000460446
  31
0.0
   0
ARC
   5
1B5
 100
AcDbEntity
   8
LEVEL001
   6
DOT
  62
3
 100
AcDbCircle
  10
 137.50000000000
  20
 377.75000460443
  30
0.0
  40
 0.75000000000000
 100
AcDbArc
  50
 269.99999999998
  51
 0.21452035585952E-8
   0
ARC
   5
1B6
 100
AcDbEntity
   8
LEVEL001
   6
DOT
  62
3
 100
AcDbCircle
  10
 137.49999999999
  20
 379.25000460446
  30
0.0
  40
 0.75000000000000
 100
AcDbArc
  50
0.0
  51
 89.999999999666
   0
LINE
   5
1B7
 100
AcDbEntity
   8
LEVEL001
 100
AcDbLine
   6
DOT
  62
3
  10
 138.25000000000
  20
 377.75000460446
  30
0.0
  11
 138.25000000000
  21
 379.25000460446
  31
0.0
   0
LINE
   5
1B8
 100
AcDbEntity
   8
LEVEL001
 100
AcDbLine
   6
DOT
  62
3
  10
 137.50000000000
  20
 380.00000460446
  30
0.0
  11
 137.50000000000
  21
 377.00000460446
  31
0.0
   0
ARC
   5
1B9
 100
AcDbEntity
   8
LEVEL001
   6
DOT
  62
3
 100
AcDbCircle
  10
 141.43020220078
  20
 389.00000460452
  30
0.0
  40
 1.0000000000000
 100
AcDbArc
  50
 11.310229337069
  51
 90.000639463666
   0
DIMENSION
   5
1BA
 100
AcDbEntity
   8
LEVEL003
   6
CONTINUOUS
  62
3
 100
AcDbDimension
   2
*D1
  10
 162.50000000000
  20
 355.00000460446
  30
0.0
  11
 162.50000000000
  21
 368.75000460446
  31
0.0
  70
128
   1
\A1;25
   3
GMM001
 100
AcDbAlignedDimension
  13
 177.50000000000
  23
 380.00000460446
  33
0.0
  14
 176.75000000000
  24
 355.00000460446
  34
0.0
  50
 270.00000000000
 100
AcDbRotatedDimension
   0
DIMENSION
   5
1BC
 100
AcDbEntity
   8
LEVEL003
   6
CONTINUOUS
  62
3
 100
AcDbDimension
   2
*D2
  10
 177.50000000000
  20
 357.50000460446
  30
0.0
  11
 157.50000000000
  21
 357.50000460446
  31
0.0
  70
0
   1
\A1;M40×1.5
   3
GMM002
 100
AcDbAlignedDimension
  13
 137.50000000000
  23
 357.50000460446
  33
0.0
  14
 177.50000000000
  24
 357.50000460446
  34
0.0
 100
AcDbRotatedDimension
   0
LINE
   5
1BD
 100
AcDbEntity
   8
LEVEL001
 100
AcDbLine
   6
DOT
  62
3
  10
 194.00000000000
  20
 78.999983325601
  30
0.0
  11
 194.00000000000
  21
 261.99996177852
  31
0.0
   0
LINE
   5
1BE
 100
AcDbEntity
   8
LEVEL001
 100
AcDbLine
   6
DOT
  62
3
  10
 175.50000000000
  20
 265.99996177852
  30
0.0
  11
 176.50000000000
  21
 262.99996177852
  31
0.0
   0
LINE
   5
1BF
 100
AcDbEntity
   8
LEVEL001
 100
AcDbLine
   6
DOT
  62
3
  10
 172.75000000000
  20
 265.99996177852
  30
0.0
  11
 171.75000000000
  21
 260.99996177852
  31
0.0
   0
LINE
   5
1C0
 100
AcDbEntity
   8
LEVEL001
 100
AcDbLine
   6
DOT
  62
3
  10
 175.50000000000
  20
 265.99996177852
  30
0.0
  11
 172.75000000000
  21
 265.99996177852
  31
0.0
   0
LINE
   5
1C1
 100
AcDbEntity
   8
LEVEL001
 100
AcDbLine
   6
DOT
  62
3
  10
 171.75000000000
  20
 63.999983325601
  30
0.0
  11
 171.75000000000
  21
 260.99996177852
  31
0.0
   0
LINE
   5
1C2
 100
AcDbEntity
   8
LEVEL001
 100
AcDbLine
   6
DOT
  62
3
  10
 121.00000000000
  20
 78.999983325601
  30
0.0
  11
 121.00000000000
  21
 261.99996177852
  31
0.0
   0
LINE
   5
1C3
 100
AcDbEntity
   8
LEVEL001
 100
AcDbLine
   6
DOT
  62
3
  10
 139.50000000000
  20
 265.99996177852
  30
0.0
  11
 138.50000000000
  21
 262.99996177852
  31
0.0
   0
LINE
   5
1C4
 100
AcDbEntity
   8
LEVEL001
 100
AcDbLine
   6
DOT
  62
3
  10
 142.25000000000
  20
 265.99996177852
  30
0.0
  11
 143.25000000000
  21
 260.99996177852
  31
0.0
   0
LINE
   5
1C5
 100
AcDbEntity
   8
LEVEL001
 100
AcDbLine
   6
DOT
  62
3
  10
 139.50000000000
  20
 265.99996177852
  30
0.0
  11
 142.25000000000
  21
 265.99996177852
  31
0.0
   0
LINE
   5
1C6
 100
AcDbEntity
   8
LEVEL001
 100
AcDbLine
   6
DOT
  62
3
  10
 143.25000000000
  20
 63.999983325601
  30
0.0
  11
 143.25000000000
  21
 260.99996177852
  31
0.0
   0
LINE
   5
1C7
 100
AcDbEntity
   8
LEVEL001
 100
AcDbLine
   6
DOT
  62
3
  10
 176.50000000000
  20
 65.999983325601
  30
0.0
  11
 176.50000000000
  21
 262.99996177852
  31
0.0
   0
LINE
   5
1C8
 100
AcDbEntity
   8
LEVEL001
 100
AcDbLine
   6
DOT
  62
3
  10
 138.50000000000
  20
 65.999983325601
  30
0.0
  11
 138.50000000000
  21
 262.99996177852
  31
0.0
   0
LINE
   5
1C9
 100
AcDbEntity
   8
LEVEL001
 100
AcDbLine
   6
DOT
  62
3
  10
 176.75000000000
  20
 265.99996177852
  30
0.0
  11
 176.75000000000
  21
 352.20096285641
  31
0.0
   0
LINE
   5
1CA
 100
AcDbEntity
   8
LEVEL001
 100
AcDbLine
   6
DOT
  62
3
  10
 138.25000000000
  20
 265.99996177852
  30
0.0
  11
 138.25000000000
  21
 352.20096285641
  31
0.0
   0
ARC
   5
1CB
 100
AcDbEntity
   8
LEVEL001
   6
CONTINUOUS
  62
7
 100
AcDbCircle
  10
 235.50000192225
  20
 164.99998815357
  30
0.0
  40
 10.000000178814
 100
AcDbArc
  50
 269.99995901885
  51
 0.40981148129054E-4
   0
ARC
   5
1CC
 100
AcDbEntity
   8
LEVEL001
   6
CONTINUOUS
  62
7
 100
AcDbCircle
  10
 235.49999476969
  20
 164.99999530613
  30
0.0
  40
 23.000014573335
 100
AcDbArc
  50
 270.00000000000
  51
0.0
   0
LINE
   5
1CD
 100
AcDbEntity
   8
LEVEL001
 100
AcDbLine
   6
CONTINUOUS
  62
7
  10
 245.50000210106
  20
 264.99997706711
  30
0.0
  11
 245.50000210106
  21
 164.99999530613
  31
0.0
   0
LINE
   5
1CE
 100
AcDbEntity
   8
LEVEL001
 100
AcDbLine
   6
CONTINUOUS
  62
7
  10
 235.49999476969
  20
 154.99998797476
  30
0.0
  11
 207.50001086295
  21
 154.99998797476
  31
0.0
   0
LINE
   5
1CF
 100
AcDbEntity
   8
LEVEL001
 100
AcDbLine
   6
CONTINUOUS
  62
7
  10
 258.50000934303
  20
 264.99997706711
  30
0.0
  11
 258.50000934303
  21
 164.99999530613
  31
0.0
   0
LINE
   5
1D0
 100
AcDbEntity
   8
LEVEL001
 100
AcDbLine
   6
CONTINUOUS
  62
7
  10
 235.49999476969
  20
 141.99998073280
  30
0.0
  11
 207.50001086295
  21
 141.99998073280
  31
0.0
   0
LINE
   5
1D1
 100
AcDbEntity
   8
LEVEL001
 100
AcDbLine
   6
CONTINUOUS
  62
7
  10
 210.50001077354
  20
 141.99998073280
  30
0.0
  11
 207.50001086295
  21
 138.99998082221
  31
0.0
   0
LINE
   5
1D2
 100
AcDbEntity
   8
LEVEL001
 100
AcDbLine
   6
CONTINUOUS
  62
7
  10
 210.50001077354
  20
 155.00001086295
  30
0.0
  11
 207.50001086295
  21
 158.00001077354
  31
0.0
   0
ARC
   5
1D3
 100
AcDbEntity
   8
LEVEL001
   6
DASHDOT
  62
1
 100
AcDbCircle
  10
 235.49999476969
  20
 164.99999530613
  30
0.0
  40
 16.499999508262
 100
AcDbArc
  50
 270.00000000000
  51
 0.88824220660402E-12
   0
LINE
   5
1D4
 100
AcDbEntity
   8
LEVEL001
 100
AcDbLine
   6
DASHDOT
  62
1
  10
 235.49999476969
  20
 148.49999579787
  30
0.0
  11
 202.49999575317
  21
 148.49999579787
  31
0.0
   0
LINE
   5
1D5
 100
AcDbEntity
   8
LEVEL001
 100
AcDbLine
   6
DASHDOT
  62
1
  10
 251.99999427795
  20
 264.99997706711
  30
0.0
  11
 251.99999427795
  21
 164.99999530613
  31
0.0
   0
DIMENSION
   5
1D6
 100
AcDbEntity
   8
LEVEL003
   6
CONTINUOUS
  62
3
 100
AcDbDimension
   2
*D3
  10
 277.49999351800
  20
 274.99998439848
  30
0.0
  11
 277.49999351800
  21
 214.99998618662
  31
0.0
  70
128
   1
\A1;120
   3
GMM003
 100
AcDbAlignedDimension
  13
 235.49999476969
  23
 154.99998797476
  33
0.0
  14
 235.49999476969
  24
 274.99998439848
  34
0.0
  50
 90.000000000000
 100
AcDbRotatedDimension
   0
DIMENSION
   5
1D8
 100
AcDbEntity
   8
LEVEL003
   6
CONTINUOUS
  62
3
 100
AcDbDimension
   2
*D4
  10
 207.50001086295
  20
 172.49999508261
  30
0.0
  11
 233.00001020790
  21
 172.49999508261
  31
0.0
  70
128
   1
\A1;51
   3
GMM004
 100
AcDbAlignedDimension
  13
 258.50000934303
  23
 172.49999508262
  33
0.0
  14
 207.50001086295
  24
 172.49999062405
  34
0.0
  50
 180.00000000000
 100
AcDbRotatedDimension
   0
ARC
   5
1DA
 100
AcDbEntity
   8
LEVEL001
   6
CONTINUOUS
  62
7
 100
AcDbCircle
  10
 235.50000192225
  20
 264.99998421967
  30
0.0
  40
 10.000000178814
 100
AcDbArc
  50
 0.32568879355810E-12
  51
 90.000040981152
   0
LINE
   5
1DB
 100
AcDbEntity
   8
LEVEL001
 100
AcDbLine
   6
CONTINUOUS
  62
7
  10
 207.50001086295
  20
 274.99998439848
  30
0.0
  11
 235.49999476969
  21
 274.99998439848
  31
0.0
   0
LINE
   5
1DC
 100
AcDbEntity
   8
LEVEL001
 100
AcDbLine
   6
CONTINUOUS
  62
7
  10
 207.50001086295
  20
 287.99999164045
  30
0.0
  11
 235.49999476969
  21
 287.99999164045
  31
0.0
   0
ARC
   5
1DD
 100
AcDbEntity
   8
LEVEL001
   6
CONTINUOUS
  62
7
 100
AcDbCircle
  10
 235.49999476969
  20
 264.99997706711
  30
0.0
  40
 23.000014573335
 100
AcDbArc
  50
0.0
  51
 89.999999999999
   0
LINE
   5
1DE
 100
AcDbEntity
   8
LEVEL001
 100
AcDbLine
   6
CONTINUOUS
  62
7
  10
 210.50001077354
  20
 287.99999164045
  30
0.0
  11
 207.50001086295
  21
 290.99999155104
  31
0.0
   0
LINE
   5
1DF
 100
AcDbEntity
   8
LEVEL001
 100
AcDbLine
   6
CONTINUOUS
  62
7
  10
 210.50001077354
  20
 274.99996151030
  30
0.0
  11
 207.50001086295
  21
 271.99996159971
  31
0.0
   0
ARC
   5
1E0
 100
AcDbEntity
   8
LEVEL001
   6
DASHDOT
  62
1
 100
AcDbCircle
  10
 235.49999476969
  20
 264.99997706711
  30
0.0
  40
 16.499999508262
 100
AcDbArc
  50
0.0
  51
 89.999999999999
   0
LINE
   5
1E1
 100
AcDbEntity
   8
LEVEL001
 100
AcDbLine
   6
DASHDOT
  62
1
  10
 202.49999575317
  20
 281.49997657538
  30
0.0
  11
 235.49999476969
  21
 281.49997657538
  31
0.0
   0
LINE
   5
1E2
 100
AcDbEntity
   8
LEVEL001
 100
AcDbLine
   6
CONTINUOUS
  62
3
  10
 217.50001819432
  20
 88.643472160594
  30
0.0
  11
 213.88368529428
  21
 87.674478048847
  31
0.0
   0
LINE
   5
1E3
 100
AcDbEntity
   8
LEVEL001
 100
AcDbLine
   6
CONTINUOUS
  62
3
  10
 217.50001819432
  20
 71.356462482915
  30
0.0
  11
 213.88363951791
  21
 72.325468038754
  31
0.0
   0
LINE
   5
1E4
 100
AcDbEntity
   8
LEVEL001
 100
AcDbLine
   6
CONTINUOUS
  62
7
  10
 217.50001819432
  20
 88.643472160594
  30
0.0
  11
 218.98353865792
  21
 89.499993741512
  31
0.0
   0
LINE
   5
1E5
 100
AcDbEntity
   8
LEVEL001
 100
AcDbLine
   6
CONTINUOUS
  62
7
  10
 234.50001005828
  20
 89.499970853330
  30
0.0
  11
 218.98353865792
  21
 89.499970853330
  31
0.0
   0
LINE
   5
1E6
 100
AcDbEntity
   8
LEVEL001
 100
AcDbLine
   6
CONTINUOUS
  62
7
  10
 217.50001819432
  20
 71.356462482915
  30
0.0
  11
 218.98353865792
  21
 70.499963790179
  31
0.0
   0
LINE
   5
1E7
 100
AcDbEntity
   8
LEVEL001
 100
AcDbLine
   6
CONTINUOUS
  62
7
  10
 234.50001005828
  20
 70.499963790179
  30
0.0
  11
 218.98353865792
  21
 70.499963790179
  31
0.0
   0
ARC
   5
1E8
 100
AcDbEntity
   8
LEVEL001
   6
CONTINUOUS
  62
7
 100
AcDbCircle
  10
 236.00001001358
  20
 92.999963119627
  30
0.0
  40
 1.4999999552965
 100
AcDbArc
  50
 89.999999999932
  51
 180.00000000003
   0
LINE
   5
1E9
 100
AcDbEntity
   8
LEVEL001
 100
AcDbLine
   6
CONTINUOUS
  62
7
  10
 236.00001001358
  20
 94.499963074924
  30
0.0
  11
 241.00000223517
  21
 94.499963074924
  31
0.0
   0
ARC
   5
1EA
 100
AcDbEntity
   8
LEVEL001
   6
CONTINUOUS
  62
7
 100
AcDbCircle
  10
 236.00001001358
  20
 66.999965801836
  30
0.0
  40
 1.4999999552965
 100
AcDbArc
  50
 180.00000000000
  51
 270.00000000011
   0
LINE
   5
1EB
 100
AcDbEntity
   8
LEVEL001
 100
AcDbLine
   6
CONTINUOUS
  62
7
  10
 234.50001005828
  20
 66.999965801836
  30
0.0
  11
 234.50001005828
  21
 92.999963119627
  31
0.0
   0
LINE
   5
1EC
 100
AcDbEntity
   8
LEVEL001
 100
AcDbLine
   6
CONTINUOUS
  62
7
  10
 236.00001001358
  20
 65.499965846540
  30
0.0
  11
 241.00000223517
  21
 65.499965846540
  31
0.0
   0
ARC
   5
1ED
 100
AcDbEntity
   8
LEVEL001
   6
CONTINUOUS
  62
7
 100
AcDbCircle
  10
 257.00000938773
  20
 92.999963119626
  30
0.0
  40
 1.4999999552965
 100
AcDbArc
  50
 0.34740139636043E-10
  51
 89.999999999826
   0
LINE
   5
1EE
 100
AcDbEntity
   8
LEVEL001
 100
AcDbLine
   6
CONTINUOUS
  62
7
  10
 252.00001716614
  20
 94.499963074924
  30
0.0
  11
 257.00000938773
  21
 94.499963074924
  31
0.0
   0
ARC
   5
1EF
 100
AcDbEntity
   8
LEVEL001
   6
CONTINUOUS
  62
7
 100
AcDbCircle
  10
 257.00000938773
  20
 66.999965801831
  30
0.0
  40
 1.4999999552965
 100
AcDbArc
  50
 270.00000000000
  51
 0.23178186913441E-9
   0
LINE
   5
1F0
 100
AcDbEntity
   8
LEVEL001
 100
AcDbLine
   6
CONTINUOUS
  62
7
  10
 252.00001716614
  20
 65.499965846540
  30
0.0
  11
 257.00000938773
  21
 65.499965846540
  31
0.0
   0
LINE
   5
1F1
 100
AcDbEntity
   8
LEVEL001
 100
AcDbLine
   6
CONTINUOUS
  62
7
  10
 258.50000934303
  20
 92.999963119627
  30
0.0
  11
 258.50000934303
  21
 66.999965801836
  31
0.0
   0
ARC
   5
1F2
 100
AcDbEntity
   8
LEVEL001
   6
DASHDOT
  62
1
 100
AcDbCircle
  10
 267.50001667443
  20
 92.999970719249
  30
0.0
  40
 1.0000000000000
 100
AcDbArc
  50
0.0
  51
 90.000435426175
   0
LINE
   5
1F3
 100
AcDbEntity
   8
LEVEL001
 100
AcDbLine
   6
DASHDOT
  62
1
  10
 259.50001694262
  20
 93.999970719219
  30
0.0
  11
 267.50000907481
  21
 93.999970719219
  31
0.0
   0
ARC
   5
1F4
 100
AcDbEntity
   8
LEVEL001
   6
DASHDOT
  62
1
 100
AcDbCircle
  10
 267.50001667441
  20
 66.999969646303
  30
0.0
  40
 1.0000000000000
 100
AcDbArc
  50
 269.99956457503
  51
 0.18319994965230E-9
   0
LINE
   5
1F5
 100
AcDbEntity
   8
LEVEL001
 100
AcDbLine
   6
DASHDOT
  62
1
  10
 259.50001694262
  20
 65.999969646336
  30
0.0
  11
 267.50000907481
  21
 65.999969646336
  31
0.0
   0
LINE
   5
1F6
 100
AcDbEntity
   8
LEVEL001
 100
AcDbLine
   6
DASHDOT
  62
1
  10
 268.50001667440
  20
 92.999963119627
  30
0.0
  11
 268.50001667440
  21
 66.999965801836
  31
0.0
   0
CIRCLE
   5
1F7
 100
AcDbEntity
   8
LEVEL001
 100
AcDbCircle
   6
DASHDOT
  62
1
  10
 271.50001658499
  20
 79.999967321754
  30
0.0
  40
 1.4999999552965
   0
ARC
   5
1F8
 100
AcDbEntity
   8
LEVEL001
   6
DASHDOT
  62
1
 100
AcDbCircle
  10
 259.50000934302
  20
 66.999969646311
  30
0.0
  40
 1.0000000000000
 100
AcDbArc
  50
 180.00022027219
  51
 270.00043542541
   0
ARC
   5
1F9
 100
AcDbEntity
   8
LEVEL001
   6
DASHDOT
  62
1
 100
AcDbCircle
  10
 259.50000934299
  20
 92.999970719241
  30
0.0
  40
 1.0000000000000
 100
AcDbArc
  50
 89.999564573545
  51
 180.00043542577
   0
ARC
   5
1FA
 100
AcDbEntity
   8
LEVEL001
   6
DASHDOT
  62
1
 100
AcDbCircle
  10
 270.50001667439
  20
 85.499971032129
  30
0.0
  40
 2.0000000000000
 100
AcDbArc
  50
 180.00022027317
  51
 269.99977972668
   0
ARC
   5
1FB
 100
AcDbEntity
   8
LEVEL001
   6
DASHDOT
  62
1
 100
AcDbCircle
  10
 270.50001667439
  20
 74.499963611384
  30
0.0
  40
 2.0000000000000
 100
AcDbArc
  50
 90.000220273200
  51
 179.99977972697
   0
LINE
   5
1FC
 100
AcDbEntity
   8
LEVEL001
 100
AcDbLine
   6
DASHDOT
  62
1
  10
 270.50000898540
  20
 83.499971032144
  30
0.0
  11
 271.00000134110
  21
 83.499971032144
  31
0.0
   0
LINE
   5
1FD
 100
AcDbEntity
   8
LEVEL001
 100
AcDbLine
   6
DASHDOT
  62
1
  10
 270.50000898540
  20
 76.499963611365
  30
0.0
  11
 271.00000134110
  21
 76.499963611365
  31
0.0
   0
ARC
   5
1FE
 100
AcDbEntity
   8
LEVEL001
   6
DASHDOT
  62
1
 100
AcDbCircle
  10
 271.00000134110
  20
 79.999967321754
  30
0.0
  40
 3.5000037103890
 100
AcDbArc
  50
 270.00000000000
  51
 90.000000000000
   0
LINE
   5
1FF
 100
AcDbEntity
   8
LEVEL001
 100
AcDbLine
   6
CONTINUOUS
  62
7
  10
 218.98353865792
  20
 70.499963790179
  30
0.0
  11
 218.98353865792
  21
 74.169019619554
  31
0.0
   0
LINE
   5
200
 100
AcDbEntity
   8
LEVEL001
 100
AcDbLine
   6
CONTINUOUS
  62
7
  10
 218.98353865792
  20
 85.830915023955
  30
0.0
  11
 218.98353865792
  21
 89.499982297421
  31
0.0
   0
LINE
   5
201
 100
AcDbEntity
   8
LEVEL001
 100
AcDbLine
   6
CONTINUOUS
  62
7
  10
 213.50001068413
  20
 75.960786686516
  30
0.0
  11
 227.50000263751
  21
 85.830915023955
  31
0.0
   0
LINE
   5
202
 100
AcDbEntity
   8
LEVEL001
 100
AcDbLine
   6
CONTINUOUS
  62
7
  10
 213.50001068413
  20
 84.039147956993
  30
0.0
  11
 227.50000263751
  21
 74.169019619554
  31
0.0
   0
LINE
   5
203
 100
AcDbEntity
   8
LEVEL001
 100
AcDbLine
   6
CONTINUOUS
  62
3
  10
 213.88368529428
  20
 87.674466604755
  30
0.0
  11
 213.88368529428
  21
 84.039147956993
  31
0.0
   0
LINE
   5
204
 100
AcDbEntity
   8
LEVEL001
 100
AcDbLine
   6
CONTINUOUS
  62
3
  10
 213.88363951791
  20
 75.960786686516
  30
0.0
  11
 213.88363951791
  21
 72.325468038754
  31
0.0
   0
LINE
   5
205
 100
AcDbEntity
   8
LEVEL001
 100
AcDbLine
   6
CONTINUOUS
  62
7
  10
 217.50001819432
  20
 88.643472160594
  30
0.0
  11
 217.50001819432
  21
 84.296502685651
  31
0.0
   0
LINE
   5
206
 100
AcDbEntity
   8
LEVEL001
 100
AcDbLine
   6
CONTINUOUS
  62
7
  10
 217.50001819432
  20
 75.703431957858
  30
0.0
  11
 217.50001819432
  21
 71.356462482915
  31
0.0
   0
LINE
   5
207
 100
AcDbEntity
   8
LEVEL001
 100
AcDbLine
   6
DASHDOT
  62
1
  10
 277.50001640618
  20
 79.999967321754
  30
0.0
  11
 197.50001497567
  21
 79.999967321754
  31
0.0
   0
LINE
   5
208
 100
AcDbEntity
   8
LEVEL001
 100
AcDbLine
   6
CONTINUOUS
  62
3
  10
 241.00000223517
  20
 66.999965801836
  30
0.0
  11
 252.00001716614
  21
 66.999965801836
  31
0.0
   0
LINE
   5
209
 100
AcDbEntity
   8
LEVEL001
 100
AcDbLine
   6
CONTINUOUS
  62
3
  10
 241.00000223517
  20
 68.999963834883
  30
0.0
  11
 252.00001716614
  21
 68.999963834883
  31
0.0
   0
LINE
   5
20A
 100
AcDbEntity
   8
LEVEL001
 100
AcDbLine
   6
CONTINUOUS
  62
3
  10
 241.00000223517
  20
 70.999967589975
  30
0.0
  11
 252.00001716614
  21
 70.999967589975
  31
0.0
   0
LINE
   5
20B
 100
AcDbEntity
   8
LEVEL001
 100
AcDbLine
   6
CONTINUOUS
  62
3
  10
 241.00000223517
  20
 72.999971345068
  30
0.0
  11
 252.00001716614
  21
 72.999971345068
  31
0.0
   0
LINE
   5
20C
 100
AcDbEntity
   8
LEVEL001
 100
AcDbLine
   6
CONTINUOUS
  62
3
  10
 241.00000223517
  20
 74.999963656069
  30
0.0
  11
 252.00001716614
  21
 74.999963656069
  31
0.0
   0
LINE
   5
20D
 100
AcDbEntity
   8
LEVEL001
 100
AcDbLine
   6
CONTINUOUS
  62
3
  10
 241.00000223517
  20
 76.999967411161
  30
0.0
  11
 252.00001716614
  21
 76.999967411161
  31
0.0
   0
LINE
   5
20E
 100
AcDbEntity
   8
LEVEL001
 100
AcDbLine
   6
CONTINUOUS
  62
3
  10
 241.00000223517
  20
 78.999971166254
  30
0.0
  11
 252.00001716614
  21
 78.999971166254
  31
0.0
   0
LINE
   5
20F
 100
AcDbEntity
   8
LEVEL001
 100
AcDbLine
   6
CONTINUOUS
  62
3
  10
 241.00000223517
  20
 80.999963477255
  30
0.0
  11
 252.00001716614
  21
 80.999963477255
  31
0.0
   0
LINE
   5
210
 100
AcDbEntity
   8
LEVEL001
 100
AcDbLine
   6
CONTINUOUS
  62
3
  10
 241.00000223517
  20
 82.999967232348
  30
0.0
  11
 252.00001716614
  21
 82.999967232348
  31
0.0
   0
LINE
   5
211
 100
AcDbEntity
   8
LEVEL001
 100
AcDbLine
   6
CONTINUOUS
  62
3
  10
 241.00000223517
  20
 84.999970987440
  30
0.0
  11
 252.00001716614
  21
 84.999970987440
  31
0.0
   0
LINE
   5
212
 100
AcDbEntity
   8
LEVEL001
 100
AcDbLine
   6
CONTINUOUS
  62
3
  10
 241.00000223517
  20
 86.999963298441
  30
0.0
  11
 252.00001716614
  21
 86.999963298441
  31
0.0
   0
LINE
   5
213
 100
AcDbEntity
   8
LEVEL001
 100
AcDbLine
   6
CONTINUOUS
  62
3
  10
 241.00000223517
  20
 88.999967053534
  30
0.0
  11
 252.00001716614
  21
 88.999967053534
  31
0.0
   0
LINE
   5
214
 100
AcDbEntity
   8
LEVEL001
 100
AcDbLine
   6
CONTINUOUS
  62
3
  10
 241.00000223517
  20
 90.999970808626
  30
0.0
  11
 252.00001716614
  21
 90.999970808626
  31
0.0
   0
LINE
   5
215
 100
AcDbEntity
   8
LEVEL001
 100
AcDbLine
   6
CONTINUOUS
  62
3
  10
 241.00000223517
  20
 92.999963119627
  30
0.0
  11
 252.00001716614
  21
 92.999963119627
  31
0.0
   0
LINE
   5
216
 100
AcDbEntity
   8
LEVEL001
 100
AcDbLine
   6
CONTINUOUS
  62
7
  10
 213.50001068413
  20
 75.960786686516
  30
0.0
  11
 213.50001068413
  21
 84.039147956993
  31
0.0
   0
LINE
   5
217
 100
AcDbEntity
   8
LEVEL001
 100
AcDbLine
   6
CONTINUOUS
  62
7
  10
 213.50001068413
  20
 84.039147956993
  30
0.0
  11
 217.50001819432
  21
 84.296502685651
  31
0.0
   0
LINE
   5
218
 100
AcDbEntity
   8
LEVEL001
 100
AcDbLine
   6
CONTINUOUS
  62
7
  10
 217.50001819432
  20
 84.296502685651
  30
0.0
  11
 218.98353865792
  21
 85.830915023955
  31
0.0
   0
LINE
   5
219
 100
AcDbEntity
   8
LEVEL001
 100
AcDbLine
   6
CONTINUOUS
  62
7
  10
 218.98353865792
  20
 85.830915023955
  30
0.0
  11
 227.50000263751
  21
 85.830915023955
  31
0.0
   0
LINE
   5
21A
 100
AcDbEntity
   8
LEVEL001
 100
AcDbLine
   6
CONTINUOUS
  62
7
  10
 227.50000263751
  20
 85.830915023955
  30
0.0
  11
 227.50000263751
  21
 74.169019619554
  31
0.0
   0
LINE
   5
21B
 100
AcDbEntity
   8
LEVEL001
 100
AcDbLine
   6
CONTINUOUS
  62
7
  10
 227.50000263751
  20
 74.169019619554
  30
0.0
  11
 218.98353865792
  21
 74.169019619554
  31
0.0
   0
LINE
   5
21C
 100
AcDbEntity
   8
LEVEL001
 100
AcDbLine
   6
CONTINUOUS
  62
7
  10
 218.98353865792
  20
 74.169019619554
  30
0.0
  11
 217.50001819432
  21
 75.703431957858
  31
0.0
   0
LINE
   5
21D
 100
AcDbEntity
   8
LEVEL001
 100
AcDbLine
   6
CONTINUOUS
  62
7
  10
 217.50001819432
  20
 75.703431957858
  30
0.0
  11
 213.50001068413
  21
 75.960786686516
  31
0.0
   0
LINE
   5
21E
 100
AcDbEntity
   8
LEVEL001
 100
AcDbLine
   6
CONTINUOUS
  62
7
  10
 241.00000223517
  20
 64.999967768789
  30
0.0
  11
 241.00000223517
  21
 94.999966874720
  31
0.0
   0
LINE
   5
21F
 100
AcDbEntity
   8
LEVEL001
 100
AcDbLine
   6
CONTINUOUS
  62
7
  10
 241.00000223517
  20
 94.999966874720
  30
0.0
  11
 252.00001716614
  21
 94.999966874720
  31
0.0
   0
LINE
   5
220
 100
AcDbEntity
   8
LEVEL001
 100
AcDbLine
   6
CONTINUOUS
  62
7
  10
 252.00001716614
  20
 94.999966874720
  30
0.0
  11
 252.00001716614
  21
 64.999967768789
  31
0.0
   0
LINE
   5
221
 100
AcDbEntity
   8
LEVEL001
 100
AcDbLine
   6
CONTINUOUS
  62
7
  10
 252.00001716614
  20
 64.999967768789
  30
0.0
  11
 241.00000223517
  21
 64.999967768789
  31
0.0
   0
TEXT
   5
222
 100
AcDbEntity
   8
LEVEL003
  62
3
 100
AcDbText
  10
 224.99999508262
  20
 37.499999105930
  30
0.0
  40
 5.9999998211861
   1
２－ＮＰＴ３／８
   7
STANDARD
 100
AcDbText
   0
LEADER
   5
223
 100
AcDbEntity
   8
LEVEL003
   6
CONTINUOUS
  62
3
 100
AcDbLeader
   3
GMM005
  73
0
  74
1
  75
0
  40
 6.0000000000000
  41
0.0
  76
3
  10
 211.38093115744
  20
 71.547693251142
  30
0.0
  10
 224.99999508262
  20
 37.499999105930
  30
0.0
  10
 277.49999351800
  20
 37.499999105930
  30
0.0
  77
3
   0
LEADER
   5
224
 100
AcDbEntity
   8
LEVEL003
   6
CONTINUOUS
  62
3
 100
AcDbLeader
   3
GMM006
  73
0
  74
1
  75
0
  40
 6.0000000000000
  41
0.0
  76
2
  10
 190.49999611080
  20
 54.999983325601
  30
0.0
  10
 224.99999508262
  20
 37.499999105930
  30
0.0
  77
3
   0
LEADER
   5
225
 100
AcDbEntity
   8
LEVEL003
   6
CONTINUOUS
  62
3
 100
AcDbLeader
   3
GMM005
  73
0
  74
1
  75
0
  40
 6.0000000000000
  41
0.0
  76
3
  10
 116.50000594556
  20
 54.999983325601
  30
0.0
  10
 104.99999865890
  20
 37.499999105930
  30
0.0
  10
 67.499999776483
  20
 37.499999105930
  30
0.0
  77
3
   0
TEXT
   5
226
 100
AcDbEntity
   8
LEVEL003
  62
3
 100
AcDbText
  10
 67.499999776483
  20
 37.499999105930
  30
0.0
  40
 5.9999998211861
   1
２－Ｍ１０
   7
STANDARD
 100
AcDbText
   0
TEXT
   5
227
 100
AcDbEntity
   8
LEVEL003
  62
3
 100
AcDbText
  10
 67.499999776483
  20
 29.499999344349
  30
0.0
  40
 5.9999998211861
   1
タップ　１５
   7
STANDARD
 100
AcDbText
   0
DIMENSION
   5
228
 100
AcDbEntity
   8
LEVEL003
   6
CONTINUOUS
  62
3
 100
AcDbDimension
   2
*D8
  10
 285.00000000000
  20
 54.999983325601
  30
0.0
  11
 285.00000000000
  21
 67.499975323678
  31
0.0
  70
128
   1
\A1;25
   3
GMM007
 100
AcDbAlignedDimension
  13
 277.50001640618
  23
 79.999967321754
  33
0.0
  14
 292.49999307096
  24
 54.999983325601
  34
0.0
  50
 270.00000000000
 100
AcDbRotatedDimension
   0
DIMENSION
   5
22A
 100
AcDbEntity
   8
LEVEL003
   6
CONTINUOUS
  62
3
 100
AcDbDimension
   2
*D9
  10
 300.00000000000
  20
 389.99998904765
  30
0.0
  11
 300.00000000000
  21
 222.49998618662
  31
0.0
  70
128
   1
\A1;335
   3
GMM003
 100
AcDbAlignedDimension
  13
 205.50001855195
  23
 54.999983325601
  33
0.0
  14
 181.49999637902
  24
 389.99998904765
  34
0.0
  50
 90.000000000000
 100
AcDbRotatedDimension
   0
TEXT
   5
22C
 100
AcDbEntity
   8
LEVEL003
  62
3
 100
AcDbText
  10
 154.33678155134
  20
 15.058089984712
  30
0.0
  40
 5.9999998211861
   1
Ａ
   7
STANDARD
 100
AcDbText
   0
LEADER
   5
22D
 100
AcDbEntity
   8
LEVEL003
   6
CONTINUOUS
  62
3
 100
AcDbLeader
   3
GMM008
  73
0
  74
1
  75
0
  40
 6.0000000000000
  41
0.0
  76
2
  10
 157.49999709427
  20
 29.999999329448
  30
0.0
  10
 157.49999709427
  20
 22.499999552965
  30
0.0
  77
3
   0
LINE
   5
22E
 100
AcDbEntity
   8
LEVEL001
 100
AcDbLine
   6
DASHDOT
  62
1
  10
 157.50000000000
  20
 169.99998188178
  30
0.0
  11
 157.50000000000
  21
 47.999983325601
  31
0.0
   0
DIMENSION
   5
22F
 100
AcDbEntity
   8
LEVEL003
   6
CONTINUOUS
  62
3
 100
AcDbDimension
   2
*D11
  10
 107.50000000000
  20
 172.49999062406
  30
0.0
  11
 157.50000010491
  21
 172.49999062406
  31
0.0
  70
128
   1
\A1;%%c100
   3
GMM009
 100
AcDbAlignedDimension
  13
 207.50000000000
  23
 172.49999062405
  33
0.0
  14
 107.50000000000
  24
 172.49998188178
  34
0.0
  50
 180.00000000000
 100
AcDbRotatedDimension
   0
LINE
   5
231
 100
AcDbEntity
   8
LEVEL001
 100
AcDbLine
   6
DOT
  62
3
  10
 184.00000000000
  20
 377.00000460446
  30
0.0
  11
 184.00000000000
  21
 169.49998188178
  31
0.0
   0
LINE
   5
232
 100
AcDbEntity
   8
LEVEL001
 100
AcDbLine
   6
DOT
  62
3
  10
 131.00000000000
  20
 377.00000460446
  30
0.0
  11
 131.00000000000
  21
 169.49998188178
  31
0.0
   0
LINE
   5
233
 100
AcDbEntity
   8
LEVEL003
 100
AcDbLine
   6
CONTINUOUS
  62
3
  10
 116.50000000000
  20
 50.499983325601
  30
0.0
  11
 116.50000000000
  21
 27.000000000000
  31
0.0
   0
LINE
   5
234
 100
AcDbEntity
   8
LEVEL003
 100
AcDbLine
   6
CONTINUOUS
  62
3
  10
 116.50000000000
  20
 30.000000000000
  30
0.0
  11
 157.50000000000
  21
 30.000000000000
  31
0.0
   0
LINE
   5
235
 100
AcDbEntity
   8
LEVEL003
 100
AcDbLine
   6
CONTINUOUS
  62
3
  10
 121.00000000000
  20
 29.250000000000
  30
0.0
  11
 116.50000000000
  21
 30.000000000000
  31
0.0
   0
LINE
   5
236
 100
AcDbEntity
   8
LEVEL003
 100
AcDbLine
   6
CONTINUOUS
  62
3
  10
 116.50000000000
  20
 30.000000000000
  30
0.0
  11
 121.00000000000
  21
 30.750000000000
  31
0.0
   0
LINE
   5
237
 100
AcDbEntity
   8
LEVEL003
 100
AcDbLine
   6
CONTINUOUS
  62
3
  10
 116.50000000000
  20
 30.000000000000
  30
0.0
  11
 121.00000000000
  21
 30.000000000000
  31
0.0
   0
MTEXT
   5
238
 100
AcDbEntity
   8
LEVEL003
  62
3
 100
AcDbMText
  10
 157.50000000000
  20
 31.200000000000
  30
0.0
  40
 6.0000000000000
  41
0.0
  71
8
  72
1
   1
%%c\Ftxt.shx;82
   7
GMM003
   0
DIMENSION
   5
239
 100
AcDbEntity
   8
LEVEL003
   6
CONTINUOUS
  62
3
 100
AcDbDimension
   2
*D12
  10
 171.75000000000
  20
 41.250000000000
  30
0.0
  11
 157.50000000000
  21
 41.250000000000
  31
0.0
  70
0
   1
\A1;%%c28.5
   3
GMM010
 100
AcDbAlignedDimension
  13
 143.25000000000
  23
 63.999983325601
  33
0.0
  14
 171.75000000000
  24
 63.999983325601
  34
0.0
 100
AcDbRotatedDimension
   0
DIMENSION
   5
23B
 100
AcDbEntity
   8
LEVEL003
   6
CONTINUOUS
  62
3
 100
AcDbDimension
   2
*D13
  10
 171.75000000000
  20
 397.50000000000
  30
0.0
  11
 157.50000000000
  21
 397.50000000000
  31
0.0
  70
0
   1
\A1;%%c28.5
   3
GMM010
 100
AcDbAlignedDimension
  13
 143.25000000000
  23
 385.00000460446
  33
0.0
  14
 171.75000000000
  24
 385.00000460446
  34
0.0
 100
AcDbRotatedDimension
   0
DIMENSION
   5
23D
 100
AcDbEntity
   8
LEVEL003
   6
CONTINUOUS
  62
3
 100
AcDbDimension
   2
*D14
  10
 132.50000000000
  20
 412.50000152990
  30
0.0
  11
 157.50000215934
  21
 412.50000152990
  31
0.0
  70
128
   1
\A1;%%c50
   3
GMM011
 100
AcDbAlignedDimension
  13
 182.50000000000
  23
 389.00000460446
  33
0.0
  14
 132.50000000000
  24
 389.00000460446
  34
0.0
  50
 180.00000000000
 100
AcDbRotatedDimension
   0
CIRCLE
   5
23F
 100
AcDbEntity
   8
LEVEL001
 100
AcDbCircle
   6
CONTINUOUS
  62
7
  10
 345.00000000000
  20
 142.50000000000
  30
0.0
  40
 40.000003576279
   0
CIRCLE
   5
240
 100
AcDbEntity
   8
LEVEL001
 100
AcDbCircle
   6
CONTINUOUS
  62
7
  10
 345.00000000000
  20
 142.50000000000
  30
0.0
  40
 38.399999427795
   0
CIRCLE
   5
241
 100
AcDbEntity
   8
LEVEL001
 100
AcDbCircle
   6
CONTINUOUS
  62
7
  10
 345.00000000000
  20
 175.30000207424
  30
0.0
  40
 3.4000002324581
   0
CIRCLE
   5
242
 100
AcDbEntity
   8
LEVEL001
 100
AcDbCircle
   6
CONTINUOUS
  62
3
  10
 345.00000000000
  20
 175.30000207424
  30
0.0
  40
 4.0000000000000
   0
ARC
   5
243
 100
AcDbEntity
   8
LEVEL001
   6
DASHDOT
  62
1
 100
AcDbCircle
  10
 345.00001144409
  20
 142.50001051383
  30
0.0
  40
 32.799999213219
 100
AcDbArc
  50
 61.766024425418
  51
 118.23397557458
   0
CIRCLE
   5
244
 100
AcDbEntity
   8
LEVEL001
 100
AcDbCircle
   6
CONTINUOUS
  62
7
  10
 345.00000000000
  20
 109.70000936985
  30
0.0
  40
 3.4000002324581
   0
CIRCLE
   5
245
 100
AcDbEntity
   8
LEVEL001
 100
AcDbCircle
   6
CONTINUOUS
  62
3
  10
 345.00000000000
  20
 109.70000936985
  30
0.0
  40
 4.0000000000000
   0
ARC
   5
246
 100
AcDbEntity
   8
LEVEL001
   6
DASHDOT
  62
1
 100
AcDbCircle
  10
 345.00001144409
  20
 142.50000093026
  30
0.0
  40
 32.799999213219
 100
AcDbArc
  50
 241.76602442542
  51
 298.23397557458
   0
CIRCLE
   5
247
 100
AcDbEntity
   8
LEVEL001
 100
AcDbCircle
   6
CONTINUOUS
  62
7
  10
 363.66762487091
  20
 123.83237512909
  30
0.0
  40
 5.9800001984835
   0
CIRCLE
   5
248
 100
AcDbEntity
   8
LEVEL001
 100
AcDbCircle
   6
CONTINUOUS
  62
3
  10
 363.66762487091
  20
 123.83237512909
  30
0.0
  40
 6.6648006837129
   0
LINE
   5
249
 100
AcDbEntity
   8
LEVEL001
 100
AcDbLine
   6
DASHDOT
  62
1
  10
 370.07739183076
  20
 117.42259672515
  30
0.0
  11
 357.25785791105
  21
 130.24215353304
  31
0.0
   0
ARC
   5
24A
 100
AcDbEntity
   8
LEVEL001
   6
DASHDOT
  62
1
 100
AcDbCircle
  10
 344.99998099274
  20
 142.49998995517
  30
0.0
  40
 26.399999785423
 100
AcDbArc
  50
 288.72695899645
  51
 341.27316003057
   0
LINE
   5
24B
 100
AcDbEntity
   8
LEVEL001
 100
AcDbLine
   6
DASHDOT
  62
1
  10
 345.00000000000
  20
 100.65622454416
  30
0.0
  11
 345.00000000000
  21
 184.34376401175
  31
0.0
   0
CIRCLE
   5
24C
 100
AcDbEntity
   8
LEVEL001
 100
AcDbCircle
   6
CONTINUOUS
  62
7
  10
 345.00000000000
  20
 142.50000000000
  30
0.0
  40
 16.799999213219
   0
CIRCLE
   5
24D
 100
AcDbEntity
   8
LEVEL001
 100
AcDbCircle
   6
CONTINUOUS
  62
7
  10
 345.00000000000
  20
 142.50000000000
  30
0.0
  40
 16.000000000000
   0
CIRCLE
   5
24E
 100
AcDbEntity
   8
LEVEL001
 100
AcDbCircle
   6
CONTINUOUS
  62
7
  10
 345.00000000000
  20
 142.50000000000
  30
0.0
  40
 10.800000107288
   0
CIRCLE
   5
24F
 100
AcDbEntity
   8
LEVEL001
 100
AcDbCircle
   6
CONTINUOUS
  62
7
  10
 345.00000000000
  20
 142.50000000000
  30
0.0
  40
 11.600000035763
   0
LINE
   5
250
 100
AcDbEntity
   8
LEVEL001
 100
AcDbLine
   6
CONTINUOUS
  62
3
  10
 392.99777841575
  20
 149.39549997760
  30
0.0
  11
 390.10549029394
  21
 148.62051754831
  31
0.0
   0
LINE
   5
251
 100
AcDbEntity
   8
LEVEL001
 100
AcDbLine
   6
CONTINUOUS
  62
3
  10
 392.99777841575
  20
 135.56975576074
  30
0.0
  11
 390.10549029394
  21
 136.34474963412
  31
0.0
   0
LINE
   5
252
 100
AcDbEntity
   8
LEVEL001
 100
AcDbLine
   6
CONTINUOUS
  62
7
  10
 392.99777841575
  20
 149.39549997760
  30
0.0
  11
 394.18425604152
  21
 150.08052040397
  31
0.0
   0
LINE
   5
253
 100
AcDbEntity
   8
LEVEL001
 100
AcDbLine
   6
CONTINUOUS
  62
7
  10
 406.59395415801
  20
 150.08049751578
  30
0.0
  11
 394.18425604152
  21
 150.08049751578
  31
0.0
   0
LINE
   5
254
 100
AcDbEntity
   8
LEVEL001
 100
AcDbLine
   6
CONTINUOUS
  62
7
  10
 392.99777841575
  20
 135.56975576074
  30
0.0
  11
 394.18425604152
  21
 134.88475822256
  31
0.0
   0
LINE
   5
255
 100
AcDbEntity
   8
LEVEL001
 100
AcDbLine
   6
CONTINUOUS
  62
7
  10
 406.59395415801
  20
 134.88475822256
  30
0.0
  11
 394.18425604152
  21
 134.88475822256
  31
0.0
   0
ARC
   5
256
 100
AcDbEntity
   8
LEVEL001
   6
CONTINUOUS
  62
7
 100
AcDbCircle
  10
 407.79361805932
  20
 152.87971960368
  30
0.0
  40
 1.1996639013391
 100
AcDbArc
  50
 90.000128100509
  51
 180.00041846702
   0
LINE
   5
257
 100
AcDbEntity
   8
LEVEL001
 100
AcDbLine
   6
CONTINUOUS
  62
7
  10
 407.79361537714
  20
 154.07938350501
  30
0.0
  11
 411.79250136636
  21
 154.07938350501
  31
0.0
   0
ARC
   5
258
 100
AcDbEntity
   8
LEVEL001
   6
CONTINUOUS
  62
7
 100
AcDbCircle
  10
 407.79361805932
  20
 132.08553613467
  30
0.0
  40
 1.1996639013391
 100
AcDbArc
  50
 179.99958153358
  51
 269.99987189911
   0
LINE
   5
259
 100
AcDbEntity
   8
LEVEL001
 100
AcDbLine
   6
CONTINUOUS
  62
7
  10
 406.59395415801
  20
 132.08554489656
  30
0.0
  11
 406.59395415801
  21
 152.87971084178
  31
0.0
   0
LINE
   5
25A
 100
AcDbEntity
   8
LEVEL001
 100
AcDbLine
   6
CONTINUOUS
  62
7
  10
 407.79361537714
  20
 130.88587223334
  30
0.0
  11
 411.79250136636
  21
 130.88587223334
  31
0.0
   0
ARC
   5
25B
 100
AcDbEntity
   8
LEVEL001
   6
CONTINUOUS
  62
7
 100
AcDbCircle
  10
 424.58891553916
  20
 152.87971960368
  30
0.0
  40
 1.1996639013391
 100
AcDbArc
  50
0.0
  51
 89.999871899847
   0
LINE
   5
25C
 100
AcDbEntity
   8
LEVEL001
 100
AcDbLine
   6
CONTINUOUS
  62
7
  10
 420.59003223210
  20
 154.07938350501
  30
0.0
  11
 424.58891822133
  21
 154.07938350501
  31
0.0
   0
ARC
   5
25D
 100
AcDbEntity
   8
LEVEL001
   6
CONTINUOUS
  62
7
 100
AcDbCircle
  10
 424.58891553915
  20
 132.08553613466
  30
0.0
  40
 1.1996639013391
 100
AcDbArc
  50
 270.00012810039
  51
 0.41846714137681E-3
   0
LINE
   5
25E
 100
AcDbEntity
   8
LEVEL001
 100
AcDbLine
   6
CONTINUOUS
  62
7
  10
 420.59003223210
  20
 130.88587223334
  30
0.0
  11
 424.58891822133
  21
 130.88587223334
  31
0.0
   0
LINE
   5
25F
 100
AcDbEntity
   8
LEVEL001
 100
AcDbLine
   6
CONTINUOUS
  62
7
  10
 425.78857944046
  20
 152.87971084178
  30
0.0
  11
 425.78857944046
  21
 132.08554489656
  31
0.0
   0
ARC
   5
260
 100
AcDbEntity
   8
LEVEL001
   6
DASHDOT
  62
1
 100
AcDbCircle
  10
 432.98657545489
  20
 152.87971665375
  30
0.0
  40
 0.79977596402836
 100
AcDbArc
  50
 0.40722504055039E-11
  51
 90.002056037237
   0
LINE
   5
261
 100
AcDbEntity
   8
LEVEL001
 100
AcDbLine
   6
DASHDOT
  62
1
  10
 426.58833832776
  20
 153.67949261726
  30
0.0
  11
 432.98654675524
  21
 153.67949261726
  31
0.0
   0
ARC
   5
262
 100
AcDbEntity
   8
LEVEL001
   6
DASHDOT
  62
1
 100
AcDbCircle
  10
 432.98657545489
  20
 132.08553908457
  30
0.0
  40
 0.79977596402836
 100
AcDbArc
  50
 269.99794396271
  51
 0.41636920961031E-3
   0
LINE
   5
263
 100
AcDbEntity
   8
LEVEL001
 100
AcDbLine
   6
DASHDOT
  62
1
  10
 426.58833832776
  20
 131.28576312108
  30
0.0
  11
 432.98654675524
  21
 131.28576312108
  31
0.0
   0
LINE
   5
264
 100
AcDbEntity
   8
LEVEL001
 100
AcDbLine
   6
DASHDOT
  62
1
  10
 433.78635141890
  20
 152.87971084178
  30
0.0
  11
 433.78635141890
  21
 132.08554489656
  31
0.0
   0
CIRCLE
   5
265
 100
AcDbEntity
   8
LEVEL001
 100
AcDbCircle
   6
DASHDOT
  62
1
  10
 436.18567385716
  20
 142.48262786917
  30
0.0
  40
 1.1996639013391
   0
ARC
   5
266
 100
AcDbEntity
   8
LEVEL001
   6
DASHDOT
  62
1
 100
AcDbCircle
  10
 426.58835540447
  20
 132.08553908490
  30
0.0
  40
 0.79977596402836
 100
AcDbArc
  50
 179.99958365452
  51
 269.99877662742
   0
ARC
   5
267
 100
AcDbEntity
   8
LEVEL001
   6
DASHDOT
  62
1
 100
AcDbCircle
  10
 426.58835540448
  20
 152.87971665342
  30
0.0
  40
 0.79977596402836
 100
AcDbArc
  50
 90.001223372916
  51
 180.00041634480
   0
ARC
   5
268
 100
AcDbEntity
   8
LEVEL001
   6
DASHDOT
  62
1
 100
AcDbCircle
  10
 435.38590334696
  20
 146.88139312319
  30
0.0
  40
 1.5995519280567
 100
AcDbArc
  50
 179.99999359339
  51
 270.00041633096
   0
ARC
   5
269
 100
AcDbEntity
   8
LEVEL001
   6
DASHDOT
  62
1
 100
AcDbCircle
  10
 435.38590334696
  20
 138.08386261515
  30
0.0
  40
 1.5995519280567
 100
AcDbArc
  50
 89.999583668835
  51
 180.00000640664
   0
LINE
   5
26A
 100
AcDbEntity
   8
LEVEL001
 100
AcDbLine
   6
DASHDOT
  62
1
  10
 435.38591496986
  20
 145.28184119517
  30
0.0
  11
 435.78577152533
  21
 145.28184119517
  31
0.0
   0
LINE
   5
26B
 100
AcDbEntity
   8
LEVEL001
 100
AcDbLine
   6
DASHDOT
  62
1
  10
 435.38591496986
  20
 139.68341454317
  30
0.0
  11
 435.78577152533
  21
 139.68341454317
  31
0.0
   0
ARC
   5
26C
 100
AcDbEntity
   8
LEVEL001
   6
DASHDOT
  62
1
 100
AcDbCircle
  10
 435.78202785325
  20
 142.48262786917
  30
0.0
  40
 2.7992158293958
 100
AcDbArc
  50
 270.07662741547
  51
 89.923372584528
   0
LINE
   5
26D
 100
AcDbEntity
   8
LEVEL001
 100
AcDbLine
   6
CONTINUOUS
  62
7
  10
 394.18425604152
  20
 134.88475822256
  30
0.0
  11
 394.18425604152
  21
 137.81917204502
  31
0.0
   0
LINE
   5
26E
 100
AcDbEntity
   8
LEVEL001
 100
AcDbLine
   6
CONTINUOUS
  62
7
  10
 394.18425604152
  20
 147.14608369332
  30
0.0
  11
 394.18425604152
  21
 150.08050895987
  31
0.0
   0
LINE
   5
26F
 100
AcDbEntity
   8
LEVEL001
 100
AcDbLine
   6
CONTINUOUS
  62
7
  10
 389.79865131382
  20
 139.25218973302
  30
0.0
  11
 400.99550461783
  21
 147.14608369332
  31
0.0
   0
LINE
   5
270
 100
AcDbEntity
   8
LEVEL001
 100
AcDbLine
   6
CONTINUOUS
  62
7
  10
 389.79865131382
  20
 145.71306600532
  30
0.0
  11
 400.99550461783
  21
 137.81917204502
  31
0.0
   0
LINE
   5
271
 100
AcDbEntity
   8
LEVEL001
 100
AcDbLine
   6
CONTINUOUS
  62
3
  10
 390.10549029394
  20
 148.62050610422
  30
0.0
  11
 390.10549029394
  21
 145.71306600532
  31
0.0
   0
LINE
   5
272
 100
AcDbEntity
   8
LEVEL001
 100
AcDbLine
   6
CONTINUOUS
  62
3
  10
 390.10549029394
  20
 139.25218973302
  30
0.0
  11
 390.10549029394
  21
 136.34474963412
  31
0.0
   0
LINE
   5
273
 100
AcDbEntity
   8
LEVEL001
 100
AcDbLine
   6
CONTINUOUS
  62
7
  10
 392.99777841575
  20
 149.39549997760
  30
0.0
  11
 392.99777841575
  21
 145.91889943424
  31
0.0
   0
LINE
   5
274
 100
AcDbEntity
   8
LEVEL001
 100
AcDbLine
   6
CONTINUOUS
  62
7
  10
 392.99777841575
  20
 139.04635630410
  30
0.0
  11
 392.99777841575
  21
 135.56975576074
  31
0.0
   0
LINE
   5
275
 100
AcDbEntity
   8
LEVEL001
 100
AcDbLine
   6
CONTINUOUS
  62
3
  10
 411.79250136636
  20
 132.08554489656
  30
0.0
  11
 420.59003223210
  21
 132.08554489656
  31
0.0
   0
LINE
   5
276
 100
AcDbEntity
   8
LEVEL001
 100
AcDbLine
   6
CONTINUOUS
  62
3
  10
 411.79250136636
  20
 133.68509700343
  30
0.0
  11
 420.59003223210
  21
 133.68509700343
  31
0.0
   0
LINE
   5
277
 100
AcDbEntity
   8
LEVEL001
 100
AcDbLine
   6
CONTINUOUS
  62
3
  10
 411.79250136636
  20
 135.28464911030
  30
0.0
  11
 420.59003223210
  21
 135.28464911030
  31
0.0
   0
LINE
   5
278
 100
AcDbEntity
   8
LEVEL001
 100
AcDbLine
   6
CONTINUOUS
  62
3
  10
 411.79250136636
  20
 136.88420121717
  30
0.0
  11
 420.59003223210
  21
 136.88420121717
  31
0.0
   0
LINE
   5
279
 100
AcDbEntity
   8
LEVEL001
 100
AcDbLine
   6
CONTINUOUS
  62
3
  10
 411.79250136636
  20
 138.48375332404
  30
0.0
  11
 420.59003223210
  21
 138.48375332404
  31
0.0
   0
LINE
   5
27A
 100
AcDbEntity
   8
LEVEL001
 100
AcDbLine
   6
CONTINUOUS
  62
3
  10
 411.79250136636
  20
 140.08330543091
  30
0.0
  11
 420.59003223210
  21
 140.08330543091
  31
0.0
   0
LINE
   5
27B
 100
AcDbEntity
   8
LEVEL001
 100
AcDbLine
   6
CONTINUOUS
  62
3
  10
 411.79250136636
  20
 141.68285753778
  30
0.0
  11
 420.59003223210
  21
 141.68285753778
  31
0.0
   0
LINE
   5
27C
 100
AcDbEntity
   8
LEVEL001
 100
AcDbLine
   6
CONTINUOUS
  62
3
  10
 411.79250136636
  20
 143.28239820056
  30
0.0
  11
 420.59003223210
  21
 143.28239820056
  31
0.0
   0
LINE
   5
27D
 100
AcDbEntity
   8
LEVEL001
 100
AcDbLine
   6
CONTINUOUS
  62
3
  10
 411.79250136636
  20
 144.88195030743
  30
0.0
  11
 420.59003223210
  21
 144.88195030743
  31
0.0
   0
LINE
   5
27E
 100
AcDbEntity
   8
LEVEL001
 100
AcDbLine
   6
CONTINUOUS
  62
3
  10
 411.79250136636
  20
 146.48150241430
  30
0.0
  11
 420.59003223210
  21
 146.48150241430
  31
0.0
   0
LINE
   5
27F
 100
AcDbEntity
   8
LEVEL001
 100
AcDbLine
   6
CONTINUOUS
  62
3
  10
 411.79250136636
  20
 148.08105452117
  30
0.0
  11
 420.59003223210
  21
 148.08105452117
  31
0.0
   0
LINE
   5
280
 100
AcDbEntity
   8
LEVEL001
 100
AcDbLine
   6
CONTINUOUS
  62
3
  10
 411.79250136636
  20
 149.68060662804
  30
0.0
  11
 420.59003223210
  21
 149.68060662804
  31
0.0
   0
LINE
   5
281
 100
AcDbEntity
   8
LEVEL001
 100
AcDbLine
   6
CONTINUOUS
  62
3
  10
 411.79250136636
  20
 151.28015873491
  30
0.0
  11
 420.59003223210
  21
 151.28015873491
  31
0.0
   0
LINE
   5
282
 100
AcDbEntity
   8
LEVEL001
 100
AcDbLine
   6
CONTINUOUS
  62
3
  10
 411.79250136636
  20
 152.87971084178
  30
0.0
  11
 420.59003223210
  21
 152.87971084178
  31
0.0
   0
LINE
   5
283
 100
AcDbEntity
   8
LEVEL001
 100
AcDbLine
   6
CONTINUOUS
  62
7
  10
 389.79865131382
  20
 139.25218973302
  30
0.0
  11
 389.79865131382
  21
 145.71306600532
  31
0.0
   0
LINE
   5
284
 100
AcDbEntity
   8
LEVEL001
 100
AcDbLine
   6
CONTINUOUS
  62
7
  10
 389.79865131382
  20
 145.71306600532
  30
0.0
  11
 392.99777841575
  21
 145.91889943424
  31
0.0
   0
LINE
   5
285
 100
AcDbEntity
   8
LEVEL001
 100
AcDbLine
   6
CONTINUOUS
  62
7
  10
 392.99777841575
  20
 145.91889943424
  30
0.0
  11
 394.18425604152
  21
 147.14608369332
  31
0.0
   0
LINE
   5
286
 100
AcDbEntity
   8
LEVEL001
 100
AcDbLine
   6
CONTINUOUS
  62
7
  10
 394.18425604152
  20
 147.14608369332
  30
0.0
  11
 400.99550461783
  21
 147.14608369332
  31
0.0
   0
LINE
   5
287
 100
AcDbEntity
   8
LEVEL001
 100
AcDbLine
   6
CONTINUOUS
  62
7
  10
 400.99550461783
  20
 147.14608369332
  30
0.0
  11
 400.99550461783
  21
 137.81917204502
  31
0.0
   0
LINE
   5
288
 100
AcDbEntity
   8
LEVEL001
 100
AcDbLine
   6
CONTINUOUS
  62
7
  10
 400.99550461783
  20
 137.81917204502
  30
0.0
  11
 394.18425604152
  21
 137.81917204502
  31
0.0
   0
LINE
   5
289
 100
AcDbEntity
   8
LEVEL001
 100
AcDbLine
   6
CONTINUOUS
  62
7
  10
 394.18425604152
  20
 137.81917204502
  30
0.0
  11
 392.99777841575
  21
 139.04635630410
  31
0.0
   0
LINE
   5
28A
 100
AcDbEntity
   8
LEVEL001
 100
AcDbLine
   6
CONTINUOUS
  62
7
  10
 392.99777841575
  20
 139.04635630410
  30
0.0
  11
 389.79865131382
  21
 139.25218973302
  31
0.0
   0
LINE
   5
28B
 100
AcDbEntity
   8
LEVEL001
 100
AcDbLine
   6
CONTINUOUS
  62
7
  10
 411.79250136636
  20
 130.48599278969
  30
0.0
  11
 411.79250136636
  21
 154.47926294865
  31
0.0
   0
LINE
   5
28C
 100
AcDbEntity
   8
LEVEL001
 100
AcDbLine
   6
CONTINUOUS
  62
7
  10
 411.79250136636
  20
 154.47926294865
  30
0.0
  11
 420.59003223210
  21
 154.47926294865
  31
0.0
   0
LINE
   5
28D
 100
AcDbEntity
   8
LEVEL001
 100
AcDbLine
   6
CONTINUOUS
  62
7
  10
 420.59003223210
  20
 154.47926294865
  30
0.0
  11
 420.59003223210
  21
 130.48599278969
  31
0.0
   0
LINE
   5
28E
 100
AcDbEntity
   8
LEVEL001
 100
AcDbLine
   6
CONTINUOUS
  62
7
  10
 420.59003223210
  20
 130.48599278969
  30
0.0
  11
 411.79250136636
  21
 130.48599278969
  31
0.0
   0
LINE
   5
28F
 100
AcDbEntity
   8
LEVEL001
 100
AcDbLine
   6
CONTINUOUS
  62
7
  10
 392.99777841575
  20
 149.39549997760
  30
0.0
  11
 384.44441868530
  21
 149.12820033347
  31
0.0
   0
LINE
   5
290
 100
AcDbEntity
   8
LEVEL001
 100
AcDbLine
   6
CONTINUOUS
  62
7
  10
 392.99777841575
  20
 135.56975576074
  30
0.0
  11
 384.52608372193
  21
 135.83451481657
  31
0.0
   0
LINE
   5
291
 100
AcDbEntity
   8
LEVEL001
 100
AcDbLine
   6
CONTINUOUS
  62
3
  10
 390.10549029394
  20
 136.34474963412
  30
0.0
  11
 384.54746128477
  21
 136.51845949833
  31
0.0
   0
LINE
   5
292
 100
AcDbEntity
   8
LEVEL001
 100
AcDbLine
   6
CONTINUOUS
  62
3
  10
 390.10549029394
  20
 148.62050610422
  30
0.0
  11
 384.54855991755
  21
 148.44683057228
  31
0.0
   0
LINE
   5
293
 100
AcDbEntity
   8
LEVEL001
 100
AcDbLine
   6
DASHDOT
  62
1
  10
 440.98431873368
  20
 142.48262786917
  30
0.0
  11
 301.99999365211
  21
 142.48262786917
  31
0.0
   0
TEXT
   5
294
 100
AcDbEntity
   8
LEVEL003
  62
3
 100
AcDbText
  10
 361.99999186397
  20
 194.99999843538
  30
0.0
  40
 5.9999998211861
   1
２－Ｍ１０
   7
STANDARD
 100
AcDbText
   0
LEADER
   5
295
 100
AcDbEntity
   8
LEVEL003
   6
CONTINUOUS
  62
3
 100
AcDbLeader
   3
GMM012
  73
0
  74
1
  75
0
  40
 6.0000000000000
  41
0.0
  76
3
  10
 347.61328117212
  20
 178.32833755528
  30
0.0
  10
 361.99999186397
  20
 194.99999843538
  30
0.0
  10
 391.99999096990
  20
 194.99999843538
  30
0.0
  77
3
   0
LINE
   5
296
 100
AcDbEntity
   8
LEVEL003
 100
AcDbLine
   6
CONTINUOUS
  62
3
  10
 326.25405420864
  20
 75.000002011657
  30
0.0
  11
 363.75405309105
  21
 75.000002011657
  31
0.0
   0
TEXT
   5
297
 100
AcDbEntity
   8
LEVEL003
  62
3
 100
AcDbText
  10
 329.75404647493
  20
 75.000002011657
  30
0.0
  40
 5.9999998211861
   1
Ａ　矢　視
   7
STANDARD
 100
AcDbText
   0
TEXT
   5
298
 100
AcDbEntity
   8
LEVEL003
  62
3
 100
AcDbText
  10
 241.36154687817
  20
 404.93077473549
  30
0.0
  40
 5.9999998211861
   1
Ｍ１００×２
   7
STANDARD
 100
AcDbText
   0
LEADER
   5
299
 100
AcDbEntity
   8
LEVEL003
   6
CONTINUOUS
  62
3
 100
AcDbLeader
   3
GMM005
  73
0
  74
1
  75
0
  40
 6.0000000000000
  41
0.0
  76
3
  10
 207.50001376867
  20
 363.61144765879
  30
0.0
  10
 239.99999754131
  20
 404.99998860061
  30
0.0
  10
 277.49999642372
  20
 404.99998860061
  30
0.0
  77
3
   0
DIMENSION
   5
29A
 100
AcDbEntity
   8
LEVEL003
   6
CONTINUOUS
  62
3
 100
AcDbDimension
   2
*D17
  10
 270.00000000000
  20
 380.00000460446
  30
0.0
  11
 270.00000000000
  21
 385.00001971424
  31
0.0
  70
128
   1
\A1;10
   3
GMM013
 100
AcDbAlignedDimension
  13
 181.49999928474
  23
 389.99998904765
  33
0.0
  14
 182.85962601424
  24
 380.00000460446
  34
0.0
  50
 270.00000000000
 100
AcDbRotatedDimension
   0
DIMENSION
   5
29C
 100
AcDbEntity
   8
LEVEL003
   6
CONTINUOUS
  62
3
 100
AcDbDimension
   2
*D18
  10
 285.00000000000
  20
 377.00000469387
  30
0.0
  11
 285.00000000000
  21
 383.50001975894
  31
0.0
  70
128
   1
\A1;13
   3
GMM003
 100
AcDbAlignedDimension
  13
 181.49999928474
  23
 389.99998904765
  33
0.0
  14
 205.00000621378
  24
 377.00000469387
  34
0.0
  50
 270.00000000000
 100
AcDbRotatedDimension
   0
DIMENSION
   5
29E
 100
AcDbEntity
   8
LEVEL003
   6
CONTINUOUS
  62
3
 100
AcDbDimension
   2
*D19
  10
 285.00000000000
  20
 341.99999047816
  30
0.0
  11
 285.00000000000
  21
 359.49999758601
  31
0.0
  70
128
   1
\A1;35
   3
GMM003
 100
AcDbAlignedDimension
  13
 205.00000621378
  23
 377.00000469387
  33
0.0
  14
 210.50001367927
  24
 341.99999047816
  34
0.0
  50
 270.00000000000
 100
AcDbRotatedDimension
   0
DIMENSION
   5
2A0
 100
AcDbEntity
   8
LEVEL003
   6
CONTINUOUS
  62
3
 100
AcDbDimension
   2
*D20
  10
 194.00000000000
  20
 187.50000000000
  30
0.0
  11
 157.50000000000
  21
 187.50000000000
  31
0.0
  70
0
   1
\A1;%%c73
   3
GMM014
 100
AcDbAlignedDimension
  13
 121.00000000000
  23
 187.50000000000
  33
0.0
  14
 194.00000000000
  24
 187.50000000000
  34
0.0
 100
AcDbRotatedDimension
   0
DIMENSION
   5
2A2
 100
AcDbEntity
   8
LEVEL003
   6
CONTINUOUS
  62
3
 100
AcDbDimension
   2
*D21
  10
 176.50000000000
  20
 217.49998188178
  30
0.0
  11
 157.50000000000
  21
 217.49998188178
  31
0.0
  70
0
   1
\A1;%%c38
   3
GMM014
 100
AcDbAlignedDimension
  13
 138.50000000000
  23
 217.49998188178
  33
0.0
  14
 176.50000000000
  24
 217.49998188178
  34
0.0
 100
AcDbRotatedDimension
   0
DIMENSION
   5
2A4
 100
AcDbEntity
   8
LEVEL003
   6
CONTINUOUS
  62
3
 100
AcDbDimension
   2
*D22
  10
 184.00000000000
  20
 202.50000000000
  30
0.0
  11
 157.50000000000
  21
 202.50000000000
  31
0.0
  70
0
   1
\A1;%%c53
   3
GMM014
 100
AcDbAlignedDimension
  13
 131.00000000000
  23
 202.50000000000
  33
0.0
  14
 184.00000000000
  24
 202.50000000000
  34
0.0
 100
AcDbRotatedDimension
   0
LINE
   5
2A6
 100
AcDbEntity
   8
LEVEL001
 100
AcDbLine
   6
DASHDOT
  62
1
  10
 157.50000000000
  20
 395.00000460446
  30
0.0
  11
 157.50000000000
  21
 225.00000000000
  31
0.0
   0
LINE
   5
2A7
 100
AcDbEntity
   8
LEVEL001
 100
AcDbLine
   6
CONTINUOUS
  62
3
  10
 213.88363951791
  20
 72.325468038754
  30
0.0
  11
 207.50000000000
  21
 72.524962742445
  31
0.0
   0
LINE
   5
2A8
 100
AcDbEntity
   8
LEVEL001
 100
AcDbLine
   6
CONTINUOUS
  62
7
  10
 217.50001819432
  20
 71.356462482915
  30
0.0
  11
 207.50000000000
  21
 71.668975169954
  31
0.0
   0
LINE
   5
2A9
 100
AcDbEntity
   8
LEVEL001
 100
AcDbLine
   6
CONTINUOUS
  62
3
  10
 213.88368529428
  20
 87.674466604755
  30
0.0
  11
 207.50000000000
  21
 87.474961674477
  31
0.0
   0
LINE
   5
2AA
 100
AcDbEntity
   8
LEVEL001
 100
AcDbLine
   6
CONTINUOUS
  62
7
  10
 217.50001819432
  20
 88.643472160594
  30
0.0
  11
 207.50000000000
  21
 88.330959473555
  31
0.0
   0
TEXT
   5
2AB
 100
AcDbEntity
   8
LEVEL003
  62
7
 100
AcDbText
  10
 475.04920895522
  20
 31.452553731343
  30
0.0
  40
 10.000000000000
   1
ＯＳＡＫＡ ＪＡＣＫ
   7
STANDARD
 100
AcDbText
   0
TEXT
   5
2AC
 100
AcDbEntity
   8
LEVEL003
  62
7
 100
AcDbText
  10
 477.96020895522
  20
 48.345953731343
  30
0.0
  40
 6.0000000000000
   1
Model : ＥＣ２０Ｓ１５
   7
STANDARD
 100
AcDbText
   0
CIRCLE
   5
2AD
 100
AcDbEntity
   8
LEVEL003
 100
AcDbCircle
   6
CONTINUOUS
  62
7
  10
 456.88819439172
  20
 38.466843693519
  30
0.0
  40
 3.0000000000000
   0
LINE
   5
2AE
 100
AcDbEntity
   8
LEVEL003
 100
AcDbLine
   6
CONTINUOUS
  62
7
  10
 462.77619439172
  20
 41.466843693519
  30
0.0
  11
 458.96719439172
  21
 34.866843693519
  31
0.0
   0
LINE
   5
2AF
 100
AcDbEntity
   8
LEVEL003
 100
AcDbLine
   6
CONTINUOUS
  62
7
  10
 458.96719439172
  20
 34.866843693519
  30
0.0
  11
 451.34619439172
  21
 34.866843693519
  31
0.0
   0
LINE
   5
2B0
 100
AcDbEntity
   8
LEVEL003
 100
AcDbLine
   6
CONTINUOUS
  62
7
  10
 450.47919439172
  20
 33.366843693519
  30
0.0
  11
 464.10019439172
  21
 33.366843693519
  31
0.0
   0
LINE
   5
2B1
 100
AcDbEntity
   8
LEVEL003
 100
AcDbLine
   6
CONTINUOUS
  62
7
  10
 464.10019439172
  20
 33.366843693519
  30
0.0
  11
 468.77619439172
  21
 41.466843693519
  31
0.0
   0
LINE
   5
2B2
 100
AcDbEntity
   8
LEVEL003
 100
AcDbLine
   6
CONTINUOUS
  62
7
  10
 468.77619439172
  20
 41.466843693519
  30
0.0
  11
 462.77619439172
  21
 41.466843693519
  31
0.0
   0
LINE
   5
2B3
 100
AcDbEntity
   8
LEVEL003
 100
AcDbLine
   6
CONTINUOUS
  62
7
  10
 451.34619439172
  20
 34.866843693519
  30
0.0
  11
 450.47919439172
  21
 33.366843693519
  31
0.0
   0
ENDSEC
  0
SECTION
  2
OBJECTS
  0
DICTIONARY
  5
C
100
AcDbDictionary
  3
ACAD_GROUP
350
D
  3
ACAD_MLINESTYLE
350
1B
  0
DICTIONARY
  5
D
102
{ACAD_REACTORS
330
C
102
}
100
AcDbDictionary
  0
DICTIONARY
  5
1B
102
{ACAD_REACTORS
330
C
102
}
100
AcDbDictionary
  3
STANDARD
350
1C
  0
MLINESTYLE
  5
1C
102
{ACAD_REACTORS
330
1B
102
}
100
AcDbMlineStyle
  2
STANDARD
 70
     0
  3

 62
   256
 51
90.0
 52
90.0
 71
     2
 49
0.5
 62
   256
  6
BYLAYER
 49
-0.5
 62
   256
  6
BYLAYER
  0
ENDSEC
   0
EOF
