   0
SECTION
   2
HEADER
   9
$ACADVER
   1
AC1014
   9
$LIMMIN
  10
0.0
  20
0.0
   9
$LIMMAX
  10
 630.00000000000
  20
 446.00000000000
   9
$EXTMIN
  10
0.0
  20
0.0
  30
0.0
   9
$EXTMAX
  10
 630.00000000000
  20
 446.00000000000
  30
0.0
   9
$LTSCALE
  40
 12.600000000000
   9
$HANDSEED
   5
2A3
   0
ENDSEC
   0
SECTION
   2
TABLES
  0
TABLE
  2
VPORT
  5
8
100
AcDbSymbolTable
 70
     1
  0
VPORT
  5
2A2
100
AcDbSymbolTableRecord
100
AcDbViewportTableRecord
  2
*ACTIVE
 70
     0
 10
0.0
 20
0.0
 11
1.0
 21
1.0
  12
 315.00000000000
  22
 223.00000000000
 13
0.0
 23
0.0
 14
1.0
 24
1.0
 15
0.0
 25
0.0
 16
0.0
 26
0.0
 36
1.0
 17
0.0
 27
0.0
 37
0.0
  40
 630.00000000000
  41
 1.4787878787879
 42
50.0
 43
0.0
 44
0.0
 50
0.0
 51
0.0
 71
     0
 72
   100
 73
     1
 74
     1
 75
     0
 76
     0
 77
     0
 78
     0
  0
ENDTAB
  0
TABLE
  2
LTYPE
  5
5
100
AcDbSymbolTable
 70
    25
  0
LTYPE
  5
12
100
AcDbSymbolTableRecord
100
AcDbLinetypeTableRecord
  2
BYBLOCK
 70
     0
  3

 72
    65
 73
     0
 40
0.0
  0
LTYPE
  5
13
100
AcDbSymbolTableRecord
100
AcDbLinetypeTableRecord
  2
BYLAYER
 70
     0
  3

 72
    65
 73
     0
 40
0.0
  0
LTYPE
  5
14
100
AcDbSymbolTableRecord
100
AcDbLinetypeTableRecord
  2
CONTINUOUS
 70
     0
  3
Solid line
 72
    65
 73
     0
 40
0.0
  0
LTYPE
  5
20
100
AcDbSymbolTableRecord
100
AcDbLinetypeTableRecord
  2
BORDER
 70
     0
  3
__ __ . __ __ . __ __ . __ __ . __ __ . __ __ .
 72
    65
 73
     6
 40
1.75
 49
0.5
 74
     0
 49
-0.25
 74
     0
 49
0.5
 74
     0
 49
-0.25
 74
     0
 49
0.0
 74
     0
 49
-0.25
 74
     0
  0
LTYPE
  5
21
100
AcDbSymbolTableRecord
100
AcDbLinetypeTableRecord
  2
BORDER2
 70
     0
  3
__.__.__.__.__.__.__.__.__.__.__.__.__.__.__.__
 72
    65
 73
     6
 40
0.875
 49
0.25
 74
     0
 49
-0.125
 74
     0
 49
0.25
 74
     0
 49
-0.125
 74
     0
 49
0.0
 74
     0
 49
-0.125
 74
     0
  0
LTYPE
  5
22
100
AcDbSymbolTableRecord
100
AcDbLinetypeTableRecord
  2
BORDERX2
 70
     0
  3
____  ____  .  ____  ____  .  ____  ____  .  __
 72
    65
 73
     6
 40
3.5
 49
1.0
 74
     0
 49
-0.5
 74
     0
 49
1.0
 74
     0
 49
-0.5
 74
     0
 49
0.0
 74
     0
 49
-0.5
 74
     0
  0
LTYPE
  5
23
100
AcDbSymbolTableRecord
100
AcDbLinetypeTableRecord
  2
CENTER
 70
     0
  3
____ _ ____ _ ____ _ ____ _ ____ _ ____ _ ____ 
 72
    65
 73
     4
 40
2.0
 49
1.25
 74
     0
 49
-0.25
 74
     0
 49
0.25
 74
     0
 49
-0.25
 74
     0
  0
LTYPE
  5
24
100
AcDbSymbolTableRecord
100
AcDbLinetypeTableRecord
  2
CENTER2
 70
     0
  3
___ _ ___ _ ___ _ ___ _ ___ _ ___ _ ___ _ ___ _
 72
    65
 73
     4
 40
1.125
 49
0.75
 74
     0
 49
-0.125
 74
     0
 49
0.125
 74
     0
 49
-0.125
 74
     0
  0
LTYPE
  5
25
100
AcDbSymbolTableRecord
100
AcDbLinetypeTableRecord
  2
CENTERX2
 70
     0
  3
________  __  ________  __  ________  __  _____
 72
    65
 73
     4
 40
4.0
 49
2.5
 74
     0
 49
-0.5
 74
     0
 49
0.5
 74
     0
 49
-0.5
 74
     0
  0
LTYPE
  5
26
100
AcDbSymbolTableRecord
100
AcDbLinetypeTableRecord
  2
DASHDOT
 70
     0
  3
__ . __ . __ . __ . __ . __ . __ . __ . __ . __
 72
    65
 73
     4
 40
1.0
 49
0.5
 74
     0
 49
-0.25
 74
     0
 49
0.0
 74
     0
 49
-0.25
 74
     0
  0
LTYPE
  5
27
100
AcDbSymbolTableRecord
100
AcDbLinetypeTableRecord
  2
DASHDOT2
 70
     0
  3
_._._._._._._._._._._._._._._._._._._._._._._._
 72
    65
 73
     4
 40
0.5
 49
0.25
 74
     0
 49
-0.125
 74
     0
 49
0.0
 74
     0
 49
-0.125
 74
     0
  0
LTYPE
  5
28
100
AcDbSymbolTableRecord
100
AcDbLinetypeTableRecord
  2
DASHDOTX2
 70
     0
  3
____  .  ____  .  ____  .  ____  .  ____  .  __
 72
    65
 73
     4
 40
2.0
 49
1.0
 74
     0
 49
-0.5
 74
     0
 49
0.0
 74
     0
 49
-0.5
 74
     0
  0
LTYPE
  5
29
100
AcDbSymbolTableRecord
100
AcDbLinetypeTableRecord
  2
DASHED
 70
     0
  3
__ __ __ __ __ __ __ __ __ __ __ __ __ __ __ __
 72
    65
 73
     2
 40
0.75
 49
0.5
 74
     0
 49
-0.25
 74
     0
  0
LTYPE
  5
2A
100
AcDbSymbolTableRecord
100
AcDbLinetypeTableRecord
  2
DASHED2
 70
     0
  3
_ _ _ _ _ _ _ _ _ _ _ _ _ _ _ _ _ _ _ _ _ _ _ _
 72
    65
 73
     2
 40
0.375
 49
0.25
 74
     0
 49
-0.125
 74
     0
  0
LTYPE
  5
2B
100
AcDbSymbolTableRecord
100
AcDbLinetypeTableRecord
  2
DASHEDX2
 70
     0
  3
____  ____  ____  ____  ____  ____  ____  ____ 
 72
    65
 73
     2
 40
1.5
 49
1.0
 74
     0
 49
-0.5
 74
     0
  0
LTYPE
  5
2C
100
AcDbSymbolTableRecord
100
AcDbLinetypeTableRecord
  2
DIVIDE
 70
     0
  3
____ . . ____ . . ____ . . ____ . . ____ . . __
 72
    65
 73
     6
 40
1.25
 49
0.5
 74
     0
 49
-0.25
 74
     0
 49
0.0
 74
     0
 49
-0.25
 74
     0
 49
0.0
 74
     0
 49
-0.25
 74
     0
  0
LTYPE
  5
2D
100
AcDbSymbolTableRecord
100
AcDbLinetypeTableRecord
  2
DIVIDE2
 70
     0
  3
__..__..__..__..__..__..__..__..__..__..__..__.
 72
    65
 73
     6
 40
0.625
 49
0.25
 74
     0
 49
-0.125
 74
     0
 49
0.0
 74
     0
 49
-0.125
 74
     0
 49
0.0
 74
     0
 49
-0.125
 74
     0
  0
LTYPE
  5
2E
100
AcDbSymbolTableRecord
100
AcDbLinetypeTableRecord
  2
DIVIDEX2
 70
     0
  3
________  .  .  ________  .  .  ________  .  . 
 72
    65
 73
     6
 40
2.5
 49
1.0
 74
     0
 49
-0.5
 74
     0
 49
0.0
 74
     0
 49
-0.5
 74
     0
 49
0.0
 74
     0
 49
-0.5
 74
     0
  0
LTYPE
  5
2F
100
AcDbSymbolTableRecord
100
AcDbLinetypeTableRecord
  2
DOT
 70
     0
  3
. . . . . . . . . . . . . . . . . . . . . . . .
 72
    65
 73
     2
 40
0.25
 49
0.0
 74
     0
 49
-0.25
 74
     0
  0
LTYPE
  5
30
100
AcDbSymbolTableRecord
100
AcDbLinetypeTableRecord
  2
DOT2
 70
     0
  3
...............................................
 72
    65
 73
     2
 40
0.125
 49
0.0
 74
     0
 49
-0.125
 74
     0
  0
LTYPE
  5
31
100
AcDbSymbolTableRecord
100
AcDbLinetypeTableRecord
  2
DOTX2
 70
     0
  3
.  .  .  .  .  .  .  .  .  .  .  .  .  .  .  . 
 72
    65
 73
     2
 40
0.5
 49
0.0
 74
     0
 49
-0.5
 74
     0
  0
LTYPE
  5
32
100
AcDbSymbolTableRecord
100
AcDbLinetypeTableRecord
  2
HIDDEN
 70
     0
  3
__ __ __ __ __ __ __ __ __ __ __ __ __ __ __ __
 72
    65
 73
     2
 40
0.375
 49
0.25
 74
     0
 49
-0.125
 74
     0
  0
LTYPE
  5
33
100
AcDbSymbolTableRecord
100
AcDbLinetypeTableRecord
  2
HIDDEN2
 70
     0
  3
_ _ _ _ _ _ _ _ _ _ _ _ _ _ _ _ _ _ _ _ _ _ _ _
 72
    65
 73
     2
 40
0.1875
 49
0.125
 74
     0
 49
-0.0625
 74
     0
  0
LTYPE
  5
34
100
AcDbSymbolTableRecord
100
AcDbLinetypeTableRecord
  2
HIDDENX2
 70
     0
  3
____ ____ ____ ____ ____ ____ ____ ____ ____ __
 72
    65
 73
     2
 40
0.75
 49
0.5
 74
     0
 49
-0.25
 74
     0
  0
LTYPE
  5
35
100
AcDbSymbolTableRecord
100
AcDbLinetypeTableRecord
  2
PHANTOM
 70
     0
  3
______  __  __  ______  __  __  ______  __  __ 
 72
    65
 73
     6
 40
2.5
 49
1.25
 74
     0
 49
-0.25
 74
     0
 49
0.25
 74
     0
 49
-0.25
 74
     0
 49
0.25
 74
     0
 49
-0.25
 74
     0
  0
LTYPE
  5
36
100
AcDbSymbolTableRecord
100
AcDbLinetypeTableRecord
  2
PHANTOM2
 70
     0
  3
___ _ _ ___ _ _ ___ _ _ ___ _ _ ___ _ _ ___ _ _
 72
    65
 73
     6
 40
1.25
 49
0.625
 74
     0
 49
-0.125
 74
     0
 49
0.125
 74
     0
 49
-0.125
 74
     0
 49
0.125
 74
     0
 49
-0.125
 74
     0
  0
LTYPE
  5
37
100
AcDbSymbolTableRecord
100
AcDbLinetypeTableRecord
  2
PHANTOMX2
 70
     0
  3
____________    ____    ____    ____________   
 72
    65
 73
     6
 40
5.0
 49
2.5
 74
     0
 49
-0.5
 74
     0
 49
0.5
 74
     0
 49
-0.5
 74
     0
 49
0.5
 74
     0
 49
-0.5
 74
     0
  0
ENDTAB
   0
TABLE
   2
LAYER
   5
2
 100
AcDbSymbolTable
  70
6
   0
LAYER
   5
E
 100
AcDbSymbolTableRecord
 100
AcDbLayerTableRecord
   2
0
  70
0
  62
7
   6
CONTINUOUS
   0
LAYER
   5
39
 100
AcDbSymbolTableRecord
 100
AcDbLayerTableRecord
   2
LEVEL001
  70
0
  62
7
   6
CONTINUOUS
   0
LAYER
   5
3A
 100
AcDbSymbolTableRecord
 100
AcDbLayerTableRecord
   2
LEVEL003
  70
0
  62
7
   6
CONTINUOUS
   0
LAYER
   5
3B
 100
AcDbSymbolTableRecord
 100
AcDbLayerTableRecord
   2
LEVEL020
  70
0
  62
7
   6
CONTINUOUS
   0
LAYER
   5
3C
 100
AcDbSymbolTableRecord
 100
AcDbLayerTableRecord
   2
LEVEL050
  70
0
  62
7
   6
CONTINUOUS
   0
LAYER
   5
3D
 100
AcDbSymbolTableRecord
 100
AcDbLayerTableRecord
   2
LEVEL110
  70
0
  62
7
   6
CONTINUOUS
   0
ENDTAB
  0
TABLE
  2
STYLE
  5
3
100
AcDbSymbolTable
  70
4
  0
STYLE
  5
F
100
AcDbSymbolTableRecord
100
AcDbTextStyleTableRecord
  2
STANDARD
 70
     0
 40
0.0
 41
1.0
 50
0.0
 71
     0
 42
0.2
  3
TXT
  4
BIGFONT
  0
STYLE
  5
38
100
AcDbSymbolTableRecord
100
AcDbTextStyleTableRecord
  2
STANDARD1
 70
     4
 40
0.0
 41
1.0
 50
0.0
 71
     0
 42
0.2
  3
TXT
  4
BIGFONT
   0
STYLE
   5
3E
 100
AcDbSymbolTableRecord
 100
AcDbTextStyleTableRecord
   2
GMM001
  70
0
  40
0.0
  41
 1.0000000000000
  50
0.0
  71
     0
  42
1.0
   3
txt.shx
   4
bigfont.shx
   0
STYLE
   5
3F
 100
AcDbSymbolTableRecord
 100
AcDbTextStyleTableRecord
   2
GMM002
  70
0
  40
0.0
  41
 1.0000000000000
  50
0.0
  71
     0
  42
1.0
   3

   4

1001
ACAD
1000
ＭＳ ゴシック
1071
32817
   0
ENDTAB
  0
TABLE
  2
VIEW
  5
6
100
AcDbSymbolTable
 70
     0
  0
ENDTAB
  0
TABLE
  2
UCS
  5
7
100
AcDbSymbolTable
 70
     0
  0
ENDTAB
  0
TABLE
  2
APPID
  5
9
100
AcDbSymbolTable
 70
     1
  0
APPID
  5
10
100
AcDbSymbolTableRecord
100
AcDbRegAppTableRecord
  2
ACAD
 70
     0
  0
ENDTAB
   0
TABLE
   2
DIMSTYLE
   5
A
 100
AcDbSymbolTable
  70
13
  0
DIMSTYLE
105
1D
100
AcDbSymbolTableRecord
100
AcDbDimStyleTableRecord
  2
STANDARD
 70
     0
  3

  4

  5

  6

  7

 40
1.0
 41
0.18
 42
0.0625
 43
0.38
 44
0.18
 45
0.0
 46
0.0
 47
0.0
 48
0.0
140
0.18
141
0.09
142
0.0
143
25.4
144
1.0
145
0.0
146
1.0
147
0.09
 71
     0
 72
     0
 73
     1
 74
     1
 75
     0
 76
     0
 77
     0
 78
     0
170
     0
171
     2
172
     0
173
     0
174
     0
175
     0
176
     0
177
     0
178
     0
270
     2
271
     4
272
     4
273
     2
274
     2
340
F
275
     0
280
     0
281
     0
282
     0
283
     1
284
     0
285
     0
286
     0
287
     3
288
     0
   0
DIMSTYLE
 105
40
 100
AcDbSymbolTableRecord
 100
AcDbDimStyleTableRecord
   2
GMM001
  70
0
   3

   4

   5

   6
_OPEN
   7
_OPEN
  40
 1.0000000000000
  41
 4.5000000000000
  42
 1.5000000000000
  43
 0.10000000000000E-5
  44
 3.0000000000000
  45
0.0
  46
0.0
  47
0.0
  48
0.0
 140
 6.0000000000000
 141
 1.5000000000000
 142
0.0
 143
 0.39400000000000E-1
 144
 1.0000000000000
 145
0.0
 146
 0.62500000000000
 147
0.0
  71
0
  72
0
  73
0
  74
0
  75
0
  76
0
  77
1
  78
0
 170
0
 171
2
 172
1
 173
1
 174
0
 175
0
 176
3
 177
3
 178
7
 270
2
 271
0
 272
0
 273
2
 274
2
 340
F
 275
1
 280
0
 281
0
 282
0
 283
1
 284
0
 285
0
 286
0
 287
3
 288
1
   0
DIMSTYLE
 105
41
 100
AcDbSymbolTableRecord
 100
AcDbDimStyleTableRecord
   2
GMM002
  70
0
   3

   4

   5

   6
_OPEN
   7
_OPEN
  40
 1.0000000000000
  41
 4.5000000000000
  42
 1.5000000000000
  43
 0.10000000000000E-5
  44
 3.0000000000000
  45
0.0
  46
0.0
  47
0.0
  48
0.0
 140
 6.0000000000000
 141
 1.5000000000000
 142
0.0
 143
 0.39400000000000E-1
 144
 1.0000000000000
 145
0.0
 146
 0.62500000000000
 147
 1.1999816536909
  71
0
  72
0
  73
0
  74
0
  75
0
  76
0
  77
3
  78
0
 170
0
 171
2
 172
1
 173
1
 174
0
 175
0
 176
3
 177
3
 178
3
 270
2
 271
0
 272
0
 273
2
 274
2
 340
3E
 275
1
 280
0
 281
0
 282
0
 283
1
 284
0
 285
0
 286
0
 287
3
 288
1
   0
DIMSTYLE
 105
42
 100
AcDbSymbolTableRecord
 100
AcDbDimStyleTableRecord
   2
GMM003
  70
0
   3

   4

   5

   6
_OPEN
   7
_OPEN
  40
 1.0000000000000
  41
 4.5000000000000
  42
 1.5000000000000
  43
 0.10000000000000E-5
  44
 3.0000000000000
  45
0.0
  46
0.0
  47
0.0
  48
0.0
 140
 6.0000000000000
 141
 1.5000000000000
 142
0.0
 143
 0.39400000000000E-1
 144
 1.0000000000000
 145
0.0
 146
 0.62500000000000
 147
 1.2000045418738
  71
0
  72
0
  73
0
  74
0
  75
1
  76
1
  77
3
  78
0
 170
0
 171
2
 172
1
 173
1
 174
0
 175
0
 176
3
 177
3
 178
3
 270
2
 271
0
 272
0
 273
2
 274
2
 340
3E
 275
1
 280
0
 281
0
 282
0
 283
1
 284
0
 285
0
 286
0
 287
3
 288
1
   0
DIMSTYLE
 105
43
 100
AcDbSymbolTableRecord
 100
AcDbDimStyleTableRecord
   2
GMM004
  70
0
   3

   4

   5

   6
_OPEN
   7
_OPEN
  40
 1.0000000000000
  41
 4.5000000000000
  42
 1.5000000000000
  43
 0.10000000000000E-5
  44
 3.0000000000000
  45
0.0
  46
0.0
  47
0.0
  48
0.0
 140
 6.0000000000000
 141
 1.5000000000000
 142
0.0
 143
 0.39400000000000E-1
 144
 1.0000000000000
 145
0.0
 146
 0.62500000000000
 147
 1.2000045418738
  71
0
  72
0
  73
0
  74
0
  75
1
  76
1
  77
3
  78
0
 170
0
 171
2
 172
1
 173
1
 174
0
 175
0
 176
3
 177
3
 178
3
 270
2
 271
0
 272
0
 273
2
 274
2
 340
3E
 275
1
 280
0
 281
0
 282
0
 283
1
 284
0
 285
0
 286
0
 287
3
 288
1
   0
DIMSTYLE
 105
44
 100
AcDbSymbolTableRecord
 100
AcDbDimStyleTableRecord
   2
GMM005
  70
0
   3

   4

   5

   6
_OPEN
   7
_OPEN
  40
 1.0000000000000
  41
 4.5000000000000
  42
 1.5000000000000
  43
 0.10000000000000E-5
  44
 3.0000000000000
  45
0.0
  46
0.0
  47
0.0
  48
0.0
 140
 6.0000000000000
 141
 1.5000000000000
 142
0.0
 143
 0.39400000000000E-1
 144
 1.0000000000000
 145
0.0
 146
 0.62500000000000
 147
 1.2000045418738
  71
0
  72
0
  73
0
  74
0
  75
0
  76
0
  77
3
  78
0
 170
0
 171
2
 172
1
 173
1
 174
0
 175
0
 176
3
 177
3
 178
3
 270
2
 271
0
 272
0
 273
2
 274
2
 340
3E
 275
1
 280
0
 281
0
 282
0
 283
1
 284
0
 285
0
 286
0
 287
3
 288
1
   0
DIMSTYLE
 105
45
 100
AcDbSymbolTableRecord
 100
AcDbDimStyleTableRecord
   2
GMM006
  70
0
   3

   4

   5

   6
_OPEN
   7
_OPEN
  40
 1.0000000000000
  41
 4.5000000000000
  42
 1.5000000000000
  43
 0.10000000000000E-5
  44
 3.0000000000000
  45
0.0
  46
0.0
  47
0.0
  48
0.0
 140
 6.0000000000000
 141
 1.5000000000000
 142
0.0
 143
 0.39400000000000E-1
 144
 1.0000000000000
 145
0.0
 146
 0.62500000000000
 147
 1.2000045418738
  71
0
  72
0
  73
0
  74
0
  75
0
  76
1
  77
3
  78
0
 170
0
 171
2
 172
1
 173
1
 174
0
 175
0
 176
3
 177
3
 178
3
 270
2
 271
0
 272
0
 273
2
 274
2
 340
3E
 275
1
 280
0
 281
0
 282
0
 283
1
 284
0
 285
0
 286
0
 287
3
 288
1
   0
DIMSTYLE
 105
46
 100
AcDbSymbolTableRecord
 100
AcDbDimStyleTableRecord
   2
GMM007
  70
0
   3

   4

   5

   6
_OPEN
   7
_OPEN
  40
 1.0000000000000
  41
 4.5000000000000
  42
 1.5000000000000
  43
 0.10000000000000E-5
  44
 3.0000000000000
  45
0.0
  46
0.0
  47
0.0
  48
0.0
 140
 6.0000000000000
 141
 1.5000000000000
 142
0.0
 143
 0.39400000000000E-1
 144
 1.0000000000000
 145
0.0
 146
 0.62500000000000
 147
0.0
  71
0
  72
0
  73
0
  74
0
  75
0
  76
0
  77
1
  78
0
 170
0
 171
2
 172
1
 173
1
 174
0
 175
0
 176
3
 177
3
 178
7
 270
2
 271
0
 272
0
 273
2
 274
2
 340
F
 275
1
 280
0
 281
0
 282
0
 283
1
 284
0
 285
0
 286
0
 287
3
 288
1
   0
DIMSTYLE
 105
47
 100
AcDbSymbolTableRecord
 100
AcDbDimStyleTableRecord
   2
GMM008
  70
0
   3

   4

   5

   6
_OPEN
   7
_OPEN
  40
 1.0000000000000
  41
 4.5000000000000
  42
 1.5000000000000
  43
 0.10000000000000E-5
  44
 3.0000000000000
  45
0.0
  46
0.0
  47
0.0
  48
0.0
 140
 6.0000000000000
 141
 1.5000000000000
 142
0.0
 143
 0.39400000000000E-1
 144
 1.0000000000000
 145
0.0
 146
 0.62500000000000
 147
 1.2000045418738
  71
0
  72
0
  73
0
  74
0
  75
0
  76
0
  77
3
  78
0
 170
0
 171
2
 172
1
 173
1
 174
0
 175
0
 176
3
 177
3
 178
3
 270
2
 271
0
 272
0
 273
2
 274
2
 340
3E
 275
1
 280
0
 281
0
 282
0
 283
1
 284
0
 285
0
 286
0
 287
3
 288
1
   0
DIMSTYLE
 105
48
 100
AcDbSymbolTableRecord
 100
AcDbDimStyleTableRecord
   2
GMM009
  70
0
   3

   4

   5

   6
_OPEN
   7
_OPEN
  40
 1.0000000000000
  41
 4.5000000000000
  42
 1.5000000000000
  43
 12.000000000000
  44
 3.0000000000000
  45
0.0
  46
0.0
  47
0.0
  48
0.0
 140
 6.0000000000000
 141
 1.5000000000000
 142
0.0
 143
 0.39400000000000E-1
 144
 1.0000000000000
 145
0.0
 146
 0.62500000000000
 147
 1.2000000000000
  71
0
  72
0
  73
0
  74
0
  75
0
  76
0
  77
3
  78
8
 170
0
 171
2
 172
1
 173
1
 174
0
 175
0
 176
3
 177
3
 178
3
 270
2
 271
2
 272
0
 273
2
 274
2
 340
3E
 275
0
 280
0
 281
0
 282
0
 283
1
 284
0
 285
0
 286
0
 287
3
 288
0
   0
DIMSTYLE
 105
49
 100
AcDbSymbolTableRecord
 100
AcDbDimStyleTableRecord
   2
GMM010
  70
0
   3

   4

   5

   6
_OPEN
   7
_OPEN
  40
 1.0000000000000
  41
 4.5000000000000
  42
 1.5000000000000
  43
 12.000000000000
  44
 3.0000000000000
  45
0.0
  46
0.0
  47
0.0
  48
0.0
 140
 6.0000000000000
 141
 1.5000000000000
 142
0.0
 143
 0.39400000000000E-1
 144
 1.0000000000000
 145
0.0
 146
 0.62500000000000
 147
 1.2000000000000
  71
0
  72
0
  73
0
  74
0
  75
1
  76
1
  77
3
  78
8
 170
0
 171
2
 172
1
 173
1
 174
0
 175
0
 176
3
 177
3
 178
3
 270
2
 271
2
 272
0
 273
2
 274
2
 340
3E
 275
0
 280
0
 281
0
 282
0
 283
1
 284
0
 285
0
 286
0
 287
3
 288
0
   0
DIMSTYLE
 105
4A
 100
AcDbSymbolTableRecord
 100
AcDbDimStyleTableRecord
   2
GMM011
  70
0
   3

   4

   5

   6
_OPEN
   7
_OPEN
  40
 1.0000000000000
  41
 4.5000000000000
  42
 1.5000000000000
  43
 12.000000000000
  44
 3.0000000000000
  45
0.0
  46
0.0
  47
0.0
  48
0.0
 140
 6.0000000000000
 141
 1.5000000000000
 142
0.0
 143
 0.39400000000000E-1
 144
 1.0000000000000
 145
0.0
 146
 0.62500000000000
 147
0.0
  71
0
  72
0
  73
0
  74
0
  75
0
  76
0
  77
1
  78
8
 170
0
 171
2
 172
1
 173
1
 174
0
 175
0
 176
3
 177
3
 178
7
 270
2
 271
2
 272
0
 273
2
 274
2
 340
F
 275
0
 280
0
 281
0
 282
0
 283
1
 284
0
 285
0
 286
0
 287
3
 288
1
   0
ENDTAB
  0
TABLE
  2
BLOCK_RECORD
  5
1
100
AcDbSymbolTable
 70
     0
  0
BLOCK_RECORD
  5
18
100
AcDbSymbolTableRecord
100
AcDbBlockTableRecord
  2
*MODEL_SPACE
  0
BLOCK_RECORD
  5
15
100
AcDbSymbolTableRecord
100
AcDbBlockTableRecord
  2
*PAPER_SPACE
   0
BLOCK_RECORD
   5
4B
 100
AcDbSymbolTableRecord
 100
AcDbBlockTableRecord
   2
*D2
   0
BLOCK_RECORD
   5
4C
 100
AcDbSymbolTableRecord
 100
AcDbBlockTableRecord
   2
*D3
   0
BLOCK_RECORD
   5
4D
 100
AcDbSymbolTableRecord
 100
AcDbBlockTableRecord
   2
*D4
   0
BLOCK_RECORD
   5
4E
 100
AcDbSymbolTableRecord
 100
AcDbBlockTableRecord
   2
*D5
   0
BLOCK_RECORD
   5
4F
 100
AcDbSymbolTableRecord
 100
AcDbBlockTableRecord
   2
*D6
   0
BLOCK_RECORD
   5
50
 100
AcDbSymbolTableRecord
 100
AcDbBlockTableRecord
   2
*D7
   0
BLOCK_RECORD
   5
51
 100
AcDbSymbolTableRecord
 100
AcDbBlockTableRecord
   2
*D8
   0
BLOCK_RECORD
   5
52
 100
AcDbSymbolTableRecord
 100
AcDbBlockTableRecord
   2
*D9
   0
BLOCK_RECORD
   5
53
 100
AcDbSymbolTableRecord
 100
AcDbBlockTableRecord
   2
*D10
   0
BLOCK_RECORD
   5
54
 100
AcDbSymbolTableRecord
 100
AcDbBlockTableRecord
   2
*D11
   0
BLOCK_RECORD
   5
55
 100
AcDbSymbolTableRecord
 100
AcDbBlockTableRecord
   2
*D14
   0
BLOCK_RECORD
   5
56
 100
AcDbSymbolTableRecord
 100
AcDbBlockTableRecord
   2
*D15
   0
BLOCK_RECORD
   5
57
 100
AcDbSymbolTableRecord
 100
AcDbBlockTableRecord
   2
*D16
   0
BLOCK_RECORD
   5
58
 100
AcDbSymbolTableRecord
 100
AcDbBlockTableRecord
   2
*D17
   0
BLOCK_RECORD
   5
59
 100
AcDbSymbolTableRecord
 100
AcDbBlockTableRecord
   2
*D18
   0
BLOCK_RECORD
   5
5A
 100
AcDbSymbolTableRecord
 100
AcDbBlockTableRecord
   2
*D19
   0
BLOCK_RECORD
   5
5B
 100
AcDbSymbolTableRecord
 100
AcDbBlockTableRecord
   2
*D20
   0
BLOCK_RECORD
   5
5C
 100
AcDbSymbolTableRecord
 100
AcDbBlockTableRecord
   2
_ARCHTICK
   0
BLOCK_RECORD
   5
5D
 100
AcDbSymbolTableRecord
 100
AcDbBlockTableRecord
   2
_BOXBLANK
   0
BLOCK_RECORD
   5
5E
 100
AcDbSymbolTableRecord
 100
AcDbBlockTableRecord
   2
_BOXFILLED
   0
BLOCK_RECORD
   5
5F
 100
AcDbSymbolTableRecord
 100
AcDbBlockTableRecord
   2
_CLOSED
   0
BLOCK_RECORD
   5
60
 100
AcDbSymbolTableRecord
 100
AcDbBlockTableRecord
   2
_CLOSEDBLANK
   0
BLOCK_RECORD
   5
61
 100
AcDbSymbolTableRecord
 100
AcDbBlockTableRecord
   2
_DATUMBLANK
   0
BLOCK_RECORD
   5
62
 100
AcDbSymbolTableRecord
 100
AcDbBlockTableRecord
   2
_DATUMFILLED
   0
BLOCK_RECORD
   5
63
 100
AcDbSymbolTableRecord
 100
AcDbBlockTableRecord
   2
_DOT
   0
BLOCK_RECORD
   5
64
 100
AcDbSymbolTableRecord
 100
AcDbBlockTableRecord
   2
_DOTBLANK
   0
BLOCK_RECORD
   5
65
 100
AcDbSymbolTableRecord
 100
AcDbBlockTableRecord
   2
_DOTSMALL
   0
BLOCK_RECORD
   5
66
 100
AcDbSymbolTableRecord
 100
AcDbBlockTableRecord
   2
_INTEGRAL
   0
BLOCK_RECORD
   5
67
 100
AcDbSymbolTableRecord
 100
AcDbBlockTableRecord
   2
_NONE
   0
BLOCK_RECORD
   5
68
 100
AcDbSymbolTableRecord
 100
AcDbBlockTableRecord
   2
_OBLIQUE
   0
BLOCK_RECORD
   5
69
 100
AcDbSymbolTableRecord
 100
AcDbBlockTableRecord
   2
_OPEN
   0
BLOCK_RECORD
   5
6A
 100
AcDbSymbolTableRecord
 100
AcDbBlockTableRecord
   2
_OPEN30
   0
BLOCK_RECORD
   5
6B
 100
AcDbSymbolTableRecord
 100
AcDbBlockTableRecord
   2
_OPEN90
   0
BLOCK_RECORD
   5
6C
 100
AcDbSymbolTableRecord
 100
AcDbBlockTableRecord
   2
_ORIGIN
   0
ENDTAB
   0
ENDSEC
  0
SECTION
  2
BLOCKS
  0
BLOCK
  5
19
100
AcDbEntity
  8
0
100
AcDbBlockBegin
  2
*MODEL_SPACE
 70
     0
 10
0.0
 20
0.0
 30
0.0
  3
*MODEL_SPACE
  1

  0
ENDBLK
  5
1A
100
AcDbEntity
  8
0
100
AcDbBlockEnd
  0
BLOCK
  5
16
100
AcDbEntity
 67
     1
  8
0
100
AcDbBlockBegin
  2
*PAPER_SPACE
 70
     0
 10
0.0
 20
0.0
 30
0.0
  3
*PAPER_SPACE
  1

  0
ENDBLK
  5
17
100
AcDbEntity
 67
     1
  8
0
100
AcDbBlockEnd
   0
BLOCK
   5
6D
 100
AcDbEntity
   8
0
 100
AcDbBlockBegin
   2
_ARCHTICK
  70
0
  10
0.0
  20
0.0
  30
0.0
   3
_ARCHTICK
   0
POLYLINE
   5
6E
 100
AcDbEntity
   8
0
   6
BYBLOCK
  62
0
 100
AcDb2dPolyline
  66
1
  10
0.0
  20
0.0
  30
0.0
  70
1
  40
 0.15000000000000
  41
 0.15000000000000
   0
VERTEX
   5
6F
 100
AcDbEntity
   8
0
   6
BYBLOCK
  62
0
 100
AcDbVertex
 100
AcDb2dVertex
  10
-0.50000000000000
  20
-0.50000000000000
  30
0.0
  40
 0.15000000000000
  41
 0.15000000000000
   0
VERTEX
   5
70
 100
AcDbEntity
   8
0
   6
BYBLOCK
  62
0
 100
AcDbVertex
 100
AcDb2dVertex
  10
 0.50000000000000
  20
 0.50000000000000
  30
0.0
  40
 0.15000000000000
  41
 0.15000000000000
   0
SEQEND
   5
71
 100
AcDbEntity
   8
0
   6
BYBLOCK
  62
0
   0
ENDBLK
   5
72
 100
AcDbEntity
   8
0
 100
AcDbBlockEnd
   0
BLOCK
   5
73
 100
AcDbEntity
   8
0
 100
AcDbBlockBegin
   2
_OBLIQUE
  70
0
  10
0.0
  20
0.0
  30
0.0
   3
_OBLIQUE
   0
LINE
   5
74
 100
AcDbEntity
   8
0
 100
AcDbLine
   6
BYBLOCK
  62
0
  10
-0.50000000000000
  20
-0.50000000000000
  30
0.0
  11
 0.50000000000000
  21
 0.50000000000000
  31
0.0
   0
ENDBLK
   5
75
 100
AcDbEntity
   8
0
 100
AcDbBlockEnd
   0
BLOCK
   5
76
 100
AcDbEntity
   8
0
 100
AcDbBlockBegin
   2
_BOXBLANK
  70
0
  10
0.0
  20
0.0
  30
0.0
   3
_BOXBLANK
   0
LINE
   5
77
 100
AcDbEntity
   8
0
 100
AcDbLine
   6
BYBLOCK
  62
0
  10
-0.50000000000000
  20
-0.50000000000000
  30
0.0
  11
 0.50000000000000
  21
-0.50000000000000
  31
0.0
   0
LINE
   5
78
 100
AcDbEntity
   8
0
 100
AcDbLine
   6
BYBLOCK
  62
0
  10
 0.50000000000000
  20
-0.50000000000000
  30
0.0
  11
 0.50000000000000
  21
 0.50000000000000
  31
0.0
   0
LINE
   5
79
 100
AcDbEntity
   8
0
 100
AcDbLine
   6
BYBLOCK
  62
0
  10
 0.50000000000000
  20
 0.50000000000000
  30
0.0
  11
-0.50000000000000
  21
 0.50000000000000
  31
0.0
   0
LINE
   5
7A
 100
AcDbEntity
   8
0
 100
AcDbLine
   6
BYBLOCK
  62
0
  10
-0.50000000000000
  20
 0.50000000000000
  30
0.0
  11
-0.50000000000000
  21
-0.50000000000000
  31
0.0
   0
LINE
   5
7B
 100
AcDbEntity
   8
0
 100
AcDbLine
   6
BYBLOCK
  62
0
  10
-0.50000000000000
  20
0.0
  30
0.0
  11
-1.0000000000000
  21
0.0
  31
0.0
   0
ENDBLK
   5
7C
 100
AcDbEntity
   8
0
 100
AcDbBlockEnd
   0
BLOCK
   5
7D
 100
AcDbEntity
   8
0
 100
AcDbBlockBegin
   2
_BOXFILLED
  70
0
  10
0.0
  20
0.0
  30
0.0
   3
_BOXFILLED
   0
SOLID
   5
7E
 100
AcDbEntity
   8
0
 100
AcDbTrace
   6
BYBLOCK
  62
0
  10
-0.50000000000000
  20
 0.50000000000000
  30
0.0
  11
 0.50000000000000
  21
 0.50000000000000
  31
0.0
  12
-0.50000000000000
  22
-0.50000000000000
  32
0.0
  13
 0.50000000000000
  23
-0.50000000000000
  33
0.0
   0
LINE
   5
7F
 100
AcDbEntity
   8
0
 100
AcDbLine
   6
BYBLOCK
  62
0
  10
-0.50000000000000
  20
0.0
  30
0.0
  11
-1.0000000000000
  21
0.0
  31
0.0
   0
ENDBLK
   5
80
 100
AcDbEntity
   8
0
 100
AcDbBlockEnd
   0
BLOCK
   5
81
 100
AcDbEntity
   8
0
 100
AcDbBlockBegin
   2
_CLOSED
  70
0
  10
0.0
  20
0.0
  30
0.0
   3
_CLOSED
   0
LINE
   5
82
 100
AcDbEntity
   8
0
 100
AcDbLine
   6
BYBLOCK
  62
0
  10
-1.0000000000000
  20
 0.16666666666667
  30
0.0
  11
0.0
  21
0.0
  31
0.0
   0
LINE
   5
83
 100
AcDbEntity
   8
0
 100
AcDbLine
   6
BYBLOCK
  62
0
  10
0.0
  20
0.0
  30
0.0
  11
-1.0000000000000
  21
-0.16666666666667
  31
0.0
   0
LINE
   5
84
 100
AcDbEntity
   8
0
 100
AcDbLine
   6
BYBLOCK
  62
0
  10
-1.0000000000000
  20
 0.16666666666667
  30
0.0
  11
-1.0000000000000
  21
-0.16666666666667
  31
0.0
   0
LINE
   5
85
 100
AcDbEntity
   8
0
 100
AcDbLine
   6
BYBLOCK
  62
0
  10
0.0
  20
0.0
  30
0.0
  11
-1.0000000000000
  21
0.0
  31
0.0
   0
ENDBLK
   5
86
 100
AcDbEntity
   8
0
 100
AcDbBlockEnd
   0
BLOCK
   5
87
 100
AcDbEntity
   8
0
 100
AcDbBlockBegin
   2
_OPEN
  70
0
  10
0.0
  20
0.0
  30
0.0
   3
_OPEN
   0
LINE
   5
88
 100
AcDbEntity
   8
0
 100
AcDbLine
   6
BYBLOCK
  62
0
  10
-1.0000000000000
  20
 0.16666666666667
  30
0.0
  11
0.0
  21
0.0
  31
0.0
   0
LINE
   5
89
 100
AcDbEntity
   8
0
 100
AcDbLine
   6
BYBLOCK
  62
0
  10
0.0
  20
0.0
  30
0.0
  11
-1.0000000000000
  21
-0.16666666666667
  31
0.0
   0
LINE
   5
8A
 100
AcDbEntity
   8
0
 100
AcDbLine
   6
BYBLOCK
  62
0
  10
0.0
  20
0.0
  30
0.0
  11
-1.0000000000000
  21
0.0
  31
0.0
   0
ENDBLK
   5
8B
 100
AcDbEntity
   8
0
 100
AcDbBlockEnd
   0
BLOCK
   5
8C
 100
AcDbEntity
   8
0
 100
AcDbBlockBegin
   2
_OPEN30
  70
0
  10
0.0
  20
0.0
  30
0.0
   3
_OPEN30
   0
LINE
   5
8D
 100
AcDbEntity
   8
0
 100
AcDbLine
   6
BYBLOCK
  62
0
  10
-1.0000000000000
  20
 0.26794919243110
  30
0.0
  11
0.0
  21
0.0
  31
0.0
   0
LINE
   5
8E
 100
AcDbEntity
   8
0
 100
AcDbLine
   6
BYBLOCK
  62
0
  10
0.0
  20
0.0
  30
0.0
  11
-1.0000000000000
  21
-0.26794919243110
  31
0.0
   0
LINE
   5
8F
 100
AcDbEntity
   8
0
 100
AcDbLine
   6
BYBLOCK
  62
0
  10
0.0
  20
0.0
  30
0.0
  11
-1.0000000000000
  21
0.0
  31
0.0
   0
ENDBLK
   5
90
 100
AcDbEntity
   8
0
 100
AcDbBlockEnd
   0
BLOCK
   5
91
 100
AcDbEntity
   8
0
 100
AcDbBlockBegin
   2
_OPEN90
  70
0
  10
0.0
  20
0.0
  30
0.0
   3
_OPEN90
   0
LINE
   5
92
 100
AcDbEntity
   8
0
 100
AcDbLine
   6
BYBLOCK
  62
0
  10
-0.50000000000000
  20
 0.50000000000000
  30
0.0
  11
0.0
  21
0.0
  31
0.0
   0
LINE
   5
93
 100
AcDbEntity
   8
0
 100
AcDbLine
   6
BYBLOCK
  62
0
  10
0.0
  20
0.0
  30
0.0
  11
-0.50000000000000
  21
-0.50000000000000
  31
0.0
   0
LINE
   5
94
 100
AcDbEntity
   8
0
 100
AcDbLine
   6
BYBLOCK
  62
0
  10
0.0
  20
0.0
  30
0.0
  11
-1.0000000000000
  21
0.0
  31
0.0
   0
ENDBLK
   5
95
 100
AcDbEntity
   8
0
 100
AcDbBlockEnd
   0
BLOCK
   5
96
 100
AcDbEntity
   8
0
 100
AcDbBlockBegin
   2
_CLOSEDBLANK
  70
0
  10
0.0
  20
0.0
  30
0.0
   3
_CLOSEDBLANK
   0
LINE
   5
97
 100
AcDbEntity
   8
0
 100
AcDbLine
   6
BYBLOCK
  62
0
  10
-1.0000000000000
  20
 0.16666666666667
  30
0.0
  11
0.0
  21
0.0
  31
0.0
   0
LINE
   5
98
 100
AcDbEntity
   8
0
 100
AcDbLine
   6
BYBLOCK
  62
0
  10
0.0
  20
0.0
  30
0.0
  11
-1.0000000000000
  21
-0.16666666666667
  31
0.0
   0
LINE
   5
99
 100
AcDbEntity
   8
0
 100
AcDbLine
   6
BYBLOCK
  62
0
  10
-1.0000000000000
  20
 0.16666666666667
  30
0.0
  11
-1.0000000000000
  21
-0.16666666666667
  31
0.0
   0
ENDBLK
   5
9A
 100
AcDbEntity
   8
0
 100
AcDbBlockEnd
   0
BLOCK
   5
9B
 100
AcDbEntity
   8
0
 100
AcDbBlockBegin
   2
_DOT
  70
0
  10
0.0
  20
0.0
  30
0.0
   3
_DOT
   0
POLYLINE
   5
9C
 100
AcDbEntity
   8
0
   6
BYBLOCK
  62
0
 100
AcDb2dPolyline
  66
1
  10
0.0
  20
0.0
  30
0.0
  70
1
  40
 0.50000000000000
  41
 0.50000000000000
   0
VERTEX
   5
9D
 100
AcDbEntity
   8
0
   6
BYBLOCK
  62
0
 100
AcDbVertex
 100
AcDb2dVertex
  10
-0.25000000000000
  20
0.0
  30
0.0
  42
 1.0000000000000
  40
 0.50000000000000
  41
 0.50000000000000
   0
VERTEX
   5
9E
 100
AcDbEntity
   8
0
   6
BYBLOCK
  62
0
 100
AcDbVertex
 100
AcDb2dVertex
  10
 0.25000000000000
  20
0.0
  30
0.0
  42
 1.0000000000000
  40
 0.50000000000000
  41
 0.50000000000000
   0
SEQEND
   5
9F
 100
AcDbEntity
   8
0
   6
BYBLOCK
  62
0
   0
LINE
   5
A0
 100
AcDbEntity
   8
0
 100
AcDbLine
   6
BYBLOCK
  62
0
  10
-0.50000000000000
  20
0.0
  30
0.0
  11
-1.0000000000000
  21
0.0
  31
0.0
   0
ENDBLK
   5
A1
 100
AcDbEntity
   8
0
 100
AcDbBlockEnd
   0
BLOCK
   5
A2
 100
AcDbEntity
   8
0
 100
AcDbBlockBegin
   2
_DOTSMALL
  70
0
  10
0.0
  20
0.0
  30
0.0
   3
_DOTSMALL
   0
POLYLINE
   5
A3
 100
AcDbEntity
   8
0
   6
BYBLOCK
  62
0
 100
AcDb2dPolyline
  66
1
  10
0.0
  20
0.0
  30
0.0
  70
1
  40
 0.50000000000000
  41
 0.50000000000000
   0
VERTEX
   5
A4
 100
AcDbEntity
   8
0
   6
BYBLOCK
  62
0
 100
AcDbVertex
 100
AcDb2dVertex
  10
-0.62500000000000E-1
  20
0.0
  30
0.0
  42
 1.0000000000000
  40
 0.50000000000000
  41
 0.50000000000000
   0
VERTEX
   5
A5
 100
AcDbEntity
   8
0
   6
BYBLOCK
  62
0
 100
AcDbVertex
 100
AcDb2dVertex
  10
 0.62500000000000E-1
  20
0.0
  30
0.0
  42
 1.0000000000000
  40
 0.50000000000000
  41
 0.50000000000000
   0
SEQEND
   5
A6
 100
AcDbEntity
   8
0
   6
BYBLOCK
  62
0
   0
ENDBLK
   5
A7
 100
AcDbEntity
   8
0
 100
AcDbBlockEnd
   0
BLOCK
   5
A8
 100
AcDbEntity
   8
0
 100
AcDbBlockBegin
   2
_DATUMBLANK
  70
0
  10
0.0
  20
0.0
  30
0.0
   3
_DATUMBLANK
   0
LINE
   5
A9
 100
AcDbEntity
   8
0
 100
AcDbLine
   6
BYBLOCK
  62
0
  10
0.0
  20
 0.57735027000000
  30
0.0
  11
-1.0000000000000
  21
0.0
  31
0.0
   0
LINE
   5
AA
 100
AcDbEntity
   8
0
 100
AcDbLine
   6
BYBLOCK
  62
0
  10
-1.0000000000000
  20
0.0
  30
0.0
  11
0.0
  21
-0.57735027000000
  31
0.0
   0
LINE
   5
AB
 100
AcDbEntity
   8
0
 100
AcDbLine
   6
BYBLOCK
  62
0
  10
0.0
  20
-0.57735027000000
  30
0.0
  11
0.0
  21
 0.57735027000000
  31
0.0
   0
ENDBLK
   5
AC
 100
AcDbEntity
   8
0
 100
AcDbBlockEnd
   0
BLOCK
   5
AD
 100
AcDbEntity
   8
0
 100
AcDbBlockBegin
   2
_DATUMFILLED
  70
0
  10
0.0
  20
0.0
  30
0.0
   3
_DATUMFILLED
   0
SOLID
   5
AE
 100
AcDbEntity
   8
0
 100
AcDbTrace
   6
BYBLOCK
  62
0
  10
0.0
  20
 0.57735027000000
  30
0.0
  11
-1.0000000000000
  21
0.0
  31
0.0
  12
0.0
  22
-0.57735027000000
  32
0.0
  13
0.0
  23
-0.57735027000000
  33
0.0
   0
ENDBLK
   5
AF
 100
AcDbEntity
   8
0
 100
AcDbBlockEnd
   0
BLOCK
   5
B0
 100
AcDbEntity
   8
0
 100
AcDbBlockBegin
   2
_ORIGIN
  70
0
  10
0.0
  20
0.0
  30
0.0
   3
_ORIGIN
   0
CIRCLE
   5
B1
 100
AcDbEntity
   8
0
 100
AcDbCircle
   6
BYBLOCK
  62
0
  10
0.0
  20
0.0
  30
0.0
  40
 0.50000000000000
   0
LINE
   5
B2
 100
AcDbEntity
   8
0
 100
AcDbLine
   6
BYBLOCK
  62
0
  10
0.0
  20
0.0
  30
0.0
  11
-1.0000000000000
  21
0.0
  31
0.0
   0
ENDBLK
   5
B3
 100
AcDbEntity
   8
0
 100
AcDbBlockEnd
   0
BLOCK
   5
B4
 100
AcDbEntity
   8
0
 100
AcDbBlockBegin
   2
_NONE
  70
0
  10
0.0
  20
0.0
  30
0.0
   3
_NONE
   0
CIRCLE
   5
B5
 100
AcDbEntity
   8
0
 100
AcDbCircle
   6
BYBLOCK
  62
0
  10
0.0
  20
0.0
  30
0.0
  40
 0.25000000000000
   0
ENDBLK
   5
B6
 100
AcDbEntity
   8
0
 100
AcDbBlockEnd
   0
BLOCK
   5
B7
 100
AcDbEntity
   8
0
 100
AcDbBlockBegin
   2
_DOTBLANK
  70
0
  10
0.0
  20
0.0
  30
0.0
   3
_DOTBLANK
   0
CIRCLE
   5
B8
 100
AcDbEntity
   8
0
 100
AcDbCircle
   6
BYBLOCK
  62
0
  10
0.0
  20
0.0
  30
0.0
  40
 0.50000000000000
   0
LINE
   5
B9
 100
AcDbEntity
   8
0
 100
AcDbLine
   6
BYBLOCK
  62
0
  10
-0.50000000000000
  20
0.0
  30
0.0
  11
-1.0000000000000
  21
0.0
  31
0.0
   0
ENDBLK
   5
BA
 100
AcDbEntity
   8
0
 100
AcDbBlockEnd
   0
BLOCK
   5
BB
 100
AcDbEntity
   8
0
 100
AcDbBlockBegin
   2
_INTEGRAL
  70
0
  10
0.0
  20
0.0
  30
0.0
   3
_INTEGRAL
   0
ARC
   5
BC
 100
AcDbEntity
   8
0
   6
BYBLOCK
  62
0
 100
AcDbCircle
  10
 0.44488800000000
  20
-0.91335000000000E-1
  30
0.0
  40
 0.45416700000000
 100
AcDbArc
  50
 102.00000000000
  51
 168.00000000000
   0
ARC
   5
BD
 100
AcDbEntity
   8
0
   6
BYBLOCK
  62
0
 100
AcDbCircle
  10
-0.44488800000000
  20
 0.91335000000000E-1
  30
0.0
  40
 0.45416700000000
 100
AcDbArc
  50
 282.00000000000
  51
 348.00000000000
   0
ENDBLK
   5
BE
 100
AcDbEntity
   8
0
 100
AcDbBlockEnd
   0
BLOCK
   5
BF
 100
AcDbEntity
   8
0
 100
AcDbBlockBegin
   2
*D2
  70
65
  10
0.0
  20
0.0
  30
0.0
   3
*D2
   0
LINE
   5
C0
 100
AcDbEntity
   8
LEVEL003
 100
AcDbLine
   6
CONTINUOUS
  62
3
  10
 134.00000093877
  20
 370.49998944998
  30
0.0
  11
 134.00000093877
  21
 400.49998860061
  31
0.0
   0
LINE
   5
C1
 100
AcDbEntity
   8
LEVEL003
 100
AcDbLine
   6
CONTINUOUS
  62
3
  10
 196.00000290573
  20
 370.49998944998
  30
0.0
  11
 196.00000290573
  21
 400.49998860061
  31
0.0
   0
LINE
   5
C2
 100
AcDbEntity
   8
LEVEL003
 100
AcDbLine
   6
CONTINUOUS
  62
3
  10
 134.00000093877
  20
 397.49998860061
  30
0.0
  11
 154.76249620020
  21
 397.49998860061
  31
0.0
   0
LINE
   5
C3
 100
AcDbEntity
   8
LEVEL003
 100
AcDbLine
   6
CONTINUOUS
  62
3
  10
 196.00000290573
  20
 397.49998860061
  30
0.0
  11
 175.23749620020
  21
 397.49998860061
  31
0.0
   0
INSERT
   5
C4
 100
AcDbEntity
   8
LEVEL003
   6
CONTINUOUS
  62
3
 100
AcDbBlockReference
   2
_OPEN
  10
 134.00000093877
  20
 397.49998860061
  30
0.0
  41
 4.5000000000000
  42
 4.5000000000000
  43
 4.5000000000000
  50
 180.00000000000
   0
INSERT
   5
C5
 100
AcDbEntity
   8
LEVEL003
   6
CONTINUOUS
  62
3
 100
AcDbBlockReference
   2
_OPEN
  10
 196.00000290573
  20
 397.49998860061
  30
0.0
  41
 4.5000000000000
  42
 4.5000000000000
  43
 4.5000000000000
  50
0.0
   0
MTEXT
   5
C6
 100
AcDbEntity
   8
LEVEL003
  62
3
 100
AcDbMText
  10
 164.99999620020
  20
 398.69997025430
  30
0.0
  40
 6.0000000000000
  41
0.0
  71
8
  72
1
   1
\A1;%%c62
   7
GMM001
   0
ENDBLK
   5
C7
 100
AcDbEntity
   8
0
 100
AcDbBlockEnd
   0
BLOCK
   5
C8
 100
AcDbEntity
   8
0
 100
AcDbBlockBegin
   2
*D3
  70
65
  10
0.0
  20
0.0
  30
0.0
   3
*D3
   0
LINE
   5
C9
 100
AcDbEntity
   8
LEVEL003
 100
AcDbLine
   6
CONTINUOUS
  62
3
  10
 221.99999450147
  20
 164.99999552965
  30
0.0
  11
 242.44686874151
  21
 164.99999552965
  31
0.0
   0
LINE
   5
CA
 100
AcDbEntity
   8
LEVEL003
 100
AcDbLine
   6
CONTINUOUS
  62
3
  10
 272.99999298155
  20
 164.99999552965
  30
0.0
  11
 252.55311874151
  21
 164.99999552965
  31
0.0
   0
INSERT
   5
CB
 100
AcDbEntity
   8
LEVEL003
   6
CONTINUOUS
  62
3
 100
AcDbBlockReference
   2
_OPEN
  10
 221.99999450147
  20
 164.99999552965
  30
0.0
  41
 4.5000000000000
  42
 4.5000000000000
  43
 4.5000000000000
  50
 180.00000000000
   0
INSERT
   5
CC
 100
AcDbEntity
   8
LEVEL003
   6
CONTINUOUS
  62
3
 100
AcDbBlockReference
   2
_OPEN
  10
 272.99999298155
  20
 164.99999552965
  30
0.0
  41
 4.5000000000000
  42
 4.5000000000000
  43
 4.5000000000000
  50
0.0
   0
MTEXT
   5
CD
 100
AcDbEntity
   8
LEVEL003
  62
3
 100
AcDbMText
  10
 247.49999374151
  20
 166.20000007152
  30
0.0
  40
 6.0000000000000
  41
0.0
  71
8
  72
1
   1
\A1;51
   7
GMM001
   0
ENDBLK
   5
CE
 100
AcDbEntity
   8
0
 100
AcDbBlockEnd
   0
BLOCK
   5
CF
 100
AcDbEntity
   8
0
 100
AcDbBlockBegin
   2
*D4
  70
65
  10
0.0
  20
0.0
  30
0.0
   3
*D4
   0
LINE
   5
D0
 100
AcDbEntity
   8
LEVEL003
 100
AcDbLine
   6
CONTINUOUS
  62
3
  10
 107.99999789894
  20
 164.99999552965
  30
0.0
  11
 153.71249620020
  21
 164.99999552965
  31
0.0
   0
LINE
   5
D1
 100
AcDbEntity
   8
LEVEL003
 100
AcDbLine
   6
CONTINUOUS
  62
3
  10
 221.99999450147
  20
 164.99999552965
  30
0.0
  11
 176.28749620020
  21
 164.99999552965
  31
0.0
   0
INSERT
   5
D2
 100
AcDbEntity
   8
LEVEL003
   6
CONTINUOUS
  62
3
 100
AcDbBlockReference
   2
_OPEN
  10
 107.99999789894
  20
 164.99999552965
  30
0.0
  41
 4.5000000000000
  42
 4.5000000000000
  43
 4.5000000000000
  50
 180.00000000000
   0
INSERT
   5
D3
 100
AcDbEntity
   8
LEVEL003
   6
CONTINUOUS
  62
3
 100
AcDbBlockReference
   2
_OPEN
  10
 221.99999450147
  20
 164.99999552965
  30
0.0
  41
 4.5000000000000
  42
 4.5000000000000
  43
 4.5000000000000
  50
0.0
   0
MTEXT
   5
D4
 100
AcDbEntity
   8
LEVEL003
  62
3
 100
AcDbMText
  10
 164.99999620020
  20
 166.20000007152
  30
0.0
  40
 6.0000000000000
  41
0.0
  71
8
  72
1
   1
\A1;%%c114
   7
GMM001
   0
ENDBLK
   5
D5
 100
AcDbEntity
   8
0
 100
AcDbBlockEnd
   0
BLOCK
   5
D6
 100
AcDbEntity
   8
0
 100
AcDbBlockBegin
   2
*D5
  70
65
  10
0.0
  20
0.0
  30
0.0
   3
*D5
   0
LINE
   5
D7
 100
AcDbEntity
   8
LEVEL003
 100
AcDbLine
   6
CONTINUOUS
  62
3
  10
 245.50000147521
  20
 131.99999651313
  30
0.0
  11
 295.49999240041
  21
 131.99999651313
  31
0.0
   0
LINE
   5
D8
 100
AcDbEntity
   8
LEVEL003
 100
AcDbLine
   6
CONTINUOUS
  62
3
  10
 245.50000147521
  20
 251.99999293685
  30
0.0
  11
 295.49999240041
  21
 251.99999293685
  31
0.0
   0
LINE
   5
D9
 100
AcDbEntity
   8
LEVEL003
 100
AcDbLine
   6
CONTINUOUS
  62
3
  10
 292.49999240041
  20
 131.99999651313
  30
0.0
  11
 292.49999240041
  21
 184.45311972499
  31
0.0
   0
LINE
   5
DA
 100
AcDbEntity
   8
LEVEL003
 100
AcDbLine
   6
CONTINUOUS
  62
3
  10
 292.49999240041
  20
 251.99999293685
  30
0.0
  11
 292.49999240041
  21
 199.54686972499
  31
0.0
   0
INSERT
   5
DB
 100
AcDbEntity
   8
LEVEL003
   6
CONTINUOUS
  62
3
 100
AcDbBlockReference
   2
_OPEN
  10
 292.49999240041
  20
 131.99999651313
  30
0.0
  41
 4.5000000000000
  42
 4.5000000000000
  43
 4.5000000000000
  50
 270.00000000000
   0
INSERT
   5
DC
 100
AcDbEntity
   8
LEVEL003
   6
CONTINUOUS
  62
3
 100
AcDbBlockReference
   2
_OPEN
  10
 292.49999240041
  20
 251.99999293685
  30
0.0
  41
 4.5000000000000
  42
 4.5000000000000
  43
 4.5000000000000
  50
 90.000000000000
   0
MTEXT
   5
DD
 100
AcDbEntity
   8
LEVEL003
  62
3
 100
AcDbMText
  10
 291.29998785854
  20
 191.99999472499
  30
0.0
  40
 6.0000000000000
  41
0.0
  71
8
  72
1
   1
\A1;120
   7
GMM001
  11
0.0
  21
 1.0000000000000
  31
0.0
   0
ENDBLK
   5
DE
 100
AcDbEntity
   8
0
 100
AcDbBlockEnd
   0
BLOCK
   5
DF
 100
AcDbEntity
   8
0
 100
AcDbBlockBegin
   2
*D6
  70
65
  10
0.0
  20
0.0
  30
0.0
   3
*D6
   0
LINE
   5
E0
 100
AcDbEntity
   8
LEVEL003
 100
AcDbLine
   6
CONTINUOUS
  62
3
  10
 293.50000004470
  20
 92.000001519918
  30
0.0
  11
 310.49999195337
  21
 92.000001519918
  31
0.0
   0
LINE
   5
E1
 100
AcDbEntity
   8
LEVEL003
 100
AcDbLine
   6
CONTINUOUS
  62
3
  10
 307.49999195337
  20
 92.000001519918
  30
0.0
  11
 307.49999195337
  21
 82.037505811453
  31
0.0
   0
LINE
   5
E2
 100
AcDbEntity
   8
LEVEL003
 100
AcDbLine
   6
CONTINUOUS
  62
3
  10
 307.49999195337
  20
 59.999998658896
  30
0.0
  11
 307.49999195337
  21
 69.962505811453
  31
0.0
   0
INSERT
   5
E3
 100
AcDbEntity
   8
LEVEL003
   6
CONTINUOUS
  62
3
 100
AcDbBlockReference
   2
_OPEN
  10
 307.49999195337
  20
 92.000001519918
  30
0.0
  41
 4.5000000000000
  42
 4.5000000000000
  43
 4.5000000000000
  50
 90.000000000000
   0
INSERT
   5
E4
 100
AcDbEntity
   8
LEVEL003
   6
CONTINUOUS
  62
3
 100
AcDbBlockReference
   2
_OPEN
  10
 307.49999195337
  20
 59.999998658896
  30
0.0
  41
 4.5000000000000
  42
 4.5000000000000
  43
 4.5000000000000
  50
 270.00000000000
   0
MTEXT
   5
E5
 100
AcDbEntity
   8
LEVEL003
  62
3
 100
AcDbMText
  10
 306.29998741150
  20
 76.000005811453
  30
0.0
  40
 6.0000000000000
  41
0.0
  71
8
  72
1
   1
\A1;32
   7
GMM001
  11
0.0
  21
 1.0000000000000
  31
0.0
   0
ENDBLK
   5
E6
 100
AcDbEntity
   8
0
 100
AcDbBlockEnd
   0
BLOCK
   5
E7
 100
AcDbEntity
   8
0
 100
AcDbBlockBegin
   2
*D7
  70
65
  10
0.0
  20
0.0
  30
0.0
   3
*D7
   0
LINE
   5
E8
 100
AcDbEntity
   8
LEVEL003
 100
AcDbLine
   6
CONTINUOUS
  62
3
  10
 293.50000004470
  20
 292.00002226233
  30
0.0
  11
 310.49999195337
  21
 292.00002226233
  31
0.0
   0
LINE
   5
E9
 100
AcDbEntity
   8
LEVEL003
 100
AcDbLine
   6
CONTINUOUS
  62
3
  10
 218.99999463558
  20
 357.00003558397
  30
0.0
  11
 310.49999195337
  21
 357.00003558397
  31
0.0
   0
LINE
   5
EA
 100
AcDbEntity
   8
LEVEL003
 100
AcDbLine
   6
CONTINUOUS
  62
3
  10
 307.49999195337
  20
 292.00002226233
  30
0.0
  11
 307.49999195337
  21
 318.46252892315
  31
0.0
   0
LINE
   5
EB
 100
AcDbEntity
   8
LEVEL003
 100
AcDbLine
   6
CONTINUOUS
  62
3
  10
 307.49999195337
  20
 357.00003558397
  30
0.0
  11
 307.49999195337
  21
 330.53752892315
  31
0.0
   0
INSERT
   5
EC
 100
AcDbEntity
   8
LEVEL003
   6
CONTINUOUS
  62
3
 100
AcDbBlockReference
   2
_OPEN
  10
 307.49999195337
  20
 292.00002226233
  30
0.0
  41
 4.5000000000000
  42
 4.5000000000000
  43
 4.5000000000000
  50
 270.00000000000
   0
INSERT
   5
ED
 100
AcDbEntity
   8
LEVEL003
   6
CONTINUOUS
  62
3
 100
AcDbBlockReference
   2
_OPEN
  10
 307.49999195337
  20
 357.00003558397
  30
0.0
  41
 4.5000000000000
  42
 4.5000000000000
  43
 4.5000000000000
  50
 90.000000000000
   0
MTEXT
   5
EE
 100
AcDbEntity
   8
LEVEL003
  62
3
 100
AcDbMText
  10
 306.29998741150
  20
 324.50002892315
  30
0.0
  40
 6.0000000000000
  41
0.0
  71
8
  72
1
   1
\A1;65
   7
GMM001
  11
0.0
  21
 1.0000000000000
  31
0.0
   0
ENDBLK
   5
EF
 100
AcDbEntity
   8
0
 100
AcDbBlockEnd
   0
BLOCK
   5
F0
 100
AcDbEntity
   8
0
 100
AcDbBlockBegin
   2
*D8
  70
65
  10
0.0
  20
0.0
  30
0.0
   3
*D8
   0
LINE
   5
F1
 100
AcDbEntity
   8
LEVEL003
 100
AcDbLine
   6
CONTINUOUS
  62
3
  10
 196.49999530613
  20
 370.00001993775
  30
0.0
  11
 310.49999195337
  21
 370.00001993775
  31
0.0
   0
LINE
   5
F2
 100
AcDbEntity
   8
LEVEL003
 100
AcDbLine
   6
CONTINUOUS
  62
3
  10
 218.99999463558
  20
 357.00003558397
  30
0.0
  11
 310.49999195337
  21
 357.00003558397
  31
0.0
   0
LINE
   5
F3
 100
AcDbEntity
   8
LEVEL003
 100
AcDbLine
   6
CONTINUOUS
  62
3
  10
 307.49999195337
  20
 370.00001993775
  30
0.0
  11
 307.49999195337
  21
 368.55317564905
  31
0.0
   0
LINE
   5
F4
 100
AcDbEntity
   8
LEVEL003
 100
AcDbLine
   6
CONTINUOUS
  62
3
  10
 307.49999195337
  20
 357.00003558397
  30
0.0
  11
 307.49999195337
  21
 358.44692564905
  31
0.0
   0
INSERT
   5
F5
 100
AcDbEntity
   8
LEVEL003
   6
CONTINUOUS
  62
3
 100
AcDbBlockReference
   2
_OPEN
  10
 307.49999195337
  20
 370.00001993775
  30
0.0
  41
 4.5000000000000
  42
 4.5000000000000
  43
 4.5000000000000
  50
 90.000000000000
   0
INSERT
   5
F6
 100
AcDbEntity
   8
LEVEL003
   6
CONTINUOUS
  62
3
 100
AcDbBlockReference
   2
_OPEN
  10
 307.49999195337
  20
 357.00003558397
  30
0.0
  41
 4.5000000000000
  42
 4.5000000000000
  43
 4.5000000000000
  50
 270.00000000000
   0
MTEXT
   5
F7
 100
AcDbEntity
   8
LEVEL003
  62
3
 100
AcDbMText
  10
 306.29998741150
  20
 363.50005064905
  30
0.0
  40
 6.0000000000000
  41
0.0
  71
8
  72
1
   1
\A1;13
   7
GMM001
  11
0.0
  21
 1.0000000000000
  31
0.0
   0
ENDBLK
   5
F8
 100
AcDbEntity
   8
0
 100
AcDbBlockEnd
   0
BLOCK
   5
F9
 100
AcDbEntity
   8
0
 100
AcDbBlockBegin
   2
*D9
  70
65
  10
0.0
  20
0.0
  30
0.0
   3
*D9
   0
LINE
   5
FA
 100
AcDbEntity
   8
LEVEL003
 100
AcDbLine
   6
CONTINUOUS
  62
3
  10
 218.99999463558
  20
 357.00003558397
  30
0.0
  11
 295.49999240041
  21
 357.00003558397
  31
0.0
   0
LINE
   5
FB
 100
AcDbEntity
   8
LEVEL003
 100
AcDbLine
   6
CONTINUOUS
  62
3
  10
 224.50000210106
  20
 317.00002914667
  30
0.0
  11
 295.49999240041
  21
 317.00002914667
  31
0.0
   0
LINE
   5
FC
 100
AcDbEntity
   8
LEVEL003
 100
AcDbLine
   6
CONTINUOUS
  62
3
  10
 292.49999240041
  20
 357.00003558397
  30
0.0
  11
 292.49999240041
  21
 342.51252092123
  31
0.0
   0
LINE
   5
FD
 100
AcDbEntity
   8
LEVEL003
 100
AcDbLine
   6
CONTINUOUS
  62
3
  10
 292.49999240041
  20
 317.00002914667
  30
0.0
  11
 292.49999240041
  21
 331.48752092123
  31
0.0
   0
INSERT
   5
FE
 100
AcDbEntity
   8
LEVEL003
   6
CONTINUOUS
  62
3
 100
AcDbBlockReference
   2
_OPEN
  10
 292.49999240041
  20
 357.00003558397
  30
0.0
  41
 4.5000000000000
  42
 4.5000000000000
  43
 4.5000000000000
  50
 90.000000000000
   0
INSERT
   5
FF
 100
AcDbEntity
   8
LEVEL003
   6
CONTINUOUS
  62
3
 100
AcDbBlockReference
   2
_OPEN
  10
 292.49999240041
  20
 317.00002914667
  30
0.0
  41
 4.5000000000000
  42
 4.5000000000000
  43
 4.5000000000000
  50
 270.00000000000
   0
MTEXT
   5
100
 100
AcDbEntity
   8
LEVEL003
  62
3
 100
AcDbMText
  10
 291.29998785854
  20
 337.00002092123
  30
0.0
  40
 6.0000000000000
  41
0.0
  71
8
  72
1
   1
\A1;40
   7
GMM001
  11
0.0
  21
 1.0000000000000
  31
0.0
   0
ENDBLK
   5
101
 100
AcDbEntity
   8
0
 100
AcDbBlockEnd
   0
BLOCK
   5
102
 100
AcDbEntity
   8
0
 100
AcDbBlockBegin
   2
*D10
  70
65
  10
0.0
  20
0.0
  30
0.0
   3
*D10
   0
LINE
   5
103
 100
AcDbEntity
   8
LEVEL003
 100
AcDbLine
   6
CONTINUOUS
  62
3
  10
 196.49999530613
  20
 370.00001993775
  30
0.0
  11
 295.49999240041
  21
 370.00001993775
  31
0.0
   0
LINE
   5
104
 100
AcDbEntity
   8
LEVEL003
 100
AcDbLine
   6
CONTINUOUS
  62
3
  10
 199.34467600749
  20
 359.62130473193
  30
0.0
  11
 295.49999240041
  21
 359.62130473193
  31
0.0
   0
LINE
   5
105
 100
AcDbEntity
   8
LEVEL003
 100
AcDbLine
   6
CONTINUOUS
  62
3
  10
 292.49999240041
  20
 370.00001993775
  30
0.0
  11
 292.49999240041
  21
 369.33879877893
  31
0.0
   0
LINE
   5
106
 100
AcDbEntity
   8
LEVEL003
 100
AcDbLine
   6
CONTINUOUS
  62
3
  10
 292.49999240041
  20
 359.62130473193
  30
0.0
  11
 292.49999240041
  21
 360.28254877893
  31
0.0
   0
INSERT
   5
107
 100
AcDbEntity
   8
LEVEL003
   6
CONTINUOUS
  62
3
 100
AcDbBlockReference
   2
_OPEN
  10
 292.49999240041
  20
 370.00001993775
  30
0.0
  41
 4.5000000000000
  42
 4.5000000000000
  43
 4.5000000000000
  50
 90.000000000000
   0
INSERT
   5
108
 100
AcDbEntity
   8
LEVEL003
   6
CONTINUOUS
  62
3
 100
AcDbBlockReference
   2
_OPEN
  10
 292.49999240041
  20
 359.62130473193
  30
0.0
  41
 4.5000000000000
  42
 4.5000000000000
  43
 4.5000000000000
  50
 270.00000000000
   0
MTEXT
   5
109
 100
AcDbEntity
   8
LEVEL003
  62
3
 100
AcDbMText
  10
 291.29998785854
  20
 364.81067377893
  30
0.0
  40
 6.0000000000000
  41
0.0
  71
8
  72
1
   1
\A1;10
   7
GMM001
  11
0.0
  21
 1.0000000000000
  31
0.0
   0
ENDBLK
   5
10A
 100
AcDbEntity
   8
0
 100
AcDbBlockEnd
   0
BLOCK
   5
10B
 100
AcDbEntity
   8
0
 100
AcDbBlockBegin
   2
*D11
  70
65
  10
0.0
  20
0.0
  30
0.0
   3
*D11
   0
LINE
   5
10C
 100
AcDbEntity
   8
LEVEL003
 100
AcDbLine
   6
CONTINUOUS
  62
3
  10
 218.99999463558
  20
 357.00003558397
  30
0.0
  11
 280.49999284744
  21
 357.00003558397
  31
0.0
   0
LINE
   5
10D
 100
AcDbEntity
   8
LEVEL003
 100
AcDbLine
   6
CONTINUOUS
  62
3
  10
 224.50000210106
  20
 352.00002047419
  30
0.0
  11
 280.49999284744
  21
 352.00002047419
  31
0.0
   0
LINE
   5
10E
 100
AcDbEntity
   8
LEVEL003
 100
AcDbLine
   6
CONTINUOUS
  62
3
  10
 277.49999284744
  20
 362.62503558397
  30
0.0
  11
 277.49999284744
  21
 344.31039358003
  31
0.0
   0
LINE
   5
10F
 100
AcDbEntity
   8
LEVEL003
 100
AcDbLine
   6
CONTINUOUS
  62
3
  10
 277.49999284744
  20
 338.27289358003
  30
0.0
  11
 277.49999284744
  21
 338.27289358003
  31
0.0
   0
INSERT
   5
110
 100
AcDbEntity
   8
LEVEL003
   6
CONTINUOUS
  62
3
 100
AcDbBlockReference
   2
_OPEN
  10
 277.49999284744
  20
 357.00003558397
  30
0.0
  41
 4.5000000000000
  42
 4.5000000000000
  43
 4.5000000000000
  50
 270.00000000000
   0
INSERT
   5
111
 100
AcDbEntity
   8
LEVEL003
   6
CONTINUOUS
  62
3
 100
AcDbBlockReference
   2
_OPEN
  10
 277.49999284744
  20
 352.00002047419
  30
0.0
  41
 4.5000000000000
  42
 4.5000000000000
  43
 4.5000000000000
  50
 90.000000000000
   0
MTEXT
   5
112
 100
AcDbEntity
   8
LEVEL003
  62
3
 100
AcDbMText
  10
 276.29998830557
  20
 344.31039358003
  30
0.0
  40
 6.0000000000000
  41
0.0
  71
9
  72
1
   1
\A1;5
   7
GMM001
  11
0.0
  21
 1.0000000000000
  31
0.0
   0
ENDBLK
   5
113
 100
AcDbEntity
   8
0
 100
AcDbBlockEnd
   0
BLOCK
   5
114
 100
AcDbEntity
   8
0
 100
AcDbBlockBegin
   2
*D14
  70
65
  10
0.0
  20
0.0
  30
0.0
   3
*D14
   0
LINE
   5
115
 100
AcDbEntity
   8
LEVEL003
 100
AcDbLine
   6
CONTINUOUS
  62
3
  10
 196.49999530613
  20
 370.00001993775
  30
0.0
  11
 325.49999150634
  21
 370.00001993775
  31
0.0
   0
LINE
   5
116
 100
AcDbEntity
   8
LEVEL003
 100
AcDbLine
   6
CONTINUOUS
  62
3
  10
 221.50000219047
  20
 59.999998658896
  30
0.0
  11
 325.49999150634
  21
 59.999998658896
  31
0.0
   0
LINE
   5
117
 100
AcDbEntity
   8
LEVEL003
 100
AcDbLine
   6
CONTINUOUS
  62
3
  10
 322.49999150634
  20
 370.00001993775
  30
0.0
  11
 322.49999150634
  21
 222.54688429832
  31
0.0
   0
LINE
   5
118
 100
AcDbEntity
   8
LEVEL003
 100
AcDbLine
   6
CONTINUOUS
  62
3
  10
 322.49999150634
  20
 59.999998658896
  30
0.0
  11
 322.49999150634
  21
 207.45313429832
  31
0.0
   0
INSERT
   5
119
 100
AcDbEntity
   8
LEVEL003
   6
CONTINUOUS
  62
3
 100
AcDbBlockReference
   2
_OPEN
  10
 322.49999150634
  20
 370.00001993775
  30
0.0
  41
 4.5000000000000
  42
 4.5000000000000
  43
 4.5000000000000
  50
 90.000000000000
   0
INSERT
   5
11A
 100
AcDbEntity
   8
LEVEL003
   6
CONTINUOUS
  62
3
 100
AcDbBlockReference
   2
_OPEN
  10
 322.49999150634
  20
 59.999998658896
  30
0.0
  41
 4.5000000000000
  42
 4.5000000000000
  43
 4.5000000000000
  50
 270.00000000000
   0
MTEXT
   5
11B
 100
AcDbEntity
   8
LEVEL003
  62
3
 100
AcDbMText
  10
 321.29998696447
  20
 215.00000929832
  30
0.0
  40
 6.0000000000000
  41
0.0
  71
8
  72
1
   1
\A1;310
   7
GMM001
  11
0.0
  21
 1.0000000000000
  31
0.0
   0
ENDBLK
   5
11C
 100
AcDbEntity
   8
0
 100
AcDbBlockEnd
   0
BLOCK
   5
11D
 100
AcDbEntity
   8
0
 100
AcDbBlockBegin
   2
*D15
  70
65
  10
0.0
  20
0.0
  30
0.0
   3
*D15
   0
LINE
   5
11E
 100
AcDbEntity
   8
LEVEL003
 100
AcDbLine
   6
CONTINUOUS
  62
3
  10
 187.49999548495
  20
 360.00003549456
  30
0.0
  11
 169.50000000000
  21
 360.00003549456
  31
0.0
   0
LINE
   5
11F
 100
AcDbEntity
   8
LEVEL003
 100
AcDbLine
   6
CONTINUOUS
  62
3
  10
 186.50001077354
  20
 330.00003638863
  30
0.0
  11
 169.50000000000
  21
 330.00003638863
  31
0.0
   0
LINE
   5
120
 100
AcDbEntity
   8
LEVEL003
 100
AcDbLine
   6
CONTINUOUS
  62
3
  10
 172.50000000000
  20
 360.00003549456
  30
0.0
  11
 172.50000000000
  21
 350.51253594160
  31
0.0
   0
LINE
   5
121
 100
AcDbEntity
   8
LEVEL003
 100
AcDbLine
   6
CONTINUOUS
  62
3
  10
 172.50000000000
  20
 330.00003638863
  30
0.0
  11
 172.50000000000
  21
 339.48753594160
  31
0.0
   0
INSERT
   5
122
 100
AcDbEntity
   8
LEVEL003
   6
CONTINUOUS
  62
3
 100
AcDbBlockReference
   2
_OPEN
  10
 172.50000000000
  20
 360.00003549456
  30
0.0
  41
 4.5000000000000
  42
 4.5000000000000
  43
 4.5000000000000
  50
 90.000000000000
   0
INSERT
   5
123
 100
AcDbEntity
   8
LEVEL003
   6
CONTINUOUS
  62
3
 100
AcDbBlockReference
   2
_OPEN
  10
 172.50000000000
  20
 330.00003638863
  30
0.0
  41
 4.5000000000000
  42
 4.5000000000000
  43
 4.5000000000000
  50
 270.00000000000
   0
MTEXT
   5
124
 100
AcDbEntity
   8
LEVEL003
  62
3
 100
AcDbMText
  10
 171.29999545813
  20
 345.00003594160
  30
0.0
  40
 6.0000000000000
  41
0.0
  71
8
  72
1
   1
\A1;30
   7
GMM001
  11
0.0
  21
 1.0000000000000
  31
0.0
   0
ENDBLK
   5
125
 100
AcDbEntity
   8
0
 100
AcDbBlockEnd
   0
BLOCK
   5
126
 100
AcDbEntity
   8
0
 100
AcDbBlockBegin
   2
*D16
  70
65
  10
0.0
  20
0.0
  30
0.0
   3
*D16
   0
LINE
   5
127
 100
AcDbEntity
   8
LEVEL003
 100
AcDbLine
   6
CONTINUOUS
  62
3
  10
 148.50000429153
  20
 64.499992758036
  30
0.0
  11
 148.50000429153
  21
 42.000000000000
  31
0.0
   0
LINE
   5
128
 100
AcDbEntity
   8
LEVEL003
 100
AcDbLine
   6
CONTINUOUS
  62
3
  10
 181.49999570847
  20
 64.499992758036
  30
0.0
  11
 181.49999570847
  21
 42.000000000000
  31
0.0
   0
LINE
   5
129
 100
AcDbEntity
   8
LEVEL003
 100
AcDbLine
   6
CONTINUOUS
  62
3
  10
 148.50000429153
  20
 45.000000000000
  30
0.0
  11
 154.76250000000
  21
 45.000000000000
  31
0.0
   0
LINE
   5
12A
 100
AcDbEntity
   8
LEVEL003
 100
AcDbLine
   6
CONTINUOUS
  62
3
  10
 181.49999570847
  20
 45.000000000000
  30
0.0
  11
 175.23750000000
  21
 45.000000000000
  31
0.0
   0
INSERT
   5
12B
 100
AcDbEntity
   8
LEVEL003
   6
CONTINUOUS
  62
3
 100
AcDbBlockReference
   2
_OPEN
  10
 148.50000429153
  20
 45.000000000000
  30
0.0
  41
 4.5000000000000
  42
 4.5000000000000
  43
 4.5000000000000
  50
 180.00000000000
   0
INSERT
   5
12C
 100
AcDbEntity
   8
LEVEL003
   6
CONTINUOUS
  62
3
 100
AcDbBlockReference
   2
_OPEN
  10
 181.49999570847
  20
 45.000000000000
  30
0.0
  41
 4.5000000000000
  42
 4.5000000000000
  43
 4.5000000000000
  50
0.0
   0
MTEXT
   5
12D
 100
AcDbEntity
   8
LEVEL003
  62
3
 100
AcDbMText
  10
 165.00000000000
  20
 46.200000000000
  30
0.0
  40
 6.0000000000000
  41
0.0
  71
8
  72
1
   1
\A1;%%c33
   7
GMM001
   0
ENDBLK
   5
12E
 100
AcDbEntity
   8
0
 100
AcDbBlockEnd
   0
BLOCK
   5
12F
 100
AcDbEntity
   8
0
 100
AcDbBlockBegin
   2
*D17
  70
65
  10
0.0
  20
0.0
  30
0.0
   3
*D17
   0
LINE
   5
130
 100
AcDbEntity
   8
LEVEL003
 100
AcDbLine
   6
CONTINUOUS
  62
3
  10
 120.00000514090
  20
 180.00000000000
  30
0.0
  11
 155.28750000000
  21
 180.00000000000
  31
0.0
   0
LINE
   5
131
 100
AcDbEntity
   8
LEVEL003
 100
AcDbLine
   6
CONTINUOUS
  62
3
  10
 209.99999485910
  20
 180.00000000000
  30
0.0
  11
 174.71250000000
  21
 180.00000000000
  31
0.0
   0
INSERT
   5
132
 100
AcDbEntity
   8
LEVEL003
   6
CONTINUOUS
  62
3
 100
AcDbBlockReference
   2
_OPEN
  10
 120.00000514090
  20
 180.00000000000
  30
0.0
  41
 4.5000000000000
  42
 4.5000000000000
  43
 4.5000000000000
  50
 180.00000000000
   0
INSERT
   5
133
 100
AcDbEntity
   8
LEVEL003
   6
CONTINUOUS
  62
3
 100
AcDbBlockReference
   2
_OPEN
  10
 209.99999485910
  20
 180.00000000000
  30
0.0
  41
 4.5000000000000
  42
 4.5000000000000
  43
 4.5000000000000
  50
0.0
   0
MTEXT
   5
134
 100
AcDbEntity
   8
LEVEL003
  62
3
 100
AcDbMText
  10
 165.00000000000
  20
 181.20000000000
  30
0.0
  40
 6.0000000000000
  41
0.0
  71
8
  72
1
   1
\A1;%%c90
   7
GMM001
   0
ENDBLK
   5
135
 100
AcDbEntity
   8
0
 100
AcDbBlockEnd
   0
BLOCK
   5
136
 100
AcDbEntity
   8
0
 100
AcDbBlockBegin
   2
*D18
  70
65
  10
0.0
  20
0.0
  30
0.0
   3
*D18
   0
LINE
   5
137
 100
AcDbEntity
   8
LEVEL003
 100
AcDbLine
   6
CONTINUOUS
  62
3
  10
 131.50001242757
  20
 195.00000000000
  30
0.0
  11
 154.76250000000
  21
 195.00000000000
  31
0.0
   0
LINE
   5
138
 100
AcDbEntity
   8
LEVEL003
 100
AcDbLine
   6
CONTINUOUS
  62
3
  10
 198.49998757243
  20
 195.00000000000
  30
0.0
  11
 175.23750000000
  21
 195.00000000000
  31
0.0
   0
INSERT
   5
139
 100
AcDbEntity
   8
LEVEL003
   6
CONTINUOUS
  62
3
 100
AcDbBlockReference
   2
_OPEN
  10
 131.50001242757
  20
 195.00000000000
  30
0.0
  41
 4.5000000000000
  42
 4.5000000000000
  43
 4.5000000000000
  50
 180.00000000000
   0
INSERT
   5
13A
 100
AcDbEntity
   8
LEVEL003
   6
CONTINUOUS
  62
3
 100
AcDbBlockReference
   2
_OPEN
  10
 198.49998757243
  20
 195.00000000000
  30
0.0
  41
 4.5000000000000
  42
 4.5000000000000
  43
 4.5000000000000
  50
0.0
   0
MTEXT
   5
13B
 100
AcDbEntity
   8
LEVEL003
  62
3
 100
AcDbMText
  10
 165.00000000000
  20
 196.20000000000
  30
0.0
  40
 6.0000000000000
  41
0.0
  71
8
  72
1
   1
\A1;%%c67
   7
GMM001
   0
ENDBLK
   5
13C
 100
AcDbEntity
   8
0
 100
AcDbBlockEnd
   0
BLOCK
   5
13D
 100
AcDbEntity
   8
0
 100
AcDbBlockBegin
   2
*D19
  70
65
  10
0.0
  20
0.0
  30
0.0
   3
*D19
   0
LINE
   5
13E
 100
AcDbEntity
   8
LEVEL003
 100
AcDbLine
   6
CONTINUOUS
  62
3
  10
 142.50000447035
  20
 210.00000000000
  30
0.0
  11
 154.76250000000
  21
 210.00000000000
  31
0.0
   0
LINE
   5
13F
 100
AcDbEntity
   8
LEVEL003
 100
AcDbLine
   6
CONTINUOUS
  62
3
  10
 187.49999552965
  20
 210.00000000000
  30
0.0
  11
 175.23750000000
  21
 210.00000000000
  31
0.0
   0
INSERT
   5
140
 100
AcDbEntity
   8
LEVEL003
   6
CONTINUOUS
  62
3
 100
AcDbBlockReference
   2
_OPEN
  10
 142.50000447035
  20
 210.00000000000
  30
0.0
  41
 4.5000000000000
  42
 4.5000000000000
  43
 4.5000000000000
  50
 180.00000000000
   0
INSERT
   5
141
 100
AcDbEntity
   8
LEVEL003
   6
CONTINUOUS
  62
3
 100
AcDbBlockReference
   2
_OPEN
  10
 187.49999552965
  20
 210.00000000000
  30
0.0
  41
 4.5000000000000
  42
 4.5000000000000
  43
 4.5000000000000
  50
0.0
   0
MTEXT
   5
142
 100
AcDbEntity
   8
LEVEL003
  62
3
 100
AcDbMText
  10
 165.00000000000
  20
 211.20000000000
  30
0.0
  40
 6.0000000000000
  41
0.0
  71
8
  72
1
   1
\A1;%%c45
   7
GMM001
   0
ENDBLK
   5
143
 100
AcDbEntity
   8
0
 100
AcDbBlockEnd
   0
BLOCK
   5
144
 100
AcDbEntity
   8
0
 100
AcDbBlockBegin
   2
*D20
  70
65
  10
0.0
  20
0.0
  30
0.0
   3
*D20
   0
LINE
   5
145
 100
AcDbEntity
   8
LEVEL003
 100
AcDbLine
   6
CONTINUOUS
  62
3
  10
 148.50000429153
  20
 366.50005060434
  30
0.0
  11
 148.50000429153
  21
 385.50000000000
  31
0.0
   0
LINE
   5
146
 100
AcDbEntity
   8
LEVEL003
 100
AcDbLine
   6
CONTINUOUS
  62
3
  10
 181.49999570847
  20
 366.50005060434
  30
0.0
  11
 181.49999570847
  21
 385.50000000000
  31
0.0
   0
LINE
   5
147
 100
AcDbEntity
   8
LEVEL003
 100
AcDbLine
   6
CONTINUOUS
  62
3
  10
 148.50000429153
  20
 382.50000000000
  30
0.0
  11
 154.76250000000
  21
 382.50000000000
  31
0.0
   0
LINE
   5
148
 100
AcDbEntity
   8
LEVEL003
 100
AcDbLine
   6
CONTINUOUS
  62
3
  10
 181.49999570847
  20
 382.50000000000
  30
0.0
  11
 175.23750000000
  21
 382.50000000000
  31
0.0
   0
INSERT
   5
149
 100
AcDbEntity
   8
LEVEL003
   6
CONTINUOUS
  62
3
 100
AcDbBlockReference
   2
_OPEN
  10
 148.50000429153
  20
 382.50000000000
  30
0.0
  41
 4.5000000000000
  42
 4.5000000000000
  43
 4.5000000000000
  50
 180.00000000000
   0
INSERT
   5
14A
 100
AcDbEntity
   8
LEVEL003
   6
CONTINUOUS
  62
3
 100
AcDbBlockReference
   2
_OPEN
  10
 181.49999570847
  20
 382.50000000000
  30
0.0
  41
 4.5000000000000
  42
 4.5000000000000
  43
 4.5000000000000
  50
0.0
   0
MTEXT
   5
14B
 100
AcDbEntity
   8
LEVEL003
  62
3
 100
AcDbMText
  10
 165.00000000000
  20
 383.70000000000
  30
0.0
  40
 6.0000000000000
  41
0.0
  71
8
  72
1
   1
\A1;%%c33
   7
GMM001
   0
ENDBLK
   5
14C
 100
AcDbEntity
   8
0
 100
AcDbBlockEnd
   0
ENDSEC
   0
SECTION
   2
ENTITIES
   0
LINE
   5
14D
 100
AcDbEntity
   8
LEVEL001
 100
AcDbLine
   6
CONTINUOUS
  62
7
  10
 107.99999789894
  20
 61.999996691942
  30
0.0
  11
 110.00000165403
  21
 59.999998658896
  31
0.0
   0
LINE
   5
14E
 100
AcDbEntity
   8
LEVEL001
 100
AcDbLine
   6
CONTINUOUS
  62
7
  10
 110.00000165403
  20
 59.999998658896
  30
0.0
  11
 220.00000219047
  21
 59.999998658896
  31
0.0
   0
LINE
   5
14F
 100
AcDbEntity
   8
LEVEL001
 100
AcDbLine
   6
DASHDOT
  62
1
  10
 119.00000138581
  20
 56.999998748302
  30
0.0
  11
 119.00000138581
  21
 83.252767436124
  31
0.0
   0
LINE
   5
150
 100
AcDbEntity
   8
LEVEL001
 100
AcDbLine
   6
DOT
  62
7
  10
 113.99999772012
  20
 59.999998658896
  30
0.0
  11
 114.74999769777
  21
 60.749998636544
  31
0.0
   0
LINE
   5
151
 100
AcDbEntity
   8
LEVEL001
 100
AcDbLine
   6
DOT
  62
7
  10
 114.74999769777
  20
 60.749998636544
  30
0.0
  11
 114.74999769777
  21
 77.799039876490
  31
0.0
   0
LINE
   5
152
 100
AcDbEntity
   8
LEVEL001
 100
AcDbLine
   6
DOT
  62
7
  10
 114.74999769777
  20
 77.799039876490
  30
0.0
  11
 119.00000138581
  21
 80.252767525531
  31
0.0
   0
LINE
   5
153
 100
AcDbEntity
   8
LEVEL001
 100
AcDbLine
   6
DOT
  62
7
  10
 119.00000138581
  20
 80.252767525531
  30
0.0
  11
 123.25000507385
  21
 77.799039876490
  31
0.0
   0
LINE
   5
154
 100
AcDbEntity
   8
LEVEL001
 100
AcDbLine
   6
DOT
  62
7
  10
 123.25000507385
  20
 77.799039876490
  30
0.0
  11
 123.25000507385
  21
 60.749998636544
  31
0.0
   0
LINE
   5
155
 100
AcDbEntity
   8
LEVEL001
 100
AcDbLine
   6
DOT
  62
7
  10
 123.25000507385
  20
 60.749998636544
  30
0.0
  11
 124.00000505149
  21
 59.999998658896
  31
0.0
   0
LINE
   5
156
 100
AcDbEntity
   8
LEVEL001
 100
AcDbLine
   6
DOT
  62
7
  10
 114.74999769777
  20
 77.799039876490
  30
0.0
  11
 123.25000507385
  21
 77.799039876490
  31
0.0
   0
LINE
   5
157
 100
AcDbEntity
   8
LEVEL001
 100
AcDbLine
   6
DOT
  62
3
  10
 123.25000507385
  20
 77.799039876490
  30
0.0
  11
 124.00000505149
  21
 74.999998211861
  31
0.0
   0
LINE
   5
158
 100
AcDbEntity
   8
LEVEL001
 100
AcDbLine
   6
DOT
  62
3
  10
 124.00000505149
  20
 74.999998211861
  30
0.0
  11
 124.00000505149
  21
 59.999998658896
  31
0.0
   0
LINE
   5
159
 100
AcDbEntity
   8
LEVEL001
 100
AcDbLine
   6
DOT
  62
3
  10
 113.99999772012
  20
 74.999998211861
  30
0.0
  11
 124.00000505149
  21
 74.999998211861
  31
0.0
   0
LINE
   5
15A
 100
AcDbEntity
   8
LEVEL001
 100
AcDbLine
   6
DOT
  62
3
  10
 113.99999772012
  20
 59.999998658896
  30
0.0
  11
 113.99999772012
  21
 74.999998211861
  31
0.0
   0
LINE
   5
15B
 100
AcDbEntity
   8
LEVEL001
 100
AcDbLine
   6
DOT
  62
3
  10
 113.99999772012
  20
 74.999998211861
  30
0.0
  11
 114.74999769777
  21
 77.799039876490
  31
0.0
   0
LINE
   5
15C
 100
AcDbEntity
   8
LEVEL001
 100
AcDbLine
   6
DOT
  62
7
  10
 114.74999769777
  20
 60.749998636544
  30
0.0
  11
 123.25000507385
  21
 60.749998636544
  31
0.0
   0
ARC
   5
15D
 100
AcDbEntity
   8
LEVEL001
   6
CONTINUOUS
  62
7
 100
AcDbCircle
  10
 244.00000147521
  20
 146.99999606609
  30
0.0
  40
 14.999999552965
 100
AcDbArc
  50
 270.00000000000
  51
 0.43425174545087E-12
   0
ARC
   5
15E
 100
AcDbEntity
   8
LEVEL001
   6
CONTINUOUS
  62
7
 100
AcDbCircle
  10
 244.00000147521
  20
 146.99999606609
  30
0.0
  40
 28.999991506338
 100
AcDbArc
  50
 270.00000000000
  51
0.0
   0
ARC
   5
15F
 100
AcDbEntity
   8
LEVEL001
   6
CONTINUOUS
  62
7
 100
AcDbCircle
  10
 244.00000147522
  20
 237.00003916025
  30
0.0
  40
 14.999999552965
 100
AcDbArc
  50
0.0
  51
 90.000000000001
   0
ARC
   5
160
 100
AcDbEntity
   8
LEVEL001
   6
CONTINUOUS
  62
7
 100
AcDbCircle
  10
 244.00000147521
  20
 237.00003916025
  30
0.0
  40
 28.999991506338
 100
AcDbArc
  50
 0.50537931947259E-12
  51
 90.000000000000
   0
LINE
   5
161
 100
AcDbEntity
   8
LEVEL001
 100
AcDbLine
   6
CONTINUOUS
  62
7
  10
 259.00000102818
  20
 146.99999606609
  30
0.0
  11
 259.00000102818
  21
 237.00003916025
  31
0.0
   0
LINE
   5
162
 100
AcDbEntity
   8
LEVEL001
 100
AcDbLine
   6
CONTINUOUS
  62
7
  10
 272.99999298155
  20
 146.99999606609
  30
0.0
  11
 272.99999298155
  21
 237.00003916025
  31
0.0
   0
LINE
   5
163
 100
AcDbEntity
   8
LEVEL001
 100
AcDbLine
   6
CONTINUOUS
  62
7
  10
 221.99999450147
  20
 269.00000768900
  30
0.0
  11
 224.99999441206
  21
 266.00000777841
  31
0.0
   0
LINE
   5
164
 100
AcDbEntity
   8
LEVEL001
 100
AcDbLine
   6
CONTINUOUS
  62
7
  10
 221.99999450147
  20
 248.99999302626
  30
0.0
  11
 224.99999441206
  21
 251.99999293685
  31
0.0
   0
LINE
   5
165
 100
AcDbEntity
   8
LEVEL001
 100
AcDbLine
   6
CONTINUOUS
  62
7
  10
 221.99999450147
  20
 135.00000786781
  30
0.0
  11
 224.99999441206
  21
 132.00000795722
  31
0.0
   0
LINE
   5
166
 100
AcDbEntity
   8
LEVEL001
 100
AcDbLine
   6
CONTINUOUS
  62
7
  10
 221.99999450147
  20
 114.99999320507
  30
0.0
  11
 224.99999441206
  21
 117.99999311566
  31
0.0
   0
LINE
   5
167
 100
AcDbEntity
   8
LEVEL001
 100
AcDbLine
   6
CONTINUOUS
  62
7
  10
 107.99999789894
  20
 61.999996691942
  30
0.0
  11
 164.99999620020
  21
 61.999996691942
  31
0.0
   0
LINE
   5
168
 100
AcDbEntity
   8
LEVEL001
 100
AcDbLine
   6
CONTINUOUS
  62
7
  10
 194.99999530613
  20
 370.00001993775
  30
0.0
  11
 196.00000290573
  21
 368.99998944998
  31
0.0
   0
LINE
   5
169
 100
AcDbEntity
   8
LEVEL001
 100
AcDbLine
   6
CONTINUOUS
  62
7
  10
 196.00000290573
  20
 368.99998944998
  30
0.0
  11
 196.00000290573
  21
 360.00003549456
  31
0.0
   0
LINE
   5
16A
 100
AcDbEntity
   8
LEVEL001
 100
AcDbLine
   6
CONTINUOUS
  62
7
  10
 134.99999709427
  20
 370.00001993775
  30
0.0
  11
 134.00000093877
  21
 368.99998944998
  31
0.0
   0
LINE
   5
16B
 100
AcDbEntity
   8
LEVEL001
 100
AcDbLine
   6
CONTINUOUS
  62
7
  10
 134.00000093877
  20
 360.00003549456
  30
0.0
  11
 134.00000093877
  21
 368.99998944998
  31
0.0
   0
LINE
   5
16C
 100
AcDbEntity
   8
LEVEL001
 100
AcDbLine
   6
CONTINUOUS
  62
7
  10
 183.31981224359
  20
 370.00001993775
  30
0.0
  11
 194.99999530613
  21
 370.00001993775
  31
0.0
   0
LINE
   5
16D
 100
AcDbEntity
   8
LEVEL001
 100
AcDbLine
   6
CONTINUOUS
  62
7
  10
 183.31981224359
  20
 370.00001993775
  30
0.0
  11
 134.99999709427
  21
 370.00001993775
  31
0.0
   0
LINE
   5
16E
 100
AcDbEntity
   8
LEVEL001
 100
AcDbLine
   6
CONTINUOUS
  62
7
  10
 218.50000223517
  20
 356.00002798438
  30
0.0
  11
 217.49999463558
  21
 357.00003558397
  31
0.0
   0
LINE
   5
16F
 100
AcDbEntity
   8
LEVEL001
 100
AcDbLine
   6
CONTINUOUS
  62
3
  10
 218.99999459088
  20
 317.00002914667
  30
0.0
  11
 220.00000219047
  21
 313.26797359383
  31
0.0
   0
LINE
   5
170
 100
AcDbEntity
   8
LEVEL001
 100
AcDbLine
   6
CONTINUOUS
  62
7
  10
 220.00000219047
  20
 312.00003692508
  30
0.0
  11
 221.99999450147
  21
 307.00002181530
  31
0.0
   0
ARC
   5
171
 100
AcDbEntity
   8
LEVEL001
   6
CONTINUOUS
  62
7
 100
AcDbCircle
  10
 197.35960511364
  20
 359.50003549457
  30
0.0
  40
 0.50000000000000
 100
AcDbArc
  50
 14.036411767338
  51
 89.999812825426
   0
LINE
   5
172
 100
AcDbEntity
   8
LEVEL001
 100
AcDbLine
   6
CONTINUOUS
  62
7
  10
 197.84467600749
  20
 359.62130473193
  30
0.0
  11
 198.49998757243
  21
 357.00003558397
  31
0.0
   0
LINE
   5
173
 100
AcDbEntity
   8
LEVEL001
 100
AcDbLine
   6
CONTINUOUS
  62
7
  10
 218.50000223517
  20
 356.00002798438
  30
0.0
  11
 218.50000223517
  21
 352.00002047419
  31
0.0
   0
LINE
   5
174
 100
AcDbEntity
   8
LEVEL001
 100
AcDbLine
   6
CONTINUOUS
  62
3
  10
 218.99999459088
  20
 351.50002811849
  30
0.0
  11
 218.99999459088
  21
 317.00002914667
  31
0.0
   0
LINE
   5
175
 100
AcDbEntity
   8
LEVEL001
 100
AcDbLine
   6
CONTINUOUS
  62
3
  10
 218.99999459088
  20
 317.00002914667
  30
0.0
  11
 220.00000219047
  21
 317.00002914667
  31
0.0
   0
LINE
   5
176
 100
AcDbEntity
   8
LEVEL001
 100
AcDbLine
   6
CONTINUOUS
  62
7
  10
 218.50000223517
  20
 352.00002047419
  30
0.0
  11
 220.00000219047
  21
 350.50002051890
  31
0.0
   0
LINE
   5
177
 100
AcDbEntity
   8
LEVEL001
 100
AcDbLine
   6
CONTINUOUS
  62
7
  10
 220.00000219047
  20
 350.50002051890
  30
0.0
  11
 220.00000219047
  21
 312.00003692508
  31
0.0
   0
LINE
   5
178
 100
AcDbEntity
   8
LEVEL001
 100
AcDbLine
   6
CONTINUOUS
  62
7
  10
 111.49999016523
  20
 356.00002798438
  30
0.0
  11
 112.49999776483
  21
 357.00003558397
  31
0.0
   0
LINE
   5
179
 100
AcDbEntity
   8
LEVEL001
 100
AcDbLine
   6
CONTINUOUS
  62
7
  10
 109.99999020994
  20
 312.00003692508
  30
0.0
  11
 107.99999789894
  21
 307.00002181530
  31
0.0
   0
LINE
   5
17A
 100
AcDbEntity
   8
LEVEL001
 100
AcDbLine
   6
CONTINUOUS
  62
7
  10
 107.99999789894
  20
 61.999996691942
  30
0.0
  11
 107.99999789894
  21
 307.00002181530
  31
0.0
   0
LINE
   5
17B
 100
AcDbEntity
   8
LEVEL001
 100
AcDbLine
   6
CONTINUOUS
  62
7
  10
 111.49999016523
  20
 356.00002798438
  30
0.0
  11
 111.49999016523
  21
 352.00002047419
  31
0.0
   0
ARC
   5
17C
 100
AcDbEntity
   8
LEVEL001
   6
CONTINUOUS
  62
7
 100
AcDbCircle
  10
 132.64038728678
  20
 359.50003549456
  30
0.0
  40
 0.50000000000000
 100
AcDbArc
  50
 90.000187175281
  51
 165.96358823151
   0
LINE
   5
17D
 100
AcDbEntity
   8
LEVEL001
 100
AcDbLine
   6
CONTINUOUS
  62
7
  10
 132.15531639292
  20
 359.62130473193
  30
0.0
  11
 131.50000482798
  21
 357.00003558397
  31
0.0
   0
LINE
   5
17E
 100
AcDbEntity
   8
LEVEL001
 100
AcDbLine
   6
CONTINUOUS
  62
7
  10
 164.99999620020
  20
 357.00003558397
  30
0.0
  11
 112.49999776483
  21
 357.00003558397
  31
0.0
   0
LINE
   5
17F
 100
AcDbEntity
   8
LEVEL001
 100
AcDbLine
   6
CONTINUOUS
  62
7
  10
 164.99999620020
  20
 360.00003549456
  30
0.0
  11
 132.64038565337
  21
 360.00003549456
  31
0.0
   0
LINE
   5
180
 100
AcDbEntity
   8
LEVEL001
 100
AcDbLine
   6
CONTINUOUS
  62
7
  10
 109.99999020994
  20
 313.26797359383
  30
0.0
  11
 164.99999620020
  21
 313.26797359383
  31
0.0
   0
LINE
   5
181
 100
AcDbEntity
   8
LEVEL001
 100
AcDbLine
   6
CONTINUOUS
  62
7
  10
 164.99999620020
  20
 312.00003692508
  30
0.0
  11
 109.99999020994
  21
 312.00003692508
  31
0.0
   0
LINE
   5
182
 100
AcDbEntity
   8
LEVEL001
 100
AcDbLine
   6
CONTINUOUS
  62
7
  10
 107.99999789894
  20
 307.00002181530
  30
0.0
  11
 164.99999620020
  21
 307.00002181530
  31
0.0
   0
LINE
   5
183
 100
AcDbEntity
   8
LEVEL001
 100
AcDbLine
   6
CONTINUOUS
  62
7
  10
 111.49999016523
  20
 356.00002798438
  30
0.0
  11
 164.99999620020
  21
 356.00002798438
  31
0.0
   0
LINE
   5
184
 100
AcDbEntity
   8
LEVEL001
 100
AcDbLine
   6
CONTINUOUS
  62
7
  10
 134.00000093877
  20
 368.99998944998
  30
0.0
  11
 164.99999620020
  21
 368.99998944998
  31
0.0
   0
LEADER
   5
185
 100
AcDbEntity
   8
LEVEL003
   6
CONTINUOUS
  62
3
 100
AcDbLeader
   3
GMM001
  73
0
  74
1
  75
0
  40
 6.0000000000000
  41
0.0
  76
3
  10
 220.00000219047
  20
 341.24999027699
  30
0.0
  10
 269.99999307096
  20
 389.99998882413
  30
0.0
  10
 307.49999195337
  20
 389.99998882413
  30
0.0
  77
3
   0
TEXT
   5
186
 100
AcDbEntity
   8
LEVEL003
  62
3
 100
AcDbText
  10
 269.99999307096
  20
 389.99998882413
  30
0.0
  40
 5.9999998211861
   1
Ｍ１１０×２
   7
STANDARD
 100
AcDbText
   0
DIMENSION
   5
187
 100
AcDbEntity
   8
LEVEL003
   6
CONTINUOUS
  62
3
 100
AcDbDimension
   2
*D2
  10
 196.00000290573
  20
 397.49998860061
  30
0.0
  11
 164.99999620020
  21
 397.49998860061
  31
0.0
  70
128
   1
\A1;%%c62
   3
GMM002
 100
AcDbAlignedDimension
  13
 134.00000093877
  23
 368.99998944998
  33
0.0
  14
 196.00000290573
  24
 368.99998944998
  34
0.0
 100
AcDbRotatedDimension
   0
DIMENSION
   5
189
 100
AcDbEntity
   8
LEVEL003
   6
CONTINUOUS
  62
3
 100
AcDbDimension
   2
*D3
  10
 272.99999298155
  20
 164.99999552965
  30
0.0
  11
 247.49999374151
  21
 164.99999552965
  31
0.0
  70
128
   1
\A1;51
   3
GMM003
 100
AcDbAlignedDimension
  13
 221.99999450147
  23
 164.99999552965
  33
0.0
  14
 272.99999298155
  24
 164.99999552965
  34
0.0
 100
AcDbRotatedDimension
   0
DIMENSION
   5
18B
 100
AcDbEntity
   8
LEVEL003
   6
CONTINUOUS
  62
3
 100
AcDbDimension
   2
*D4
  10
 221.99999450147
  20
 164.99999552965
  30
0.0
  11
 164.99999620020
  21
 164.99999552965
  31
0.0
  70
128
   1
\A1;%%c114
   3
GMM004
 100
AcDbAlignedDimension
  13
 107.99999789894
  23
 164.99999552965
  33
0.0
  14
 221.99999450147
  24
 164.99999552965
  34
0.0
 100
AcDbRotatedDimension
   0
ARC
   5
18D
 100
AcDbEntity
   8
LEVEL001
   6
DASHDOT
  62
1
 100
AcDbCircle
  10
 244.00000147521
  20
 237.00003916025
  30
0.0
  40
 22.000006973743
 100
AcDbArc
  50
 0.37010079107085E-12
  51
 90.000000000000
   0
LINE
   5
18E
 100
AcDbEntity
   8
LEVEL001
 100
AcDbLine
   6
DASHDOT
  62
1
  10
 221.99999450147
  20
 259.00000035763
  30
0.0
  11
 244.00000147521
  21
 259.00000035763
  31
0.0
   0
LINE
   5
18F
 100
AcDbEntity
   8
LEVEL001
 100
AcDbLine
   6
DASHDOT
  62
1
  10
 266.00000844896
  20
 237.00003916025
  30
0.0
  11
 266.00000844896
  21
 146.99999606609
  31
0.0
   0
ARC
   5
190
 100
AcDbEntity
   8
LEVEL001
   6
DASHDOT
  62
1
 100
AcDbCircle
  10
 244.00000147521
  20
 146.99999606609
  30
0.0
  40
 22.000006973743
 100
AcDbArc
  50
 270.00000000000
  51
 0.11843225314267E-11
   0
LINE
   5
191
 100
AcDbEntity
   8
LEVEL001
 100
AcDbLine
   6
DASHDOT
  62
1
  10
 244.00000147521
  20
 125.00000053644
  30
0.0
  11
 221.99999450147
  21
 125.00000053644
  31
0.0
   0
DIMENSION
   5
192
 100
AcDbEntity
   8
LEVEL003
   6
CONTINUOUS
  62
3
 100
AcDbDimension
   2
*D5
  10
 292.49999240041
  20
 251.99999293685
  30
0.0
  11
 292.49999240041
  21
 191.99999472499
  31
0.0
  70
128
   1
\A1;120
   3
GMM005
 100
AcDbAlignedDimension
  13
 244.00000147521
  23
 131.99999651313
  33
0.0
  14
 244.00000147521
  24
 251.99999293685
  34
0.0
  50
 90.000000000000
 100
AcDbRotatedDimension
   0
LINE
   5
194
 100
AcDbEntity
   8
LEVEL001
 100
AcDbLine
   6
DASHDOT
  62
1
  10
 164.99999620020
  20
 180.85946923913
  30
0.0
  11
 164.99999620020
  21
 52.499998882413
  31
0.0
   0
LINE
   5
195
 100
AcDbEntity
   8
LEVEL001
 100
AcDbLine
   6
CONTINUOUS
  62
3
  10
 232.00000183284
  20
 100.64350635876
  30
0.0
  11
 228.38366893281
  21
 99.674512247011
  31
0.0
   0
LINE
   5
196
 100
AcDbEntity
   8
LEVEL001
 100
AcDbLine
   6
CONTINUOUS
  62
3
  10
 232.00000183284
  20
 83.356496681079
  30
0.0
  11
 228.38362315644
  21
 84.325502236918
  31
0.0
   0
LINE
   5
197
 100
AcDbEntity
   8
LEVEL001
 100
AcDbLine
   6
CONTINUOUS
  62
7
  10
 232.00000183284
  20
 100.64350635876
  30
0.0
  11
 233.48352229644
  21
 101.50002793968
  31
0.0
   0
LINE
   5
198
 100
AcDbEntity
   8
LEVEL001
 100
AcDbLine
   6
CONTINUOUS
  62
7
  10
 248.99999369681
  20
 101.50000505149
  30
0.0
  11
 233.48352229644
  21
 101.50000505149
  31
0.0
   0
LINE
   5
199
 100
AcDbEntity
   8
LEVEL001
 100
AcDbLine
   6
CONTINUOUS
  62
7
  10
 232.00000183284
  20
 83.356496681079
  30
0.0
  11
 233.48352229644
  21
 82.499997988343
  31
0.0
   0
LINE
   5
19A
 100
AcDbEntity
   8
LEVEL001
 100
AcDbLine
   6
CONTINUOUS
  62
7
  10
 248.99999369681
  20
 82.499997988343
  30
0.0
  11
 233.48352229644
  21
 82.499997988343
  31
0.0
   0
ARC
   5
19B
 100
AcDbEntity
   8
LEVEL001
   6
CONTINUOUS
  62
7
 100
AcDbCircle
  10
 250.49999365210
  20
 104.99999731779
  30
0.0
  40
 1.4999999552965
 100
AcDbArc
  50
 89.999999999978
  51
 180.00000000000
   0
LINE
   5
19C
 100
AcDbEntity
   8
LEVEL001
 100
AcDbLine
   6
CONTINUOUS
  62
7
  10
 250.49999365211
  20
 106.49999727309
  30
0.0
  11
 255.49998587370
  21
 106.49999727309
  31
0.0
   0
ARC
   5
19D
 100
AcDbEntity
   8
LEVEL001
   6
CONTINUOUS
  62
7
 100
AcDbCircle
  10
 250.49999365211
  20
 79.000005722046
  30
0.0
  40
 1.4999999552965
 100
AcDbArc
  50
 180.00000000000
  51
 270.00000000000
   0
LINE
   5
19E
 100
AcDbEntity
   8
LEVEL001
 100
AcDbLine
   6
CONTINUOUS
  62
7
  10
 248.99999369681
  20
 79.000005722046
  30
0.0
  11
 248.99999369681
  21
 104.99999731779
  31
0.0
   0
LINE
   5
19F
 100
AcDbEntity
   8
LEVEL001
 100
AcDbLine
   6
CONTINUOUS
  62
7
  10
 250.49999365211
  20
 77.500005766749
  30
0.0
  11
 255.49998587370
  21
 77.500005766749
  31
0.0
   0
ARC
   5
1A0
 100
AcDbEntity
   8
LEVEL001
   6
CONTINUOUS
  62
7
 100
AcDbCircle
  10
 271.49999302626
  20
 104.99999731779
  30
0.0
  40
 1.4999999552965
 100
AcDbArc
  50
0.0
  51
 89.999999999878
   0
LINE
   5
1A1
 100
AcDbEntity
   8
LEVEL001
 100
AcDbLine
   6
CONTINUOUS
  62
7
  10
 266.50000080466
  20
 106.49999727309
  30
0.0
  11
 271.49999302626
  21
 106.49999727309
  31
0.0
   0
ARC
   5
1A2
 100
AcDbEntity
   8
LEVEL001
   6
CONTINUOUS
  62
7
 100
AcDbCircle
  10
 271.49999302626
  20
 79.000005722037
  30
0.0
  40
 1.4999999552965
 100
AcDbArc
  50
 270.00000000000
  51
 0.30126214840654E-9
   0
LINE
   5
1A3
 100
AcDbEntity
   8
LEVEL001
 100
AcDbLine
   6
CONTINUOUS
  62
7
  10
 266.50000080466
  20
 77.500005766749
  30
0.0
  11
 271.49999302626
  21
 77.500005766749
  31
0.0
   0
LINE
   5
1A4
 100
AcDbEntity
   8
LEVEL001
 100
AcDbLine
   6
CONTINUOUS
  62
7
  10
 272.99999298155
  20
 104.99999731779
  30
0.0
  11
 272.99999298155
  21
 79.000005722046
  31
0.0
   0
ARC
   5
1A5
 100
AcDbEntity
   8
LEVEL001
   6
DASHDOT
  62
1
 100
AcDbCircle
  10
 282.00000031295
  20
 105.00000491741
  30
0.0
  40
 1.0000000000000
 100
AcDbArc
  50
0.0
  51
 90.000435425941
   0
LINE
   5
1A6
 100
AcDbEntity
   8
LEVEL001
 100
AcDbLine
   6
DASHDOT
  62
1
  10
 274.00000058115
  20
 106.00000491738
  30
0.0
  11
 281.99999271333
  21
 106.00000491738
  31
0.0
   0
ARC
   5
1A7
 100
AcDbEntity
   8
LEVEL001
   6
DASHDOT
  62
1
 100
AcDbCircle
  10
 282.00000031295
  20
 78.999998122428
  30
0.0
  40
 1.0000000000000
 100
AcDbArc
  50
 269.99956457380
  51
 0.43542607567386E-3
   0
LINE
   5
1A8
 100
AcDbEntity
   8
LEVEL001
 100
AcDbLine
   6
DASHDOT
  62
1
  10
 274.00000058115
  20
 77.999998122454
  30
0.0
  11
 281.99999271333
  21
 77.999998122454
  31
0.0
   0
LINE
   5
1A9
 100
AcDbEntity
   8
LEVEL001
 100
AcDbLine
   6
DASHDOT
  62
1
  10
 283.00000031292
  20
 104.99999731779
  30
0.0
  11
 283.00000031292
  21
 79.000005722046
  31
0.0
   0
CIRCLE
   5
1AA
 100
AcDbEntity
   8
LEVEL001
 100
AcDbCircle
   6
DASHDOT
  62
1
  10
 286.00000022352
  20
 92.000001519918
  30
0.0
  40
 1.4999999552965
   0
ARC
   5
1AB
 100
AcDbEntity
   8
LEVEL001
   6
DASHDOT
  62
1
 100
AcDbCircle
  10
 273.99999298152
  20
 78.999998122425
  30
0.0
  40
 1.0000000000000
 100
AcDbArc
  50
 179.99956457383
  51
 270.00043542571
   0
ARC
   5
1AC
 100
AcDbEntity
   8
LEVEL001
   6
DASHDOT
  62
1
 100
AcDbCircle
  10
 273.99999298152
  20
 105.00000491743
  30
0.0
  40
 1.0000000000000
 100
AcDbArc
  50
 89.999564573760
  51
 180.00043542689
   0
ARC
   5
1AD
 100
AcDbEntity
   8
LEVEL001
   6
DASHDOT
  62
1
 100
AcDbCircle
  10
 285.00000031291
  20
 97.500005230293
  30
0.0
  40
 2.0000000000000
 100
AcDbArc
  50
 180.00022027317
  51
 269.99977972668
   0
ARC
   5
1AE
 100
AcDbEntity
   8
LEVEL001
   6
DASHDOT
  62
1
 100
AcDbCircle
  10
 285.00000031291
  20
 86.499997809546
  30
0.0
  40
 2.0000000000000
 100
AcDbArc
  50
 90.000220273207
  51
 179.99977972687
   0
LINE
   5
1AF
 100
AcDbEntity
   8
LEVEL001
 100
AcDbLine
   6
DASHDOT
  62
1
  10
 284.99999262393
  20
 95.500005230307
  30
0.0
  11
 285.49998497963
  21
 95.500005230307
  31
0.0
   0
LINE
   5
1B0
 100
AcDbEntity
   8
LEVEL001
 100
AcDbLine
   6
DASHDOT
  62
1
  10
 284.99999262393
  20
 88.499997809529
  30
0.0
  11
 285.49998497963
  21
 88.499997809529
  31
0.0
   0
ARC
   5
1B1
 100
AcDbEntity
   8
LEVEL001
   6
DASHDOT
  62
1
 100
AcDbCircle
  10
 285.49998497963
  20
 92.000001519918
  30
0.0
  40
 3.5000037103890
 100
AcDbArc
  50
 270.00000000000
  51
 90.000000000000
   0
LINE
   5
1B2
 100
AcDbEntity
   8
LEVEL001
 100
AcDbLine
   6
CONTINUOUS
  62
7
  10
 233.48352229644
  20
 82.499997988343
  30
0.0
  11
 233.48352229644
  21
 86.169053817718
  31
0.0
   0
LINE
   5
1B3
 100
AcDbEntity
   8
LEVEL001
 100
AcDbLine
   6
CONTINUOUS
  62
7
  10
 233.48352229644
  20
 97.830949222119
  30
0.0
  11
 233.48352229644
  21
 101.50001649558
  31
0.0
   0
LINE
   5
1B4
 100
AcDbEntity
   8
LEVEL001
 100
AcDbLine
   6
CONTINUOUS
  62
7
  10
 227.99999432266
  20
 87.960820884680
  30
0.0
  11
 241.99998627603
  21
 97.830949222119
  31
0.0
   0
LINE
   5
1B5
 100
AcDbEntity
   8
LEVEL001
 100
AcDbLine
   6
CONTINUOUS
  62
7
  10
 227.99999432266
  20
 96.039182155157
  30
0.0
  11
 241.99998627603
  21
 86.169053817718
  31
0.0
   0
LINE
   5
1B6
 100
AcDbEntity
   8
LEVEL001
 100
AcDbLine
   6
CONTINUOUS
  62
3
  10
 228.38366893281
  20
 99.674500802919
  30
0.0
  11
 228.38366893281
  21
 96.039182155157
  31
0.0
   0
LINE
   5
1B7
 100
AcDbEntity
   8
LEVEL001
 100
AcDbLine
   6
CONTINUOUS
  62
3
  10
 228.38362315644
  20
 87.960820884680
  30
0.0
  11
 228.38362315644
  21
 84.325502236918
  31
0.0
   0
LINE
   5
1B8
 100
AcDbEntity
   8
LEVEL001
 100
AcDbLine
   6
CONTINUOUS
  62
7
  10
 232.00000183284
  20
 100.64350635876
  30
0.0
  11
 232.00000183284
  21
 96.296536883815
  31
0.0
   0
LINE
   5
1B9
 100
AcDbEntity
   8
LEVEL001
 100
AcDbLine
   6
CONTINUOUS
  62
7
  10
 232.00000183284
  20
 87.703466156022
  30
0.0
  11
 232.00000183284
  21
 83.356496681079
  31
0.0
   0
LINE
   5
1BA
 100
AcDbEntity
   8
LEVEL001
 100
AcDbLine
   6
CONTINUOUS
  62
3
  10
 255.49998587370
  20
 79.000005722046
  30
0.0
  11
 266.50000080466
  21
 79.000005722046
  31
0.0
   0
LINE
   5
1BB
 100
AcDbEntity
   8
LEVEL001
 100
AcDbLine
   6
CONTINUOUS
  62
3
  10
 255.49998587370
  20
 80.999998033047
  30
0.0
  11
 266.50000080466
  21
 80.999998033047
  31
0.0
   0
LINE
   5
1BC
 100
AcDbEntity
   8
LEVEL001
 100
AcDbLine
   6
CONTINUOUS
  62
3
  10
 255.49998587370
  20
 83.000001788139
  30
0.0
  11
 266.50000080466
  21
 83.000001788139
  31
0.0
   0
LINE
   5
1BD
 100
AcDbEntity
   8
LEVEL001
 100
AcDbLine
   6
CONTINUOUS
  62
3
  10
 255.49998587370
  20
 85.000005543232
  30
0.0
  11
 266.50000080466
  21
 85.000005543232
  31
0.0
   0
LINE
   5
1BE
 100
AcDbEntity
   8
LEVEL001
 100
AcDbLine
   6
CONTINUOUS
  62
3
  10
 255.49998587370
  20
 86.999997854233
  30
0.0
  11
 266.50000080466
  21
 86.999997854233
  31
0.0
   0
LINE
   5
1BF
 100
AcDbEntity
   8
LEVEL001
 100
AcDbLine
   6
CONTINUOUS
  62
3
  10
 255.49998587370
  20
 89.000001609325
  30
0.0
  11
 266.50000080466
  21
 89.000001609325
  31
0.0
   0
LINE
   5
1C0
 100
AcDbEntity
   8
LEVEL001
 100
AcDbLine
   6
CONTINUOUS
  62
3
  10
 255.49998587370
  20
 91.000005364418
  30
0.0
  11
 266.50000080466
  21
 91.000005364418
  31
0.0
   0
LINE
   5
1C1
 100
AcDbEntity
   8
LEVEL001
 100
AcDbLine
   6
CONTINUOUS
  62
3
  10
 255.49998587370
  20
 92.999997675419
  30
0.0
  11
 266.50000080466
  21
 92.999997675419
  31
0.0
   0
LINE
   5
1C2
 100
AcDbEntity
   8
LEVEL001
 100
AcDbLine
   6
CONTINUOUS
  62
3
  10
 255.49998587370
  20
 95.000001430511
  30
0.0
  11
 266.50000080466
  21
 95.000001430511
  31
0.0
   0
LINE
   5
1C3
 100
AcDbEntity
   8
LEVEL001
 100
AcDbLine
   6
CONTINUOUS
  62
3
  10
 255.49998587370
  20
 97.000005185604
  30
0.0
  11
 266.50000080466
  21
 97.000005185604
  31
0.0
   0
LINE
   5
1C4
 100
AcDbEntity
   8
LEVEL001
 100
AcDbLine
   6
CONTINUOUS
  62
3
  10
 255.49998587370
  20
 98.999997496605
  30
0.0
  11
 266.50000080466
  21
 98.999997496605
  31
0.0
   0
LINE
   5
1C5
 100
AcDbEntity
   8
LEVEL001
 100
AcDbLine
   6
CONTINUOUS
  62
3
  10
 255.49998587370
  20
 101.00000125170
  30
0.0
  11
 266.50000080466
  21
 101.00000125170
  31
0.0
   0
LINE
   5
1C6
 100
AcDbEntity
   8
LEVEL001
 100
AcDbLine
   6
CONTINUOUS
  62
3
  10
 255.49998587370
  20
 103.00000500679
  30
0.0
  11
 266.50000080466
  21
 103.00000500679
  31
0.0
   0
LINE
   5
1C7
 100
AcDbEntity
   8
LEVEL001
 100
AcDbLine
   6
CONTINUOUS
  62
3
  10
 255.49998587370
  20
 104.99999731779
  30
0.0
  11
 266.50000080466
  21
 104.99999731779
  31
0.0
   0
LINE
   5
1C8
 100
AcDbEntity
   8
LEVEL001
 100
AcDbLine
   6
CONTINUOUS
  62
7
  10
 227.99999432266
  20
 87.960820884680
  30
0.0
  11
 227.99999432266
  21
 96.039182155157
  31
0.0
   0
LINE
   5
1C9
 100
AcDbEntity
   8
LEVEL001
 100
AcDbLine
   6
CONTINUOUS
  62
7
  10
 227.99999432266
  20
 96.039182155157
  30
0.0
  11
 232.00000183284
  21
 96.296536883815
  31
0.0
   0
LINE
   5
1CA
 100
AcDbEntity
   8
LEVEL001
 100
AcDbLine
   6
CONTINUOUS
  62
7
  10
 232.00000183284
  20
 96.296536883815
  30
0.0
  11
 233.48352229644
  21
 97.830949222119
  31
0.0
   0
LINE
   5
1CB
 100
AcDbEntity
   8
LEVEL001
 100
AcDbLine
   6
CONTINUOUS
  62
7
  10
 233.48352229644
  20
 97.830949222119
  30
0.0
  11
 241.99998627603
  21
 97.830949222119
  31
0.0
   0
LINE
   5
1CC
 100
AcDbEntity
   8
LEVEL001
 100
AcDbLine
   6
CONTINUOUS
  62
7
  10
 241.99998627603
  20
 97.830949222119
  30
0.0
  11
 241.99998627603
  21
 86.169053817718
  31
0.0
   0
LINE
   5
1CD
 100
AcDbEntity
   8
LEVEL001
 100
AcDbLine
   6
CONTINUOUS
  62
7
  10
 241.99998627603
  20
 86.169053817718
  30
0.0
  11
 233.48352229644
  21
 86.169053817718
  31
0.0
   0
LINE
   5
1CE
 100
AcDbEntity
   8
LEVEL001
 100
AcDbLine
   6
CONTINUOUS
  62
7
  10
 233.48352229644
  20
 86.169053817718
  30
0.0
  11
 232.00000183284
  21
 87.703466156022
  31
0.0
   0
LINE
   5
1CF
 100
AcDbEntity
   8
LEVEL001
 100
AcDbLine
   6
CONTINUOUS
  62
7
  10
 232.00000183284
  20
 87.703466156022
  30
0.0
  11
 227.99999432266
  21
 87.960820884680
  31
0.0
   0
LINE
   5
1D0
 100
AcDbEntity
   8
LEVEL001
 100
AcDbLine
   6
CONTINUOUS
  62
7
  10
 255.49998587370
  20
 77.000001966953
  30
0.0
  11
 255.49998587370
  21
 107.00000107288
  31
0.0
   0
LINE
   5
1D1
 100
AcDbEntity
   8
LEVEL001
 100
AcDbLine
   6
CONTINUOUS
  62
7
  10
 255.49998587370
  20
 107.00000107288
  30
0.0
  11
 266.50000080466
  21
 107.00000107288
  31
0.0
   0
LINE
   5
1D2
 100
AcDbEntity
   8
LEVEL001
 100
AcDbLine
   6
CONTINUOUS
  62
7
  10
 266.50000080466
  20
 107.00000107288
  30
0.0
  11
 266.50000080466
  21
 77.000001966953
  31
0.0
   0
LINE
   5
1D3
 100
AcDbEntity
   8
LEVEL001
 100
AcDbLine
   6
CONTINUOUS
  62
7
  10
 266.50000080466
  20
 77.000001966953
  30
0.0
  11
 255.49998587370
  21
 77.000001966953
  31
0.0
   0
LINE
   5
1D4
 100
AcDbEntity
   8
LEVEL001
 100
AcDbLine
   6
CONTINUOUS
  62
3
  10
 232.00000183284
  20
 300.64353854526
  30
0.0
  11
 228.38366893281
  21
 299.67454443352
  31
0.0
   0
LINE
   5
1D5
 100
AcDbEntity
   8
LEVEL001
 100
AcDbLine
   6
CONTINUOUS
  62
3
  10
 232.00000183284
  20
 283.35650597940
  30
0.0
  11
 228.38362315644
  21
 284.32552297933
  31
0.0
   0
LINE
   5
1D6
 100
AcDbEntity
   8
LEVEL001
 100
AcDbLine
   6
CONTINUOUS
  62
7
  10
 232.00000183284
  20
 300.64353854526
  30
0.0
  11
 233.48352229644
  21
 301.50006012618
  31
0.0
   0
LINE
   5
1D7
 100
AcDbEntity
   8
LEVEL001
 100
AcDbLine
   6
CONTINUOUS
  62
7
  10
 248.99999369681
  20
 301.50001434982
  30
0.0
  11
 233.48352229644
  21
 301.50001434982
  31
0.0
   0
LINE
   5
1D8
 100
AcDbEntity
   8
LEVEL001
 100
AcDbLine
   6
CONTINUOUS
  62
7
  10
 232.00000183284
  20
 283.35650597940
  30
0.0
  11
 233.48352229644
  21
 282.50003017485
  31
0.0
   0
LINE
   5
1D9
 100
AcDbEntity
   8
LEVEL001
 100
AcDbLine
   6
CONTINUOUS
  62
7
  10
 248.99999369681
  20
 282.50003017485
  30
0.0
  11
 233.48352229644
  21
 282.50003017485
  31
0.0
   0
ARC
   5
1DA
 100
AcDbEntity
   8
LEVEL001
   6
CONTINUOUS
  62
7
 100
AcDbCircle
  10
 250.49999365211
  20
 305.00002950430
  30
0.0
  40
 1.4999999552965
 100
AcDbArc
  50
 90.000000000050
  51
 180.00000000000
   0
LINE
   5
1DB
 100
AcDbEntity
   8
LEVEL001
 100
AcDbLine
   6
CONTINUOUS
  62
7
  10
 250.49999365211
  20
 306.50002945959
  30
0.0
  11
 255.49998587370
  21
 306.50002945959
  31
0.0
   0
ARC
   5
1DC
 100
AcDbEntity
   8
LEVEL001
   6
CONTINUOUS
  62
7
 100
AcDbCircle
  10
 250.49999365210
  20
 279.00001502037
  30
0.0
  40
 1.4999999552965
 100
AcDbArc
  50
 180.00000000000
  51
 270.00000000018
   0
LINE
   5
1DD
 100
AcDbEntity
   8
LEVEL001
 100
AcDbLine
   6
CONTINUOUS
  62
7
  10
 248.99999369681
  20
 279.00001502037
  30
0.0
  11
 248.99999369681
  21
 305.00002950430
  31
0.0
   0
LINE
   5
1DE
 100
AcDbEntity
   8
LEVEL001
 100
AcDbLine
   6
CONTINUOUS
  62
7
  10
 250.49999365211
  20
 277.50001506507
  30
0.0
  11
 255.49998587370
  21
 277.50001506507
  31
0.0
   0
ARC
   5
1DF
 100
AcDbEntity
   8
LEVEL001
   6
CONTINUOUS
  62
7
 100
AcDbCircle
  10
 271.49999302626
  20
 305.00002950430
  30
0.0
  40
 1.4999999552965
 100
AcDbArc
  50
0.0
  51
 89.999999999861
   0
LINE
   5
1E0
 100
AcDbEntity
   8
LEVEL001
 100
AcDbLine
   6
CONTINUOUS
  62
7
  10
 266.50000080466
  20
 306.50002945959
  30
0.0
  11
 271.49999302626
  21
 306.50002945959
  31
0.0
   0
ARC
   5
1E1
 100
AcDbEntity
   8
LEVEL001
   6
CONTINUOUS
  62
7
 100
AcDbCircle
  10
 271.49999302626
  20
 279.00001502037
  30
0.0
  40
 1.4999999552965
 100
AcDbArc
  50
 270.00000000000
  51
 0.13678929981703E-9
   0
LINE
   5
1E2
 100
AcDbEntity
   8
LEVEL001
 100
AcDbLine
   6
CONTINUOUS
  62
7
  10
 266.50000080466
  20
 277.50001506507
  30
0.0
  11
 271.49999302626
  21
 277.50001506507
  31
0.0
   0
LINE
   5
1E3
 100
AcDbEntity
   8
LEVEL001
 100
AcDbLine
   6
CONTINUOUS
  62
7
  10
 272.99999298155
  20
 305.00002950430
  30
0.0
  11
 272.99999298155
  21
 279.00001502037
  31
0.0
   0
ARC
   5
1E4
 100
AcDbEntity
   8
LEVEL001
   6
DASHDOT
  62
1
 100
AcDbCircle
  10
 282.00000031306
  20
 305.00001421573
  30
0.0
  40
 1.0000000000000
 100
AcDbArc
  50
 0.87597030200692E-3
  51
 90.000435431868
   0
LINE
   5
1E5
 100
AcDbEntity
   8
LEVEL001
 100
AcDbLine
   6
DASHDOT
  62
1
  10
 274.00000058115
  20
 306.00001421571
  30
0.0
  11
 281.99999271333
  21
 306.00001421571
  31
0.0
   0
ARC
   5
1E6
 100
AcDbEntity
   8
LEVEL001
   6
DASHDOT
  62
1
 100
AcDbCircle
  10
 282.00000031304
  20
 279.00003030894
  30
0.0
  40
 1.0000000000000
 100
AcDbArc
  50
 269.99956456876
  51
0.0
   0
LINE
   5
1E7
 100
AcDbEntity
   8
LEVEL001
 100
AcDbLine
   6
DASHDOT
  62
1
  10
 274.00000058115
  20
 278.00003030896
  30
0.0
  11
 281.99999271333
  21
 278.00003030896
  31
0.0
   0
LINE
   5
1E8
 100
AcDbEntity
   8
LEVEL001
 100
AcDbLine
   6
DASHDOT
  62
1
  10
 283.00000031292
  20
 305.00002950430
  30
0.0
  11
 283.00000031292
  21
 279.00001502037
  31
0.0
   0
CIRCLE
   5
1E9
 100
AcDbEntity
   8
LEVEL001
 100
AcDbCircle
   6
DASHDOT
  62
1
  10
 286.00000022352
  20
 292.00002226233
  30
0.0
  40
 1.4999999552965
   0
ARC
   5
1EA
 100
AcDbEntity
   8
LEVEL001
   6
DASHDOT
  62
1
 100
AcDbCircle
  10
 273.99999298144
  20
 279.00003030894
  30
0.0
  40
 1.0000000000000
 100
AcDbArc
  50
 180.00087597026
  51
 270.00043543122
   0
ARC
   5
1EB
 100
AcDbEntity
   8
LEVEL001
   6
DASHDOT
  62
1
 100
AcDbCircle
  10
 273.99999298144
  20
 305.00001421574
  30
0.0
  40
 1.0000000000000
 100
AcDbArc
  50
 89.999564568679
  51
 179.99912403026
   0
ARC
   5
1EC
 100
AcDbEntity
   8
LEVEL001
   6
DASHDOT
  62
1
 100
AcDbCircle
  10
 285.00000031287
  20
 297.50001452862
  30
0.0
  40
 2.0000000000000
 100
AcDbArc
  50
 179.99956457503
  51
 269.99977972813
   0
ARC
   5
1ED
 100
AcDbEntity
   8
LEVEL001
   6
DASHDOT
  62
1
 100
AcDbCircle
  10
 285.00000031287
  20
 286.50002999605
  30
0.0
  40
 2.0000000000000
 100
AcDbArc
  50
 90.000220272018
  51
 180.00043542517
   0
LINE
   5
1EE
 100
AcDbEntity
   8
LEVEL001
 100
AcDbLine
   6
DASHDOT
  62
1
  10
 284.99999262393
  20
 295.50001452863
  30
0.0
  11
 285.49998497963
  21
 295.50001452863
  31
0.0
   0
LINE
   5
1EF
 100
AcDbEntity
   8
LEVEL001
 100
AcDbLine
   6
DASHDOT
  62
1
  10
 284.99999262393
  20
 288.50002999604
  30
0.0
  11
 285.49998497963
  21
 288.50002999604
  31
0.0
   0
ARC
   5
1F0
 100
AcDbEntity
   8
LEVEL001
   6
DASHDOT
  62
1
 100
AcDbCircle
  10
 285.49256375097
  20
 292.00002226233
  30
0.0
  40
 3.5000001341104
 100
AcDbArc
  50
 270.12148725237
  51
 89.878512747640
   0
LINE
   5
1F1
 100
AcDbEntity
   8
LEVEL001
 100
AcDbLine
   6
CONTINUOUS
  62
7
  10
 233.48352229644
  20
 282.50003017485
  30
0.0
  11
 233.48352229644
  21
 286.16907456013
  31
0.0
   0
LINE
   5
1F2
 100
AcDbEntity
   8
LEVEL001
 100
AcDbLine
   6
CONTINUOUS
  62
7
  10
 233.48352229644
  20
 297.83096996453
  30
0.0
  11
 233.48352229644
  21
 301.50003723800
  31
0.0
   0
LINE
   5
1F3
 100
AcDbEntity
   8
LEVEL001
 100
AcDbLine
   6
CONTINUOUS
  62
7
  10
 227.99999432266
  20
 287.96083018300
  30
0.0
  11
 241.99998627603
  21
 297.83096996453
  31
0.0
   0
LINE
   5
1F4
 100
AcDbEntity
   8
LEVEL001
 100
AcDbLine
   6
CONTINUOUS
  62
7
  10
 227.99999432266
  20
 296.03921434166
  30
0.0
  11
 241.99998627603
  21
 286.16907456013
  31
0.0
   0
LINE
   5
1F5
 100
AcDbEntity
   8
LEVEL001
 100
AcDbLine
   6
CONTINUOUS
  62
3
  10
 228.38366893281
  20
 299.67452154533
  30
0.0
  11
 228.38366893281
  21
 296.03921434166
  31
0.0
   0
LINE
   5
1F6
 100
AcDbEntity
   8
LEVEL001
 100
AcDbLine
   6
CONTINUOUS
  62
3
  10
 228.38362315644
  20
 287.96083018300
  30
0.0
  11
 228.38362315644
  21
 284.32552297933
  31
0.0
   0
LINE
   5
1F7
 100
AcDbEntity
   8
LEVEL001
 100
AcDbLine
   6
CONTINUOUS
  62
7
  10
 232.00000183284
  20
 300.64353854526
  30
0.0
  11
 232.00000183284
  21
 296.29656907032
  31
0.0
   0
LINE
   5
1F8
 100
AcDbEntity
   8
LEVEL001
 100
AcDbLine
   6
CONTINUOUS
  62
7
  10
 232.00000183284
  20
 287.70347545435
  30
0.0
  11
 232.00000183284
  21
 283.35650597940
  31
0.0
   0
LINE
   5
1F9
 100
AcDbEntity
   8
LEVEL001
 100
AcDbLine
   6
CONTINUOUS
  62
3
  10
 255.49998587370
  20
 279.00001502037
  30
0.0
  11
 266.50000080466
  21
 279.00001502037
  31
0.0
   0
LINE
   5
1FA
 100
AcDbEntity
   8
LEVEL001
 100
AcDbLine
   6
CONTINUOUS
  62
3
  10
 255.49998587370
  20
 281.00003021955
  30
0.0
  11
 266.50000080466
  21
 281.00003021955
  31
0.0
   0
LINE
   5
1FB
 100
AcDbEntity
   8
LEVEL001
 100
AcDbLine
   6
CONTINUOUS
  62
3
  10
 255.49998587370
  20
 283.00002253056
  30
0.0
  11
 266.50000080466
  21
 283.00002253056
  31
0.0
   0
LINE
   5
1FC
 100
AcDbEntity
   8
LEVEL001
 100
AcDbLine
   6
CONTINUOUS
  62
3
  10
 255.49998587370
  20
 285.00001484156
  30
0.0
  11
 266.50000080466
  21
 285.00001484156
  31
0.0
   0
LINE
   5
1FD
 100
AcDbEntity
   8
LEVEL001
 100
AcDbLine
   6
CONTINUOUS
  62
3
  10
 255.49998587370
  20
 287.00003004074
  30
0.0
  11
 266.50000080466
  21
 287.00003004074
  31
0.0
   0
LINE
   5
1FE
 100
AcDbEntity
   8
LEVEL001
 100
AcDbLine
   6
CONTINUOUS
  62
3
  10
 255.49998587370
  20
 289.00002235174
  30
0.0
  11
 266.50000080466
  21
 289.00002235174
  31
0.0
   0
LINE
   5
1FF
 100
AcDbEntity
   8
LEVEL001
 100
AcDbLine
   6
CONTINUOUS
  62
3
  10
 255.49998587370
  20
 291.00001466274
  30
0.0
  11
 266.50000080466
  21
 291.00001466274
  31
0.0
   0
LINE
   5
200
 100
AcDbEntity
   8
LEVEL001
 100
AcDbLine
   6
CONTINUOUS
  62
3
  10
 255.49998587370
  20
 293.00002986193
  30
0.0
  11
 266.50000080466
  21
 293.00002986193
  31
0.0
   0
LINE
   5
201
 100
AcDbEntity
   8
LEVEL001
 100
AcDbLine
   6
CONTINUOUS
  62
3
  10
 255.49998587370
  20
 295.00002217293
  30
0.0
  11
 266.50000080466
  21
 295.00002217293
  31
0.0
   0
LINE
   5
202
 100
AcDbEntity
   8
LEVEL001
 100
AcDbLine
   6
CONTINUOUS
  62
3
  10
 255.49998587370
  20
 297.00001448393
  30
0.0
  11
 266.50000080466
  21
 297.00001448393
  31
0.0
   0
LINE
   5
203
 100
AcDbEntity
   8
LEVEL001
 100
AcDbLine
   6
CONTINUOUS
  62
3
  10
 255.49998587370
  20
 299.00002968311
  30
0.0
  11
 266.50000080466
  21
 299.00002968311
  31
0.0
   0
LINE
   5
204
 100
AcDbEntity
   8
LEVEL001
 100
AcDbLine
   6
CONTINUOUS
  62
3
  10
 255.49998587370
  20
 301.00002199411
  30
0.0
  11
 266.50000080466
  21
 301.00002199411
  31
0.0
   0
LINE
   5
205
 100
AcDbEntity
   8
LEVEL001
 100
AcDbLine
   6
CONTINUOUS
  62
3
  10
 255.49998587370
  20
 303.00001430511
  30
0.0
  11
 266.50000080466
  21
 303.00001430511
  31
0.0
   0
LINE
   5
206
 100
AcDbEntity
   8
LEVEL001
 100
AcDbLine
   6
CONTINUOUS
  62
3
  10
 255.49998587370
  20
 305.00002950430
  30
0.0
  11
 266.50000080466
  21
 305.00002950430
  31
0.0
   0
LINE
   5
207
 100
AcDbEntity
   8
LEVEL001
 100
AcDbLine
   6
CONTINUOUS
  62
7
  10
 227.99999432266
  20
 287.96083018300
  30
0.0
  11
 227.99999432266
  21
 296.03921434166
  31
0.0
   0
LINE
   5
208
 100
AcDbEntity
   8
LEVEL001
 100
AcDbLine
   6
CONTINUOUS
  62
7
  10
 227.99999432266
  20
 296.03921434166
  30
0.0
  11
 232.00000183284
  21
 296.29656907032
  31
0.0
   0
LINE
   5
209
 100
AcDbEntity
   8
LEVEL001
 100
AcDbLine
   6
CONTINUOUS
  62
7
  10
 232.00000183284
  20
 296.29656907032
  30
0.0
  11
 233.48352229644
  21
 297.83096996453
  31
0.0
   0
LINE
   5
20A
 100
AcDbEntity
   8
LEVEL001
 100
AcDbLine
   6
CONTINUOUS
  62
7
  10
 233.48352229644
  20
 297.83096996453
  30
0.0
  11
 241.99998627603
  21
 297.83096996453
  31
0.0
   0
LINE
   5
20B
 100
AcDbEntity
   8
LEVEL001
 100
AcDbLine
   6
CONTINUOUS
  62
7
  10
 241.99998627603
  20
 297.83096996453
  30
0.0
  11
 241.99998627603
  21
 286.16907456013
  31
0.0
   0
LINE
   5
20C
 100
AcDbEntity
   8
LEVEL001
 100
AcDbLine
   6
CONTINUOUS
  62
7
  10
 241.99998627603
  20
 286.16907456013
  30
0.0
  11
 233.48352229644
  21
 286.16907456013
  31
0.0
   0
LINE
   5
20D
 100
AcDbEntity
   8
LEVEL001
 100
AcDbLine
   6
CONTINUOUS
  62
7
  10
 233.48352229644
  20
 286.16907456013
  30
0.0
  11
 232.00000183284
  21
 287.70347545435
  31
0.0
   0
LINE
   5
20E
 100
AcDbEntity
   8
LEVEL001
 100
AcDbLine
   6
CONTINUOUS
  62
7
  10
 232.00000183284
  20
 287.70347545435
  30
0.0
  11
 227.99999432266
  21
 287.96083018300
  31
0.0
   0
LINE
   5
20F
 100
AcDbEntity
   8
LEVEL001
 100
AcDbLine
   6
CONTINUOUS
  62
7
  10
 255.49998587370
  20
 277.00002270937
  30
0.0
  11
 255.49998587370
  21
 307.00002181530
  31
0.0
   0
LINE
   5
210
 100
AcDbEntity
   8
LEVEL001
 100
AcDbLine
   6
CONTINUOUS
  62
7
  10
 255.49998587370
  20
 307.00002181530
  30
0.0
  11
 266.50000080466
  21
 307.00002181530
  31
0.0
   0
LINE
   5
211
 100
AcDbEntity
   8
LEVEL001
 100
AcDbLine
   6
CONTINUOUS
  62
7
  10
 266.50000080466
  20
 307.00002181530
  30
0.0
  11
 266.50000080466
  21
 277.00002270937
  31
0.0
   0
LINE
   5
212
 100
AcDbEntity
   8
LEVEL001
 100
AcDbLine
   6
CONTINUOUS
  62
7
  10
 266.50000080466
  20
 277.00002270937
  30
0.0
  11
 255.49998587370
  21
 277.00002270937
  31
0.0
   0
LINE
   5
213
 100
AcDbEntity
   8
LEVEL001
 100
AcDbLine
   6
DASHDOT
  62
1
  10
 292.00000004470
  20
 292.00002226233
  30
0.0
  11
 206.75001021475
  21
 292.00002226233
  31
0.0
   0
LINE
   5
214
 100
AcDbEntity
   8
LEVEL001
 100
AcDbLine
   6
DASHDOT
  62
1
  10
 292.00000004470
  20
 92.000001519918
  30
0.0
  11
 194.06320486774
  21
 92.000001519918
  31
0.0
   0
DIMENSION
   5
215
 100
AcDbEntity
   8
LEVEL003
   6
CONTINUOUS
  62
3
 100
AcDbDimension
   2
*D6
  10
 307.49999195337
  20
 59.999998658896
  30
0.0
  11
 307.49999195337
  21
 76.000005811453
  31
0.0
  70
128
   1
\A1;32
   3
GMM006
 100
AcDbAlignedDimension
  13
 292.00000004470
  23
 92.000001519918
  33
0.0
  14
 307.49999195337
  24
 59.999998658896
  34
0.0
  50
 270.00000000000
 100
AcDbRotatedDimension
   0
DIMENSION
   5
217
 100
AcDbEntity
   8
LEVEL003
   6
CONTINUOUS
  62
3
 100
AcDbDimension
   2
*D7
  10
 307.49999195337
  20
 357.00003558397
  30
0.0
  11
 307.49999195337
  21
 324.50002892315
  31
0.0
  70
128
   1
\A1;65
   3
GMM005
 100
AcDbAlignedDimension
  13
 292.00000004470
  23
 292.00002226233
  33
0.0
  14
 217.49999463558
  24
 357.00003558397
  34
0.0
  50
 90.000000000000
 100
AcDbRotatedDimension
   0
DIMENSION
   5
219
 100
AcDbEntity
   8
LEVEL003
   6
CONTINUOUS
  62
3
 100
AcDbDimension
   2
*D8
  10
 307.49999195337
  20
 357.00003558397
  30
0.0
  11
 307.49999195337
  21
 363.50005064905
  31
0.0
  70
128
   1
\A1;13
   3
GMM005
 100
AcDbAlignedDimension
  13
 194.99999530613
  23
 370.00001993775
  33
0.0
  14
 217.49999463558
  24
 357.00003558397
  34
0.0
  50
 270.00000000000
 100
AcDbRotatedDimension
   0
DIMENSION
   5
21B
 100
AcDbEntity
   8
LEVEL003
   6
CONTINUOUS
  62
3
 100
AcDbDimension
   2
*D9
  10
 292.49999240041
  20
 317.00002914667
  30
0.0
  11
 292.49999240041
  21
 337.00002092123
  31
0.0
  70
128
   1
\A1;40
   3
GMM005
 100
AcDbAlignedDimension
  13
 217.49999463558
  23
 357.00003558397
  33
0.0
  14
 223.00000210106
  24
 317.00002914667
  34
0.0
  50
 270.00000000000
 100
AcDbRotatedDimension
   0
DIMENSION
   5
21D
 100
AcDbEntity
   8
LEVEL003
   6
CONTINUOUS
  62
3
 100
AcDbDimension
   2
*D10
  10
 292.49999240041
  20
 359.62130473193
  30
0.0
  11
 292.49999240041
  21
 364.81067377893
  31
0.0
  70
128
   1
\A1;10
   3
GMM005
 100
AcDbAlignedDimension
  13
 194.99999530613
  23
 370.00001993775
  33
0.0
  14
 197.84467600749
  24
 359.62130473193
  34
0.0
  50
 270.00000000000
 100
AcDbRotatedDimension
   0
DIMENSION
   5
21F
 100
AcDbEntity
   8
LEVEL003
   6
CONTINUOUS
  62
3
 100
AcDbDimension
   2
*D11
  10
 277.49999284744
  20
 352.00002047419
  30
0.0
  11
 277.49999284744
  21
 344.31039358003
  31
0.0
  70
128
   1
\A1;5
   3
GMM005
 100
AcDbAlignedDimension
  13
 217.49999463558
  23
 357.00003558397
  33
0.0
  14
 223.00000210106
  24
 352.00002047419
  34
0.0
  50
 270.00000000000
 100
AcDbRotatedDimension
   0
LEADER
   5
221
 100
AcDbEntity
   8
LEVEL003
   6
CONTINUOUS
  62
3
 100
AcDbLeader
   3
GMM007
  73
0
  74
1
  75
0
  40
 6.0000000000000
  41
0.0
  76
3
  10
 119.00000138581
  20
 59.999998658896
  30
0.0
  10
 104.99999798834
  20
 37.499999329448
  30
0.0
  10
 52.499999552965
  20
 37.499999329448
  30
0.0
  77
3
   0
TEXT
   5
222
 100
AcDbEntity
   8
LEVEL003
  62
3
 100
AcDbText
  10
 52.499999552965
  20
 37.499999329448
  30
0.0
  40
 5.9999998211861
   1
４－Ｍ１０
   7
STANDARD
 100
AcDbText
   0
TEXT
   5
223
 100
AcDbEntity
   8
LEVEL003
  62
3
 100
AcDbText
  10
 52.499999552965
  20
 29.499999567866
  30
0.0
  40
 5.9999998211861
   1
タップ　１５
   7
STANDARD
 100
AcDbText
   0
TEXT
   5
224
 100
AcDbEntity
   8
LEVEL003
  62
3
 100
AcDbText
  10
 52.499999552965
  20
 21.499999806285
  30
0.0
  40
 5.9999998211861
   1
ポートに対し４５%%d振り
   7
STANDARD
 100
AcDbText
   0
TEXT
   5
225
 100
AcDbEntity
   8
LEVEL003
  62
3
 100
AcDbText
  10
 239.99999396503
  20
 67.499998435378
  30
0.0
  40
 5.9999998211861
   1
２―ＮＰＴ３／８
   7
STANDARD
 100
AcDbText
   0
LEADER
   5
226
 100
AcDbEntity
   8
LEVEL003
   6
CONTINUOUS
  62
3
 100
AcDbLeader
   3
GMM001
  73
0
  74
1
  75
0
  40
 6.0000000000000
  41
0.0
  76
3
  10
 225.20527852460
  20
 83.478319034627
  30
0.0
  10
 239.99999396503
  20
 67.499998435378
  30
0.0
  10
 284.99999262393
  20
 67.499998435378
  30
0.0
  77
3
   0
DIMENSION
   5
227
 100
AcDbEntity
   8
LEVEL003
   6
CONTINUOUS
  62
3
 100
AcDbDimension
   2
*D14
  10
 322.49999150634
  20
 59.999998658896
  30
0.0
  11
 322.49999150634
  21
 215.00000929832
  31
0.0
  70
128
   1
\A1;310
   3
GMM008
 100
AcDbAlignedDimension
  13
 194.99999530613
  23
 370.00001993775
  33
0.0
  14
 220.00000219047
  24
 59.999998658896
  34
0.0
  50
 270.00000000000
 100
AcDbRotatedDimension
   0
LINE
   5
229
 100
AcDbEntity
   8
LEVEL001
 100
AcDbLine
   6
DASHDOT
  62
1
  10
 164.99999620020
  20
 377.50001971424
  30
0.0
  11
 164.99999620020
  21
 300.00000000000
  31
0.0
   0
LINE
   5
22A
 100
AcDbEntity
   8
LEVEL001
 100
AcDbLine
   6
CONTINUOUS
  62
7
  10
 224.99999441206
  20
 131.99999651313
  30
0.0
  11
 244.00000147521
  21
 131.99999651313
  31
0.0
   0
LINE
   5
22B
 100
AcDbEntity
   8
LEVEL001
 100
AcDbLine
   6
CONTINUOUS
  62
7
  10
 224.99999441206
  20
 118.00000455976
  30
0.0
  11
 244.00000147521
  21
 118.00000455976
  31
0.0
   0
LINE
   5
22C
 100
AcDbEntity
   8
LEVEL001
 100
AcDbLine
   6
CONTINUOUS
  62
7
  10
 224.99999441206
  20
 131.99999651313
  30
0.0
  11
 224.99999441206
  21
 118.00000455976
  31
0.0
   0
LINE
   5
22D
 100
AcDbEntity
   8
LEVEL001
 100
AcDbLine
   6
CONTINUOUS
  62
7
  10
 224.99999441206
  20
 266.00000777841
  30
0.0
  11
 224.99999441206
  21
 251.99999293685
  31
0.0
   0
LINE
   5
22E
 100
AcDbEntity
   8
LEVEL001
 100
AcDbLine
   6
CONTINUOUS
  62
7
  10
 244.00000147521
  20
 251.99999293685
  30
0.0
  11
 224.99999441206
  21
 251.99999293685
  31
0.0
   0
LINE
   5
22F
 100
AcDbEntity
   8
LEVEL001
 100
AcDbLine
   6
CONTINUOUS
  62
7
  10
 244.00000147521
  20
 266.00000777841
  30
0.0
  11
 224.99999441206
  21
 266.00000777841
  31
0.0
   0
LINE
   5
230
 100
AcDbEntity
   8
LEVEL001
 100
AcDbLine
   6
CONTINUOUS
  62
7
  10
 232.00000183284
  20
 283.35650597940
  30
0.0
  11
 221.99999390502
  21
 283.66902503165
  31
0.0
   0
LINE
   5
231
 100
AcDbEntity
   8
LEVEL001
 100
AcDbLine
   6
CONTINUOUS
  62
7
  10
 232.00000183284
  20
 300.64353854526
  30
0.0
  11
 221.99999461962
  21
 300.33101951535
  31
0.0
   0
LINE
   5
232
 100
AcDbEntity
   8
LEVEL001
 100
AcDbLine
   6
CONTINUOUS
  62
3
  10
 228.38362315644
  20
 284.32552297933
  30
0.0
  11
 221.99999450147
  21
 284.52502771034
  31
0.0
   0
LINE
   5
233
 100
AcDbEntity
   8
LEVEL001
 100
AcDbLine
   6
CONTINUOUS
  62
3
  10
 228.38366893281
  20
 299.67452154533
  30
0.0
  11
 221.99999450147
  21
 299.47503737395
  31
0.0
   0
LINE
   5
234
 100
AcDbEntity
   8
LEVEL001
 100
AcDbLine
   6
CONTINUOUS
  62
7
  10
 222.00000210106
  20
 61.999996691942
  30
0.0
  11
 219.99999834597
  21
 59.999998658896
  31
0.0
   0
LINE
   5
235
 100
AcDbEntity
   8
LEVEL001
 100
AcDbLine
   6
CONTINUOUS
  62
7
  10
 222.00000210106
  20
 61.999996691942
  30
0.0
  11
 165.00000379980
  21
 61.999996691942
  31
0.0
   0
LINE
   5
236
 100
AcDbEntity
   8
LEVEL001
 100
AcDbLine
   6
CONTINUOUS
  62
7
  10
 221.99999450147
  20
 61.999996691942
  30
0.0
  11
 221.99999450147
  21
 307.00002181530
  31
0.0
   0
LINE
   5
237
 100
AcDbEntity
   8
LEVEL001
 100
AcDbLine
   6
CONTINUOUS
  62
7
  10
 232.00000183284
  20
 83.356496681079
  30
0.0
  11
 221.99999450147
  21
 83.669009028638
  31
0.0
   0
LINE
   5
238
 100
AcDbEntity
   8
LEVEL001
 100
AcDbLine
   6
CONTINUOUS
  62
3
  10
 228.38362315644
  20
 84.325502236918
  30
0.0
  11
 221.99999450147
  21
 84.525006967928
  31
0.0
   0
LINE
   5
239
 100
AcDbEntity
   8
LEVEL001
 100
AcDbLine
   6
CONTINUOUS
  62
3
  10
 228.38366893281
  20
 99.674500802919
  30
0.0
  11
 221.99999450147
  21
 99.474995897964
  31
0.0
   0
LINE
   5
23A
 100
AcDbEntity
   8
LEVEL001
 100
AcDbLine
   6
CONTINUOUS
  62
7
  10
 232.00000183284
  20
 100.64350635876
  30
0.0
  11
 221.99999450147
  21
 100.33099401120
  31
0.0
   0
LINE
   5
23B
 100
AcDbEntity
   8
LEVEL001
 100
AcDbLine
   6
DOT
  62
3
  10
 198.49998757243
  20
 357.00003558397
  30
0.0
  11
 198.49998757243
  21
 150.00000742078
  31
0.0
   0
LINE
   5
23C
 100
AcDbEntity
   8
LEVEL001
 100
AcDbLine
   6
DOT
  62
3
  10
 181.49999570847
  20
 65.999992758036
  30
0.0
  11
 182.33921382310
  21
 61.803885018710
  31
0.0
   0
LINE
   5
23D
 100
AcDbEntity
   8
LEVEL001
 100
AcDbLine
   6
DOT
  62
3
  10
 182.50001475215
  20
 291.00003755093
  30
0.0
  11
 181.49999570847
  21
 285.99997666478
  31
0.0
   0
LINE
   5
23E
 100
AcDbEntity
   8
LEVEL001
 100
AcDbLine
   6
DOT
  62
3
  10
 186.49998793006
  20
 290.99999177456
  30
0.0
  11
 187.49999552965
  21
 285.99997666478
  31
0.0
   0
LINE
   5
23F
 100
AcDbEntity
   8
LEVEL001
 100
AcDbLine
   6
DOT
  62
3
  10
 186.49998793006
  20
 290.99999177456
  30
0.0
  11
 182.50001475215
  21
 290.99999177456
  31
0.0
   0
LINE
   5
240
 100
AcDbEntity
   8
LEVEL001
 100
AcDbLine
   6
DOT
  62
3
  10
 181.49999570847
  20
 285.99997666478
  30
0.0
  11
 181.49999570847
  21
 65.999992758036
  31
0.0
   0
LINE
   5
241
 100
AcDbEntity
   8
LEVEL001
 100
AcDbLine
   6
DOT
  62
3
  10
 209.99999485910
  20
 99.999993652106
  30
0.0
  11
 209.99999485910
  21
 317.00002914667
  31
0.0
   0
LINE
   5
242
 100
AcDbEntity
   8
LEVEL001
 100
AcDbLine
   6
DOT
  62
3
  10
 188.99999548495
  20
 330.00003638863
  30
0.0
  11
 188.00001077354
  21
 326.26802661216
  31
0.0
   0
LINE
   5
243
 100
AcDbEntity
   8
LEVEL001
 100
AcDbLine
   6
DOT
  62
3
  10
 188.99999548495
  20
 357.00001269579
  30
0.0
  11
 188.99999548495
  21
 335.75002858788
  31
0.0
   0
LINE
   5
244
 100
AcDbEntity
   8
LEVEL001
 100
AcDbLine
   6
DOT
  62
3
  10
 188.99999548495
  20
 360.00003549456
  30
0.0
  11
 188.99999548495
  21
 357.00001269579
  31
0.0
   0
LINE
   5
245
 100
AcDbEntity
   8
LEVEL001
 100
AcDbLine
   6
DOT
  62
3
  10
 188.99999548495
  20
 335.75002858788
  30
0.0
  11
 188.99999548495
  21
 330.00003638863
  31
0.0
   0
LINE
   5
246
 100
AcDbEntity
   8
LEVEL001
 100
AcDbLine
   6
DOT
  62
3
  10
 188.99999548495
  20
 330.00003638863
  30
0.0
  11
 188.24998406321
  21
 330.00003638863
  31
0.0
   0
LINE
   5
247
 100
AcDbEntity
   8
LEVEL001
 100
AcDbLine
   6
DOT
  62
3
  10
 188.24998406321
  20
 330.00003638863
  30
0.0
  11
 188.00001077354
  21
 330.00003638863
  31
0.0
   0
LINE
   5
248
 100
AcDbEntity
   8
LEVEL001
 100
AcDbLine
   6
DOT
  62
3
  10
 181.49999570847
  20
 365.00005060434
  30
0.0
  11
 181.49999570847
  21
 340.00002083182
  31
0.0
   0
ARC
   5
249
 100
AcDbEntity
   8
LEVEL001
   6
DOT
  62
3
 100
AcDbCircle
  10
 183.31981636606
  20
 336.00002861022
  30
0.0
  40
 1.0000000000000
 100
AcDbArc
  50
 191.31023073998
  51
 269.99976380030
   0
LINE
   5
24A
 100
AcDbEntity
   8
LEVEL001
 100
AcDbLine
   6
DOT
  62
3
  10
 181.49999570847
  20
 340.00002083182
  30
0.0
  11
 182.33923671129
  21
 335.80390737045
  31
0.0
   0
ARC
   5
24B
 100
AcDbEntity
   8
LEVEL001
   6
DOT
  62
3
 100
AcDbCircle
  10
 183.31981636604
  20
 369.00001993777
  30
0.0
  40
 1.0000000000000
 100
AcDbArc
  50
 90.000236199132
  51
 168.68976926037
   0
LINE
   5
24C
 100
AcDbEntity
   8
LEVEL001
 100
AcDbLine
   6
DOT
  62
3
  10
 182.33923671129
  20
 369.19614117753
  30
0.0
  11
 181.49999570847
  21
 365.00005060434
  31
0.0
   0
ARC
   5
24D
 100
AcDbEntity
   8
LEVEL001
   6
DOT
  62
3
 100
AcDbCircle
  10
 188.99999548496
  20
 357.75001267344
  30
0.0
  40
 0.74999997764826
 100
AcDbArc
  50
 180.00000000000
  51
 269.99999999903
   0
ARC
   5
24E
 100
AcDbEntity
   8
LEVEL001
   6
DOT
  62
3
 100
AcDbCircle
  10
 188.99999548495
  20
 359.25008129328
  30
0.0
  40
 0.74999997764826
 100
AcDbArc
  50
 90.000000000000
  51
 180.00000000003
   0
LINE
   5
24F
 100
AcDbEntity
   8
LEVEL001
 100
AcDbLine
   6
DOT
  62
3
  10
 188.24999550730
  20
 357.75001267344
  30
0.0
  11
 188.24999550730
  21
 359.25008129328
  31
0.0
   0
LINE
   5
250
 100
AcDbEntity
   8
LEVEL001
 100
AcDbLine
   6
DOT
  62
3
  10
 188.24999550730
  20
 335.00002861023
  30
0.0
  11
 188.99999548495
  21
 335.75002858788
  31
0.0
   0
LINE
   5
251
 100
AcDbEntity
   8
LEVEL001
 100
AcDbLine
   6
DOT
  62
3
  10
 188.99999548495
  20
 360.00003549456
  30
0.0
  11
 188.24999550730
  21
 359.25003551692
  31
0.0
   0
LINE
   5
252
 100
AcDbEntity
   8
LEVEL001
 100
AcDbLine
   6
DOT
  62
3
  10
 188.24999550730
  20
 359.25003551692
  30
0.0
  11
 188.24999550730
  21
 330.00003638863
  31
0.0
   0
LINE
   5
253
 100
AcDbEntity
   8
LEVEL001
 100
AcDbLine
   6
DOT
  62
3
  10
 183.31981224359
  20
 335.00002861023
  30
0.0
  11
 188.24999550730
  21
 335.00002861023
  31
0.0
   0
DIMENSION
   5
254
 100
AcDbEntity
   8
LEVEL003
   6
CONTINUOUS
  62
3
 100
AcDbDimension
   2
*D15
  10
 172.50000000000
  20
 330.00003638863
  30
0.0
  11
 172.50000000000
  21
 345.00003594160
  31
0.0
  70
128
   1
\A1;30
   3
GMM005
 100
AcDbAlignedDimension
  13
 188.99999548495
  23
 360.00003549456
  33
0.0
  14
 188.00001077354
  24
 330.00003638863
  34
0.0
  50
 270.00000000000
 100
AcDbRotatedDimension
   0
LINE
   5
256
 100
AcDbEntity
   8
LEVEL001
 100
AcDbLine
   6
DASHDOT
  62
1
  10
 218.50000223517
  20
 352.00002047419
  30
0.0
  11
 223.00000210106
  21
 352.00002047419
  31
0.0
   0
LINE
   5
257
 100
AcDbEntity
   8
LEVEL001
 100
AcDbLine
   6
DASHDOT
  62
1
  10
 223.00000210106
  20
 352.00002047419
  30
0.0
  11
 223.00000210106
  21
 317.00002914667
  31
0.0
   0
LINE
   5
258
 100
AcDbEntity
   8
LEVEL001
 100
AcDbLine
   6
DASHDOT
  62
1
  10
 223.00000210106
  20
 317.00002914667
  30
0.0
  11
 220.00000219047
  21
 317.00002914667
  31
0.0
   0
LINE
   5
259
 100
AcDbEntity
   8
LEVEL001
 100
AcDbLine
   6
CONTINUOUS
  62
7
  10
 195.99999906123
  20
 368.99998944998
  30
0.0
  11
 165.00000379980
  21
 368.99998944998
  31
0.0
   0
LINE
   5
25A
 100
AcDbEntity
   8
LEVEL001
 100
AcDbLine
   6
CONTINUOUS
  62
7
  10
 165.00000379980
  20
 360.00003549456
  30
0.0
  11
 197.35961434663
  21
 360.00003549456
  31
0.0
   0
LINE
   5
25B
 100
AcDbEntity
   8
LEVEL001
 100
AcDbLine
   6
CONTINUOUS
  62
7
  10
 165.00000379980
  20
 357.00003558397
  30
0.0
  11
 217.50000223517
  21
 357.00003558397
  31
0.0
   0
LINE
   5
25C
 100
AcDbEntity
   8
LEVEL001
 100
AcDbLine
   6
CONTINUOUS
  62
7
  10
 218.50000983477
  20
 356.00002798438
  30
0.0
  11
 165.00000379980
  21
 356.00002798438
  31
0.0
   0
LINE
   5
25D
 100
AcDbEntity
   8
LEVEL001
 100
AcDbLine
   6
CONTINUOUS
  62
3
  10
 111.00000540912
  20
 317.00002914667
  30
0.0
  11
 109.99999780953
  21
 313.26797359383
  31
0.0
   0
LINE
   5
25E
 100
AcDbEntity
   8
LEVEL001
 100
AcDbLine
   6
CONTINUOUS
  62
3
  10
 111.00000540912
  20
 351.50002811849
  30
0.0
  11
 111.00000540912
  21
 317.00002914667
  31
0.0
   0
LINE
   5
25F
 100
AcDbEntity
   8
LEVEL001
 100
AcDbLine
   6
CONTINUOUS
  62
3
  10
 111.00000540912
  20
 317.00002914667
  30
0.0
  11
 109.99999780953
  21
 317.00002914667
  31
0.0
   0
LINE
   5
260
 100
AcDbEntity
   8
LEVEL001
 100
AcDbLine
   6
CONTINUOUS
  62
7
  10
 111.49999776483
  20
 352.00002047419
  30
0.0
  11
 109.99999780953
  21
 350.50002051890
  31
0.0
   0
LINE
   5
261
 100
AcDbEntity
   8
LEVEL001
 100
AcDbLine
   6
CONTINUOUS
  62
7
  10
 109.99999780953
  20
 350.50002051890
  30
0.0
  11
 109.99999780953
  21
 312.00003692508
  31
0.0
   0
LINE
   5
262
 100
AcDbEntity
   8
LEVEL001
 100
AcDbLine
   6
DASHDOT
  62
1
  10
 111.49999776483
  20
 352.00002047419
  30
0.0
  11
 106.99999789894
  21
 352.00002047419
  31
0.0
   0
LINE
   5
263
 100
AcDbEntity
   8
LEVEL001
 100
AcDbLine
   6
DASHDOT
  62
1
  10
 106.99999789894
  20
 352.00002047419
  30
0.0
  11
 106.99999789894
  21
 317.00002914667
  31
0.0
   0
LINE
   5
264
 100
AcDbEntity
   8
LEVEL001
 100
AcDbLine
   6
DASHDOT
  62
1
  10
 106.99999789894
  20
 317.00002914667
  30
0.0
  11
 109.99999780953
  21
 317.00002914667
  31
0.0
   0
LINE
   5
265
 100
AcDbEntity
   8
LEVEL001
 100
AcDbLine
   6
CONTINUOUS
  62
7
  10
 220.00000979006
  20
 313.26797359383
  30
0.0
  11
 165.00000379980
  21
 313.26797359383
  31
0.0
   0
LINE
   5
266
 100
AcDbEntity
   8
LEVEL001
 100
AcDbLine
   6
CONTINUOUS
  62
7
  10
 165.00000379980
  20
 312.00003692508
  30
0.0
  11
 220.00000979006
  21
 312.00003692508
  31
0.0
   0
LINE
   5
267
 100
AcDbEntity
   8
LEVEL001
 100
AcDbLine
   6
CONTINUOUS
  62
7
  10
 222.00000210106
  20
 307.00002181530
  30
0.0
  11
 165.00000379980
  21
 307.00002181530
  31
0.0
   0
LINE
   5
268
 100
AcDbEntity
   8
LEVEL001
 100
AcDbLine
   6
DOT
  62
3
  10
 131.50001242757
  20
 357.00003558397
  30
0.0
  11
 131.50001242757
  21
 150.00000742078
  31
0.0
   0
LINE
   5
269
 100
AcDbEntity
   8
LEVEL001
 100
AcDbLine
   6
DOT
  62
3
  10
 141.00000451505
  20
 357.00001269579
  30
0.0
  11
 141.00000451505
  21
 335.75002858788
  31
0.0
   0
LINE
   5
26A
 100
AcDbEntity
   8
LEVEL001
 100
AcDbLine
   6
DOT
  62
3
  10
 141.00000451505
  20
 335.75002858788
  30
0.0
  11
 141.00000451505
  21
 330.00003638863
  31
0.0
   0
LINE
   5
26B
 100
AcDbEntity
   8
LEVEL001
 100
AcDbLine
   6
DOT
  62
3
  10
 141.00000451505
  20
 330.00003638863
  30
0.0
  11
 141.75001593679
  21
 330.00003638863
  31
0.0
   0
LINE
   5
26C
 100
AcDbEntity
   8
LEVEL001
 100
AcDbLine
   6
DOT
  62
3
  10
 148.50000429153
  20
 365.00005060434
  30
0.0
  11
 148.50000429153
  21
 340.00002083182
  31
0.0
   0
ARC
   5
26D
 100
AcDbEntity
   8
LEVEL001
   6
DOT
  62
3
 100
AcDbCircle
  10
 146.68018363397
  20
 336.00002861022
  30
0.0
  40
 1.0000000000000
 100
AcDbArc
  50
 270.00023619885
  51
 348.68976925995
   0
LINE
   5
26E
 100
AcDbEntity
   8
LEVEL001
 100
AcDbLine
   6
DOT
  62
3
  10
 148.50000429153
  20
 340.00002083182
  30
0.0
  11
 147.66076328871
  21
 335.80390737045
  31
0.0
   0
LINE
   5
26F
 100
AcDbEntity
   8
LEVEL001
 100
AcDbLine
   6
DOT
  62
3
  10
 141.75000449270
  20
 335.00002861023
  30
0.0
  11
 141.00000451505
  21
 335.75002858788
  31
0.0
   0
LINE
   5
270
 100
AcDbEntity
   8
LEVEL001
 100
AcDbLine
   6
DOT
  62
3
  10
 141.00000451505
  20
 360.00003549456
  30
0.0
  11
 141.75000449270
  21
 359.25003551692
  31
0.0
   0
LINE
   5
271
 100
AcDbEntity
   8
LEVEL001
 100
AcDbLine
   6
DOT
  62
3
  10
 141.75000449270
  20
 359.25003551692
  30
0.0
  11
 141.75000449270
  21
 330.00003638863
  31
0.0
   0
LINE
   5
272
 100
AcDbEntity
   8
LEVEL001
 100
AcDbLine
   6
DOT
  62
3
  10
 146.68018775641
  20
 335.00002861023
  30
0.0
  11
 141.75000449270
  21
 335.00002861023
  31
0.0
   0
LINE
   5
273
 100
AcDbEntity
   8
LEVEL001
 100
AcDbLine
   6
DOT
  62
3
  10
 141.00000451505
  20
 360.00003549456
  30
0.0
  11
 141.00000451505
  21
 357.00001269579
  31
0.0
   0
ARC
   5
274
 100
AcDbEntity
   8
LEVEL001
   6
DOT
  62
3
 100
AcDbCircle
  10
 141.00000451504
  20
 357.75001267342
  30
0.0
  40
 0.74999997764826
 100
AcDbArc
  50
 270.00000000066
  51
 0.87718852581074E-9
   0
ARC
   5
275
 100
AcDbEntity
   8
LEVEL001
   6
DOT
  62
3
 100
AcDbCircle
  10
 141.00000451505
  20
 359.25008129329
  30
0.0
  40
 0.74999997764826
 100
AcDbArc
  50
0.0
  51
 90.000000000469
   0
LINE
   5
276
 100
AcDbEntity
   8
LEVEL001
 100
AcDbLine
   6
DOT
  62
3
  10
 141.75000449270
  20
 357.75001267344
  30
0.0
  11
 141.75000449270
  21
 359.25008129328
  31
0.0
   0
ARC
   5
277
 100
AcDbEntity
   8
LEVEL001
   6
DOT
  62
3
 100
AcDbCircle
  10
 146.68018363397
  20
 369.00001993776
  30
0.0
  40
 1.0000000000000
 100
AcDbArc
  50
 11.310230740330
  51
 89.999763801181
   0
LINE
   5
278
 100
AcDbEntity
   8
LEVEL001
 100
AcDbLine
   6
DOT
  62
3
  10
 147.66076328871
  20
 369.19614117753
  30
0.0
  11
 148.50000429153
  21
 365.00005060434
  31
0.0
   0
LINE
   5
279
 100
AcDbEntity
   8
LEVEL001
 100
AcDbLine
   6
DOT
  62
3
  10
 141.00000451505
  20
 330.00003638863
  30
0.0
  11
 141.99998922646
  21
 326.26802661216
  31
0.0
   0
LINE
   5
27A
 100
AcDbEntity
   8
LEVEL001
 100
AcDbLine
   6
DOT
  62
3
  10
 147.49998524785
  20
 291.00003755093
  30
0.0
  11
 148.50000429153
  21
 285.99997666478
  31
0.0
   0
LINE
   5
27B
 100
AcDbEntity
   8
LEVEL001
 100
AcDbLine
   6
DOT
  62
3
  10
 143.50001206994
  20
 290.99999177456
  30
0.0
  11
 142.50000447035
  21
 285.99997666478
  31
0.0
   0
LINE
   5
27C
 100
AcDbEntity
   8
LEVEL001
 100
AcDbLine
   6
DOT
  62
3
  10
 143.50001206994
  20
 290.99999177456
  30
0.0
  11
 147.49998524785
  21
 290.99999177456
  31
0.0
   0
LINE
   5
27D
 100
AcDbEntity
   8
LEVEL001
 100
AcDbLine
   6
DOT
  62
3
  10
 148.50000429153
  20
 285.99997666478
  30
0.0
  11
 148.50000429153
  21
 65.999992758036
  31
0.0
   0
LINE
   5
27E
 100
AcDbEntity
   8
LEVEL001
 100
AcDbLine
   6
DOT
  62
3
  10
 120.00000514090
  20
 99.999993652106
  30
0.0
  11
 120.00000514090
  21
 317.00002914667
  31
0.0
   0
LINE
   5
27F
 100
AcDbEntity
   8
LEVEL001
 100
AcDbLine
   6
DOT
  62
3
  10
 148.50000429153
  20
 65.999992758036
  30
0.0
  11
 147.66078617690
  21
 61.803885018710
  31
0.0
   0
LINE
   5
280
 100
AcDbEntity
   8
LEVEL001
 100
AcDbLine
   6
DASHDOT
  62
1
  10
 210.99999861419
  20
 56.999998748302
  30
0.0
  11
 210.99999861419
  21
 83.252767436124
  31
0.0
   0
LINE
   5
281
 100
AcDbEntity
   8
LEVEL001
 100
AcDbLine
   6
CONTINUOUS
  62
7
  10
 111.49999776483
  20
 352.00002047419
  30
0.0
  11
 164.99999620020
  21
 352.00002047419
  31
0.0
   0
LINE
   5
282
 100
AcDbEntity
   8
LEVEL001
 100
AcDbLine
   6
CONTINUOUS
  62
7
  10
 218.50000223517
  20
 352.00002047419
  30
0.0
  11
 164.99999620020
  21
 352.00002047419
  31
0.0
   0
LINE
   5
283
 100
AcDbEntity
   8
LEVEL001
 100
AcDbLine
   6
DOT
  62
3
  10
 187.49999552965
  20
 285.99997666478
  30
0.0
  11
 187.49999552965
  21
 65.999992758036
  31
0.0
   0
LINE
   5
284
 100
AcDbEntity
   8
LEVEL001
 100
AcDbLine
   6
DOT
  62
3
  10
 142.50000447035
  20
 285.99997666478
  30
0.0
  11
 142.50000447035
  21
 65.999992758036
  31
0.0
   0
LINE
   5
285
 100
AcDbEntity
   8
LEVEL001
 100
AcDbLine
   6
DOT
  62
3
  10
 141.99998922646
  20
 290.99999177456
  30
0.0
  11
 141.99998922646
  21
 330.00003638863
  31
0.0
   0
LINE
   5
286
 100
AcDbEntity
   8
LEVEL001
 100
AcDbLine
   6
DOT
  62
3
  10
 188.00001077354
  20
 290.99999177456
  30
0.0
  11
 188.00001077354
  21
 330.00003638863
  31
0.0
   0
DIMENSION
   5
287
 100
AcDbEntity
   8
LEVEL003
   6
CONTINUOUS
  62
3
 100
AcDbDimension
   2
*D16
  10
 181.49999570847
  20
 45.000000000000
  30
0.0
  11
 165.00000000000
  21
 45.000000000000
  31
0.0
  70
0
   1
\A1;%%c33
   3
GMM009
 100
AcDbAlignedDimension
  13
 148.50000429153
  23
 65.999992758036
  33
0.0
  14
 181.49999570847
  24
 65.999992758036
  34
0.0
 100
AcDbRotatedDimension
   0
LINE
   5
289
 100
AcDbEntity
   8
LEVEL003
 100
AcDbLine
   6
CONTINUOUS
  62
3
  10
 119.00000138581
  20
 55.499998748302
  30
0.0
  11
 119.00000138581
  21
 27.000000000000
  31
0.0
   0
LINE
   5
28A
 100
AcDbEntity
   8
LEVEL003
 100
AcDbLine
   6
CONTINUOUS
  62
3
  10
 119.00000138581
  20
 30.000000000000
  30
0.0
  11
 165.00000000000
  21
 30.000000000000
  31
0.0
   0
LINE
   5
28B
 100
AcDbEntity
   8
LEVEL003
 100
AcDbLine
   6
CONTINUOUS
  62
3
  10
 123.50000138581
  20
 29.250000000000
  30
0.0
  11
 119.00000138581
  21
 30.000000000000
  31
0.0
   0
LINE
   5
28C
 100
AcDbEntity
   8
LEVEL003
 100
AcDbLine
   6
CONTINUOUS
  62
3
  10
 119.00000138581
  20
 30.000000000000
  30
0.0
  11
 123.50000138581
  21
 30.750000000000
  31
0.0
   0
LINE
   5
28D
 100
AcDbEntity
   8
LEVEL003
 100
AcDbLine
   6
CONTINUOUS
  62
3
  10
 119.00000138581
  20
 30.000000000000
  30
0.0
  11
 123.50000138581
  21
 30.000000000000
  31
0.0
   0
MTEXT
   5
28E
 100
AcDbEntity
   8
LEVEL003
  62
3
 100
AcDbMText
  10
 157.50000000000
  20
 31.200000000000
  30
0.0
  40
 6.0000000000000
  41
0.0
  71
8
  72
1
   1
%%c\Ftxt.shx;92
   7
GMM002
   0
DIMENSION
   5
28F
 100
AcDbEntity
   8
LEVEL003
   6
CONTINUOUS
  62
3
 100
AcDbDimension
   2
*D17
  10
 209.99999485910
  20
 180.00000000000
  30
0.0
  11
 165.00000000000
  21
 180.00000000000
  31
0.0
  70
0
   1
\A1;%%c90
   3
GMM010
 100
AcDbAlignedDimension
  13
 120.00000514090
  23
 180.00000000000
  33
0.0
  14
 209.99999485910
  24
 180.00000000000
  34
0.0
 100
AcDbRotatedDimension
   0
DIMENSION
   5
291
 100
AcDbEntity
   8
LEVEL003
   6
CONTINUOUS
  62
3
 100
AcDbDimension
   2
*D18
  10
 198.49998757243
  20
 195.00000000000
  30
0.0
  11
 165.00000000000
  21
 195.00000000000
  31
0.0
  70
0
   1
\A1;%%c67
   3
GMM010
 100
AcDbAlignedDimension
  13
 131.50001242757
  23
 195.00000000000
  33
0.0
  14
 198.49998757243
  24
 195.00000000000
  34
0.0
 100
AcDbRotatedDimension
   0
DIMENSION
   5
293
 100
AcDbEntity
   8
LEVEL003
   6
CONTINUOUS
  62
3
 100
AcDbDimension
   2
*D19
  10
 187.49999552965
  20
 210.00000000000
  30
0.0
  11
 165.00000000000
  21
 210.00000000000
  31
0.0
  70
0
   1
\A1;%%c45
   3
GMM010
 100
AcDbAlignedDimension
  13
 142.50000447035
  23
 210.00000000000
  33
0.0
  14
 187.49999552965
  24
 210.00000000000
  34
0.0
 100
AcDbRotatedDimension
   0
DIMENSION
   5
295
 100
AcDbEntity
   8
LEVEL003
   6
CONTINUOUS
  62
3
 100
AcDbDimension
   2
*D20
  10
 181.49999570847
  20
 382.50000000000
  30
0.0
  11
 165.00000000000
  21
 382.50000000000
  31
0.0
  70
0
   1
\A1;%%c33
   3
GMM009
 100
AcDbAlignedDimension
  13
 148.50000429153
  23
 365.00005060434
  33
0.0
  14
 181.49999570847
  24
 365.00005060434
  34
0.0
 100
AcDbRotatedDimension
   0
LEADER
   5
297
 100
AcDbEntity
   8
LEVEL003
   6
CONTINUOUS
  62
3
 100
AcDbLeader
   3
GMM011
  73
0
  74
1
  75
0
  40
 6.0000000000000
  41
0.0
  76
3
  10
 188.99999548495
  20
 345.00000000000
  30
0.0
  10
 224.99999307096
  20
 397.49998882413
  30
0.0
  10
 262.49999195337
  20
 397.49998882413
  30
0.0
  77
3
   0
TEXT
   5
298
 100
AcDbEntity
   8
LEVEL003
  62
3
 100
AcDbText
  10
 224.99999307096
  20
 397.49998882413
  30
0.0
  40
 5.9999998211861
   1
Ｍ４８×１.５
   7
STANDARD
 100
AcDbText
   0
TEXT
   5
299
 100
AcDbEntity
   8
LEVEL003
  62
7
 100
AcDbText
  10
 461.34274129353
  20
 28.566981592040
  30
0.0
  40
 10.000000000000
   1
ＯＳＡＫＡ ＪＡＣＫ
   7
STANDARD
 100
AcDbText
   0
TEXT
   5
29A
 100
AcDbEntity
   8
LEVEL003
  62
7
 100
AcDbText
  10
 464.25374129353
  20
 45.460381592040
  30
0.0
  40
 6.0000000000000
   1
Model : ＥＣ３０Ｈ１５
   7
STANDARD
 100
AcDbText
   0
CIRCLE
   5
29B
 100
AcDbEntity
   8
LEVEL003
 100
AcDbCircle
   6
CONTINUOUS
  62
7
  10
 443.07699606214
  20
 35.632044085191
  30
0.0
  40
 3.0000000000000
   0
LINE
   5
29C
 100
AcDbEntity
   8
LEVEL003
 100
AcDbLine
   6
CONTINUOUS
  62
7
  10
 448.96499606214
  20
 38.632044085191
  30
0.0
  11
 445.15599606214
  21
 32.032044085191
  31
0.0
   0
LINE
   5
29D
 100
AcDbEntity
   8
LEVEL003
 100
AcDbLine
   6
CONTINUOUS
  62
7
  10
 445.15599606214
  20
 32.032044085191
  30
0.0
  11
 437.53499606214
  21
 32.032044085191
  31
0.0
   0
LINE
   5
29E
 100
AcDbEntity
   8
LEVEL003
 100
AcDbLine
   6
CONTINUOUS
  62
7
  10
 436.66799606214
  20
 30.532044085191
  30
0.0
  11
 450.28899606214
  21
 30.532044085191
  31
0.0
   0
LINE
   5
29F
 100
AcDbEntity
   8
LEVEL003
 100
AcDbLine
   6
CONTINUOUS
  62
7
  10
 450.28899606214
  20
 30.532044085191
  30
0.0
  11
 454.96499606214
  21
 38.632044085191
  31
0.0
   0
LINE
   5
2A0
 100
AcDbEntity
   8
LEVEL003
 100
AcDbLine
   6
CONTINUOUS
  62
7
  10
 454.96499606214
  20
 38.632044085191
  30
0.0
  11
 448.96499606214
  21
 38.632044085191
  31
0.0
   0
LINE
   5
2A1
 100
AcDbEntity
   8
LEVEL003
 100
AcDbLine
   6
CONTINUOUS
  62
7
  10
 437.53499606214
  20
 32.032044085191
  30
0.0
  11
 436.66799606214
  21
 30.532044085191
  31
0.0
   0
ENDSEC
  0
SECTION
  2
OBJECTS
  0
DICTIONARY
  5
C
100
AcDbDictionary
  3
ACAD_GROUP
350
D
  3
ACAD_MLINESTYLE
350
1B
  0
DICTIONARY
  5
D
102
{ACAD_REACTORS
330
C
102
}
100
AcDbDictionary
  0
DICTIONARY
  5
1B
102
{ACAD_REACTORS
330
C
102
}
100
AcDbDictionary
  3
STANDARD
350
1C
  0
MLINESTYLE
  5
1C
102
{ACAD_REACTORS
330
1B
102
}
100
AcDbMlineStyle
  2
STANDARD
 70
     0
  3

 62
   256
 51
90.0
 52
90.0
 71
     2
 49
0.5
 62
   256
  6
BYLAYER
 49
-0.5
 62
   256
  6
BYLAYER
  0
ENDSEC
   0
EOF
