   0
SECTION
   2
HEADER
   9
$ACADVER
   1
AC1014
   9
$LIMMIN
  10
0.0
  20
0.0
   9
$LIMMAX
  10
 630.00000000000
  20
 446.00000000000
   9
$EXTMIN
  10
0.0
  20
0.0
  30
0.0
   9
$EXTMAX
  10
 630.00000000000
  20
 446.00000000000
  30
0.0
   9
$LTSCALE
  40
 12.600000000000
   9
$HANDSEED
   5
2B1
   0
ENDSEC
   0
SECTION
   2
TABLES
  0
TABLE
  2
VPORT
  5
8
100
AcDbSymbolTable
 70
     1
  0
VPORT
  5
2B0
100
AcDbSymbolTableRecord
100
AcDbViewportTableRecord
  2
*ACTIVE
 70
     0
 10
0.0
 20
0.0
 11
1.0
 21
1.0
  12
 315.00000000000
  22
 223.00000000000
 13
0.0
 23
0.0
 14
1.0
 24
1.0
 15
0.0
 25
0.0
 16
0.0
 26
0.0
 36
1.0
 17
0.0
 27
0.0
 37
0.0
  40
 630.00000000000
  41
 1.4787878787879
 42
50.0
 43
0.0
 44
0.0
 50
0.0
 51
0.0
 71
     0
 72
   100
 73
     1
 74
     1
 75
     0
 76
     0
 77
     0
 78
     0
  0
ENDTAB
  0
TABLE
  2
LTYPE
  5
5
100
AcDbSymbolTable
 70
    25
  0
LTYPE
  5
12
100
AcDbSymbolTableRecord
100
AcDbLinetypeTableRecord
  2
BYBLOCK
 70
     0
  3

 72
    65
 73
     0
 40
0.0
  0
LTYPE
  5
13
100
AcDbSymbolTableRecord
100
AcDbLinetypeTableRecord
  2
BYLAYER
 70
     0
  3

 72
    65
 73
     0
 40
0.0
  0
LTYPE
  5
14
100
AcDbSymbolTableRecord
100
AcDbLinetypeTableRecord
  2
CONTINUOUS
 70
     0
  3
Solid line
 72
    65
 73
     0
 40
0.0
  0
LTYPE
  5
20
100
AcDbSymbolTableRecord
100
AcDbLinetypeTableRecord
  2
BORDER
 70
     0
  3
__ __ . __ __ . __ __ . __ __ . __ __ . __ __ .
 72
    65
 73
     6
 40
1.75
 49
0.5
 74
     0
 49
-0.25
 74
     0
 49
0.5
 74
     0
 49
-0.25
 74
     0
 49
0.0
 74
     0
 49
-0.25
 74
     0
  0
LTYPE
  5
21
100
AcDbSymbolTableRecord
100
AcDbLinetypeTableRecord
  2
BORDER2
 70
     0
  3
__.__.__.__.__.__.__.__.__.__.__.__.__.__.__.__
 72
    65
 73
     6
 40
0.875
 49
0.25
 74
     0
 49
-0.125
 74
     0
 49
0.25
 74
     0
 49
-0.125
 74
     0
 49
0.0
 74
     0
 49
-0.125
 74
     0
  0
LTYPE
  5
22
100
AcDbSymbolTableRecord
100
AcDbLinetypeTableRecord
  2
BORDERX2
 70
     0
  3
____  ____  .  ____  ____  .  ____  ____  .  __
 72
    65
 73
     6
 40
3.5
 49
1.0
 74
     0
 49
-0.5
 74
     0
 49
1.0
 74
     0
 49
-0.5
 74
     0
 49
0.0
 74
     0
 49
-0.5
 74
     0
  0
LTYPE
  5
23
100
AcDbSymbolTableRecord
100
AcDbLinetypeTableRecord
  2
CENTER
 70
     0
  3
____ _ ____ _ ____ _ ____ _ ____ _ ____ _ ____ 
 72
    65
 73
     4
 40
2.0
 49
1.25
 74
     0
 49
-0.25
 74
     0
 49
0.25
 74
     0
 49
-0.25
 74
     0
  0
LTYPE
  5
24
100
AcDbSymbolTableRecord
100
AcDbLinetypeTableRecord
  2
CENTER2
 70
     0
  3
___ _ ___ _ ___ _ ___ _ ___ _ ___ _ ___ _ ___ _
 72
    65
 73
     4
 40
1.125
 49
0.75
 74
     0
 49
-0.125
 74
     0
 49
0.125
 74
     0
 49
-0.125
 74
     0
  0
LTYPE
  5
25
100
AcDbSymbolTableRecord
100
AcDbLinetypeTableRecord
  2
CENTERX2
 70
     0
  3
________  __  ________  __  ________  __  _____
 72
    65
 73
     4
 40
4.0
 49
2.5
 74
     0
 49
-0.5
 74
     0
 49
0.5
 74
     0
 49
-0.5
 74
     0
  0
LTYPE
  5
26
100
AcDbSymbolTableRecord
100
AcDbLinetypeTableRecord
  2
DASHDOT
 70
     0
  3
__ . __ . __ . __ . __ . __ . __ . __ . __ . __
 72
    65
 73
     4
 40
1.0
 49
0.5
 74
     0
 49
-0.25
 74
     0
 49
0.0
 74
     0
 49
-0.25
 74
     0
  0
LTYPE
  5
27
100
AcDbSymbolTableRecord
100
AcDbLinetypeTableRecord
  2
DASHDOT2
 70
     0
  3
_._._._._._._._._._._._._._._._._._._._._._._._
 72
    65
 73
     4
 40
0.5
 49
0.25
 74
     0
 49
-0.125
 74
     0
 49
0.0
 74
     0
 49
-0.125
 74
     0
  0
LTYPE
  5
28
100
AcDbSymbolTableRecord
100
AcDbLinetypeTableRecord
  2
DASHDOTX2
 70
     0
  3
____  .  ____  .  ____  .  ____  .  ____  .  __
 72
    65
 73
     4
 40
2.0
 49
1.0
 74
     0
 49
-0.5
 74
     0
 49
0.0
 74
     0
 49
-0.5
 74
     0
  0
LTYPE
  5
29
100
AcDbSymbolTableRecord
100
AcDbLinetypeTableRecord
  2
DASHED
 70
     0
  3
__ __ __ __ __ __ __ __ __ __ __ __ __ __ __ __
 72
    65
 73
     2
 40
0.75
 49
0.5
 74
     0
 49
-0.25
 74
     0
  0
LTYPE
  5
2A
100
AcDbSymbolTableRecord
100
AcDbLinetypeTableRecord
  2
DASHED2
 70
     0
  3
_ _ _ _ _ _ _ _ _ _ _ _ _ _ _ _ _ _ _ _ _ _ _ _
 72
    65
 73
     2
 40
0.375
 49
0.25
 74
     0
 49
-0.125
 74
     0
  0
LTYPE
  5
2B
100
AcDbSymbolTableRecord
100
AcDbLinetypeTableRecord
  2
DASHEDX2
 70
     0
  3
____  ____  ____  ____  ____  ____  ____  ____ 
 72
    65
 73
     2
 40
1.5
 49
1.0
 74
     0
 49
-0.5
 74
     0
  0
LTYPE
  5
2C
100
AcDbSymbolTableRecord
100
AcDbLinetypeTableRecord
  2
DIVIDE
 70
     0
  3
____ . . ____ . . ____ . . ____ . . ____ . . __
 72
    65
 73
     6
 40
1.25
 49
0.5
 74
     0
 49
-0.25
 74
     0
 49
0.0
 74
     0
 49
-0.25
 74
     0
 49
0.0
 74
     0
 49
-0.25
 74
     0
  0
LTYPE
  5
2D
100
AcDbSymbolTableRecord
100
AcDbLinetypeTableRecord
  2
DIVIDE2
 70
     0
  3
__..__..__..__..__..__..__..__..__..__..__..__.
 72
    65
 73
     6
 40
0.625
 49
0.25
 74
     0
 49
-0.125
 74
     0
 49
0.0
 74
     0
 49
-0.125
 74
     0
 49
0.0
 74
     0
 49
-0.125
 74
     0
  0
LTYPE
  5
2E
100
AcDbSymbolTableRecord
100
AcDbLinetypeTableRecord
  2
DIVIDEX2
 70
     0
  3
________  .  .  ________  .  .  ________  .  . 
 72
    65
 73
     6
 40
2.5
 49
1.0
 74
     0
 49
-0.5
 74
     0
 49
0.0
 74
     0
 49
-0.5
 74
     0
 49
0.0
 74
     0
 49
-0.5
 74
     0
  0
LTYPE
  5
2F
100
AcDbSymbolTableRecord
100
AcDbLinetypeTableRecord
  2
DOT
 70
     0
  3
. . . . . . . . . . . . . . . . . . . . . . . .
 72
    65
 73
     2
 40
0.25
 49
0.0
 74
     0
 49
-0.25
 74
     0
  0
LTYPE
  5
30
100
AcDbSymbolTableRecord
100
AcDbLinetypeTableRecord
  2
DOT2
 70
     0
  3
...............................................
 72
    65
 73
     2
 40
0.125
 49
0.0
 74
     0
 49
-0.125
 74
     0
  0
LTYPE
  5
31
100
AcDbSymbolTableRecord
100
AcDbLinetypeTableRecord
  2
DOTX2
 70
     0
  3
.  .  .  .  .  .  .  .  .  .  .  .  .  .  .  . 
 72
    65
 73
     2
 40
0.5
 49
0.0
 74
     0
 49
-0.5
 74
     0
  0
LTYPE
  5
32
100
AcDbSymbolTableRecord
100
AcDbLinetypeTableRecord
  2
HIDDEN
 70
     0
  3
__ __ __ __ __ __ __ __ __ __ __ __ __ __ __ __
 72
    65
 73
     2
 40
0.375
 49
0.25
 74
     0
 49
-0.125
 74
     0
  0
LTYPE
  5
33
100
AcDbSymbolTableRecord
100
AcDbLinetypeTableRecord
  2
HIDDEN2
 70
     0
  3
_ _ _ _ _ _ _ _ _ _ _ _ _ _ _ _ _ _ _ _ _ _ _ _
 72
    65
 73
     2
 40
0.1875
 49
0.125
 74
     0
 49
-0.0625
 74
     0
  0
LTYPE
  5
34
100
AcDbSymbolTableRecord
100
AcDbLinetypeTableRecord
  2
HIDDENX2
 70
     0
  3
____ ____ ____ ____ ____ ____ ____ ____ ____ __
 72
    65
 73
     2
 40
0.75
 49
0.5
 74
     0
 49
-0.25
 74
     0
  0
LTYPE
  5
35
100
AcDbSymbolTableRecord
100
AcDbLinetypeTableRecord
  2
PHANTOM
 70
     0
  3
______  __  __  ______  __  __  ______  __  __ 
 72
    65
 73
     6
 40
2.5
 49
1.25
 74
     0
 49
-0.25
 74
     0
 49
0.25
 74
     0
 49
-0.25
 74
     0
 49
0.25
 74
     0
 49
-0.25
 74
     0
  0
LTYPE
  5
36
100
AcDbSymbolTableRecord
100
AcDbLinetypeTableRecord
  2
PHANTOM2
 70
     0
  3
___ _ _ ___ _ _ ___ _ _ ___ _ _ ___ _ _ ___ _ _
 72
    65
 73
     6
 40
1.25
 49
0.625
 74
     0
 49
-0.125
 74
     0
 49
0.125
 74
     0
 49
-0.125
 74
     0
 49
0.125
 74
     0
 49
-0.125
 74
     0
  0
LTYPE
  5
37
100
AcDbSymbolTableRecord
100
AcDbLinetypeTableRecord
  2
PHANTOMX2
 70
     0
  3
____________    ____    ____    ____________   
 72
    65
 73
     6
 40
5.0
 49
2.5
 74
     0
 49
-0.5
 74
     0
 49
0.5
 74
     0
 49
-0.5
 74
     0
 49
0.5
 74
     0
 49
-0.5
 74
     0
  0
ENDTAB
   0
TABLE
   2
LAYER
   5
2
 100
AcDbSymbolTable
  70
6
   0
LAYER
   5
E
 100
AcDbSymbolTableRecord
 100
AcDbLayerTableRecord
   2
0
  70
0
  62
7
   6
CONTINUOUS
   0
LAYER
   5
39
 100
AcDbSymbolTableRecord
 100
AcDbLayerTableRecord
   2
LEVEL001
  70
0
  62
7
   6
CONTINUOUS
   0
LAYER
   5
3A
 100
AcDbSymbolTableRecord
 100
AcDbLayerTableRecord
   2
LEVEL003
  70
0
  62
7
   6
CONTINUOUS
   0
LAYER
   5
3B
 100
AcDbSymbolTableRecord
 100
AcDbLayerTableRecord
   2
LEVEL020
  70
0
  62
7
   6
CONTINUOUS
   0
LAYER
   5
3C
 100
AcDbSymbolTableRecord
 100
AcDbLayerTableRecord
   2
LEVEL050
  70
0
  62
7
   6
CONTINUOUS
   0
LAYER
   5
3D
 100
AcDbSymbolTableRecord
 100
AcDbLayerTableRecord
   2
LEVEL110
  70
0
  62
7
   6
CONTINUOUS
   0
ENDTAB
  0
TABLE
  2
STYLE
  5
3
100
AcDbSymbolTable
  70
3
  0
STYLE
  5
F
100
AcDbSymbolTableRecord
100
AcDbTextStyleTableRecord
  2
STANDARD
 70
     0
 40
0.0
 41
1.0
 50
0.0
 71
     0
 42
0.2
  3
TXT
  4
BIGFONT
  0
STYLE
  5
38
100
AcDbSymbolTableRecord
100
AcDbTextStyleTableRecord
  2
STANDARD1
 70
     4
 40
0.0
 41
1.0
 50
0.0
 71
     0
 42
0.2
  3
TXT
  4
BIGFONT
   0
STYLE
   5
3E
 100
AcDbSymbolTableRecord
 100
AcDbTextStyleTableRecord
   2
GMM001
  70
0
  40
0.0
  41
 1.0000000000000
  50
0.0
  71
     0
  42
1.0
   3
txt.shx
   4
bigfont.shx
   0
ENDTAB
  0
TABLE
  2
VIEW
  5
6
100
AcDbSymbolTable
 70
     0
  0
ENDTAB
  0
TABLE
  2
UCS
  5
7
100
AcDbSymbolTable
 70
     0
  0
ENDTAB
  0
TABLE
  2
APPID
  5
9
100
AcDbSymbolTable
 70
     1
  0
APPID
  5
10
100
AcDbSymbolTableRecord
100
AcDbRegAppTableRecord
  2
ACAD
 70
     0
  0
ENDTAB
   0
TABLE
   2
DIMSTYLE
   5
A
 100
AcDbSymbolTable
  70
12
  0
DIMSTYLE
105
1D
100
AcDbSymbolTableRecord
100
AcDbDimStyleTableRecord
  2
STANDARD
 70
     0
  3

  4

  5

  6

  7

 40
1.0
 41
0.18
 42
0.0625
 43
0.38
 44
0.18
 45
0.0
 46
0.0
 47
0.0
 48
0.0
140
0.18
141
0.09
142
0.0
143
25.4
144
1.0
145
0.0
146
1.0
147
0.09
 71
     0
 72
     0
 73
     1
 74
     1
 75
     0
 76
     0
 77
     0
 78
     0
170
     0
171
     2
172
     0
173
     0
174
     0
175
     0
176
     0
177
     0
178
     0
270
     2
271
     4
272
     4
273
     2
274
     2
340
F
275
     0
280
     0
281
     0
282
     0
283
     1
284
     0
285
     0
286
     0
287
     3
288
     0
   0
DIMSTYLE
 105
3F
 100
AcDbSymbolTableRecord
 100
AcDbDimStyleTableRecord
   2
GMM001
  70
0
   3

   4

   5

   6
_OPEN
   7
_OPEN
  40
 1.0000000000000
  41
 4.5000000000000
  42
 1.5000000000000
  43
 0.10000000000000E-5
  44
 3.0000000000000
  45
0.0
  46
0.0
  47
0.0
  48
0.0
 140
 6.0000000000000
 141
 1.5000000000000
 142
0.0
 143
 0.39400000000000E-1
 144
 1.0000000000000
 145
0.0
 146
 0.62500000000000
 147
0.0
  71
0
  72
0
  73
0
  74
0
  75
0
  76
0
  77
1
  78
0
 170
0
 171
2
 172
1
 173
1
 174
0
 175
0
 176
3
 177
3
 178
7
 270
2
 271
0
 272
0
 273
2
 274
2
 340
F
 275
1
 280
0
 281
0
 282
0
 283
1
 284
0
 285
0
 286
0
 287
3
 288
1
   0
DIMSTYLE
 105
40
 100
AcDbSymbolTableRecord
 100
AcDbDimStyleTableRecord
   2
GMM002
  70
0
   3

   4

   5

   6
_OPEN
   7
_OPEN
  40
 1.0000000000000
  41
 4.5000000000000
  42
 1.5000000000000
  43
 0.10000000000000E-5
  44
 3.0000000000000
  45
0.0
  46
0.0
  47
0.0
  48
0.0
 140
 6.0000000000000
 141
 1.5000000000000
 142
0.0
 143
 0.39400000000000E-1
 144
 1.0000000000000
 145
0.0
 146
 0.62500000000000
 147
 1.2000045418738
  71
0
  72
0
  73
0
  74
0
  75
0
  76
0
  77
3
  78
0
 170
0
 171
2
 172
1
 173
1
 174
0
 175
0
 176
3
 177
3
 178
3
 270
2
 271
0
 272
0
 273
2
 274
2
 340
3E
 275
1
 280
0
 281
0
 282
0
 283
1
 284
0
 285
0
 286
0
 287
3
 288
1
   0
DIMSTYLE
 105
41
 100
AcDbSymbolTableRecord
 100
AcDbDimStyleTableRecord
   2
GMM003
  70
0
   3

   4

   5

   6
_OPEN
   7
_OPEN
  40
 1.0000000000000
  41
 4.5000000000000
  42
 1.5000000000000
  43
 0.10000000000000E-5
  44
 3.0000000000000
  45
0.0
  46
0.0
  47
0.0
  48
0.0
 140
 6.0000000000000
 141
 1.5000000000000
 142
0.0
 143
 0.39400000000000E-1
 144
 1.0000000000000
 145
0.0
 146
 0.62500000000000
 147
0.0
  71
0
  72
0
  73
0
  74
0
  75
0
  76
0
  77
1
  78
0
 170
0
 171
2
 172
1
 173
1
 174
0
 175
0
 176
3
 177
3
 178
7
 270
2
 271
0
 272
0
 273
2
 274
2
 340
F
 275
1
 280
0
 281
0
 282
0
 283
1
 284
0
 285
0
 286
0
 287
3
 288
1
   0
DIMSTYLE
 105
42
 100
AcDbSymbolTableRecord
 100
AcDbDimStyleTableRecord
   2
GMM004
  70
0
   3

   4

   5

   6
_OPEN
   7
_OPEN
  40
 1.0000000000000
  41
 4.5000000000000
  42
 1.5000000000000
  43
 0.10000000000000E-5
  44
 3.0000000000000
  45
0.0
  46
0.0
  47
0.0
  48
0.0
 140
 6.0000000000000
 141
 1.5000000000000
 142
0.0
 143
 0.39400000000000E-1
 144
 1.0000000000000
 145
0.0
 146
 0.62500000000000
 147
 1.2000045418738
  71
0
  72
0
  73
0
  74
0
  75
0
  76
0
  77
3
  78
0
 170
0
 171
2
 172
1
 173
1
 174
0
 175
0
 176
3
 177
3
 178
3
 270
2
 271
0
 272
0
 273
2
 274
2
 340
3E
 275
1
 280
0
 281
0
 282
0
 283
1
 284
0
 285
0
 286
0
 287
3
 288
1
   0
DIMSTYLE
 105
43
 100
AcDbSymbolTableRecord
 100
AcDbDimStyleTableRecord
   2
GMM005
  70
0
   3

   4

   5

   6
_OPEN
   7
_OPEN
  40
 1.0000000000000
  41
 4.5000000000000
  42
 1.5000000000000
  43
 0.10000000000000E-5
  44
 3.0000000000000
  45
0.0
  46
0.0
  47
0.0
  48
0.0
 140
 6.0000000000000
 141
 1.5000000000000
 142
0.0
 143
 0.39400000000000E-1
 144
 1.0000000000000
 145
0.0
 146
 0.62500000000000
 147
 1.1999816536909
  71
0
  72
0
  73
0
  74
0
  75
0
  76
0
  77
3
  78
0
 170
0
 171
2
 172
1
 173
1
 174
0
 175
0
 176
3
 177
3
 178
3
 270
2
 271
0
 272
0
 273
2
 274
2
 340
3E
 275
1
 280
0
 281
0
 282
0
 283
1
 284
0
 285
0
 286
0
 287
3
 288
1
   0
DIMSTYLE
 105
44
 100
AcDbSymbolTableRecord
 100
AcDbDimStyleTableRecord
   2
GMM006
  70
0
   3

   4

   5

   6
_OPEN
   7
_OPEN
  40
 1.0000000000000
  41
 4.5000000000000
  42
 1.5000000000000
  43
 0.10000000000000E-5
  44
 3.0000000000000
  45
0.0
  46
0.0
  47
0.0
  48
0.0
 140
 6.0000000000000
 141
 1.5000000000000
 142
0.0
 143
 0.39400000000000E-1
 144
 1.0000000000000
 145
0.0
 146
 0.62500000000000
 147
 1.2000045418738
  71
0
  72
0
  73
0
  74
0
  75
1
  76
1
  77
3
  78
0
 170
0
 171
2
 172
1
 173
1
 174
0
 175
0
 176
3
 177
3
 178
3
 270
2
 271
0
 272
0
 273
2
 274
2
 340
3E
 275
1
 280
0
 281
0
 282
0
 283
1
 284
0
 285
0
 286
0
 287
3
 288
1
   0
DIMSTYLE
 105
45
 100
AcDbSymbolTableRecord
 100
AcDbDimStyleTableRecord
   2
GMM007
  70
0
   3

   4

   5

   6
_OPEN
   7
_OPEN
  40
 1.0000000000000
  41
 4.5000000000000
  42
 1.5000000000000
  43
 0.10000000000000E-5
  44
 3.0000000000000
  45
0.0
  46
0.0
  47
0.0
  48
0.0
 140
 6.0000000000000
 141
 1.5000000000000
 142
0.0
 143
 0.39400000000000E-1
 144
 1.0000000000000
 145
0.0
 146
 0.62500000000000
 147
 1.2000045418738
  71
0
  72
0
  73
0
  74
0
  75
1
  76
1
  77
3
  78
0
 170
0
 171
2
 172
1
 173
1
 174
0
 175
0
 176
3
 177
3
 178
3
 270
2
 271
0
 272
0
 273
2
 274
2
 340
3E
 275
1
 280
0
 281
0
 282
0
 283
1
 284
0
 285
0
 286
0
 287
3
 288
1
   0
DIMSTYLE
 105
46
 100
AcDbSymbolTableRecord
 100
AcDbDimStyleTableRecord
   2
GMM008
  70
0
   3

   4

   5

   6
_OPEN
   7
_OPEN
  40
 1.0000000000000
  41
 4.5000000000000
  42
 1.5000000000000
  43
 12.000000000000
  44
 3.0000000000000
  45
0.0
  46
0.0
  47
0.0
  48
0.0
 140
 6.0000000000000
 141
 1.5000000000000
 142
0.0
 143
 0.39400000000000E-1
 144
 1.0000000000000
 145
0.0
 146
 0.62500000000000
 147
0.0
  71
0
  72
0
  73
0
  74
0
  75
0
  76
0
  77
1
  78
8
 170
0
 171
2
 172
1
 173
1
 174
0
 175
0
 176
3
 177
3
 178
7
 270
2
 271
2
 272
0
 273
2
 274
2
 340
F
 275
0
 280
0
 281
0
 282
0
 283
1
 284
0
 285
0
 286
0
 287
3
 288
1
   0
DIMSTYLE
 105
47
 100
AcDbSymbolTableRecord
 100
AcDbDimStyleTableRecord
   2
GMM009
  70
0
   3

   4

   5

   6
_OPEN
   7
_OPEN
  40
 1.0000000000000
  41
 4.5000000000000
  42
 1.5000000000000
  43
 12.000000000000
  44
 3.0000000000000
  45
0.0
  46
0.0
  47
0.0
  48
0.0
 140
 6.0000000000000
 141
 1.5000000000000
 142
0.0
 143
 0.39400000000000E-1
 144
 1.0000000000000
 145
0.0
 146
 0.62500000000000
 147
 1.2000000000000
  71
0
  72
0
  73
0
  74
0
  75
0
  76
0
  77
3
  78
8
 170
0
 171
2
 172
1
 173
1
 174
0
 175
0
 176
3
 177
3
 178
3
 270
2
 271
2
 272
0
 273
2
 274
2
 340
3E
 275
0
 280
0
 281
0
 282
0
 283
1
 284
0
 285
0
 286
0
 287
3
 288
0
   0
DIMSTYLE
 105
48
 100
AcDbSymbolTableRecord
 100
AcDbDimStyleTableRecord
   2
GMM010
  70
0
   3

   4

   5

   6
_OPEN
   7
_OPEN
  40
 1.0000000000000
  41
 4.5000000000000
  42
 1.5000000000000
  43
 12.000000000000
  44
 3.0000000000000
  45
0.0
  46
0.0
  47
0.0
  48
0.0
 140
 6.0000000000000
 141
 1.5000000000000
 142
0.0
 143
 0.39400000000000E-1
 144
 1.0000000000000
 145
0.0
 146
 0.62500000000000
 147
 1.2000000000000
  71
0
  72
0
  73
0
  74
0
  75
1
  76
1
  77
3
  78
8
 170
0
 171
2
 172
1
 173
1
 174
0
 175
0
 176
3
 177
3
 178
3
 270
2
 271
2
 272
0
 273
2
 274
2
 340
3E
 275
0
 280
0
 281
0
 282
0
 283
1
 284
0
 285
0
 286
0
 287
3
 288
0
   0
ENDTAB
  0
TABLE
  2
BLOCK_RECORD
  5
1
100
AcDbSymbolTable
 70
     0
  0
BLOCK_RECORD
  5
18
100
AcDbSymbolTableRecord
100
AcDbBlockTableRecord
  2
*MODEL_SPACE
  0
BLOCK_RECORD
  5
15
100
AcDbSymbolTableRecord
100
AcDbBlockTableRecord
  2
*PAPER_SPACE
   0
BLOCK_RECORD
   5
49
 100
AcDbSymbolTableRecord
 100
AcDbBlockTableRecord
   2
*D3
   0
BLOCK_RECORD
   5
4A
 100
AcDbSymbolTableRecord
 100
AcDbBlockTableRecord
   2
*D5
   0
BLOCK_RECORD
   5
4B
 100
AcDbSymbolTableRecord
 100
AcDbBlockTableRecord
   2
*D6
   0
BLOCK_RECORD
   5
4C
 100
AcDbSymbolTableRecord
 100
AcDbBlockTableRecord
   2
*D7
   0
BLOCK_RECORD
   5
4D
 100
AcDbSymbolTableRecord
 100
AcDbBlockTableRecord
   2
*D8
   0
BLOCK_RECORD
   5
4E
 100
AcDbSymbolTableRecord
 100
AcDbBlockTableRecord
   2
*D9
   0
BLOCK_RECORD
   5
4F
 100
AcDbSymbolTableRecord
 100
AcDbBlockTableRecord
   2
*D10
   0
BLOCK_RECORD
   5
50
 100
AcDbSymbolTableRecord
 100
AcDbBlockTableRecord
   2
*D11
   0
BLOCK_RECORD
   5
51
 100
AcDbSymbolTableRecord
 100
AcDbBlockTableRecord
   2
*D12
   0
BLOCK_RECORD
   5
52
 100
AcDbSymbolTableRecord
 100
AcDbBlockTableRecord
   2
*D13
   0
BLOCK_RECORD
   5
53
 100
AcDbSymbolTableRecord
 100
AcDbBlockTableRecord
   2
*D14
   0
BLOCK_RECORD
   5
54
 100
AcDbSymbolTableRecord
 100
AcDbBlockTableRecord
   2
*D15
   0
BLOCK_RECORD
   5
55
 100
AcDbSymbolTableRecord
 100
AcDbBlockTableRecord
   2
*D17
   0
BLOCK_RECORD
   5
56
 100
AcDbSymbolTableRecord
 100
AcDbBlockTableRecord
   2
*D18
   0
BLOCK_RECORD
   5
57
 100
AcDbSymbolTableRecord
 100
AcDbBlockTableRecord
   2
*D19
   0
BLOCK_RECORD
   5
58
 100
AcDbSymbolTableRecord
 100
AcDbBlockTableRecord
   2
*D20
   0
BLOCK_RECORD
   5
59
 100
AcDbSymbolTableRecord
 100
AcDbBlockTableRecord
   2
*D21
   0
BLOCK_RECORD
   5
5A
 100
AcDbSymbolTableRecord
 100
AcDbBlockTableRecord
   2
*D22
   0
BLOCK_RECORD
   5
5B
 100
AcDbSymbolTableRecord
 100
AcDbBlockTableRecord
   2
_ARCHTICK
   0
BLOCK_RECORD
   5
5C
 100
AcDbSymbolTableRecord
 100
AcDbBlockTableRecord
   2
_BOXBLANK
   0
BLOCK_RECORD
   5
5D
 100
AcDbSymbolTableRecord
 100
AcDbBlockTableRecord
   2
_BOXFILLED
   0
BLOCK_RECORD
   5
5E
 100
AcDbSymbolTableRecord
 100
AcDbBlockTableRecord
   2
_CLOSED
   0
BLOCK_RECORD
   5
5F
 100
AcDbSymbolTableRecord
 100
AcDbBlockTableRecord
   2
_CLOSEDBLANK
   0
BLOCK_RECORD
   5
60
 100
AcDbSymbolTableRecord
 100
AcDbBlockTableRecord
   2
_DATUMBLANK
   0
BLOCK_RECORD
   5
61
 100
AcDbSymbolTableRecord
 100
AcDbBlockTableRecord
   2
_DATUMFILLED
   0
BLOCK_RECORD
   5
62
 100
AcDbSymbolTableRecord
 100
AcDbBlockTableRecord
   2
_DOT
   0
BLOCK_RECORD
   5
63
 100
AcDbSymbolTableRecord
 100
AcDbBlockTableRecord
   2
_DOTBLANK
   0
BLOCK_RECORD
   5
64
 100
AcDbSymbolTableRecord
 100
AcDbBlockTableRecord
   2
_DOTSMALL
   0
BLOCK_RECORD
   5
65
 100
AcDbSymbolTableRecord
 100
AcDbBlockTableRecord
   2
_INTEGRAL
   0
BLOCK_RECORD
   5
66
 100
AcDbSymbolTableRecord
 100
AcDbBlockTableRecord
   2
_NONE
   0
BLOCK_RECORD
   5
67
 100
AcDbSymbolTableRecord
 100
AcDbBlockTableRecord
   2
_OBLIQUE
   0
BLOCK_RECORD
   5
68
 100
AcDbSymbolTableRecord
 100
AcDbBlockTableRecord
   2
_OPEN
   0
BLOCK_RECORD
   5
69
 100
AcDbSymbolTableRecord
 100
AcDbBlockTableRecord
   2
_OPEN30
   0
BLOCK_RECORD
   5
6A
 100
AcDbSymbolTableRecord
 100
AcDbBlockTableRecord
   2
_OPEN90
   0
BLOCK_RECORD
   5
6B
 100
AcDbSymbolTableRecord
 100
AcDbBlockTableRecord
   2
_ORIGIN
   0
ENDTAB
   0
ENDSEC
  0
SECTION
  2
BLOCKS
  0
BLOCK
  5
19
100
AcDbEntity
  8
0
100
AcDbBlockBegin
  2
*MODEL_SPACE
 70
     0
 10
0.0
 20
0.0
 30
0.0
  3
*MODEL_SPACE
  1

  0
ENDBLK
  5
1A
100
AcDbEntity
  8
0
100
AcDbBlockEnd
  0
BLOCK
  5
16
100
AcDbEntity
 67
     1
  8
0
100
AcDbBlockBegin
  2
*PAPER_SPACE
 70
     0
 10
0.0
 20
0.0
 30
0.0
  3
*PAPER_SPACE
  1

  0
ENDBLK
  5
17
100
AcDbEntity
 67
     1
  8
0
100
AcDbBlockEnd
   0
BLOCK
   5
6C
 100
AcDbEntity
   8
0
 100
AcDbBlockBegin
   2
_ARCHTICK
  70
0
  10
0.0
  20
0.0
  30
0.0
   3
_ARCHTICK
   0
POLYLINE
   5
6D
 100
AcDbEntity
   8
0
   6
BYBLOCK
  62
0
 100
AcDb2dPolyline
  66
1
  10
0.0
  20
0.0
  30
0.0
  70
1
  40
 0.15000000000000
  41
 0.15000000000000
   0
VERTEX
   5
6E
 100
AcDbEntity
   8
0
   6
BYBLOCK
  62
0
 100
AcDbVertex
 100
AcDb2dVertex
  10
-0.50000000000000
  20
-0.50000000000000
  30
0.0
  40
 0.15000000000000
  41
 0.15000000000000
   0
VERTEX
   5
6F
 100
AcDbEntity
   8
0
   6
BYBLOCK
  62
0
 100
AcDbVertex
 100
AcDb2dVertex
  10
 0.50000000000000
  20
 0.50000000000000
  30
0.0
  40
 0.15000000000000
  41
 0.15000000000000
   0
SEQEND
   5
70
 100
AcDbEntity
   8
0
   6
BYBLOCK
  62
0
   0
ENDBLK
   5
71
 100
AcDbEntity
   8
0
 100
AcDbBlockEnd
   0
BLOCK
   5
72
 100
AcDbEntity
   8
0
 100
AcDbBlockBegin
   2
_OBLIQUE
  70
0
  10
0.0
  20
0.0
  30
0.0
   3
_OBLIQUE
   0
LINE
   5
73
 100
AcDbEntity
   8
0
 100
AcDbLine
   6
BYBLOCK
  62
0
  10
-0.50000000000000
  20
-0.50000000000000
  30
0.0
  11
 0.50000000000000
  21
 0.50000000000000
  31
0.0
   0
ENDBLK
   5
74
 100
AcDbEntity
   8
0
 100
AcDbBlockEnd
   0
BLOCK
   5
75
 100
AcDbEntity
   8
0
 100
AcDbBlockBegin
   2
_BOXBLANK
  70
0
  10
0.0
  20
0.0
  30
0.0
   3
_BOXBLANK
   0
LINE
   5
76
 100
AcDbEntity
   8
0
 100
AcDbLine
   6
BYBLOCK
  62
0
  10
-0.50000000000000
  20
-0.50000000000000
  30
0.0
  11
 0.50000000000000
  21
-0.50000000000000
  31
0.0
   0
LINE
   5
77
 100
AcDbEntity
   8
0
 100
AcDbLine
   6
BYBLOCK
  62
0
  10
 0.50000000000000
  20
-0.50000000000000
  30
0.0
  11
 0.50000000000000
  21
 0.50000000000000
  31
0.0
   0
LINE
   5
78
 100
AcDbEntity
   8
0
 100
AcDbLine
   6
BYBLOCK
  62
0
  10
 0.50000000000000
  20
 0.50000000000000
  30
0.0
  11
-0.50000000000000
  21
 0.50000000000000
  31
0.0
   0
LINE
   5
79
 100
AcDbEntity
   8
0
 100
AcDbLine
   6
BYBLOCK
  62
0
  10
-0.50000000000000
  20
 0.50000000000000
  30
0.0
  11
-0.50000000000000
  21
-0.50000000000000
  31
0.0
   0
LINE
   5
7A
 100
AcDbEntity
   8
0
 100
AcDbLine
   6
BYBLOCK
  62
0
  10
-0.50000000000000
  20
0.0
  30
0.0
  11
-1.0000000000000
  21
0.0
  31
0.0
   0
ENDBLK
   5
7B
 100
AcDbEntity
   8
0
 100
AcDbBlockEnd
   0
BLOCK
   5
7C
 100
AcDbEntity
   8
0
 100
AcDbBlockBegin
   2
_BOXFILLED
  70
0
  10
0.0
  20
0.0
  30
0.0
   3
_BOXFILLED
   0
SOLID
   5
7D
 100
AcDbEntity
   8
0
 100
AcDbTrace
   6
BYBLOCK
  62
0
  10
-0.50000000000000
  20
 0.50000000000000
  30
0.0
  11
 0.50000000000000
  21
 0.50000000000000
  31
0.0
  12
-0.50000000000000
  22
-0.50000000000000
  32
0.0
  13
 0.50000000000000
  23
-0.50000000000000
  33
0.0
   0
LINE
   5
7E
 100
AcDbEntity
   8
0
 100
AcDbLine
   6
BYBLOCK
  62
0
  10
-0.50000000000000
  20
0.0
  30
0.0
  11
-1.0000000000000
  21
0.0
  31
0.0
   0
ENDBLK
   5
7F
 100
AcDbEntity
   8
0
 100
AcDbBlockEnd
   0
BLOCK
   5
80
 100
AcDbEntity
   8
0
 100
AcDbBlockBegin
   2
_CLOSED
  70
0
  10
0.0
  20
0.0
  30
0.0
   3
_CLOSED
   0
LINE
   5
81
 100
AcDbEntity
   8
0
 100
AcDbLine
   6
BYBLOCK
  62
0
  10
-1.0000000000000
  20
 0.16666666666667
  30
0.0
  11
0.0
  21
0.0
  31
0.0
   0
LINE
   5
82
 100
AcDbEntity
   8
0
 100
AcDbLine
   6
BYBLOCK
  62
0
  10
0.0
  20
0.0
  30
0.0
  11
-1.0000000000000
  21
-0.16666666666667
  31
0.0
   0
LINE
   5
83
 100
AcDbEntity
   8
0
 100
AcDbLine
   6
BYBLOCK
  62
0
  10
-1.0000000000000
  20
 0.16666666666667
  30
0.0
  11
-1.0000000000000
  21
-0.16666666666667
  31
0.0
   0
LINE
   5
84
 100
AcDbEntity
   8
0
 100
AcDbLine
   6
BYBLOCK
  62
0
  10
0.0
  20
0.0
  30
0.0
  11
-1.0000000000000
  21
0.0
  31
0.0
   0
ENDBLK
   5
85
 100
AcDbEntity
   8
0
 100
AcDbBlockEnd
   0
BLOCK
   5
86
 100
AcDbEntity
   8
0
 100
AcDbBlockBegin
   2
_OPEN
  70
0
  10
0.0
  20
0.0
  30
0.0
   3
_OPEN
   0
LINE
   5
87
 100
AcDbEntity
   8
0
 100
AcDbLine
   6
BYBLOCK
  62
0
  10
-1.0000000000000
  20
 0.16666666666667
  30
0.0
  11
0.0
  21
0.0
  31
0.0
   0
LINE
   5
88
 100
AcDbEntity
   8
0
 100
AcDbLine
   6
BYBLOCK
  62
0
  10
0.0
  20
0.0
  30
0.0
  11
-1.0000000000000
  21
-0.16666666666667
  31
0.0
   0
LINE
   5
89
 100
AcDbEntity
   8
0
 100
AcDbLine
   6
BYBLOCK
  62
0
  10
0.0
  20
0.0
  30
0.0
  11
-1.0000000000000
  21
0.0
  31
0.0
   0
ENDBLK
   5
8A
 100
AcDbEntity
   8
0
 100
AcDbBlockEnd
   0
BLOCK
   5
8B
 100
AcDbEntity
   8
0
 100
AcDbBlockBegin
   2
_OPEN30
  70
0
  10
0.0
  20
0.0
  30
0.0
   3
_OPEN30
   0
LINE
   5
8C
 100
AcDbEntity
   8
0
 100
AcDbLine
   6
BYBLOCK
  62
0
  10
-1.0000000000000
  20
 0.26794919243110
  30
0.0
  11
0.0
  21
0.0
  31
0.0
   0
LINE
   5
8D
 100
AcDbEntity
   8
0
 100
AcDbLine
   6
BYBLOCK
  62
0
  10
0.0
  20
0.0
  30
0.0
  11
-1.0000000000000
  21
-0.26794919243110
  31
0.0
   0
LINE
   5
8E
 100
AcDbEntity
   8
0
 100
AcDbLine
   6
BYBLOCK
  62
0
  10
0.0
  20
0.0
  30
0.0
  11
-1.0000000000000
  21
0.0
  31
0.0
   0
ENDBLK
   5
8F
 100
AcDbEntity
   8
0
 100
AcDbBlockEnd
   0
BLOCK
   5
90
 100
AcDbEntity
   8
0
 100
AcDbBlockBegin
   2
_OPEN90
  70
0
  10
0.0
  20
0.0
  30
0.0
   3
_OPEN90
   0
LINE
   5
91
 100
AcDbEntity
   8
0
 100
AcDbLine
   6
BYBLOCK
  62
0
  10
-0.50000000000000
  20
 0.50000000000000
  30
0.0
  11
0.0
  21
0.0
  31
0.0
   0
LINE
   5
92
 100
AcDbEntity
   8
0
 100
AcDbLine
   6
BYBLOCK
  62
0
  10
0.0
  20
0.0
  30
0.0
  11
-0.50000000000000
  21
-0.50000000000000
  31
0.0
   0
LINE
   5
93
 100
AcDbEntity
   8
0
 100
AcDbLine
   6
BYBLOCK
  62
0
  10
0.0
  20
0.0
  30
0.0
  11
-1.0000000000000
  21
0.0
  31
0.0
   0
ENDBLK
   5
94
 100
AcDbEntity
   8
0
 100
AcDbBlockEnd
   0
BLOCK
   5
95
 100
AcDbEntity
   8
0
 100
AcDbBlockBegin
   2
_CLOSEDBLANK
  70
0
  10
0.0
  20
0.0
  30
0.0
   3
_CLOSEDBLANK
   0
LINE
   5
96
 100
AcDbEntity
   8
0
 100
AcDbLine
   6
BYBLOCK
  62
0
  10
-1.0000000000000
  20
 0.16666666666667
  30
0.0
  11
0.0
  21
0.0
  31
0.0
   0
LINE
   5
97
 100
AcDbEntity
   8
0
 100
AcDbLine
   6
BYBLOCK
  62
0
  10
0.0
  20
0.0
  30
0.0
  11
-1.0000000000000
  21
-0.16666666666667
  31
0.0
   0
LINE
   5
98
 100
AcDbEntity
   8
0
 100
AcDbLine
   6
BYBLOCK
  62
0
  10
-1.0000000000000
  20
 0.16666666666667
  30
0.0
  11
-1.0000000000000
  21
-0.16666666666667
  31
0.0
   0
ENDBLK
   5
99
 100
AcDbEntity
   8
0
 100
AcDbBlockEnd
   0
BLOCK
   5
9A
 100
AcDbEntity
   8
0
 100
AcDbBlockBegin
   2
_DOT
  70
0
  10
0.0
  20
0.0
  30
0.0
   3
_DOT
   0
POLYLINE
   5
9B
 100
AcDbEntity
   8
0
   6
BYBLOCK
  62
0
 100
AcDb2dPolyline
  66
1
  10
0.0
  20
0.0
  30
0.0
  70
1
  40
 0.50000000000000
  41
 0.50000000000000
   0
VERTEX
   5
9C
 100
AcDbEntity
   8
0
   6
BYBLOCK
  62
0
 100
AcDbVertex
 100
AcDb2dVertex
  10
-0.25000000000000
  20
0.0
  30
0.0
  42
 1.0000000000000
  40
 0.50000000000000
  41
 0.50000000000000
   0
VERTEX
   5
9D
 100
AcDbEntity
   8
0
   6
BYBLOCK
  62
0
 100
AcDbVertex
 100
AcDb2dVertex
  10
 0.25000000000000
  20
0.0
  30
0.0
  42
 1.0000000000000
  40
 0.50000000000000
  41
 0.50000000000000
   0
SEQEND
   5
9E
 100
AcDbEntity
   8
0
   6
BYBLOCK
  62
0
   0
LINE
   5
9F
 100
AcDbEntity
   8
0
 100
AcDbLine
   6
BYBLOCK
  62
0
  10
-0.50000000000000
  20
0.0
  30
0.0
  11
-1.0000000000000
  21
0.0
  31
0.0
   0
ENDBLK
   5
A0
 100
AcDbEntity
   8
0
 100
AcDbBlockEnd
   0
BLOCK
   5
A1
 100
AcDbEntity
   8
0
 100
AcDbBlockBegin
   2
_DOTSMALL
  70
0
  10
0.0
  20
0.0
  30
0.0
   3
_DOTSMALL
   0
POLYLINE
   5
A2
 100
AcDbEntity
   8
0
   6
BYBLOCK
  62
0
 100
AcDb2dPolyline
  66
1
  10
0.0
  20
0.0
  30
0.0
  70
1
  40
 0.50000000000000
  41
 0.50000000000000
   0
VERTEX
   5
A3
 100
AcDbEntity
   8
0
   6
BYBLOCK
  62
0
 100
AcDbVertex
 100
AcDb2dVertex
  10
-0.62500000000000E-1
  20
0.0
  30
0.0
  42
 1.0000000000000
  40
 0.50000000000000
  41
 0.50000000000000
   0
VERTEX
   5
A4
 100
AcDbEntity
   8
0
   6
BYBLOCK
  62
0
 100
AcDbVertex
 100
AcDb2dVertex
  10
 0.62500000000000E-1
  20
0.0
  30
0.0
  42
 1.0000000000000
  40
 0.50000000000000
  41
 0.50000000000000
   0
SEQEND
   5
A5
 100
AcDbEntity
   8
0
   6
BYBLOCK
  62
0
   0
ENDBLK
   5
A6
 100
AcDbEntity
   8
0
 100
AcDbBlockEnd
   0
BLOCK
   5
A7
 100
AcDbEntity
   8
0
 100
AcDbBlockBegin
   2
_DATUMBLANK
  70
0
  10
0.0
  20
0.0
  30
0.0
   3
_DATUMBLANK
   0
LINE
   5
A8
 100
AcDbEntity
   8
0
 100
AcDbLine
   6
BYBLOCK
  62
0
  10
0.0
  20
 0.57735027000000
  30
0.0
  11
-1.0000000000000
  21
0.0
  31
0.0
   0
LINE
   5
A9
 100
AcDbEntity
   8
0
 100
AcDbLine
   6
BYBLOCK
  62
0
  10
-1.0000000000000
  20
0.0
  30
0.0
  11
0.0
  21
-0.57735027000000
  31
0.0
   0
LINE
   5
AA
 100
AcDbEntity
   8
0
 100
AcDbLine
   6
BYBLOCK
  62
0
  10
0.0
  20
-0.57735027000000
  30
0.0
  11
0.0
  21
 0.57735027000000
  31
0.0
   0
ENDBLK
   5
AB
 100
AcDbEntity
   8
0
 100
AcDbBlockEnd
   0
BLOCK
   5
AC
 100
AcDbEntity
   8
0
 100
AcDbBlockBegin
   2
_DATUMFILLED
  70
0
  10
0.0
  20
0.0
  30
0.0
   3
_DATUMFILLED
   0
SOLID
   5
AD
 100
AcDbEntity
   8
0
 100
AcDbTrace
   6
BYBLOCK
  62
0
  10
0.0
  20
 0.57735027000000
  30
0.0
  11
-1.0000000000000
  21
0.0
  31
0.0
  12
0.0
  22
-0.57735027000000
  32
0.0
  13
0.0
  23
-0.57735027000000
  33
0.0
   0
ENDBLK
   5
AE
 100
AcDbEntity
   8
0
 100
AcDbBlockEnd
   0
BLOCK
   5
AF
 100
AcDbEntity
   8
0
 100
AcDbBlockBegin
   2
_ORIGIN
  70
0
  10
0.0
  20
0.0
  30
0.0
   3
_ORIGIN
   0
CIRCLE
   5
B0
 100
AcDbEntity
   8
0
 100
AcDbCircle
   6
BYBLOCK
  62
0
  10
0.0
  20
0.0
  30
0.0
  40
 0.50000000000000
   0
LINE
   5
B1
 100
AcDbEntity
   8
0
 100
AcDbLine
   6
BYBLOCK
  62
0
  10
0.0
  20
0.0
  30
0.0
  11
-1.0000000000000
  21
0.0
  31
0.0
   0
ENDBLK
   5
B2
 100
AcDbEntity
   8
0
 100
AcDbBlockEnd
   0
BLOCK
   5
B3
 100
AcDbEntity
   8
0
 100
AcDbBlockBegin
   2
_NONE
  70
0
  10
0.0
  20
0.0
  30
0.0
   3
_NONE
   0
CIRCLE
   5
B4
 100
AcDbEntity
   8
0
 100
AcDbCircle
   6
BYBLOCK
  62
0
  10
0.0
  20
0.0
  30
0.0
  40
 0.25000000000000
   0
ENDBLK
   5
B5
 100
AcDbEntity
   8
0
 100
AcDbBlockEnd
   0
BLOCK
   5
B6
 100
AcDbEntity
   8
0
 100
AcDbBlockBegin
   2
_DOTBLANK
  70
0
  10
0.0
  20
0.0
  30
0.0
   3
_DOTBLANK
   0
CIRCLE
   5
B7
 100
AcDbEntity
   8
0
 100
AcDbCircle
   6
BYBLOCK
  62
0
  10
0.0
  20
0.0
  30
0.0
  40
 0.50000000000000
   0
LINE
   5
B8
 100
AcDbEntity
   8
0
 100
AcDbLine
   6
BYBLOCK
  62
0
  10
-0.50000000000000
  20
0.0
  30
0.0
  11
-1.0000000000000
  21
0.0
  31
0.0
   0
ENDBLK
   5
B9
 100
AcDbEntity
   8
0
 100
AcDbBlockEnd
   0
BLOCK
   5
BA
 100
AcDbEntity
   8
0
 100
AcDbBlockBegin
   2
_INTEGRAL
  70
0
  10
0.0
  20
0.0
  30
0.0
   3
_INTEGRAL
   0
ARC
   5
BB
 100
AcDbEntity
   8
0
   6
BYBLOCK
  62
0
 100
AcDbCircle
  10
 0.44488800000000
  20
-0.91335000000000E-1
  30
0.0
  40
 0.45416700000000
 100
AcDbArc
  50
 102.00000000000
  51
 168.00000000000
   0
ARC
   5
BC
 100
AcDbEntity
   8
0
   6
BYBLOCK
  62
0
 100
AcDbCircle
  10
-0.44488800000000
  20
 0.91335000000000E-1
  30
0.0
  40
 0.45416700000000
 100
AcDbArc
  50
 282.00000000000
  51
 348.00000000000
   0
ENDBLK
   5
BD
 100
AcDbEntity
   8
0
 100
AcDbBlockEnd
   0
BLOCK
   5
BE
 100
AcDbEntity
   8
0
 100
AcDbBlockBegin
   2
*D3
  70
65
  10
0.0
  20
0.0
  30
0.0
   3
*D3
   0
LINE
   5
BF
 100
AcDbEntity
   8
LEVEL003
 100
AcDbLine
   6
CONTINUOUS
  62
3
  10
 293.50000004470
  20
 84.500001743436
  30
0.0
  11
 310.49999195337
  21
 84.500001743436
  31
0.0
   0
LINE
   5
C0
 100
AcDbEntity
   8
LEVEL003
 100
AcDbLine
   6
CONTINUOUS
  62
3
  10
 293.99999240041
  20
 52.499998882413
  30
0.0
  11
 310.49999195337
  21
 52.499998882413
  31
0.0
   0
LINE
   5
C1
 100
AcDbEntity
   8
LEVEL003
 100
AcDbLine
   6
CONTINUOUS
  62
3
  10
 307.49999195337
  20
 84.500001743436
  30
0.0
  11
 307.49999195337
  21
 74.537500312924
  31
0.0
   0
LINE
   5
C2
 100
AcDbEntity
   8
LEVEL003
 100
AcDbLine
   6
CONTINUOUS
  62
3
  10
 307.49999195337
  20
 52.499998882413
  30
0.0
  11
 307.49999195337
  21
 62.462500312924
  31
0.0
   0
INSERT
   5
C3
 100
AcDbEntity
   8
LEVEL003
   6
CONTINUOUS
  62
3
 100
AcDbBlockReference
   2
_OPEN
  10
 307.49999195337
  20
 84.500001743436
  30
0.0
  41
 4.5000000000000
  42
 4.5000000000000
  43
 4.5000000000000
  50
 90.000000000000
   0
INSERT
   5
C4
 100
AcDbEntity
   8
LEVEL003
   6
CONTINUOUS
  62
3
 100
AcDbBlockReference
   2
_OPEN
  10
 307.49999195337
  20
 52.499998882413
  30
0.0
  41
 4.5000000000000
  42
 4.5000000000000
  43
 4.5000000000000
  50
 270.00000000000
   0
MTEXT
   5
C5
 100
AcDbEntity
   8
LEVEL003
  62
3
 100
AcDbMText
  10
 306.29998741150
  20
 68.500000312924
  30
0.0
  40
 6.0000000000000
  41
0.0
  71
8
  72
1
   1
\A1;32
   7
GMM001
  11
0.0
  21
 1.0000000000000
  31
0.0
   0
ENDBLK
   5
C6
 100
AcDbEntity
   8
0
 100
AcDbBlockEnd
   0
BLOCK
   5
C7
 100
AcDbEntity
   8
0
 100
AcDbBlockBegin
   2
*D5
  70
65
  10
0.0
  20
0.0
  30
0.0
   3
*D5
   0
LINE
   5
C8
 100
AcDbEntity
   8
LEVEL003
 100
AcDbLine
   6
CONTINUOUS
  62
3
  10
 251.50000129640
  20
 277.49999217689
  30
0.0
  11
 295.49999240041
  21
 277.49999217689
  31
0.0
   0
LINE
   5
C9
 100
AcDbEntity
   8
LEVEL003
 100
AcDbLine
   6
CONTINUOUS
  62
3
  10
 251.50000129640
  20
 157.49999575317
  30
0.0
  11
 295.49999240041
  21
 157.49999575317
  31
0.0
   0
LINE
   5
CA
 100
AcDbEntity
   8
LEVEL003
 100
AcDbLine
   6
CONTINUOUS
  62
3
  10
 292.49999240041
  20
 277.49999217689
  30
0.0
  11
 292.49999240041
  21
 225.04686896503
  31
0.0
   0
LINE
   5
CB
 100
AcDbEntity
   8
LEVEL003
 100
AcDbLine
   6
CONTINUOUS
  62
3
  10
 292.49999240041
  20
 157.49999575317
  30
0.0
  11
 292.49999240041
  21
 209.95311896503
  31
0.0
   0
INSERT
   5
CC
 100
AcDbEntity
   8
LEVEL003
   6
CONTINUOUS
  62
3
 100
AcDbBlockReference
   2
_OPEN
  10
 292.49999240041
  20
 277.49999217689
  30
0.0
  41
 4.5000000000000
  42
 4.5000000000000
  43
 4.5000000000000
  50
 90.000000000000
   0
INSERT
   5
CD
 100
AcDbEntity
   8
LEVEL003
   6
CONTINUOUS
  62
3
 100
AcDbBlockReference
   2
_OPEN
  10
 292.49999240041
  20
 157.49999575317
  30
0.0
  41
 4.5000000000000
  42
 4.5000000000000
  43
 4.5000000000000
  50
 270.00000000000
   0
MTEXT
   5
CE
 100
AcDbEntity
   8
LEVEL003
  62
3
 100
AcDbMText
  10
 291.29998785854
  20
 217.49999396503
  30
0.0
  40
 6.0000000000000
  41
0.0
  71
8
  72
1
   1
\A1;120
   7
GMM001
  11
0.0
  21
 1.0000000000000
  31
0.0
   0
ENDBLK
   5
CF
 100
AcDbEntity
   8
0
 100
AcDbBlockEnd
   0
BLOCK
   5
D0
 100
AcDbEntity
   8
0
 100
AcDbBlockBegin
   2
*D6
  70
65
  10
0.0
  20
0.0
  30
0.0
   3
*D6
   0
LINE
   5
D1
 100
AcDbEntity
   8
LEVEL003
 100
AcDbLine
   6
CONTINUOUS
  62
3
  10
 134.00000093877
  20
 392.99998877943
  30
0.0
  11
 134.00000093877
  21
 422.99998793006
  31
0.0
   0
LINE
   5
D2
 100
AcDbEntity
   8
LEVEL003
 100
AcDbLine
   6
CONTINUOUS
  62
3
  10
 196.00000290573
  20
 392.99998877943
  30
0.0
  11
 196.00000290573
  21
 422.99998793006
  31
0.0
   0
LINE
   5
D3
 100
AcDbEntity
   8
LEVEL003
 100
AcDbLine
   6
CONTINUOUS
  62
3
  10
 134.00000093877
  20
 419.99998793006
  30
0.0
  11
 154.76249620020
  21
 419.99998793006
  31
0.0
   0
LINE
   5
D4
 100
AcDbEntity
   8
LEVEL003
 100
AcDbLine
   6
CONTINUOUS
  62
3
  10
 196.00000290573
  20
 419.99998793006
  30
0.0
  11
 175.23749620020
  21
 419.99998793006
  31
0.0
   0
INSERT
   5
D5
 100
AcDbEntity
   8
LEVEL003
   6
CONTINUOUS
  62
3
 100
AcDbBlockReference
   2
_OPEN
  10
 134.00000093877
  20
 419.99998793006
  30
0.0
  41
 4.5000000000000
  42
 4.5000000000000
  43
 4.5000000000000
  50
 180.00000000000
   0
INSERT
   5
D6
 100
AcDbEntity
   8
LEVEL003
   6
CONTINUOUS
  62
3
 100
AcDbBlockReference
   2
_OPEN
  10
 196.00000290573
  20
 419.99998793006
  30
0.0
  41
 4.5000000000000
  42
 4.5000000000000
  43
 4.5000000000000
  50
0.0
   0
MTEXT
   5
D7
 100
AcDbEntity
   8
LEVEL003
  62
3
 100
AcDbMText
  10
 164.99999620020
  20
 421.19996958375
  30
0.0
  40
 6.0000000000000
  41
0.0
  71
8
  72
1
   1
\A1;%%c62
   7
GMM001
   0
ENDBLK
   5
D8
 100
AcDbEntity
   8
0
 100
AcDbBlockEnd
   0
BLOCK
   5
D9
 100
AcDbEntity
   8
0
 100
AcDbBlockBegin
   2
*D7
  70
65
  10
0.0
  20
0.0
  30
0.0
   3
*D7
   0
LINE
   5
DA
 100
AcDbEntity
   8
LEVEL003
 100
AcDbLine
   6
CONTINUOUS
  62
3
  10
 293.99999240041
  20
 392.50001926720
  30
0.0
  11
 310.49999195337
  21
 392.50001926720
  31
0.0
   0
LINE
   5
DB
 100
AcDbEntity
   8
LEVEL003
 100
AcDbLine
   6
CONTINUOUS
  62
3
  10
 218.99999463558
  20
 379.50003491342
  30
0.0
  11
 310.49999195337
  21
 379.50003491342
  31
0.0
   0
LINE
   5
DC
 100
AcDbEntity
   8
LEVEL003
 100
AcDbLine
   6
CONTINUOUS
  62
3
  10
 307.49999195337
  20
 392.50001926720
  30
0.0
  11
 307.49999195337
  21
 391.05317497849
  31
0.0
   0
LINE
   5
DD
 100
AcDbEntity
   8
LEVEL003
 100
AcDbLine
   6
CONTINUOUS
  62
3
  10
 307.49999195337
  20
 379.50003491342
  30
0.0
  11
 307.49999195337
  21
 380.94692497849
  31
0.0
   0
INSERT
   5
DE
 100
AcDbEntity
   8
LEVEL003
   6
CONTINUOUS
  62
3
 100
AcDbBlockReference
   2
_OPEN
  10
 307.49999195337
  20
 392.50001926720
  30
0.0
  41
 4.5000000000000
  42
 4.5000000000000
  43
 4.5000000000000
  50
 90.000000000000
   0
INSERT
   5
DF
 100
AcDbEntity
   8
LEVEL003
   6
CONTINUOUS
  62
3
 100
AcDbBlockReference
   2
_OPEN
  10
 307.49999195337
  20
 379.50003491342
  30
0.0
  41
 4.5000000000000
  42
 4.5000000000000
  43
 4.5000000000000
  50
 270.00000000000
   0
MTEXT
   5
E0
 100
AcDbEntity
   8
LEVEL003
  62
3
 100
AcDbMText
  10
 306.29998741150
  20
 386.00004997849
  30
0.0
  40
 6.0000000000000
  41
0.0
  71
8
  72
1
   1
\A1;13
   7
GMM001
  11
0.0
  21
 1.0000000000000
  31
0.0
   0
ENDBLK
   5
E1
 100
AcDbEntity
   8
0
 100
AcDbBlockEnd
   0
BLOCK
   5
E2
 100
AcDbEntity
   8
0
 100
AcDbBlockBegin
   2
*D8
  70
65
  10
0.0
  20
0.0
  30
0.0
   3
*D8
   0
LINE
   5
E3
 100
AcDbEntity
   8
LEVEL003
 100
AcDbLine
   6
CONTINUOUS
  62
3
  10
 278.99999284744
  20
 392.50001926720
  30
0.0
  11
 295.49999240041
  21
 392.50001926720
  31
0.0
   0
LINE
   5
E4
 100
AcDbEntity
   8
LEVEL003
 100
AcDbLine
   6
CONTINUOUS
  62
3
  10
 199.34467600749
  20
 382.12132694956
  30
0.0
  11
 295.49999240041
  21
 382.12132694956
  31
0.0
   0
LINE
   5
E5
 100
AcDbEntity
   8
LEVEL003
 100
AcDbLine
   6
CONTINUOUS
  62
3
  10
 292.49999240041
  20
 392.50001926720
  30
0.0
  11
 292.49999240041
  21
 391.83879810838
  31
0.0
   0
LINE
   5
E6
 100
AcDbEntity
   8
LEVEL003
 100
AcDbLine
   6
CONTINUOUS
  62
3
  10
 292.49999240041
  20
 382.12132694956
  30
0.0
  11
 292.49999240041
  21
 382.78254810838
  31
0.0
   0
INSERT
   5
E7
 100
AcDbEntity
   8
LEVEL003
   6
CONTINUOUS
  62
3
 100
AcDbBlockReference
   2
_OPEN
  10
 292.49999240041
  20
 392.50001926720
  30
0.0
  41
 4.5000000000000
  42
 4.5000000000000
  43
 4.5000000000000
  50
 90.000000000000
   0
INSERT
   5
E8
 100
AcDbEntity
   8
LEVEL003
   6
CONTINUOUS
  62
3
 100
AcDbBlockReference
   2
_OPEN
  10
 292.49999240041
  20
 382.12132694956
  30
0.0
  41
 4.5000000000000
  42
 4.5000000000000
  43
 4.5000000000000
  50
 270.00000000000
   0
MTEXT
   5
E9
 100
AcDbEntity
   8
LEVEL003
  62
3
 100
AcDbMText
  10
 291.29998785854
  20
 387.31067310838
  30
0.0
  40
 6.0000000000000
  41
0.0
  71
8
  72
1
   1
\A1;10
   7
GMM001
  11
0.0
  21
 1.0000000000000
  31
0.0
   0
ENDBLK
   5
EA
 100
AcDbEntity
   8
0
 100
AcDbBlockEnd
   0
BLOCK
   5
EB
 100
AcDbEntity
   8
0
 100
AcDbBlockBegin
   2
*D9
  70
65
  10
0.0
  20
0.0
  30
0.0
   3
*D9
   0
LINE
   5
EC
 100
AcDbEntity
   8
LEVEL003
 100
AcDbLine
   6
CONTINUOUS
  62
3
  10
 278.99999284744
  20
 379.50003491342
  30
0.0
  11
 295.49999240041
  21
 379.50003491342
  31
0.0
   0
LINE
   5
ED
 100
AcDbEntity
   8
LEVEL003
 100
AcDbLine
   6
CONTINUOUS
  62
3
  10
 224.50000210106
  20
 339.50002847612
  30
0.0
  11
 295.49999240041
  21
 339.50002847612
  31
0.0
   0
LINE
   5
EE
 100
AcDbEntity
   8
LEVEL003
 100
AcDbLine
   6
CONTINUOUS
  62
3
  10
 292.49999240041
  20
 379.50003491342
  30
0.0
  11
 292.49999240041
  21
 365.01252025068
  31
0.0
   0
LINE
   5
EF
 100
AcDbEntity
   8
LEVEL003
 100
AcDbLine
   6
CONTINUOUS
  62
3
  10
 292.49999240041
  20
 339.50002847612
  30
0.0
  11
 292.49999240041
  21
 353.98752025068
  31
0.0
   0
INSERT
   5
F0
 100
AcDbEntity
   8
LEVEL003
   6
CONTINUOUS
  62
3
 100
AcDbBlockReference
   2
_OPEN
  10
 292.49999240041
  20
 379.50003491342
  30
0.0
  41
 4.5000000000000
  42
 4.5000000000000
  43
 4.5000000000000
  50
 90.000000000000
   0
INSERT
   5
F1
 100
AcDbEntity
   8
LEVEL003
   6
CONTINUOUS
  62
3
 100
AcDbBlockReference
   2
_OPEN
  10
 292.49999240041
  20
 339.50002847612
  30
0.0
  41
 4.5000000000000
  42
 4.5000000000000
  43
 4.5000000000000
  50
 270.00000000000
   0
MTEXT
   5
F2
 100
AcDbEntity
   8
LEVEL003
  62
3
 100
AcDbMText
  10
 291.29998785854
  20
 359.50002025068
  30
0.0
  40
 6.0000000000000
  41
0.0
  71
8
  72
1
   1
\A1;40
   7
GMM001
  11
0.0
  21
 1.0000000000000
  31
0.0
   0
ENDBLK
   5
F3
 100
AcDbEntity
   8
0
 100
AcDbBlockEnd
   0
BLOCK
   5
F4
 100
AcDbEntity
   8
0
 100
AcDbBlockBegin
   2
*D10
  70
65
  10
0.0
  20
0.0
  30
0.0
   3
*D10
   0
LINE
   5
F5
 100
AcDbEntity
   8
LEVEL003
 100
AcDbLine
   6
CONTINUOUS
  62
3
  10
 263.99999329448
  20
 379.50003491342
  30
0.0
  11
 280.49999284744
  21
 379.50003491342
  31
0.0
   0
LINE
   5
F6
 100
AcDbEntity
   8
LEVEL003
 100
AcDbLine
   6
CONTINUOUS
  62
3
  10
 224.50000210106
  20
 374.50001980364
  30
0.0
  11
 280.49999284744
  21
 374.50001980364
  31
0.0
   0
LINE
   5
F7
 100
AcDbEntity
   8
LEVEL003
 100
AcDbLine
   6
CONTINUOUS
  62
3
  10
 277.49999284744
  20
 385.12503491342
  30
0.0
  11
 277.49999284744
  21
 370.15487711451
  31
0.0
   0
LINE
   5
F8
 100
AcDbEntity
   8
LEVEL003
 100
AcDbLine
   6
CONTINUOUS
  62
3
  10
 277.49999284744
  20
 364.11737711451
  30
0.0
  11
 277.49999284744
  21
 364.11737711451
  31
0.0
   0
INSERT
   5
F9
 100
AcDbEntity
   8
LEVEL003
   6
CONTINUOUS
  62
3
 100
AcDbBlockReference
   2
_OPEN
  10
 277.49999284744
  20
 379.50003491342
  30
0.0
  41
 4.5000000000000
  42
 4.5000000000000
  43
 4.5000000000000
  50
 270.00000000000
   0
INSERT
   5
FA
 100
AcDbEntity
   8
LEVEL003
   6
CONTINUOUS
  62
3
 100
AcDbBlockReference
   2
_OPEN
  10
 277.49999284744
  20
 374.50001980364
  30
0.0
  41
 4.5000000000000
  42
 4.5000000000000
  43
 4.5000000000000
  50
 90.000000000000
   0
MTEXT
   5
FB
 100
AcDbEntity
   8
LEVEL003
  62
3
 100
AcDbMText
  10
 276.29998830557
  20
 370.15487711451
  30
0.0
  40
 6.0000000000000
  41
0.0
  71
9
  72
1
   1
\A1;5
   7
GMM001
  11
0.0
  21
 1.0000000000000
  31
0.0
   0
ENDBLK
   5
FC
 100
AcDbEntity
   8
0
 100
AcDbBlockEnd
   0
BLOCK
   5
FD
 100
AcDbEntity
   8
0
 100
AcDbBlockBegin
   2
*D11
  70
65
  10
0.0
  20
0.0
  30
0.0
   3
*D11
   0
LINE
   5
FE
 100
AcDbEntity
   8
LEVEL003
 100
AcDbLine
   6
CONTINUOUS
  62
3
  10
 293.50000004470
  20
 314.50002159178
  30
0.0
  11
 310.49999195337
  21
 314.50002159178
  31
0.0
   0
LINE
   5
FF
 100
AcDbEntity
   8
LEVEL003
 100
AcDbLine
   6
CONTINUOUS
  62
3
  10
 293.99999240041
  20
 379.50003491342
  30
0.0
  11
 310.49999195337
  21
 379.50003491342
  31
0.0
   0
LINE
   5
100
 100
AcDbEntity
   8
LEVEL003
 100
AcDbLine
   6
CONTINUOUS
  62
3
  10
 307.49999195337
  20
 314.50002159178
  30
0.0
  11
 307.49999195337
  21
 340.96252825260
  31
0.0
   0
LINE
   5
101
 100
AcDbEntity
   8
LEVEL003
 100
AcDbLine
   6
CONTINUOUS
  62
3
  10
 307.49999195337
  20
 379.50003491342
  30
0.0
  11
 307.49999195337
  21
 353.03752825260
  31
0.0
   0
INSERT
   5
102
 100
AcDbEntity
   8
LEVEL003
   6
CONTINUOUS
  62
3
 100
AcDbBlockReference
   2
_OPEN
  10
 307.49999195337
  20
 314.50002159178
  30
0.0
  41
 4.5000000000000
  42
 4.5000000000000
  43
 4.5000000000000
  50
 270.00000000000
   0
INSERT
   5
103
 100
AcDbEntity
   8
LEVEL003
   6
CONTINUOUS
  62
3
 100
AcDbBlockReference
   2
_OPEN
  10
 307.49999195337
  20
 379.50003491342
  30
0.0
  41
 4.5000000000000
  42
 4.5000000000000
  43
 4.5000000000000
  50
 90.000000000000
   0
MTEXT
   5
104
 100
AcDbEntity
   8
LEVEL003
  62
3
 100
AcDbMText
  10
 306.29998741150
  20
 347.00002825260
  30
0.0
  40
 6.0000000000000
  41
0.0
  71
8
  72
1
   1
\A1;65
   7
GMM001
  11
0.0
  21
 1.0000000000000
  31
0.0
   0
ENDBLK
   5
105
 100
AcDbEntity
   8
0
 100
AcDbBlockEnd
   0
BLOCK
   5
106
 100
AcDbEntity
   8
0
 100
AcDbBlockBegin
   2
*D12
  70
65
  10
0.0
  20
0.0
  30
0.0
   3
*D12
   0
LINE
   5
107
 100
AcDbEntity
   8
LEVEL003
 100
AcDbLine
   6
CONTINUOUS
  62
3
  10
 107.99999789894
  20
 172.49999530613
  30
0.0
  11
 153.71249620020
  21
 172.49999530613
  31
0.0
   0
LINE
   5
108
 100
AcDbEntity
   8
LEVEL003
 100
AcDbLine
   6
CONTINUOUS
  62
3
  10
 221.99999450147
  20
 172.49999530613
  30
0.0
  11
 176.28749620020
  21
 172.49999530613
  31
0.0
   0
INSERT
   5
109
 100
AcDbEntity
   8
LEVEL003
   6
CONTINUOUS
  62
3
 100
AcDbBlockReference
   2
_OPEN
  10
 107.99999789894
  20
 172.49999530613
  30
0.0
  41
 4.5000000000000
  42
 4.5000000000000
  43
 4.5000000000000
  50
 180.00000000000
   0
INSERT
   5
10A
 100
AcDbEntity
   8
LEVEL003
   6
CONTINUOUS
  62
3
 100
AcDbBlockReference
   2
_OPEN
  10
 221.99999450147
  20
 172.49999530613
  30
0.0
  41
 4.5000000000000
  42
 4.5000000000000
  43
 4.5000000000000
  50
0.0
   0
MTEXT
   5
10B
 100
AcDbEntity
   8
LEVEL003
  62
3
 100
AcDbMText
  10
 164.99999620020
  20
 173.69999984800
  30
0.0
  40
 6.0000000000000
  41
0.0
  71
8
  72
1
   1
\A1;%%c114
   7
GMM001
   0
ENDBLK
   5
10C
 100
AcDbEntity
   8
0
 100
AcDbBlockEnd
   0
BLOCK
   5
10D
 100
AcDbEntity
   8
0
 100
AcDbBlockBegin
   2
*D13
  70
65
  10
0.0
  20
0.0
  30
0.0
   3
*D13
   0
LINE
   5
10E
 100
AcDbEntity
   8
LEVEL003
 100
AcDbLine
   6
CONTINUOUS
  62
3
  10
 221.99999450147
  20
 172.49999530613
  30
0.0
  11
 242.44686874151
  21
 172.49999530613
  31
0.0
   0
LINE
   5
10F
 100
AcDbEntity
   8
LEVEL003
 100
AcDbLine
   6
CONTINUOUS
  62
3
  10
 272.99999298155
  20
 172.49999530613
  30
0.0
  11
 252.55311874151
  21
 172.49999530613
  31
0.0
   0
INSERT
   5
110
 100
AcDbEntity
   8
LEVEL003
   6
CONTINUOUS
  62
3
 100
AcDbBlockReference
   2
_OPEN
  10
 221.99999450147
  20
 172.49999530613
  30
0.0
  41
 4.5000000000000
  42
 4.5000000000000
  43
 4.5000000000000
  50
 180.00000000000
   0
INSERT
   5
111
 100
AcDbEntity
   8
LEVEL003
   6
CONTINUOUS
  62
3
 100
AcDbBlockReference
   2
_OPEN
  10
 272.99999298155
  20
 172.49999530613
  30
0.0
  41
 4.5000000000000
  42
 4.5000000000000
  43
 4.5000000000000
  50
0.0
   0
MTEXT
   5
112
 100
AcDbEntity
   8
LEVEL003
  62
3
 100
AcDbMText
  10
 247.49999374151
  20
 173.69999984800
  30
0.0
  40
 6.0000000000000
  41
0.0
  71
8
  72
1
   1
\A1;51
   7
GMM001
   0
ENDBLK
   5
113
 100
AcDbEntity
   8
0
 100
AcDbBlockEnd
   0
BLOCK
   5
114
 100
AcDbEntity
   8
0
 100
AcDbBlockBegin
   2
*D14
  70
65
  10
0.0
  20
0.0
  30
0.0
   3
*D14
   0
LINE
   5
115
 100
AcDbEntity
   8
LEVEL003
 100
AcDbLine
   6
CONTINUOUS
  62
3
  10
 196.49999530613
  20
 392.50001926720
  30
0.0
  11
 325.49999150634
  21
 392.50001926720
  31
0.0
   0
LINE
   5
116
 100
AcDbEntity
   8
LEVEL003
 100
AcDbLine
   6
CONTINUOUS
  62
3
  10
 221.50000219047
  20
 52.499998882413
  30
0.0
  11
 325.49999150634
  21
 52.499998882413
  31
0.0
   0
LINE
   5
117
 100
AcDbEntity
   8
LEVEL003
 100
AcDbLine
   6
CONTINUOUS
  62
3
  10
 322.49999150634
  20
 392.50001926720
  30
0.0
  11
 322.49999150634
  21
 230.57188407481
  31
0.0
   0
LINE
   5
118
 100
AcDbEntity
   8
LEVEL003
 100
AcDbLine
   6
CONTINUOUS
  62
3
  10
 322.49999150634
  20
 52.499998882413
  30
0.0
  11
 322.49999150634
  21
 214.42813407481
  31
0.0
   0
INSERT
   5
119
 100
AcDbEntity
   8
LEVEL003
   6
CONTINUOUS
  62
3
 100
AcDbBlockReference
   2
_OPEN
  10
 322.49999150634
  20
 392.50001926720
  30
0.0
  41
 4.5000000000000
  42
 4.5000000000000
  43
 4.5000000000000
  50
 90.000000000000
   0
INSERT
   5
11A
 100
AcDbEntity
   8
LEVEL003
   6
CONTINUOUS
  62
3
 100
AcDbBlockReference
   2
_OPEN
  10
 322.49999150634
  20
 52.499998882413
  30
0.0
  41
 4.5000000000000
  42
 4.5000000000000
  43
 4.5000000000000
  50
 270.00000000000
   0
MTEXT
   5
11B
 100
AcDbEntity
   8
LEVEL003
  62
3
 100
AcDbMText
  10
 321.29998696447
  20
 222.50000907481
  30
0.0
  40
 6.0000000000000
  41
0.0
  71
8
  72
1
   1
\A1;415
   7
GMM001
  11
0.0
  21
 1.0000000000000
  31
0.0
   0
ENDBLK
   5
11C
 100
AcDbEntity
   8
0
 100
AcDbBlockEnd
   0
BLOCK
   5
11D
 100
AcDbEntity
   8
0
 100
AcDbBlockBegin
   2
*D15
  70
65
  10
0.0
  20
0.0
  30
0.0
   3
*D15
   0
LINE
   5
11E
 100
AcDbEntity
   8
LEVEL003
 100
AcDbLine
   6
CONTINUOUS
  62
3
  10
 187.49999548495
  20
 382.50003482401
  30
0.0
  11
 169.50000000000
  21
 382.50003482401
  31
0.0
   0
LINE
   5
11F
 100
AcDbEntity
   8
LEVEL003
 100
AcDbLine
   6
CONTINUOUS
  62
3
  10
 186.50001077354
  20
 352.50003571808
  30
0.0
  11
 169.50000000000
  21
 352.50003571808
  31
0.0
   0
LINE
   5
120
 100
AcDbEntity
   8
LEVEL003
 100
AcDbLine
   6
CONTINUOUS
  62
3
  10
 172.50000000000
  20
 382.50003482401
  30
0.0
  11
 172.50000000000
  21
 373.01253527105
  31
0.0
   0
LINE
   5
121
 100
AcDbEntity
   8
LEVEL003
 100
AcDbLine
   6
CONTINUOUS
  62
3
  10
 172.50000000000
  20
 352.50003571808
  30
0.0
  11
 172.50000000000
  21
 361.98753527105
  31
0.0
   0
INSERT
   5
122
 100
AcDbEntity
   8
LEVEL003
   6
CONTINUOUS
  62
3
 100
AcDbBlockReference
   2
_OPEN
  10
 172.50000000000
  20
 382.50003482401
  30
0.0
  41
 4.5000000000000
  42
 4.5000000000000
  43
 4.5000000000000
  50
 90.000000000000
   0
INSERT
   5
123
 100
AcDbEntity
   8
LEVEL003
   6
CONTINUOUS
  62
3
 100
AcDbBlockReference
   2
_OPEN
  10
 172.50000000000
  20
 352.50003571808
  30
0.0
  41
 4.5000000000000
  42
 4.5000000000000
  43
 4.5000000000000
  50
 270.00000000000
   0
MTEXT
   5
124
 100
AcDbEntity
   8
LEVEL003
  62
3
 100
AcDbMText
  10
 171.29999545813
  20
 367.50003527105
  30
0.0
  40
 6.0000000000000
  41
0.0
  71
8
  72
1
   1
\A1;30
   7
GMM001
  11
0.0
  21
 1.0000000000000
  31
0.0
   0
ENDBLK
   5
125
 100
AcDbEntity
   8
0
 100
AcDbBlockEnd
   0
BLOCK
   5
126
 100
AcDbEntity
   8
0
 100
AcDbBlockBegin
   2
*D17
  70
65
  10
0.0
  20
0.0
  30
0.0
   3
*D17
   0
LINE
   5
127
 100
AcDbEntity
   8
LEVEL003
 100
AcDbLine
   6
CONTINUOUS
  62
3
  10
 148.50000429153
  20
 56.999992981553
  30
0.0
  11
 148.50000429153
  21
 34.500000000000
  31
0.0
   0
LINE
   5
128
 100
AcDbEntity
   8
LEVEL003
 100
AcDbLine
   6
CONTINUOUS
  62
3
  10
 181.49999570847
  20
 56.999992981553
  30
0.0
  11
 181.49999570847
  21
 34.500000000000
  31
0.0
   0
LINE
   5
129
 100
AcDbEntity
   8
LEVEL003
 100
AcDbLine
   6
CONTINUOUS
  62
3
  10
 148.50000429153
  20
 37.500000000000
  30
0.0
  11
 154.76250000000
  21
 37.500000000000
  31
0.0
   0
LINE
   5
12A
 100
AcDbEntity
   8
LEVEL003
 100
AcDbLine
   6
CONTINUOUS
  62
3
  10
 181.49999570847
  20
 37.500000000000
  30
0.0
  11
 175.23750000000
  21
 37.500000000000
  31
0.0
   0
INSERT
   5
12B
 100
AcDbEntity
   8
LEVEL003
   6
CONTINUOUS
  62
3
 100
AcDbBlockReference
   2
_OPEN
  10
 148.50000429153
  20
 37.500000000000
  30
0.0
  41
 4.5000000000000
  42
 4.5000000000000
  43
 4.5000000000000
  50
 180.00000000000
   0
INSERT
   5
12C
 100
AcDbEntity
   8
LEVEL003
   6
CONTINUOUS
  62
3
 100
AcDbBlockReference
   2
_OPEN
  10
 181.49999570847
  20
 37.500000000000
  30
0.0
  41
 4.5000000000000
  42
 4.5000000000000
  43
 4.5000000000000
  50
0.0
   0
MTEXT
   5
12D
 100
AcDbEntity
   8
LEVEL003
  62
3
 100
AcDbMText
  10
 165.00000000000
  20
 38.700000000000
  30
0.0
  40
 6.0000000000000
  41
0.0
  71
8
  72
1
   1
\A1;%%c33
   7
GMM001
   0
ENDBLK
   5
12E
 100
AcDbEntity
   8
0
 100
AcDbBlockEnd
   0
BLOCK
   5
12F
 100
AcDbEntity
   8
0
 100
AcDbBlockBegin
   2
*D18
  70
65
  10
0.0
  20
0.0
  30
0.0
   3
*D18
   0
LINE
   5
130
 100
AcDbEntity
   8
LEVEL003
 100
AcDbLine
   6
CONTINUOUS
  62
3
  10
 119.00000138581
  20
 47.999998971820
  30
0.0
  11
 119.00000138581
  21
 19.500000000000
  31
0.0
   0
LINE
   5
131
 100
AcDbEntity
   8
LEVEL003
 100
AcDbLine
   6
CONTINUOUS
  62
3
  10
 210.99999861419
  20
 47.999998971820
  30
0.0
  11
 210.99999861419
  21
 19.500000000000
  31
0.0
   0
LINE
   5
132
 100
AcDbEntity
   8
LEVEL003
 100
AcDbLine
   6
CONTINUOUS
  62
3
  10
 119.00000138581
  20
 22.500000000000
  30
0.0
  11
 154.76250000000
  21
 22.500000000000
  31
0.0
   0
LINE
   5
133
 100
AcDbEntity
   8
LEVEL003
 100
AcDbLine
   6
CONTINUOUS
  62
3
  10
 210.99999861419
  20
 22.500000000000
  30
0.0
  11
 175.23750000000
  21
 22.500000000000
  31
0.0
   0
INSERT
   5
134
 100
AcDbEntity
   8
LEVEL003
   6
CONTINUOUS
  62
3
 100
AcDbBlockReference
   2
_OPEN
  10
 119.00000138581
  20
 22.500000000000
  30
0.0
  41
 4.5000000000000
  42
 4.5000000000000
  43
 4.5000000000000
  50
 180.00000000000
   0
INSERT
   5
135
 100
AcDbEntity
   8
LEVEL003
   6
CONTINUOUS
  62
3
 100
AcDbBlockReference
   2
_OPEN
  10
 210.99999861419
  20
 22.500000000000
  30
0.0
  41
 4.5000000000000
  42
 4.5000000000000
  43
 4.5000000000000
  50
0.0
   0
MTEXT
   5
136
 100
AcDbEntity
   8
LEVEL003
  62
3
 100
AcDbMText
  10
 165.00000000000
  20
 23.700000000000
  30
0.0
  40
 6.0000000000000
  41
0.0
  71
8
  72
1
   1
\A1;%%c92
   7
GMM001
   0
ENDBLK
   5
137
 100
AcDbEntity
   8
0
 100
AcDbBlockEnd
   0
BLOCK
   5
138
 100
AcDbEntity
   8
0
 100
AcDbBlockBegin
   2
*D19
  70
65
  10
0.0
  20
0.0
  30
0.0
   3
*D19
   0
LINE
   5
139
 100
AcDbEntity
   8
LEVEL003
 100
AcDbLine
   6
CONTINUOUS
  62
3
  10
 120.00000514090
  20
 187.50000000000
  30
0.0
  11
 155.28750000000
  21
 187.50000000000
  31
0.0
   0
LINE
   5
13A
 100
AcDbEntity
   8
LEVEL003
 100
AcDbLine
   6
CONTINUOUS
  62
3
  10
 209.99999485910
  20
 187.50000000000
  30
0.0
  11
 174.71250000000
  21
 187.50000000000
  31
0.0
   0
INSERT
   5
13B
 100
AcDbEntity
   8
LEVEL003
   6
CONTINUOUS
  62
3
 100
AcDbBlockReference
   2
_OPEN
  10
 120.00000514090
  20
 187.50000000000
  30
0.0
  41
 4.5000000000000
  42
 4.5000000000000
  43
 4.5000000000000
  50
 180.00000000000
   0
INSERT
   5
13C
 100
AcDbEntity
   8
LEVEL003
   6
CONTINUOUS
  62
3
 100
AcDbBlockReference
   2
_OPEN
  10
 209.99999485910
  20
 187.50000000000
  30
0.0
  41
 4.5000000000000
  42
 4.5000000000000
  43
 4.5000000000000
  50
0.0
   0
MTEXT
   5
13D
 100
AcDbEntity
   8
LEVEL003
  62
3
 100
AcDbMText
  10
 165.00000000000
  20
 188.70000000000
  30
0.0
  40
 6.0000000000000
  41
0.0
  71
8
  72
1
   1
\A1;%%c90
   7
GMM001
   0
ENDBLK
   5
13E
 100
AcDbEntity
   8
0
 100
AcDbBlockEnd
   0
BLOCK
   5
13F
 100
AcDbEntity
   8
0
 100
AcDbBlockBegin
   2
*D20
  70
65
  10
0.0
  20
0.0
  30
0.0
   3
*D20
   0
LINE
   5
140
 100
AcDbEntity
   8
LEVEL003
 100
AcDbLine
   6
CONTINUOUS
  62
3
  10
 131.50001242757
  20
 202.50000000000
  30
0.0
  11
 154.76250000000
  21
 202.50000000000
  31
0.0
   0
LINE
   5
141
 100
AcDbEntity
   8
LEVEL003
 100
AcDbLine
   6
CONTINUOUS
  62
3
  10
 198.49998757243
  20
 202.50000000000
  30
0.0
  11
 175.23750000000
  21
 202.50000000000
  31
0.0
   0
INSERT
   5
142
 100
AcDbEntity
   8
LEVEL003
   6
CONTINUOUS
  62
3
 100
AcDbBlockReference
   2
_OPEN
  10
 131.50001242757
  20
 202.50000000000
  30
0.0
  41
 4.5000000000000
  42
 4.5000000000000
  43
 4.5000000000000
  50
 180.00000000000
   0
INSERT
   5
143
 100
AcDbEntity
   8
LEVEL003
   6
CONTINUOUS
  62
3
 100
AcDbBlockReference
   2
_OPEN
  10
 198.49998757243
  20
 202.50000000000
  30
0.0
  41
 4.5000000000000
  42
 4.5000000000000
  43
 4.5000000000000
  50
0.0
   0
MTEXT
   5
144
 100
AcDbEntity
   8
LEVEL003
  62
3
 100
AcDbMText
  10
 165.00000000000
  20
 203.70000000000
  30
0.0
  40
 6.0000000000000
  41
0.0
  71
8
  72
1
   1
\A1;%%c67
   7
GMM001
   0
ENDBLK
   5
145
 100
AcDbEntity
   8
0
 100
AcDbBlockEnd
   0
BLOCK
   5
146
 100
AcDbEntity
   8
0
 100
AcDbBlockBegin
   2
*D21
  70
65
  10
0.0
  20
0.0
  30
0.0
   3
*D21
   0
LINE
   5
147
 100
AcDbEntity
   8
LEVEL003
 100
AcDbLine
   6
CONTINUOUS
  62
3
  10
 142.50000447035
  20
 217.50000000000
  30
0.0
  11
 154.76250000000
  21
 217.50000000000
  31
0.0
   0
LINE
   5
148
 100
AcDbEntity
   8
LEVEL003
 100
AcDbLine
   6
CONTINUOUS
  62
3
  10
 187.49999552965
  20
 217.50000000000
  30
0.0
  11
 175.23750000000
  21
 217.50000000000
  31
0.0
   0
INSERT
   5
149
 100
AcDbEntity
   8
LEVEL003
   6
CONTINUOUS
  62
3
 100
AcDbBlockReference
   2
_OPEN
  10
 142.50000447035
  20
 217.50000000000
  30
0.0
  41
 4.5000000000000
  42
 4.5000000000000
  43
 4.5000000000000
  50
 180.00000000000
   0
INSERT
   5
14A
 100
AcDbEntity
   8
LEVEL003
   6
CONTINUOUS
  62
3
 100
AcDbBlockReference
   2
_OPEN
  10
 187.49999552965
  20
 217.50000000000
  30
0.0
  41
 4.5000000000000
  42
 4.5000000000000
  43
 4.5000000000000
  50
0.0
   0
MTEXT
   5
14B
 100
AcDbEntity
   8
LEVEL003
  62
3
 100
AcDbMText
  10
 165.00000000000
  20
 218.70000000000
  30
0.0
  40
 6.0000000000000
  41
0.0
  71
8
  72
1
   1
\A1;%%c45
   7
GMM001
   0
ENDBLK
   5
14C
 100
AcDbEntity
   8
0
 100
AcDbBlockEnd
   0
BLOCK
   5
14D
 100
AcDbEntity
   8
0
 100
AcDbBlockBegin
   2
*D22
  70
65
  10
0.0
  20
0.0
  30
0.0
   3
*D22
   0
LINE
   5
14E
 100
AcDbEntity
   8
LEVEL003
 100
AcDbLine
   6
CONTINUOUS
  62
3
  10
 148.50000429153
  20
 389.00004993379
  30
0.0
  11
 148.50000429153
  21
 408.00000000000
  31
0.0
   0
LINE
   5
14F
 100
AcDbEntity
   8
LEVEL003
 100
AcDbLine
   6
CONTINUOUS
  62
3
  10
 181.49999570847
  20
 389.00004993379
  30
0.0
  11
 181.49999570847
  21
 408.00000000000
  31
0.0
   0
LINE
   5
150
 100
AcDbEntity
   8
LEVEL003
 100
AcDbLine
   6
CONTINUOUS
  62
3
  10
 148.50000429153
  20
 405.00000000000
  30
0.0
  11
 154.76250000000
  21
 405.00000000000
  31
0.0
   0
LINE
   5
151
 100
AcDbEntity
   8
LEVEL003
 100
AcDbLine
   6
CONTINUOUS
  62
3
  10
 181.49999570847
  20
 405.00000000000
  30
0.0
  11
 175.23750000000
  21
 405.00000000000
  31
0.0
   0
INSERT
   5
152
 100
AcDbEntity
   8
LEVEL003
   6
CONTINUOUS
  62
3
 100
AcDbBlockReference
   2
_OPEN
  10
 148.50000429153
  20
 405.00000000000
  30
0.0
  41
 4.5000000000000
  42
 4.5000000000000
  43
 4.5000000000000
  50
 180.00000000000
   0
INSERT
   5
153
 100
AcDbEntity
   8
LEVEL003
   6
CONTINUOUS
  62
3
 100
AcDbBlockReference
   2
_OPEN
  10
 181.49999570847
  20
 405.00000000000
  30
0.0
  41
 4.5000000000000
  42
 4.5000000000000
  43
 4.5000000000000
  50
0.0
   0
MTEXT
   5
154
 100
AcDbEntity
   8
LEVEL003
  62
3
 100
AcDbMText
  10
 165.00000000000
  20
 406.20000000000
  30
0.0
  40
 6.0000000000000
  41
0.0
  71
8
  72
1
   1
\A1;%%c33
   7
GMM001
   0
ENDBLK
   5
155
 100
AcDbEntity
   8
0
 100
AcDbBlockEnd
   0
ENDSEC
   0
SECTION
   2
ENTITIES
   0
LINE
   5
156
 100
AcDbEntity
   8
LEVEL001
 100
AcDbLine
   6
CONTINUOUS
  62
7
  10
 221.99999450147
  20
 54.499996915460
  30
0.0
  11
 220.00000219047
  21
 52.499998882413
  31
0.0
   0
LINE
   5
157
 100
AcDbEntity
   8
LEVEL001
 100
AcDbLine
   6
CONTINUOUS
  62
7
  10
 107.99999789894
  20
 54.499996915460
  30
0.0
  11
 110.00000165403
  21
 52.499998882413
  31
0.0
   0
LINE
   5
158
 100
AcDbEntity
   8
LEVEL001
 100
AcDbLine
   6
CONTINUOUS
  62
7
  10
 110.00000165403
  20
 52.499998882413
  30
0.0
  11
 220.00000219047
  21
 52.499998882413
  31
0.0
   0
LINE
   5
159
 100
AcDbEntity
   8
LEVEL001
 100
AcDbLine
   6
DASHDOT
  62
1
  10
 119.00000138581
  20
 49.499998971820
  30
0.0
  11
 119.00000138581
  21
 75.752767659641
  31
0.0
   0
LINE
   5
15A
 100
AcDbEntity
   8
LEVEL001
 100
AcDbLine
   6
DOT
  62
7
  10
 113.99999772012
  20
 52.499998882413
  30
0.0
  11
 114.74999769777
  21
 53.249998860061
  31
0.0
   0
LINE
   5
15B
 100
AcDbEntity
   8
LEVEL001
 100
AcDbLine
   6
DOT
  62
7
  10
 114.74999769777
  20
 53.249998860061
  30
0.0
  11
 114.74999769777
  21
 70.299040100007
  31
0.0
   0
LINE
   5
15C
 100
AcDbEntity
   8
LEVEL001
 100
AcDbLine
   6
DOT
  62
7
  10
 114.74999769777
  20
 70.299040100007
  30
0.0
  11
 119.00000138581
  21
 72.752767749048
  31
0.0
   0
LINE
   5
15D
 100
AcDbEntity
   8
LEVEL001
 100
AcDbLine
   6
DOT
  62
7
  10
 119.00000138581
  20
 72.752767749048
  30
0.0
  11
 123.25000507385
  21
 70.299040100007
  31
0.0
   0
LINE
   5
15E
 100
AcDbEntity
   8
LEVEL001
 100
AcDbLine
   6
DOT
  62
7
  10
 123.25000507385
  20
 70.299040100007
  30
0.0
  11
 123.25000507385
  21
 53.249998860061
  31
0.0
   0
LINE
   5
15F
 100
AcDbEntity
   8
LEVEL001
 100
AcDbLine
   6
DOT
  62
7
  10
 123.25000507385
  20
 53.249998860061
  30
0.0
  11
 124.00000505149
  21
 52.499998882413
  31
0.0
   0
LINE
   5
160
 100
AcDbEntity
   8
LEVEL001
 100
AcDbLine
   6
DOT
  62
7
  10
 114.74999769777
  20
 70.299040100007
  30
0.0
  11
 123.25000507385
  21
 70.299040100007
  31
0.0
   0
LINE
   5
161
 100
AcDbEntity
   8
LEVEL001
 100
AcDbLine
   6
DOT
  62
3
  10
 123.25000507385
  20
 70.299040100007
  30
0.0
  11
 124.00000505149
  21
 67.499998435378
  31
0.0
   0
LINE
   5
162
 100
AcDbEntity
   8
LEVEL001
 100
AcDbLine
   6
DOT
  62
3
  10
 124.00000505149
  20
 67.499998435378
  30
0.0
  11
 124.00000505149
  21
 52.499998882413
  31
0.0
   0
LINE
   5
163
 100
AcDbEntity
   8
LEVEL001
 100
AcDbLine
   6
DOT
  62
3
  10
 113.99999772012
  20
 67.499998435378
  30
0.0
  11
 124.00000505149
  21
 67.499998435378
  31
0.0
   0
LINE
   5
164
 100
AcDbEntity
   8
LEVEL001
 100
AcDbLine
   6
DOT
  62
3
  10
 113.99999772012
  20
 52.499998882413
  30
0.0
  11
 113.99999772012
  21
 67.499998435378
  31
0.0
   0
LINE
   5
165
 100
AcDbEntity
   8
LEVEL001
 100
AcDbLine
   6
DOT
  62
3
  10
 113.99999772012
  20
 67.499998435378
  30
0.0
  11
 114.74999769777
  21
 70.299040100007
  31
0.0
   0
LINE
   5
166
 100
AcDbEntity
   8
LEVEL001
 100
AcDbLine
   6
DOT
  62
7
  10
 114.74999769777
  20
 53.249998860061
  30
0.0
  11
 123.25000507385
  21
 53.249998860061
  31
0.0
   0
LINE
   5
167
 100
AcDbEntity
   8
LEVEL001
 100
AcDbLine
   6
CONTINUOUS
  62
7
  10
 107.99999789894
  20
 54.499996915460
  30
0.0
  11
 164.99999620020
  21
 54.499996915460
  31
0.0
   0
LINE
   5
168
 100
AcDbEntity
   8
LEVEL001
 100
AcDbLine
   6
CONTINUOUS
  62
7
  10
 194.99999530613
  20
 392.50001926720
  30
0.0
  11
 196.00000290573
  21
 391.49998877943
  31
0.0
   0
LINE
   5
169
 100
AcDbEntity
   8
LEVEL001
 100
AcDbLine
   6
CONTINUOUS
  62
7
  10
 196.00000290573
  20
 391.49998877943
  30
0.0
  11
 196.00000290573
  21
 382.50003482401
  31
0.0
   0
LINE
   5
16A
 100
AcDbEntity
   8
LEVEL001
 100
AcDbLine
   6
CONTINUOUS
  62
7
  10
 134.99999709427
  20
 392.50001926720
  30
0.0
  11
 134.00000093877
  21
 391.49998877943
  31
0.0
   0
LINE
   5
16B
 100
AcDbEntity
   8
LEVEL001
 100
AcDbLine
   6
CONTINUOUS
  62
7
  10
 134.00000093877
  20
 382.50003482401
  30
0.0
  11
 134.00000093877
  21
 391.49998877943
  31
0.0
   0
LINE
   5
16C
 100
AcDbEntity
   8
LEVEL001
 100
AcDbLine
   6
CONTINUOUS
  62
7
  10
 183.31981224359
  20
 392.50001926720
  30
0.0
  11
 194.99999530613
  21
 392.50001926720
  31
0.0
   0
LINE
   5
16D
 100
AcDbEntity
   8
LEVEL001
 100
AcDbLine
   6
CONTINUOUS
  62
7
  10
 183.31981224359
  20
 392.50001926720
  30
0.0
  11
 134.99999709427
  21
 392.50001926720
  31
0.0
   0
LINE
   5
16E
 100
AcDbEntity
   8
LEVEL001
 100
AcDbLine
   6
CONTINUOUS
  62
7
  10
 218.50000223517
  20
 378.50005020201
  30
0.0
  11
 217.49999463558
  21
 379.50003491342
  31
0.0
   0
LINE
   5
16F
 100
AcDbEntity
   8
LEVEL001
 100
AcDbLine
   6
CONTINUOUS
  62
3
  10
 218.99999459088
  20
 339.50002847612
  30
0.0
  11
 220.00000219047
  21
 335.76797292328
  31
0.0
   0
LINE
   5
170
 100
AcDbEntity
   8
LEVEL001
 100
AcDbLine
   6
CONTINUOUS
  62
7
  10
 220.00000219047
  20
 334.50003625452
  30
0.0
  11
 221.99999450147
  21
 329.50002114475
  31
0.0
   0
ARC
   5
171
 100
AcDbEntity
   8
LEVEL001
   6
CONTINUOUS
  62
7
 100
AcDbCircle
  10
 197.35961083634
  20
 382.00003482404
  30
0.0
  40
 0.50000000000000
 100
AcDbArc
  50
 14.039115295950
  51
 90.000468598403
   0
LINE
   5
172
 100
AcDbEntity
   8
LEVEL001
 100
AcDbLine
   6
CONTINUOUS
  62
7
  10
 197.84467600749
  20
 382.12132694956
  30
0.0
  11
 198.49998757243
  21
 379.50003491342
  31
0.0
   0
LINE
   5
173
 100
AcDbEntity
   8
LEVEL001
 100
AcDbLine
   6
CONTINUOUS
  62
7
  10
 218.50000223517
  20
 378.50005020201
  30
0.0
  11
 218.50000223517
  21
 374.50001980364
  31
0.0
   0
LINE
   5
174
 100
AcDbEntity
   8
LEVEL001
 100
AcDbLine
   6
CONTINUOUS
  62
7
  10
 218.50000223517
  20
 374.50001980364
  30
0.0
  11
 220.00000219047
  21
 373.00001984835
  31
0.0
   0
LINE
   5
175
 100
AcDbEntity
   8
LEVEL001
 100
AcDbLine
   6
CONTINUOUS
  62
7
  10
 220.00000219047
  20
 373.00001984835
  30
0.0
  11
 220.00000219047
  21
 334.50003625452
  31
0.0
   0
LINE
   5
176
 100
AcDbEntity
   8
LEVEL001
 100
AcDbLine
   6
CONTINUOUS
  62
7
  10
 111.49999016523
  20
 378.50005020201
  30
0.0
  11
 112.49999776483
  21
 379.50003491342
  31
0.0
   0
LINE
   5
177
 100
AcDbEntity
   8
LEVEL001
 100
AcDbLine
   6
CONTINUOUS
  62
7
  10
 109.99999020994
  20
 334.50003625452
  30
0.0
  11
 107.99999789894
  21
 329.50002114475
  31
0.0
   0
LINE
   5
178
 100
AcDbEntity
   8
LEVEL001
 100
AcDbLine
   6
CONTINUOUS
  62
7
  10
 111.49999016523
  20
 378.50005020201
  30
0.0
  11
 111.49999016523
  21
 374.50001980364
  31
0.0
   0
ARC
   5
179
 100
AcDbEntity
   8
LEVEL001
   6
CONTINUOUS
  62
7
 100
AcDbCircle
  10
 132.64038156409
  20
 382.00003482401
  30
0.0
  40
 0.50000000000000
 100
AcDbArc
  50
 89.999531403290
  51
 165.96088470121
   0
LINE
   5
17A
 100
AcDbEntity
   8
LEVEL001
 100
AcDbLine
   6
CONTINUOUS
  62
7
  10
 132.15531639292
  20
 382.12132694956
  30
0.0
  11
 131.50000482798
  21
 379.50003491342
  31
0.0
   0
LINE
   5
17B
 100
AcDbEntity
   8
LEVEL001
 100
AcDbLine
   6
CONTINUOUS
  62
7
  10
 164.99999620020
  20
 379.50003491342
  30
0.0
  11
 112.49999776483
  21
 379.50003491342
  31
0.0
   0
LINE
   5
17C
 100
AcDbEntity
   8
LEVEL001
 100
AcDbLine
   6
CONTINUOUS
  62
7
  10
 164.99999620020
  20
 382.50003482401
  30
0.0
  11
 132.64038565337
  21
 382.50003482401
  31
0.0
   0
LINE
   5
17D
 100
AcDbEntity
   8
LEVEL001
 100
AcDbLine
   6
CONTINUOUS
  62
7
  10
 164.99999620020
  20
 334.50003625452
  30
0.0
  11
 109.99999020994
  21
 334.50003625452
  31
0.0
   0
LINE
   5
17E
 100
AcDbEntity
   8
LEVEL001
 100
AcDbLine
   6
CONTINUOUS
  62
7
  10
 107.99999789894
  20
 329.50002114475
  30
0.0
  11
 164.99999620020
  21
 329.50002114475
  31
0.0
   0
LINE
   5
17F
 100
AcDbEntity
   8
LEVEL001
 100
AcDbLine
   6
CONTINUOUS
  62
7
  10
 111.49999016523
  20
 378.50005020201
  30
0.0
  11
 164.99999620020
  21
 378.50005020201
  31
0.0
   0
LINE
   5
180
 100
AcDbEntity
   8
LEVEL001
 100
AcDbLine
   6
CONTINUOUS
  62
7
  10
 134.00000093877
  20
 391.49998877943
  30
0.0
  11
 164.99999620020
  21
 391.49998877943
  31
0.0
   0
LEADER
   5
181
 100
AcDbEntity
   8
LEVEL003
   6
CONTINUOUS
  62
3
 100
AcDbLeader
   3
GMM001
  73
0
  74
1
  75
0
  40
 6.0000000000000
  41
0.0
  76
3
  10
 220.00000219047
  20
 363.74998960644
  30
0.0
  10
 269.99999307096
  20
 412.49998815358
  30
0.0
  10
 307.49999195337
  20
 412.49998815358
  30
0.0
  77
3
   0
TEXT
   5
182
 100
AcDbEntity
   8
LEVEL003
  62
3
 100
AcDbText
  10
 269.99999307096
  20
 412.49998815358
  30
0.0
  40
 5.9999998211861
   1
Ｍ１１０×２
   7
STANDARD
 100
AcDbText
   0
LINE
   5
183
 100
AcDbEntity
   8
LEVEL001
 100
AcDbLine
   6
CONTINUOUS
  62
7
  10
 107.99999789894
  20
 54.499996915460
  30
0.0
  11
 107.99999789894
  21
 276.09870895449
  31
0.0
   0
LINE
   5
184
 100
AcDbEntity
   8
LEVEL001
 100
AcDbLine
   6
CONTINUOUS
  62
7
  10
 107.99999789894
  20
 279.89871952240
  30
0.0
  11
 107.99999789894
  21
 329.50002114475
  31
0.0
   0
LINE
   5
185
 100
AcDbEntity
   8
LEVEL001
 100
AcDbLine
   6
DASHDOT
  62
1
  10
 104.99999798834
  20
 279.36972783894
  30
0.0
  11
 224.99999441206
  21
 300.52898318979
  31
0.0
   0
LINE
   5
186
 100
AcDbEntity
   8
LEVEL001
 100
AcDbLine
   6
DASHDOT
  62
1
  10
 104.99999798834
  20
 275.56974015922
  30
0.0
  11
 224.99999441206
  21
 296.72897262189
  31
0.0
   0
LINE
   5
187
 100
AcDbEntity
   8
LEVEL001
 100
AcDbLine
   6
CONTINUOUS
  62
7
  10
 260.00000862777
  20
 267.50000773370
  30
0.0
  11
 260.00000862777
  21
 167.49999164045
  31
0.0
   0
LINE
   5
188
 100
AcDbEntity
   8
LEVEL001
 100
AcDbLine
   6
CONTINUOUS
  62
7
  10
 272.99999298155
  20
 267.50000773370
  30
0.0
  11
 272.99999298155
  21
 167.49999164045
  31
0.0
   0
LINE
   5
189
 100
AcDbEntity
   8
LEVEL001
 100
AcDbLine
   6
CONTINUOUS
  62
7
  10
 221.99999450147
  20
 160.49999566376
  30
0.0
  11
 224.99999441206
  21
 157.49999575317
  31
0.0
   0
LINE
   5
18A
 100
AcDbEntity
   8
LEVEL001
 100
AcDbLine
   6
CONTINUOUS
  62
7
  10
 221.99999450147
  20
 141.50001148879
  30
0.0
  11
 224.99999441206
  21
 144.50001139939
  31
0.0
   0
ARC
   5
18B
 100
AcDbEntity
   8
LEVEL001
   6
CONTINUOUS
  62
7
 100
AcDbCircle
  10
 250.00000844896
  20
 167.49999593198
  30
0.0
  40
 10.000000178814
 100
AcDbArc
  50
 269.99995901886
  51
 0.65137758711619E-12
   0
ARC
   5
18C
 100
AcDbEntity
   8
LEVEL001
   6
CONTINUOUS
  62
7
 100
AcDbCircle
  10
 250.00000129640
  20
 167.49999164045
  30
0.0
  40
 22.999991685152
 100
AcDbArc
  50
 270.00000000000
  51
0.0
   0
ARC
   5
18D
 100
AcDbEntity
   8
LEVEL001
   6
CONTINUOUS
  62
7
 100
AcDbCircle
  10
 250.00000844897
  20
 267.49999199808
  30
0.0
  40
 10.000000178814
 100
AcDbArc
  50
 0.90158478496230E-4
  51
 90.000040981207
   0
ARC
   5
18E
 100
AcDbEntity
   8
LEVEL001
   6
CONTINUOUS
  62
7
 100
AcDbCircle
  10
 250.00000129641
  20
 267.49998484552
  30
0.0
  40
 22.999991685152
 100
AcDbArc
  50
 0.57017250812058E-4
  51
 90.000000000028
   0
LINE
   5
18F
 100
AcDbEntity
   8
LEVEL001
 100
AcDbLine
   6
CONTINUOUS
  62
7
  10
 221.99999450147
  20
 293.49999932945
  30
0.0
  11
 224.99999441206
  21
 290.49999941885
  31
0.0
   0
LINE
   5
190
 100
AcDbEntity
   8
LEVEL001
 100
AcDbLine
   6
CONTINUOUS
  62
7
  10
 221.99999450147
  20
 274.50001515448
  30
0.0
  11
 224.99999441206
  21
 277.50001506507
  31
0.0
   0
ARC
   5
191
 100
AcDbEntity
   8
LEVEL001
   6
DASHDOT
  62
1
 100
AcDbCircle
  10
 250.00000129640
  20
 267.50000773370
  30
0.0
  40
 16.499999508262
 100
AcDbArc
  50
0.0
  51
 90.000000000000
   0
LINE
   5
192
 100
AcDbEntity
   8
LEVEL001
 100
AcDbLine
   6
DASHDOT
  62
1
  10
 250.00000129640
  20
 284.00000724196
  30
0.0
  11
 221.99999450147
  21
 284.00000724196
  31
0.0
   0
LINE
   5
193
 100
AcDbEntity
   8
LEVEL001
 100
AcDbLine
   6
DASHDOT
  62
1
  10
 266.50000080466
  20
 167.49999164045
  30
0.0
  11
 266.50000080466
  21
 267.50000773370
  31
0.0
   0
ARC
   5
194
 100
AcDbEntity
   8
LEVEL001
   6
DASHDOT
  62
1
 100
AcDbCircle
  10
 250.00000129640
  20
 167.49999164045
  30
0.0
  40
 16.499999508262
 100
AcDbArc
  50
 270.00000000000
  51
 0.98693578511558E-13
   0
LINE
   5
195
 100
AcDbEntity
   8
LEVEL001
 100
AcDbLine
   6
DASHDOT
  62
1
  10
 221.99999450147
  20
 151.00000357628
  30
0.0
  11
 250.00000129640
  21
 151.00000357628
  31
0.0
   0
TEXT
   5
196
 100
AcDbEntity
   8
LEVEL003
  62
3
 100
AcDbText
  10
 235.49999409914
  20
 59.075241682671
  30
0.0
  40
 5.9999998211861
   1
２―ＮＰＴ３／８
   7
STANDARD
 100
AcDbText
   0
LEADER
   5
197
 100
AcDbEntity
   8
LEVEL003
   6
CONTINUOUS
  62
3
 100
AcDbLeader
   3
GMM001
  73
0
  74
1
  75
0
  40
 6.0000000000000
  41
0.0
  76
3
  10
 224.99999441206
  20
 76.075239268683
  30
0.0
  10
 235.49999409914
  20
 59.075241682671
  30
0.0
  10
 284.99999262393
  20
 59.075241682671
  30
0.0
  77
3
   0
LINE
   5
198
 100
AcDbEntity
   8
LEVEL001
 100
AcDbLine
   6
CONTINUOUS
  62
3
  10
 232.00000183284
  20
 93.143506582275
  30
0.0
  11
 228.38366893281
  21
 92.174512470528
  31
0.0
   0
LINE
   5
199
 100
AcDbEntity
   8
LEVEL001
 100
AcDbLine
   6
CONTINUOUS
  62
3
  10
 232.00000183284
  20
 75.856496904597
  30
0.0
  11
 228.38362315644
  21
 76.825502460435
  31
0.0
   0
LINE
   5
19A
 100
AcDbEntity
   8
LEVEL001
 100
AcDbLine
   6
CONTINUOUS
  62
7
  10
 232.00000183284
  20
 93.143506582275
  30
0.0
  11
 233.48352229644
  21
 94.000028163194
  31
0.0
   0
LINE
   5
19B
 100
AcDbEntity
   8
LEVEL001
 100
AcDbLine
   6
CONTINUOUS
  62
7
  10
 248.99999369681
  20
 94.000005275011
  30
0.0
  11
 233.48352229644
  21
 94.000005275011
  31
0.0
   0
LINE
   5
19C
 100
AcDbEntity
   8
LEVEL001
 100
AcDbLine
   6
CONTINUOUS
  62
7
  10
 232.00000183284
  20
 75.856496904597
  30
0.0
  11
 233.48352229644
  21
 74.999998211861
  31
0.0
   0
LINE
   5
19D
 100
AcDbEntity
   8
LEVEL001
 100
AcDbLine
   6
CONTINUOUS
  62
7
  10
 248.99999369681
  20
 74.999998211861
  30
0.0
  11
 233.48352229644
  21
 74.999998211861
  31
0.0
   0
ARC
   5
19E
 100
AcDbEntity
   8
LEVEL001
   6
CONTINUOUS
  62
7
 100
AcDbCircle
  10
 250.49999365211
  20
 97.499997541312
  30
0.0
  40
 1.4999999552965
 100
AcDbArc
  50
 89.999999999983
  51
 180.00000000014
   0
LINE
   5
19F
 100
AcDbEntity
   8
LEVEL001
 100
AcDbLine
   6
CONTINUOUS
  62
7
  10
 250.49999365211
  20
 98.999997496605
  30
0.0
  11
 255.49998587370
  21
 98.999997496605
  31
0.0
   0
ARC
   5
1A0
 100
AcDbEntity
   8
LEVEL001
   6
CONTINUOUS
  62
7
 100
AcDbCircle
  10
 250.49999365211
  20
 71.500000223517
  30
0.0
  40
 1.4999999552965
 100
AcDbArc
  50
 180.00000000000
  51
 269.99999999995
   0
LINE
   5
1A1
 100
AcDbEntity
   8
LEVEL001
 100
AcDbLine
   6
CONTINUOUS
  62
7
  10
 248.99999369681
  20
 71.500000223517
  30
0.0
  11
 248.99999369681
  21
 97.499997541308
  31
0.0
   0
LINE
   5
1A2
 100
AcDbEntity
   8
LEVEL001
 100
AcDbLine
   6
CONTINUOUS
  62
7
  10
 250.49999365211
  20
 70.000000268221
  30
0.0
  11
 255.49998587370
  21
 70.000000268221
  31
0.0
   0
ARC
   5
1A3
 100
AcDbEntity
   8
LEVEL001
   6
CONTINUOUS
  62
7
 100
AcDbCircle
  10
 271.49999302626
  20
 97.499997541309
  30
0.0
  40
 1.4999999552965
 100
AcDbArc
  50
0.0
  51
 89.999999999733
   0
LINE
   5
1A4
 100
AcDbEntity
   8
LEVEL001
 100
AcDbLine
   6
CONTINUOUS
  62
7
  10
 266.50000080466
  20
 98.999997496605
  30
0.0
  11
 271.49999302626
  21
 98.999997496605
  31
0.0
   0
ARC
   5
1A5
 100
AcDbEntity
   8
LEVEL001
   6
CONTINUOUS
  62
7
 100
AcDbCircle
  10
 271.49999302626
  20
 71.500000223509
  30
0.0
  40
 1.4999999552965
 100
AcDbArc
  50
 270.00000000000
  51
 0.30234777777017E-9
   0
LINE
   5
1A6
 100
AcDbEntity
   8
LEVEL001
 100
AcDbLine
   6
CONTINUOUS
  62
7
  10
 266.50000080466
  20
 70.000000268221
  30
0.0
  11
 271.49999302626
  21
 70.000000268221
  31
0.0
   0
LINE
   5
1A7
 100
AcDbEntity
   8
LEVEL001
 100
AcDbLine
   6
CONTINUOUS
  62
7
  10
 272.99999298155
  20
 97.499997541308
  30
0.0
  11
 272.99999298155
  21
 71.500000223517
  31
0.0
   0
ARC
   5
1A8
 100
AcDbEntity
   8
LEVEL001
   6
DASHDOT
  62
1
 100
AcDbCircle
  10
 282.00000031295
  20
 97.500005140926
  30
0.0
  40
 1.0000000000000
 100
AcDbArc
  50
0.0
  51
 90.000435425993
   0
LINE
   5
1A9
 100
AcDbEntity
   8
LEVEL001
 100
AcDbLine
   6
DASHDOT
  62
1
  10
 274.00000058115
  20
 98.500005140900
  30
0.0
  11
 281.99999271333
  21
 98.500005140900
  31
0.0
   0
ARC
   5
1AA
 100
AcDbEntity
   8
LEVEL001
   6
DASHDOT
  62
1
 100
AcDbCircle
  10
 282.00000031293
  20
 71.500004067995
  30
0.0
  40
 1.0000000000000
 100
AcDbArc
  50
 269.99956457503
  51
0.0
   0
LINE
   5
1AB
 100
AcDbEntity
   8
LEVEL001
 100
AcDbLine
   6
DASHDOT
  62
1
  10
 274.00000058115
  20
 70.500004068017
  30
0.0
  11
 281.99999271333
  21
 70.500004068017
  31
0.0
   0
LINE
   5
1AC
 100
AcDbEntity
   8
LEVEL001
 100
AcDbLine
   6
DASHDOT
  62
1
  10
 283.00000031292
  20
 97.499997541308
  30
0.0
  11
 283.00000031292
  21
 71.500000223517
  31
0.0
   0
CIRCLE
   5
1AD
 100
AcDbEntity
   8
LEVEL001
 100
AcDbCircle
   6
DASHDOT
  62
1
  10
 286.00000022352
  20
 84.500001743436
  30
0.0
  40
 1.4999999552965
   0
ARC
   5
1AE
 100
AcDbEntity
   8
LEVEL001
   6
DASHDOT
  62
1
 100
AcDbCircle
  10
 273.99999298155
  20
 71.500004067989
  30
0.0
  40
 1.0000000000000
 100
AcDbArc
  50
 180.00022027197
  51
 270.00043542467
   0
ARC
   5
1AF
 100
AcDbEntity
   8
LEVEL001
   6
DASHDOT
  62
1
 100
AcDbCircle
  10
 273.99999298152
  20
 97.500005140938
  30
0.0
  40
 1.0000000000000
 100
AcDbArc
  50
 89.999564573779
  51
 180.00043542674
   0
ARC
   5
1B0
 100
AcDbEntity
   8
LEVEL001
   6
DASHDOT
  62
1
 100
AcDbCircle
  10
 285.00000031291
  20
 90.000005453810
  30
0.0
  40
 2.0000000000000
 100
AcDbArc
  50
 180.00022027317
  51
 269.99977972673
   0
ARC
   5
1B1
 100
AcDbEntity
   8
LEVEL001
   6
DASHDOT
  62
1
 100
AcDbCircle
  10
 285.00000031291
  20
 78.999998033064
  30
0.0
  40
 2.0000000000000
 100
AcDbArc
  50
 90.000220273207
  51
 179.99977972688
   0
LINE
   5
1B2
 100
AcDbEntity
   8
LEVEL001
 100
AcDbLine
   6
DASHDOT
  62
1
  10
 284.99999262393
  20
 88.000005453825
  30
0.0
  11
 285.49998497963
  21
 88.000005453825
  31
0.0
   0
LINE
   5
1B3
 100
AcDbEntity
   8
LEVEL001
 100
AcDbLine
   6
DASHDOT
  62
1
  10
 284.99999262393
  20
 80.999998033047
  30
0.0
  11
 285.49998497963
  21
 80.999998033047
  31
0.0
   0
ARC
   5
1B4
 100
AcDbEntity
   8
LEVEL001
   6
DASHDOT
  62
1
 100
AcDbCircle
  10
 285.49998497963
  20
 84.500001743436
  30
0.0
  40
 3.5000037103890
 100
AcDbArc
  50
 270.00000000000
  51
 90.000000000000
   0
LINE
   5
1B5
 100
AcDbEntity
   8
LEVEL001
 100
AcDbLine
   6
CONTINUOUS
  62
7
  10
 233.48352229644
  20
 74.999998211861
  30
0.0
  11
 233.48352229644
  21
 78.669054041235
  31
0.0
   0
LINE
   5
1B6
 100
AcDbEntity
   8
LEVEL001
 100
AcDbLine
   6
CONTINUOUS
  62
7
  10
 233.48352229644
  20
 90.330949445637
  30
0.0
  11
 233.48352229644
  21
 94.000016719102
  31
0.0
   0
LINE
   5
1B7
 100
AcDbEntity
   8
LEVEL001
 100
AcDbLine
   6
CONTINUOUS
  62
7
  10
 227.99999432266
  20
 80.460821108198
  30
0.0
  11
 241.99998627603
  21
 90.330949445637
  31
0.0
   0
LINE
   5
1B8
 100
AcDbEntity
   8
LEVEL001
 100
AcDbLine
   6
CONTINUOUS
  62
7
  10
 227.99999432266
  20
 88.539182378674
  30
0.0
  11
 241.99998627603
  21
 78.669054041235
  31
0.0
   0
LINE
   5
1B9
 100
AcDbEntity
   8
LEVEL001
 100
AcDbLine
   6
CONTINUOUS
  62
3
  10
 228.38366893281
  20
 92.174501026437
  30
0.0
  11
 228.38366893281
  21
 88.539182378674
  31
0.0
   0
LINE
   5
1BA
 100
AcDbEntity
   8
LEVEL001
 100
AcDbLine
   6
CONTINUOUS
  62
3
  10
 228.38362315644
  20
 80.460821108198
  30
0.0
  11
 228.38362315644
  21
 76.825502460435
  31
0.0
   0
LINE
   5
1BB
 100
AcDbEntity
   8
LEVEL001
 100
AcDbLine
   6
CONTINUOUS
  62
7
  10
 232.00000183284
  20
 93.143506582275
  30
0.0
  11
 232.00000183284
  21
 88.796537107332
  31
0.0
   0
LINE
   5
1BC
 100
AcDbEntity
   8
LEVEL001
 100
AcDbLine
   6
CONTINUOUS
  62
7
  10
 232.00000183284
  20
 80.203466379539
  30
0.0
  11
 232.00000183284
  21
 75.856496904597
  31
0.0
   0
LINE
   5
1BD
 100
AcDbEntity
   8
LEVEL001
 100
AcDbLine
   6
CONTINUOUS
  62
3
  10
 255.49998587370
  20
 71.500000223517
  30
0.0
  11
 266.50000080466
  21
 71.500000223517
  31
0.0
   0
LINE
   5
1BE
 100
AcDbEntity
   8
LEVEL001
 100
AcDbLine
   6
CONTINUOUS
  62
3
  10
 255.49998587370
  20
 73.500003978610
  30
0.0
  11
 266.50000080466
  21
 73.500003978610
  31
0.0
   0
LINE
   5
1BF
 100
AcDbEntity
   8
LEVEL001
 100
AcDbLine
   6
CONTINUOUS
  62
3
  10
 255.49998587370
  20
 75.500002011657
  30
0.0
  11
 266.50000080466
  21
 75.500002011657
  31
0.0
   0
LINE
   5
1C0
 100
AcDbEntity
   8
LEVEL001
 100
AcDbLine
   6
CONTINUOUS
  62
3
  10
 255.49998587370
  20
 77.500005766749
  30
0.0
  11
 266.50000080466
  21
 77.500005766749
  31
0.0
   0
LINE
   5
1C1
 100
AcDbEntity
   8
LEVEL001
 100
AcDbLine
   6
CONTINUOUS
  62
3
  10
 255.49998587370
  20
 79.499998077750
  30
0.0
  11
 266.50000080466
  21
 79.499998077750
  31
0.0
   0
LINE
   5
1C2
 100
AcDbEntity
   8
LEVEL001
 100
AcDbLine
   6
CONTINUOUS
  62
3
  10
 255.49998587370
  20
 81.500001832843
  30
0.0
  11
 266.50000080466
  21
 81.500001832843
  31
0.0
   0
LINE
   5
1C3
 100
AcDbEntity
   8
LEVEL001
 100
AcDbLine
   6
CONTINUOUS
  62
3
  10
 255.49998587370
  20
 83.500005587935
  30
0.0
  11
 266.50000080466
  21
 83.500005587935
  31
0.0
   0
LINE
   5
1C4
 100
AcDbEntity
   8
LEVEL001
 100
AcDbLine
   6
CONTINUOUS
  62
3
  10
 255.49998587370
  20
 85.499997898936
  30
0.0
  11
 266.50000080466
  21
 85.499997898936
  31
0.0
   0
LINE
   5
1C5
 100
AcDbEntity
   8
LEVEL001
 100
AcDbLine
   6
CONTINUOUS
  62
3
  10
 255.49998587370
  20
 87.500001654029
  30
0.0
  11
 266.50000080466
  21
 87.500001654029
  31
0.0
   0
LINE
   5
1C6
 100
AcDbEntity
   8
LEVEL001
 100
AcDbLine
   6
CONTINUOUS
  62
3
  10
 255.49998587370
  20
 89.500005409121
  30
0.0
  11
 266.50000080466
  21
 89.500005409121
  31
0.0
   0
LINE
   5
1C7
 100
AcDbEntity
   8
LEVEL001
 100
AcDbLine
   6
CONTINUOUS
  62
3
  10
 255.49998587370
  20
 91.499997720122
  30
0.0
  11
 266.50000080466
  21
 91.499997720122
  31
0.0
   0
LINE
   5
1C8
 100
AcDbEntity
   8
LEVEL001
 100
AcDbLine
   6
CONTINUOUS
  62
3
  10
 255.49998587370
  20
 93.500001475215
  30
0.0
  11
 266.50000080466
  21
 93.500001475215
  31
0.0
   0
LINE
   5
1C9
 100
AcDbEntity
   8
LEVEL001
 100
AcDbLine
   6
CONTINUOUS
  62
3
  10
 255.49998587370
  20
 95.500005230307
  30
0.0
  11
 266.50000080466
  21
 95.500005230307
  31
0.0
   0
LINE
   5
1CA
 100
AcDbEntity
   8
LEVEL001
 100
AcDbLine
   6
CONTINUOUS
  62
3
  10
 255.49998587370
  20
 97.499997541308
  30
0.0
  11
 266.50000080466
  21
 97.499997541308
  31
0.0
   0
LINE
   5
1CB
 100
AcDbEntity
   8
LEVEL001
 100
AcDbLine
   6
CONTINUOUS
  62
7
  10
 227.99999432266
  20
 80.460821108198
  30
0.0
  11
 227.99999432266
  21
 88.539182378674
  31
0.0
   0
LINE
   5
1CC
 100
AcDbEntity
   8
LEVEL001
 100
AcDbLine
   6
CONTINUOUS
  62
7
  10
 227.99999432266
  20
 88.539182378674
  30
0.0
  11
 232.00000183284
  21
 88.796537107332
  31
0.0
   0
LINE
   5
1CD
 100
AcDbEntity
   8
LEVEL001
 100
AcDbLine
   6
CONTINUOUS
  62
7
  10
 232.00000183284
  20
 88.796537107332
  30
0.0
  11
 233.48352229644
  21
 90.330949445637
  31
0.0
   0
LINE
   5
1CE
 100
AcDbEntity
   8
LEVEL001
 100
AcDbLine
   6
CONTINUOUS
  62
7
  10
 233.48352229644
  20
 90.330949445637
  30
0.0
  11
 241.99998627603
  21
 90.330949445637
  31
0.0
   0
LINE
   5
1CF
 100
AcDbEntity
   8
LEVEL001
 100
AcDbLine
   6
CONTINUOUS
  62
7
  10
 241.99998627603
  20
 90.330949445637
  30
0.0
  11
 241.99998627603
  21
 78.669054041235
  31
0.0
   0
LINE
   5
1D0
 100
AcDbEntity
   8
LEVEL001
 100
AcDbLine
   6
CONTINUOUS
  62
7
  10
 241.99998627603
  20
 78.669054041235
  30
0.0
  11
 233.48352229644
  21
 78.669054041235
  31
0.0
   0
LINE
   5
1D1
 100
AcDbEntity
   8
LEVEL001
 100
AcDbLine
   6
CONTINUOUS
  62
7
  10
 233.48352229644
  20
 78.669054041235
  30
0.0
  11
 232.00000183284
  21
 80.203466379539
  31
0.0
   0
LINE
   5
1D2
 100
AcDbEntity
   8
LEVEL001
 100
AcDbLine
   6
CONTINUOUS
  62
7
  10
 232.00000183284
  20
 80.203466379539
  30
0.0
  11
 227.99999432266
  21
 80.460821108198
  31
0.0
   0
LINE
   5
1D3
 100
AcDbEntity
   8
LEVEL001
 100
AcDbLine
   6
CONTINUOUS
  62
7
  10
 255.49998587370
  20
 69.500002190471
  30
0.0
  11
 255.49998587370
  21
 99.500001296401
  31
0.0
   0
LINE
   5
1D4
 100
AcDbEntity
   8
LEVEL001
 100
AcDbLine
   6
CONTINUOUS
  62
7
  10
 255.49998587370
  20
 99.500001296401
  30
0.0
  11
 266.50000080466
  21
 99.500001296401
  31
0.0
   0
LINE
   5
1D5
 100
AcDbEntity
   8
LEVEL001
 100
AcDbLine
   6
CONTINUOUS
  62
7
  10
 266.50000080466
  20
 99.500001296401
  30
0.0
  11
 266.50000080466
  21
 69.500002190471
  31
0.0
   0
LINE
   5
1D6
 100
AcDbEntity
   8
LEVEL001
 100
AcDbLine
   6
CONTINUOUS
  62
7
  10
 266.50000080466
  20
 69.500002190471
  30
0.0
  11
 255.49998587370
  21
 69.500002190471
  31
0.0
   0
DIMENSION
   5
1D7
 100
AcDbEntity
   8
LEVEL003
   6
CONTINUOUS
  62
3
 100
AcDbDimension
   2
*D3
  10
 307.49999195337
  20
 52.499998882413
  30
0.0
  11
 307.49999195337
  21
 68.500000312924
  31
0.0
  70
128
   1
\A1;32
   3
GMM002
 100
AcDbAlignedDimension
  13
 292.00000004470
  23
 84.500001743436
  33
0.0
  14
 292.49999240041
  24
 52.499998882413
  34
0.0
  50
 270.00000000000
 100
AcDbRotatedDimension
   0
LINE
   5
1D9
 100
AcDbEntity
   8
LEVEL001
 100
AcDbLine
   6
CONTINUOUS
  62
3
  10
 232.00000183284
  20
 323.14353787471
  30
0.0
  11
 228.38366893281
  21
 322.17454376297
  31
0.0
   0
LINE
   5
1DA
 100
AcDbEntity
   8
LEVEL001
 100
AcDbLine
   6
CONTINUOUS
  62
3
  10
 232.00000183284
  20
 305.85650530885
  30
0.0
  11
 228.38362315644
  21
 306.82552230878
  31
0.0
   0
LINE
   5
1DB
 100
AcDbEntity
   8
LEVEL001
 100
AcDbLine
   6
CONTINUOUS
  62
7
  10
 232.00000183284
  20
 323.14353787471
  30
0.0
  11
 233.48352229644
  21
 324.00005945563
  31
0.0
   0
LINE
   5
1DC
 100
AcDbEntity
   8
LEVEL001
 100
AcDbLine
   6
CONTINUOUS
  62
7
  10
 248.99999369681
  20
 324.00001367927
  30
0.0
  11
 233.48352229644
  21
 324.00001367927
  31
0.0
   0
LINE
   5
1DD
 100
AcDbEntity
   8
LEVEL001
 100
AcDbLine
   6
CONTINUOUS
  62
7
  10
 232.00000183284
  20
 305.85650530885
  30
0.0
  11
 233.48352229644
  21
 305.00002950430
  31
0.0
   0
LINE
   5
1DE
 100
AcDbEntity
   8
LEVEL001
 100
AcDbLine
   6
CONTINUOUS
  62
7
  10
 248.99999369681
  20
 305.00002950430
  30
0.0
  11
 233.48352229644
  21
 305.00002950430
  31
0.0
   0
ARC
   5
1DF
 100
AcDbEntity
   8
LEVEL001
   6
CONTINUOUS
  62
7
 100
AcDbCircle
  10
 250.49999365210
  20
 327.50002883375
  30
0.0
  40
 1.4999999552965
 100
AcDbArc
  50
 89.999999999863
  51
 179.99999999994
   0
LINE
   5
1E0
 100
AcDbEntity
   8
LEVEL001
 100
AcDbLine
   6
CONTINUOUS
  62
7
  10
 250.49999365211
  20
 329.00002878904
  30
0.0
  11
 255.49998587370
  21
 329.00002878904
  31
0.0
   0
ARC
   5
1E1
 100
AcDbEntity
   8
LEVEL001
   6
CONTINUOUS
  62
7
 100
AcDbCircle
  10
 250.49999365210
  20
 301.50001434982
  30
0.0
  40
 1.4999999552965
 100
AcDbArc
  50
 180.00000000000
  51
 269.99999999997
   0
LINE
   5
1E2
 100
AcDbEntity
   8
LEVEL001
 100
AcDbLine
   6
CONTINUOUS
  62
7
  10
 248.99999369681
  20
 301.50001434982
  30
0.0
  11
 248.99999369681
  21
 327.50002883375
  31
0.0
   0
LINE
   5
1E3
 100
AcDbEntity
   8
LEVEL001
 100
AcDbLine
   6
CONTINUOUS
  62
7
  10
 250.49999365211
  20
 300.00001439452
  30
0.0
  11
 255.49998587370
  21
 300.00001439452
  31
0.0
   0
ARC
   5
1E4
 100
AcDbEntity
   8
LEVEL001
   6
CONTINUOUS
  62
7
 100
AcDbCircle
  10
 271.49999302625
  20
 327.50002883374
  30
0.0
  40
 1.4999999552965
 100
AcDbArc
  50
 0.99877901453449E-10
  51
 89.999999999646
   0
LINE
   5
1E5
 100
AcDbEntity
   8
LEVEL001
 100
AcDbLine
   6
CONTINUOUS
  62
7
  10
 266.50000080466
  20
 329.00002878904
  30
0.0
  11
 271.49999302626
  21
 329.00002878904
  31
0.0
   0
ARC
   5
1E6
 100
AcDbEntity
   8
LEVEL001
   6
CONTINUOUS
  62
7
 100
AcDbCircle
  10
 271.49999302626
  20
 301.50001434981
  30
0.0
  40
 1.4999999552965
 100
AcDbArc
  50
 270.00000000000
  51
 0.30831873927012E-9
   0
LINE
   5
1E7
 100
AcDbEntity
   8
LEVEL001
 100
AcDbLine
   6
CONTINUOUS
  62
7
  10
 266.50000080466
  20
 300.00001439452
  30
0.0
  11
 271.49999302626
  21
 300.00001439452
  31
0.0
   0
LINE
   5
1E8
 100
AcDbEntity
   8
LEVEL001
 100
AcDbLine
   6
CONTINUOUS
  62
7
  10
 272.99999298155
  20
 327.50002883375
  30
0.0
  11
 272.99999298155
  21
 301.50001434982
  31
0.0
   0
ARC
   5
1E9
 100
AcDbEntity
   8
LEVEL001
   6
DASHDOT
  62
1
 100
AcDbCircle
  10
 282.00000031304
  20
 327.50001354518
  30
0.0
  40
 1.0000000000000
 100
AcDbArc
  50
 0.87597022383723E-3
  51
 90.000435431399
   0
LINE
   5
1EA
 100
AcDbEntity
   8
LEVEL001
 100
AcDbLine
   6
DASHDOT
  62
1
  10
 274.00000058115
  20
 328.50001354516
  30
0.0
  11
 281.99999271333
  21
 328.50001354516
  31
0.0
   0
ARC
   5
1EB
 100
AcDbEntity
   8
LEVEL001
   6
DASHDOT
  62
1
 100
AcDbCircle
  10
 282.00000031304
  20
 301.50002963838
  30
0.0
  40
 1.0000000000000
 100
AcDbArc
  50
 269.99956456876
  51
0.0
   0
LINE
   5
1EC
 100
AcDbEntity
   8
LEVEL001
 100
AcDbLine
   6
DASHDOT
  62
1
  10
 274.00000058115
  20
 300.50002963841
  30
0.0
  11
 281.99999271333
  21
 300.50002963841
  31
0.0
   0
LINE
   5
1ED
 100
AcDbEntity
   8
LEVEL001
 100
AcDbLine
   6
DASHDOT
  62
1
  10
 283.00000031292
  20
 327.50002883375
  30
0.0
  11
 283.00000031292
  21
 301.50001434982
  31
0.0
   0
CIRCLE
   5
1EE
 100
AcDbEntity
   8
LEVEL001
 100
AcDbCircle
   6
DASHDOT
  62
1
  10
 286.00000022352
  20
 314.50002159178
  30
0.0
  40
 1.4999999552965
   0
ARC
   5
1EF
 100
AcDbEntity
   8
LEVEL001
   6
DASHDOT
  62
1
 100
AcDbCircle
  10
 273.99999298144
  20
 301.50002963838
  30
0.0
  40
 1.0000000000000
 100
AcDbArc
  50
 180.00087596992
  51
 270.00043543083
   0
ARC
   5
1F0
 100
AcDbEntity
   8
LEVEL001
   6
DASHDOT
  62
1
 100
AcDbCircle
  10
 273.99999298144
  20
 327.50001354518
  30
0.0
  40
 1.0000000000000
 100
AcDbArc
  50
 89.999564568757
  51
 179.99912402997
   0
ARC
   5
1F1
 100
AcDbEntity
   8
LEVEL001
   6
DASHDOT
  62
1
 100
AcDbCircle
  10
 285.00000031287
  20
 320.00001385806
  30
0.0
  40
 2.0000000000000
 100
AcDbArc
  50
 179.99956457503
  51
 269.99977972801
   0
ARC
   5
1F2
 100
AcDbEntity
   8
LEVEL001
   6
DASHDOT
  62
1
 100
AcDbCircle
  10
 285.00000031287
  20
 309.00002932550
  30
0.0
  40
 2.0000000000000
 100
AcDbArc
  50
 90.000220271995
  51
 180.00043542494
   0
LINE
   5
1F3
 100
AcDbEntity
   8
LEVEL001
 100
AcDbLine
   6
DASHDOT
  62
1
  10
 284.99999262393
  20
 318.00001385808
  30
0.0
  11
 285.49998497963
  21
 318.00001385808
  31
0.0
   0
LINE
   5
1F4
 100
AcDbEntity
   8
LEVEL001
 100
AcDbLine
   6
DASHDOT
  62
1
  10
 284.99999262393
  20
 311.00002932548
  30
0.0
  11
 285.49998497963
  21
 311.00002932548
  31
0.0
   0
ARC
   5
1F5
 100
AcDbEntity
   8
LEVEL001
   6
DASHDOT
  62
1
 100
AcDbCircle
  10
 285.49256375164
  20
 314.50002159178
  30
0.0
  40
 3.5000001341104
 100
AcDbArc
  50
 270.12148724139
  51
 89.878512758608
   0
LINE
   5
1F6
 100
AcDbEntity
   8
LEVEL001
 100
AcDbLine
   6
CONTINUOUS
  62
7
  10
 233.48352229644
  20
 305.00002950430
  30
0.0
  11
 233.48352229644
  21
 308.66907388958
  31
0.0
   0
LINE
   5
1F7
 100
AcDbEntity
   8
LEVEL001
 100
AcDbLine
   6
CONTINUOUS
  62
7
  10
 233.48352229644
  20
 320.33096929398
  30
0.0
  11
 233.48352229644
  21
 324.00003656745
  31
0.0
   0
LINE
   5
1F8
 100
AcDbEntity
   8
LEVEL001
 100
AcDbLine
   6
CONTINUOUS
  62
7
  10
 227.99999432266
  20
 310.46082951245
  30
0.0
  11
 241.99998627603
  21
 320.33096929398
  31
0.0
   0
LINE
   5
1F9
 100
AcDbEntity
   8
LEVEL001
 100
AcDbLine
   6
CONTINUOUS
  62
7
  10
 227.99999432266
  20
 318.53921367111
  30
0.0
  11
 241.99998627603
  21
 308.66907388958
  31
0.0
   0
LINE
   5
1FA
 100
AcDbEntity
   8
LEVEL001
 100
AcDbLine
   6
CONTINUOUS
  62
3
  10
 228.38366893281
  20
 322.17452087478
  30
0.0
  11
 228.38366893281
  21
 318.53921367111
  31
0.0
   0
LINE
   5
1FB
 100
AcDbEntity
   8
LEVEL001
 100
AcDbLine
   6
CONTINUOUS
  62
3
  10
 228.38362315644
  20
 310.46082951245
  30
0.0
  11
 228.38362315644
  21
 306.82552230878
  31
0.0
   0
LINE
   5
1FC
 100
AcDbEntity
   8
LEVEL001
 100
AcDbLine
   6
CONTINUOUS
  62
7
  10
 232.00000183284
  20
 323.14353787471
  30
0.0
  11
 232.00000183284
  21
 318.79656839977
  31
0.0
   0
LINE
   5
1FD
 100
AcDbEntity
   8
LEVEL001
 100
AcDbLine
   6
CONTINUOUS
  62
7
  10
 232.00000183284
  20
 310.20347478379
  30
0.0
  11
 232.00000183284
  21
 305.85650530885
  31
0.0
   0
LINE
   5
1FE
 100
AcDbEntity
   8
LEVEL001
 100
AcDbLine
   6
CONTINUOUS
  62
3
  10
 255.49998587370
  20
 301.50001434982
  30
0.0
  11
 266.50000080466
  21
 301.50001434982
  31
0.0
   0
LINE
   5
1FF
 100
AcDbEntity
   8
LEVEL001
 100
AcDbLine
   6
CONTINUOUS
  62
3
  10
 255.49998587370
  20
 303.50002954900
  30
0.0
  11
 266.50000080466
  21
 303.50002954900
  31
0.0
   0
LINE
   5
200
 100
AcDbEntity
   8
LEVEL001
 100
AcDbLine
   6
CONTINUOUS
  62
3
  10
 255.49998587370
  20
 305.50002186000
  30
0.0
  11
 266.50000080466
  21
 305.50002186000
  31
0.0
   0
LINE
   5
201
 100
AcDbEntity
   8
LEVEL001
 100
AcDbLine
   6
CONTINUOUS
  62
3
  10
 255.49998587370
  20
 307.50001417100
  30
0.0
  11
 266.50000080466
  21
 307.50001417100
  31
0.0
   0
LINE
   5
202
 100
AcDbEntity
   8
LEVEL001
 100
AcDbLine
   6
CONTINUOUS
  62
3
  10
 255.49998587370
  20
 309.50002937019
  30
0.0
  11
 266.50000080466
  21
 309.50002937019
  31
0.0
   0
LINE
   5
203
 100
AcDbEntity
   8
LEVEL001
 100
AcDbLine
   6
CONTINUOUS
  62
3
  10
 255.49998587370
  20
 311.50002168119
  30
0.0
  11
 266.50000080466
  21
 311.50002168119
  31
0.0
   0
LINE
   5
204
 100
AcDbEntity
   8
LEVEL001
 100
AcDbLine
   6
CONTINUOUS
  62
3
  10
 255.49998587370
  20
 313.50001399219
  30
0.0
  11
 266.50000080466
  21
 313.50001399219
  31
0.0
   0
LINE
   5
205
 100
AcDbEntity
   8
LEVEL001
 100
AcDbLine
   6
CONTINUOUS
  62
3
  10
 255.49998587370
  20
 315.50002919137
  30
0.0
  11
 266.50000080466
  21
 315.50002919137
  31
0.0
   0
LINE
   5
206
 100
AcDbEntity
   8
LEVEL001
 100
AcDbLine
   6
CONTINUOUS
  62
3
  10
 255.49998587370
  20
 317.50002150237
  30
0.0
  11
 266.50000080466
  21
 317.50002150237
  31
0.0
   0
LINE
   5
207
 100
AcDbEntity
   8
LEVEL001
 100
AcDbLine
   6
CONTINUOUS
  62
3
  10
 255.49998587370
  20
 319.50001381338
  30
0.0
  11
 266.50000080466
  21
 319.50001381338
  31
0.0
   0
LINE
   5
208
 100
AcDbEntity
   8
LEVEL001
 100
AcDbLine
   6
CONTINUOUS
  62
3
  10
 255.49998587370
  20
 321.50002901256
  30
0.0
  11
 266.50000080466
  21
 321.50002901256
  31
0.0
   0
LINE
   5
209
 100
AcDbEntity
   8
LEVEL001
 100
AcDbLine
   6
CONTINUOUS
  62
3
  10
 255.49998587370
  20
 323.50002132356
  30
0.0
  11
 266.50000080466
  21
 323.50002132356
  31
0.0
   0
LINE
   5
20A
 100
AcDbEntity
   8
LEVEL001
 100
AcDbLine
   6
CONTINUOUS
  62
3
  10
 255.49998587370
  20
 325.50001363456
  30
0.0
  11
 266.50000080466
  21
 325.50001363456
  31
0.0
   0
LINE
   5
20B
 100
AcDbEntity
   8
LEVEL001
 100
AcDbLine
   6
CONTINUOUS
  62
3
  10
 255.49998587370
  20
 327.50002883375
  30
0.0
  11
 266.50000080466
  21
 327.50002883375
  31
0.0
   0
LINE
   5
20C
 100
AcDbEntity
   8
LEVEL001
 100
AcDbLine
   6
CONTINUOUS
  62
7
  10
 227.99999432266
  20
 310.46082951245
  30
0.0
  11
 227.99999432266
  21
 318.53921367111
  31
0.0
   0
LINE
   5
20D
 100
AcDbEntity
   8
LEVEL001
 100
AcDbLine
   6
CONTINUOUS
  62
7
  10
 227.99999432266
  20
 318.53921367111
  30
0.0
  11
 232.00000183284
  21
 318.79656839977
  31
0.0
   0
LINE
   5
20E
 100
AcDbEntity
   8
LEVEL001
 100
AcDbLine
   6
CONTINUOUS
  62
7
  10
 232.00000183284
  20
 318.79656839977
  30
0.0
  11
 233.48352229644
  21
 320.33096929398
  31
0.0
   0
LINE
   5
20F
 100
AcDbEntity
   8
LEVEL001
 100
AcDbLine
   6
CONTINUOUS
  62
7
  10
 233.48352229644
  20
 320.33096929398
  30
0.0
  11
 241.99998627603
  21
 320.33096929398
  31
0.0
   0
LINE
   5
210
 100
AcDbEntity
   8
LEVEL001
 100
AcDbLine
   6
CONTINUOUS
  62
7
  10
 241.99998627603
  20
 320.33096929398
  30
0.0
  11
 241.99998627603
  21
 308.66907388958
  31
0.0
   0
LINE
   5
211
 100
AcDbEntity
   8
LEVEL001
 100
AcDbLine
   6
CONTINUOUS
  62
7
  10
 241.99998627603
  20
 308.66907388958
  30
0.0
  11
 233.48352229644
  21
 308.66907388958
  31
0.0
   0
LINE
   5
212
 100
AcDbEntity
   8
LEVEL001
 100
AcDbLine
   6
CONTINUOUS
  62
7
  10
 233.48352229644
  20
 308.66907388958
  30
0.0
  11
 232.00000183284
  21
 310.20347478379
  31
0.0
   0
LINE
   5
213
 100
AcDbEntity
   8
LEVEL001
 100
AcDbLine
   6
CONTINUOUS
  62
7
  10
 232.00000183284
  20
 310.20347478379
  30
0.0
  11
 227.99999432266
  21
 310.46082951245
  31
0.0
   0
LINE
   5
214
 100
AcDbEntity
   8
LEVEL001
 100
AcDbLine
   6
CONTINUOUS
  62
7
  10
 255.49998587370
  20
 299.50002203882
  30
0.0
  11
 255.49998587370
  21
 329.50002114475
  31
0.0
   0
LINE
   5
215
 100
AcDbEntity
   8
LEVEL001
 100
AcDbLine
   6
CONTINUOUS
  62
7
  10
 255.49998587370
  20
 329.50002114475
  30
0.0
  11
 266.50000080466
  21
 329.50002114475
  31
0.0
   0
LINE
   5
216
 100
AcDbEntity
   8
LEVEL001
 100
AcDbLine
   6
CONTINUOUS
  62
7
  10
 266.50000080466
  20
 329.50002114475
  30
0.0
  11
 266.50000080466
  21
 299.50002203882
  31
0.0
   0
LINE
   5
217
 100
AcDbEntity
   8
LEVEL001
 100
AcDbLine
   6
CONTINUOUS
  62
7
  10
 266.50000080466
  20
 299.50002203882
  30
0.0
  11
 255.49998587370
  21
 299.50002203882
  31
0.0
   0
LEADER
   5
218
 100
AcDbEntity
   8
LEVEL003
   6
CONTINUOUS
  62
3
 100
AcDbLeader
   3
GMM003
  73
0
  74
1
  75
0
  40
 6.0000000000000
  41
0.0
  76
3
  10
 119.00000138581
  20
 52.499998882413
  30
0.0
  10
 104.99999798834
  20
 37.499999329448
  30
0.0
  10
 59.999999329448
  20
 37.499999329448
  30
0.0
  77
3
   0
TEXT
   5
219
 100
AcDbEntity
   8
LEVEL003
  62
3
 100
AcDbText
  10
 59.999999329448
  20
 37.499999329448
  30
0.0
  40
 5.9999998211861
   1
４－Ｍ１０
   7
STANDARD
 100
AcDbText
   0
TEXT
   5
21A
 100
AcDbEntity
   8
LEVEL003
  62
3
 100
AcDbText
  10
 59.999999329448
  20
 29.499999567866
  30
0.0
  40
 5.9999998211861
   1
タップ　１５
   7
STANDARD
 100
AcDbText
   0
TEXT
   5
21B
 100
AcDbEntity
   8
LEVEL003
  62
3
 100
AcDbText
  10
 59.999999329448
  20
 21.499999806285
  30
0.0
  40
 5.9999998211861
   1
ポートに対し４５%%d振り
   7
STANDARD
 100
AcDbText
   0
DIMENSION
   5
21C
 100
AcDbEntity
   8
LEVEL003
   6
CONTINUOUS
  62
3
 100
AcDbDimension
   2
*D5
  10
 292.49999240041
  20
 157.49999575317
  30
0.0
  11
 292.49999240041
  21
 217.49999396503
  31
0.0
  70
128
   1
\A1;120
   3
GMM004
 100
AcDbAlignedDimension
  13
 250.00000129640
  23
 277.49999217689
  33
0.0
  14
 250.00000129640
  24
 157.49999575317
  34
0.0
  50
 270.00000000000
 100
AcDbRotatedDimension
   0
DIMENSION
   5
21E
 100
AcDbEntity
   8
LEVEL003
   6
CONTINUOUS
  62
3
 100
AcDbDimension
   2
*D6
  10
 196.00000290573
  20
 419.99998793006
  30
0.0
  11
 164.99999620020
  21
 419.99998793006
  31
0.0
  70
128
   1
\A1;%%c62
   3
GMM005
 100
AcDbAlignedDimension
  13
 134.00000093877
  23
 391.49998877943
  33
0.0
  14
 196.00000290573
  24
 391.49998877943
  34
0.0
 100
AcDbRotatedDimension
   0
DIMENSION
   5
220
 100
AcDbEntity
   8
LEVEL003
   6
CONTINUOUS
  62
3
 100
AcDbDimension
   2
*D7
  10
 307.49999195337
  20
 379.50003491342
  30
0.0
  11
 307.49999195337
  21
 386.00004997849
  31
0.0
  70
128
   1
\A1;13
   3
GMM002
 100
AcDbAlignedDimension
  13
 292.49999240041
  23
 392.50001926720
  33
0.0
  14
 217.49999463558
  24
 379.50003491342
  34
0.0
  50
 270.00000000000
 100
AcDbRotatedDimension
   0
DIMENSION
   5
222
 100
AcDbEntity
   8
LEVEL003
   6
CONTINUOUS
  62
3
 100
AcDbDimension
   2
*D8
  10
 292.49999240041
  20
 382.12132694956
  30
0.0
  11
 292.49999240041
  21
 387.31067310838
  31
0.0
  70
128
   1
\A1;10
   3
GMM002
 100
AcDbAlignedDimension
  13
 277.49999284744
  23
 392.50001926720
  33
0.0
  14
 197.84467600749
  24
 382.12132694956
  34
0.0
  50
 270.00000000000
 100
AcDbRotatedDimension
   0
DIMENSION
   5
224
 100
AcDbEntity
   8
LEVEL003
   6
CONTINUOUS
  62
3
 100
AcDbDimension
   2
*D9
  10
 292.49999240041
  20
 339.50002847612
  30
0.0
  11
 292.49999240041
  21
 359.50002025068
  31
0.0
  70
128
   1
\A1;40
   3
GMM002
 100
AcDbAlignedDimension
  13
 277.49999284744
  23
 379.50003491342
  33
0.0
  14
 223.00000210106
  24
 339.50002847612
  34
0.0
  50
 270.00000000000
 100
AcDbRotatedDimension
   0
DIMENSION
   5
226
 100
AcDbEntity
   8
LEVEL003
   6
CONTINUOUS
  62
3
 100
AcDbDimension
   2
*D10
  10
 277.49999284744
  20
 374.50001980364
  30
0.0
  11
 277.49999284744
  21
 370.15487711451
  31
0.0
  70
128
   1
\A1;5
   3
GMM002
 100
AcDbAlignedDimension
  13
 262.49999329448
  23
 379.50003491342
  33
0.0
  14
 223.00000210106
  24
 374.50001980364
  34
0.0
  50
 270.00000000000
 100
AcDbRotatedDimension
   0
DIMENSION
   5
228
 100
AcDbEntity
   8
LEVEL003
   6
CONTINUOUS
  62
3
 100
AcDbDimension
   2
*D11
  10
 307.49999195337
  20
 379.50003491342
  30
0.0
  11
 307.49999195337
  21
 347.00002825260
  31
0.0
  70
128
   1
\A1;65
   3
GMM002
 100
AcDbAlignedDimension
  13
 292.00000004470
  23
 314.50002159178
  33
0.0
  14
 292.49999240041
  24
 379.50003491342
  34
0.0
  50
 90.000000000000
 100
AcDbRotatedDimension
   0
DIMENSION
   5
22A
 100
AcDbEntity
   8
LEVEL003
   6
CONTINUOUS
  62
3
 100
AcDbDimension
   2
*D12
  10
 221.99999450147
  20
 172.49999530613
  30
0.0
  11
 164.99999620020
  21
 172.49999530613
  31
0.0
  70
128
   1
\A1;%%c114
   3
GMM006
 100
AcDbAlignedDimension
  13
 107.99999789894
  23
 172.49999530613
  33
0.0
  14
 221.99999450147
  24
 172.49999530613
  34
0.0
 100
AcDbRotatedDimension
   0
DIMENSION
   5
22C
 100
AcDbEntity
   8
LEVEL003
   6
CONTINUOUS
  62
3
 100
AcDbDimension
   2
*D13
  10
 272.99999298155
  20
 172.49999530613
  30
0.0
  11
 247.49999374151
  21
 172.49999530613
  31
0.0
  70
128
   1
\A1;51
   3
GMM007
 100
AcDbAlignedDimension
  13
 221.99999450147
  23
 172.49999530613
  33
0.0
  14
 272.99999298155
  24
 172.49999530613
  34
0.0
 100
AcDbRotatedDimension
   0
DIMENSION
   5
22E
 100
AcDbEntity
   8
LEVEL003
   6
CONTINUOUS
  62
3
 100
AcDbDimension
   2
*D14
  10
 322.49999150634
  20
 52.499998882413
  30
0.0
  11
 322.49999150634
  21
 222.50000907481
  31
0.0
  70
128
   1
\A1;415
   3
GMM002
 100
AcDbAlignedDimension
  13
 194.99999530613
  23
 392.50001926720
  33
0.0
  14
 220.00000219047
  24
 52.499998882413
  34
0.0
  50
 270.00000000000
 100
AcDbRotatedDimension
   0
LINE
   5
230
 100
AcDbEntity
   8
LEVEL001
 100
AcDbLine
   6
CONTINUOUS
  62
7
  10
 221.99999450147
  20
 299.99999150634
  30
0.0
  11
 221.99999450147
  21
 329.50002114475
  31
0.0
   0
DIMENSION
   5
231
 100
AcDbEntity
   8
LEVEL003
   6
CONTINUOUS
  62
3
 100
AcDbDimension
   2
*D15
  10
 172.50000000000
  20
 352.50003571808
  30
0.0
  11
 172.50000000000
  21
 367.50003527105
  31
0.0
  70
128
   1
\A1;30
   3
GMM002
 100
AcDbAlignedDimension
  13
 188.99999548495
  23
 382.50003482401
  33
0.0
  14
 188.00001077354
  24
 352.50003571808
  34
0.0
  50
 270.00000000000
 100
AcDbRotatedDimension
   0
ARC
   5
233
 100
AcDbEntity
   8
LEVEL001
   6
DOT
  62
3
 100
AcDbCircle
  10
 188.99999548495
  20
 380.24998911470
  30
0.0
  40
 0.74999997764826
 100
AcDbArc
  50
 180.00000000000
  51
 269.99999999997
   0
ARC
   5
234
 100
AcDbEntity
   8
LEVEL001
   6
DOT
  62
3
 100
AcDbCircle
  10
 188.99999548495
  20
 381.75008062271
  30
0.0
  40
 0.74999997764826
 100
AcDbArc
  50
 90.000000000000
  51
 179.99999999781
   0
LINE
   5
235
 100
AcDbEntity
   8
LEVEL001
 100
AcDbLine
   6
DOT
  62
3
  10
 188.24999550730
  20
 380.24998911470
  30
0.0
  11
 188.24999550730
  21
 381.75008062273
  31
0.0
   0
ARC
   5
236
 100
AcDbEntity
   8
LEVEL001
   6
DOT
  62
3
 100
AcDbCircle
  10
 183.31981636604
  20
 391.50001926720
  30
0.0
  40
 1.0000000000000
 100
AcDbArc
  50
 90.000236198977
  51
 168.68976925957
   0
LINE
   5
237
 100
AcDbEntity
   8
LEVEL001
 100
AcDbLine
   6
DOT
  62
3
  10
 182.33923671129
  20
 391.69614050698
  30
0.0
  11
 181.49999570847
  21
 387.50004993379
  31
0.0
   0
LINE
   5
238
 100
AcDbEntity
   8
LEVEL001
 100
AcDbLine
   6
DOT
  62
3
  10
 188.99999548495
  20
 382.50003482401
  30
0.0
  11
 188.99999548495
  21
 379.49998913705
  31
0.0
   0
LINE
   5
239
 100
AcDbEntity
   8
LEVEL001
 100
AcDbLine
   6
DOT
  62
3
  10
 188.99999548495
  20
 352.50003571808
  30
0.0
  11
 188.00002221763
  21
 348.76807171798
  31
0.0
   0
LINE
   5
23A
 100
AcDbEntity
   8
LEVEL001
 100
AcDbLine
   6
DOT
  62
3
  10
 198.49998757243
  20
 379.50003491342
  30
0.0
  11
 198.49998757243
  21
 295.85631295454
  31
0.0
   0
LINE
   5
23B
 100
AcDbEntity
   8
LEVEL001
 100
AcDbLine
   6
DOT
  62
3
  10
 188.25000695139
  20
 352.50003571808
  30
0.0
  11
 188.00001077354
  21
 352.50003571808
  31
0.0
   0
LINE
   5
23C
 100
AcDbEntity
   8
LEVEL001
 100
AcDbLine
   6
DOT
  62
3
  10
 181.49999570847
  20
 387.50004993379
  30
0.0
  11
 181.49999570847
  21
 362.50002016127
  31
0.0
   0
ARC
   5
23D
 100
AcDbEntity
   8
LEVEL001
   6
DOT
  62
3
 100
AcDbCircle
  10
 183.31981636604
  20
 358.50002793967
  30
0.0
  40
 1.0000000000000
 100
AcDbArc
  50
 191.31023074018
  51
 269.99976380130
   0
LINE
   5
23E
 100
AcDbEntity
   8
LEVEL001
 100
AcDbLine
   6
DOT
  62
3
  10
 181.49999570847
  20
 362.50002016127
  30
0.0
  11
 182.33923671129
  21
 358.30390669990
  31
0.0
   0
LINE
   5
23F
 100
AcDbEntity
   8
LEVEL001
 100
AcDbLine
   6
DOT
  62
3
  10
 188.24999550730
  20
 357.50002793968
  30
0.0
  11
 188.99999548495
  21
 358.25002791732
  31
0.0
   0
LINE
   5
240
 100
AcDbEntity
   8
LEVEL001
 100
AcDbLine
   6
DOT
  62
3
  10
 188.99999548495
  20
 358.25002791732
  30
0.0
  11
 188.99999548495
  21
 379.49998913705
  31
0.0
   0
LINE
   5
241
 100
AcDbEntity
   8
LEVEL001
 100
AcDbLine
   6
DOT
  62
3
  10
 188.99999548495
  20
 382.50003482401
  30
0.0
  11
 188.24999550730
  21
 381.75003484636
  31
0.0
   0
LINE
   5
242
 100
AcDbEntity
   8
LEVEL001
 100
AcDbLine
   6
DOT
  62
3
  10
 188.24999550730
  20
 381.75003484636
  30
0.0
  11
 188.24999550730
  21
 352.50003571808
  31
0.0
   0
LINE
   5
243
 100
AcDbEntity
   8
LEVEL001
 100
AcDbLine
   6
DOT
  62
3
  10
 188.99999548495
  20
 358.25002791732
  30
0.0
  11
 188.99999548495
  21
 352.50003571808
  31
0.0
   0
LINE
   5
244
 100
AcDbEntity
   8
LEVEL001
 100
AcDbLine
   6
DOT
  62
3
  10
 188.99999548495
  20
 352.50003571808
  30
0.0
  11
 188.25000695139
  21
 352.50003571808
  31
0.0
   0
LINE
   5
245
 100
AcDbEntity
   8
LEVEL001
 100
AcDbLine
   6
DOT
  62
3
  10
 183.31981224359
  20
 357.50002793968
  30
0.0
  11
 188.24999550730
  21
 357.50002793968
  31
0.0
   0
LINE
   5
246
 100
AcDbEntity
   8
LEVEL001
 100
AcDbLine
   6
DOT
  62
3
  10
 198.49998757243
  20
 292.05632719230
  30
0.0
  11
 198.49998757243
  21
 147.49999986589
  31
0.0
   0
LINE
   5
247
 100
AcDbEntity
   8
LEVEL001
 100
AcDbLine
   6
DOT
  62
3
  10
 209.99999485910
  20
 92.499993875623
  30
0.0
  11
 209.99999485910
  21
 294.08408286917
  31
0.0
   0
LINE
   5
248
 100
AcDbEntity
   8
LEVEL001
 100
AcDbLine
   6
DOT
  62
3
  10
 187.49999552965
  20
 73.499998256564
  30
0.0
  11
 187.49999552965
  21
 290.11671390782
  31
0.0
   0
LINE
   5
249
 100
AcDbEntity
   8
LEVEL001
 100
AcDbLine
   6
DOT
  62
3
  10
 182.50001475215
  20
 312.50002928078
  30
0.0
  11
 181.49999570847
  21
 307.49999128282
  31
0.0
   0
LINE
   5
24A
 100
AcDbEntity
   8
LEVEL001
 100
AcDbLine
   6
DOT
  62
3
  10
 186.49998793006
  20
 312.50000639260
  30
0.0
  11
 187.49999552965
  21
 307.49999128282
  31
0.0
   0
LINE
   5
24B
 100
AcDbEntity
   8
LEVEL001
 100
AcDbLine
   6
DOT
  62
3
  10
 181.49999570847
  20
 307.49999128282
  30
0.0
  11
 181.49999570847
  21
 292.85874110881
  31
0.0
   0
LINE
   5
24C
 100
AcDbEntity
   8
LEVEL001
 100
AcDbLine
   6
DOT
  62
3
  10
 187.49999552965
  20
 293.91670158754
  30
0.0
  11
 187.49999552965
  21
 307.49999128282
  31
0.0
   0
LINE
   5
24D
 100
AcDbEntity
   8
LEVEL001
 100
AcDbLine
   6
DOT
  62
3
  10
 186.49998793006
  20
 312.50000639260
  30
0.0
  11
 182.50001475215
  21
 312.50000639260
  31
0.0
   0
LINE
   5
24E
 100
AcDbEntity
   8
LEVEL001
 100
AcDbLine
   6
DOT
  62
3
  10
 188.00001077354
  20
 312.50000639260
  30
0.0
  11
 188.00001077354
  21
 352.50003571808
  31
0.0
   0
LINE
   5
24F
 100
AcDbEntity
   8
LEVEL001
 100
AcDbLine
   6
CONTINUOUS
  62
7
  10
 232.00000183284
  20
 305.85650530885
  30
0.0
  11
 221.99999450147
  21
 306.16902434245
  31
0.0
   0
LINE
   5
250
 100
AcDbEntity
   8
LEVEL001
 100
AcDbLine
   6
CONTINUOUS
  62
3
  10
 228.38362315644
  20
 306.82552230878
  30
0.0
  11
 221.99999450147
  21
 307.02500693451
  31
0.0
   0
LINE
   5
251
 100
AcDbEntity
   8
LEVEL001
 100
AcDbLine
   6
CONTINUOUS
  62
3
  10
 228.38366893281
  20
 322.17452087478
  30
0.0
  11
 221.99999450147
  21
 321.97503607513
  31
0.0
   0
LINE
   5
252
 100
AcDbEntity
   8
LEVEL001
 100
AcDbLine
   6
CONTINUOUS
  62
7
  10
 232.00000183284
  20
 323.14353787471
  30
0.0
  11
 221.99999450147
  21
 322.83101884111
  31
0.0
   0
LINE
   5
253
 100
AcDbEntity
   8
LEVEL001
 100
AcDbLine
   6
CONTINUOUS
  62
7
  10
 224.99999441206
  20
 290.49999941885
  30
0.0
  11
 250.00000129640
  21
 290.49999941885
  31
0.0
   0
LINE
   5
254
 100
AcDbEntity
   8
LEVEL001
 100
AcDbLine
   6
CONTINUOUS
  62
7
  10
 224.99997152388
  20
 277.49999217689
  30
0.0
  11
 250.00000129640
  21
 277.49999217689
  31
0.0
   0
LINE
   5
255
 100
AcDbEntity
   8
LEVEL001
 100
AcDbLine
   6
CONTINUOUS
  62
7
  10
 224.99999441206
  20
 290.49999941885
  30
0.0
  11
 224.99997152388
  21
 277.49999217689
  31
0.0
   0
LINE
   5
256
 100
AcDbEntity
   8
LEVEL001
 100
AcDbLine
   6
CONTINUOUS
  62
7
  10
 224.99999441206
  20
 157.49999575317
  30
0.0
  11
 224.99999441206
  21
 144.50001139939
  31
0.0
   0
LINE
   5
257
 100
AcDbEntity
   8
LEVEL001
 100
AcDbLine
   6
CONTINUOUS
  62
7
  10
 250.00000129640
  20
 157.49999575317
  30
0.0
  11
 224.99999441206
  21
 157.49999575317
  31
0.0
   0
LINE
   5
258
 100
AcDbEntity
   8
LEVEL001
 100
AcDbLine
   6
CONTINUOUS
  62
7
  10
 250.00000129640
  20
 144.49999995530
  30
0.0
  11
 224.99999441206
  21
 144.49999995530
  31
0.0
   0
LINE
   5
259
 100
AcDbEntity
   8
LEVEL001
 100
AcDbLine
   6
CONTINUOUS
  62
7
  10
 221.99999450147
  20
 54.499996915460
  30
0.0
  11
 221.99999450147
  21
 296.20000382662
  31
0.0
   0
LINE
   5
25A
 100
AcDbEntity
   8
LEVEL001
 100
AcDbLine
   6
DOT
  62
3
  10
 181.49999570847
  20
 58.499992981553
  30
0.0
  11
 182.33921382310
  21
 54.303879520181
  31
0.0
   0
LINE
   5
25B
 100
AcDbEntity
   8
LEVEL001
 100
AcDbLine
   6
DOT
  62
3
  10
 181.49999570847
  20
 289.05875342909
  30
0.0
  11
 181.49999570847
  21
 58.499992981553
  31
0.0
   0
LINE
   5
25C
 100
AcDbEntity
   8
LEVEL001
 100
AcDbLine
   6
CONTINUOUS
  62
3
  10
 228.38366893281
  20
 92.174501026437
  30
0.0
  11
 221.99999450147
  21
 91.974996121481
  31
0.0
   0
LINE
   5
25D
 100
AcDbEntity
   8
LEVEL001
 100
AcDbLine
   6
CONTINUOUS
  62
7
  10
 232.00000183284
  20
 93.143506582275
  30
0.0
  11
 221.99999450147
  21
 92.830994234716
  31
0.0
   0
LINE
   5
25E
 100
AcDbEntity
   8
LEVEL001
 100
AcDbLine
   6
CONTINUOUS
  62
3
  10
 228.38362315644
  20
 76.825502460435
  30
0.0
  11
 221.99999450147
  21
 77.024997138804
  31
0.0
   0
LINE
   5
25F
 100
AcDbEntity
   8
LEVEL001
 100
AcDbLine
   6
CONTINUOUS
  62
7
  10
 232.00000183284
  20
 75.856496904597
  30
0.0
  11
 221.99999450147
  21
 76.169009252156
  31
0.0
   0
LINE
   5
260
 100
AcDbEntity
   8
LEVEL001
 100
AcDbLine
   6
DASHDOT
  62
1
  10
 210.99999861419
  20
 49.499998971820
  30
0.0
  11
 210.99999861419
  21
 75.752767659641
  31
0.0
   0
LINE
   5
261
 100
AcDbEntity
   8
LEVEL001
 100
AcDbLine
   6
CONTINUOUS
  62
7
  10
 222.00000210106
  20
 54.499996915460
  30
0.0
  11
 165.00000379980
  21
 54.499996915460
  31
0.0
   0
LINE
   5
262
 100
AcDbEntity
   8
LEVEL001
 100
AcDbLine
   6
DOT
  62
3
  10
 148.50000429153
  20
 58.499992981553
  30
0.0
  11
 147.66078617690
  21
 54.303879520181
  31
0.0
   0
LINE
   5
263
 100
AcDbEntity
   8
LEVEL001
 100
AcDbLine
   6
DOT
  62
3
  10
 147.49998524785
  20
 312.50002928078
  30
0.0
  11
 148.50000429153
  21
 307.49999128282
  31
0.0
   0
LINE
   5
264
 100
AcDbEntity
   8
LEVEL001
 100
AcDbLine
   6
DOT
  62
3
  10
 143.50001206994
  20
 312.50000639260
  30
0.0
  11
 142.50000447035
  21
 307.49999128282
  31
0.0
   0
LINE
   5
265
 100
AcDbEntity
   8
LEVEL001
 100
AcDbLine
   6
DOT
  62
3
  10
 143.50001206994
  20
 312.50000639260
  30
0.0
  11
 147.49998524785
  21
 312.50000639260
  31
0.0
   0
LINE
   5
266
 100
AcDbEntity
   8
LEVEL001
 100
AcDbLine
   6
DOT
  62
3
  10
 141.99998922646
  20
 312.50000639260
  30
0.0
  11
 141.99998922646
  21
 352.50003571808
  31
0.0
   0
ARC
   5
267
 100
AcDbEntity
   8
LEVEL001
   6
DOT
  62
3
 100
AcDbCircle
  10
 141.00000451505
  20
 380.24998911470
  30
0.0
  40
 0.74999997764826
 100
AcDbArc
  50
 270.00000000003
  51
0.0
   0
ARC
   5
268
 100
AcDbEntity
   8
LEVEL001
   6
DOT
  62
3
 100
AcDbCircle
  10
 141.00000451502
  20
 381.75008062272
  30
0.0
  40
 0.74999997764826
 100
AcDbArc
  50
 0.11377395730519E-8
  51
 89.999999997976
   0
LINE
   5
269
 100
AcDbEntity
   8
LEVEL001
 100
AcDbLine
   6
DOT
  62
3
  10
 141.75000449270
  20
 380.24998911470
  30
0.0
  11
 141.75000449270
  21
 381.75008062273
  31
0.0
   0
LINE
   5
26A
 100
AcDbEntity
   8
LEVEL001
 100
AcDbLine
   6
DOT
  62
3
  10
 147.66076328871
  20
 391.69614050698
  30
0.0
  11
 148.50000429153
  21
 387.50004993379
  31
0.0
   0
LINE
   5
26B
 100
AcDbEntity
   8
LEVEL001
 100
AcDbLine
   6
DOT
  62
3
  10
 141.00000451505
  20
 382.50003482401
  30
0.0
  11
 141.00000451505
  21
 379.49998913705
  31
0.0
   0
LINE
   5
26C
 100
AcDbEntity
   8
LEVEL001
 100
AcDbLine
   6
DOT
  62
3
  10
 141.00000451505
  20
 352.50003571808
  30
0.0
  11
 141.99997778237
  21
 348.76807171798
  31
0.0
   0
LINE
   5
26D
 100
AcDbEntity
   8
LEVEL001
 100
AcDbLine
   6
DOT
  62
3
  10
 141.74999304861
  20
 352.50003571808
  30
0.0
  11
 141.99998922646
  21
 352.50003571808
  31
0.0
   0
LINE
   5
26E
 100
AcDbEntity
   8
LEVEL001
 100
AcDbLine
   6
DOT
  62
3
  10
 148.50000429153
  20
 387.50004993379
  30
0.0
  11
 148.50000429153
  21
 362.50002016127
  31
0.0
   0
ARC
   5
26F
 100
AcDbEntity
   8
LEVEL001
   6
DOT
  62
3
 100
AcDbCircle
  10
 146.68018363396
  20
 358.50002793968
  30
0.0
  40
 1.0000000000000
 100
AcDbArc
  50
 270.00023619922
  51
 348.68976925962
   0
LINE
   5
270
 100
AcDbEntity
   8
LEVEL001
 100
AcDbLine
   6
DOT
  62
3
  10
 148.50000429153
  20
 362.50002016127
  30
0.0
  11
 147.66076328871
  21
 358.30390669990
  31
0.0
   0
LINE
   5
271
 100
AcDbEntity
   8
LEVEL001
 100
AcDbLine
   6
DOT
  62
3
  10
 141.75000449270
  20
 357.50002793968
  30
0.0
  11
 141.00000451505
  21
 358.25002791732
  31
0.0
   0
LINE
   5
272
 100
AcDbEntity
   8
LEVEL001
 100
AcDbLine
   6
DOT
  62
3
  10
 141.00000451505
  20
 358.25002791732
  30
0.0
  11
 141.00000451505
  21
 379.49998913705
  31
0.0
   0
LINE
   5
273
 100
AcDbEntity
   8
LEVEL001
 100
AcDbLine
   6
DOT
  62
3
  10
 141.00000451505
  20
 382.50003482401
  30
0.0
  11
 141.75000449270
  21
 381.75003484636
  31
0.0
   0
LINE
   5
274
 100
AcDbEntity
   8
LEVEL001
 100
AcDbLine
   6
DOT
  62
3
  10
 141.75000449270
  20
 381.75003484636
  30
0.0
  11
 141.75000449270
  21
 352.50003571808
  31
0.0
   0
LINE
   5
275
 100
AcDbEntity
   8
LEVEL001
 100
AcDbLine
   6
DOT
  62
3
  10
 141.00000451505
  20
 358.25002791732
  30
0.0
  11
 141.00000451505
  21
 352.50003571808
  31
0.0
   0
LINE
   5
276
 100
AcDbEntity
   8
LEVEL001
 100
AcDbLine
   6
DOT
  62
3
  10
 141.00000451505
  20
 352.50003571808
  30
0.0
  11
 141.74999304861
  21
 352.50003571808
  31
0.0
   0
LINE
   5
277
 100
AcDbEntity
   8
LEVEL001
 100
AcDbLine
   6
DOT
  62
3
  10
 146.68018775641
  20
 357.50002793968
  30
0.0
  11
 141.75000449270
  21
 357.50002793968
  31
0.0
   0
LINE
   5
278
 100
AcDbEntity
   8
LEVEL001
 100
AcDbLine
   6
CONTINUOUS
  62
7
  10
 165.00000379980
  20
 379.50003491342
  30
0.0
  11
 217.50000223517
  21
 379.50003491342
  31
0.0
   0
LINE
   5
279
 100
AcDbEntity
   8
LEVEL001
 100
AcDbLine
   6
CONTINUOUS
  62
7
  10
 165.00000379980
  20
 382.50003482401
  30
0.0
  11
 197.35961434663
  21
 382.50003482401
  31
0.0
   0
LINE
   5
27A
 100
AcDbEntity
   8
LEVEL001
 100
AcDbLine
   6
CONTINUOUS
  62
7
  10
 218.50000983477
  20
 378.50005020201
  30
0.0
  11
 165.00000379980
  21
 378.50005020201
  31
0.0
   0
LINE
   5
27B
 100
AcDbEntity
   8
LEVEL001
 100
AcDbLine
   6
CONTINUOUS
  62
7
  10
 195.99999906123
  20
 391.49998877943
  30
0.0
  11
 165.00000379980
  21
 391.49998877943
  31
0.0
   0
LINE
   5
27C
 100
AcDbEntity
   8
LEVEL001
 100
AcDbLine
   6
CONTINUOUS
  62
7
  10
 165.00000379980
  20
 334.50003625452
  30
0.0
  11
 220.00000979006
  21
 334.50003625452
  31
0.0
   0
LINE
   5
27D
 100
AcDbEntity
   8
LEVEL001
 100
AcDbLine
   6
CONTINUOUS
  62
7
  10
 222.00000210106
  20
 329.50002114475
  30
0.0
  11
 165.00000379980
  21
 329.50002114475
  31
0.0
   0
LINE
   5
27E
 100
AcDbEntity
   8
LEVEL001
 100
AcDbLine
   6
DASHDOT
  62
1
  10
 218.50000223517
  20
 374.50001980364
  30
0.0
  11
 223.00000210106
  21
 374.50001980364
  31
0.0
   0
LINE
   5
27F
 100
AcDbEntity
   8
LEVEL001
 100
AcDbLine
   6
DASHDOT
  62
1
  10
 223.00000210106
  20
 374.50001980364
  30
0.0
  11
 223.00000210106
  21
 339.50002847612
  31
0.0
   0
LINE
   5
280
 100
AcDbEntity
   8
LEVEL001
 100
AcDbLine
   6
DASHDOT
  62
1
  10
 223.00000210106
  20
 339.50002847612
  30
0.0
  11
 220.00000219047
  21
 339.50002847612
  31
0.0
   0
LINE
   5
281
 100
AcDbEntity
   8
LEVEL001
 100
AcDbLine
   6
CONTINUOUS
  62
3
  10
 111.00000540912
  20
 339.50002847612
  30
0.0
  11
 109.99999780953
  21
 335.76797292328
  31
0.0
   0
LINE
   5
282
 100
AcDbEntity
   8
LEVEL001
 100
AcDbLine
   6
CONTINUOUS
  62
7
  10
 111.49999776483
  20
 374.50001980364
  30
0.0
  11
 109.99999780953
  21
 373.00001984835
  31
0.0
   0
LINE
   5
283
 100
AcDbEntity
   8
LEVEL001
 100
AcDbLine
   6
CONTINUOUS
  62
7
  10
 109.99999780953
  20
 373.00001984835
  30
0.0
  11
 109.99999780953
  21
 334.50003625452
  31
0.0
   0
LINE
   5
284
 100
AcDbEntity
   8
LEVEL001
 100
AcDbLine
   6
DASHDOT
  62
1
  10
 111.49999776483
  20
 374.50001980364
  30
0.0
  11
 106.99999789894
  21
 374.50001980364
  31
0.0
   0
LINE
   5
285
 100
AcDbEntity
   8
LEVEL001
 100
AcDbLine
   6
DASHDOT
  62
1
  10
 106.99999789894
  20
 374.50001980364
  30
0.0
  11
 106.99999789894
  21
 339.50002847612
  31
0.0
   0
LINE
   5
286
 100
AcDbEntity
   8
LEVEL001
 100
AcDbLine
   6
DASHDOT
  62
1
  10
 106.99999789894
  20
 339.50002847612
  30
0.0
  11
 109.99999780953
  21
 339.50002847612
  31
0.0
   0
LINE
   5
287
 100
AcDbEntity
   8
LEVEL001
 100
AcDbLine
   6
CONTINUOUS
  62
7
  10
 218.50000223517
  20
 374.50001980364
  30
0.0
  11
 164.99999620020
  21
 374.50001980364
  31
0.0
   0
LINE
   5
288
 100
AcDbEntity
   8
LEVEL001
 100
AcDbLine
   6
CONTINUOUS
  62
7
  10
 111.49999776483
  20
 374.50001980364
  30
0.0
  11
 164.99999620020
  21
 374.50001980364
  31
0.0
   0
LINE
   5
289
 100
AcDbEntity
   8
LEVEL001
 100
AcDbLine
   6
CONTINUOUS
  62
3
  10
 218.99999459088
  20
 374.00005033612
  30
0.0
  11
 218.99999459088
  21
 339.50002847612
  31
0.0
   0
LINE
   5
28A
 100
AcDbEntity
   8
LEVEL001
 100
AcDbLine
   6
CONTINUOUS
  62
3
  10
 164.99999620020
  20
 339.50002847612
  30
0.0
  11
 220.00000219047
  21
 339.50002847612
  31
0.0
   0
LINE
   5
28B
 100
AcDbEntity
   8
LEVEL001
 100
AcDbLine
   6
CONTINUOUS
  62
3
  10
 111.00000540912
  20
 374.00005033612
  30
0.0
  11
 111.00000540912
  21
 339.50002847612
  31
0.0
   0
LINE
   5
28C
 100
AcDbEntity
   8
LEVEL001
 100
AcDbLine
   6
CONTINUOUS
  62
3
  10
 164.99999620020
  20
 339.50002847612
  30
0.0
  11
 109.99999780953
  21
 339.50002847612
  31
0.0
   0
LINE
   5
28D
 100
AcDbEntity
   8
LEVEL001
 100
AcDbLine
   6
DOT
  62
3
  10
 148.50000429153
  20
 283.23996326695
  30
0.0
  11
 148.50000429153
  21
 58.499992981553
  31
0.0
   0
LINE
   5
28E
 100
AcDbEntity
   8
LEVEL001
 100
AcDbLine
   6
DOT
  62
3
  10
 142.50000447035
  20
 73.499998256564
  30
0.0
  11
 142.50000447035
  21
 282.18200164382
  31
0.0
   0
LINE
   5
28F
 100
AcDbEntity
   8
LEVEL001
 100
AcDbLine
   6
DOT
  62
3
  10
 148.50000429153
  20
 307.49999128282
  30
0.0
  11
 148.50000429153
  21
 287.03995924364
  31
0.0
   0
LINE
   5
290
 100
AcDbEntity
   8
LEVEL001
 100
AcDbLine
   6
DOT
  62
3
  10
 142.50000447035
  20
 285.98199647610
  30
0.0
  11
 142.50000447035
  21
 307.49999128282
  31
0.0
   0
LINE
   5
291
 100
AcDbEntity
   8
LEVEL001
 100
AcDbLine
   6
DOT
  62
3
  10
 131.50001242757
  20
 379.50003491342
  30
0.0
  11
 131.50001242757
  21
 284.04239941420
  31
0.0
   0
LINE
   5
292
 100
AcDbEntity
   8
LEVEL001
 100
AcDbLine
   6
DOT
  62
3
  10
 131.50001242757
  20
 280.24240668001
  30
0.0
  11
 131.50001242757
  21
 147.49999986589
  31
0.0
   0
LINE
   5
293
 100
AcDbEntity
   8
LEVEL001
 100
AcDbLine
   6
DOT
  62
3
  10
 120.00000514090
  20
 92.499993875623
  30
0.0
  11
 120.00000514090
  21
 278.21464555707
  31
0.0
   0
LINE
   5
294
 100
AcDbEntity
   8
LEVEL001
 100
AcDbLine
   6
DOT
  62
3
  10
 120.00000514090
  20
 282.01463609781
  30
0.0
  11
 120.00000514090
  21
 294.08408286917
  31
0.0
   0
LINE
   5
295
 100
AcDbEntity
   8
LEVEL001
 100
AcDbLine
   6
DASHDOT
  62
1
  10
 164.99999620020
  20
 172.50000000000
  30
0.0
  11
 164.99999620020
  21
 44.999999105930
  31
0.0
   0
LINE
   5
296
 100
AcDbEntity
   8
LEVEL001
 100
AcDbLine
   6
DASHDOT
  62
1
  10
 164.99999620020
  20
 397.49998860061
  30
0.0
  11
 164.99999620020
  21
 225.00000000000
  31
0.0
   0
LEADER
   5
297
 100
AcDbEntity
   8
LEVEL003
   6
CONTINUOUS
  62
3
 100
AcDbLeader
   3
GMM008
  73
0
  74
1
  75
0
  40
 6.0000000000000
  41
0.0
  76
3
  10
 188.99999548495
  20
 367.50000000000
  30
0.0
  10
 217.49999307096
  20
 412.49998815358
  30
0.0
  10
 254.99999195337
  20
 412.49998815358
  30
0.0
  77
3
   0
TEXT
   5
298
 100
AcDbEntity
   8
LEVEL003
  62
3
 100
AcDbText
  10
 217.49999307096
  20
 412.49998815358
  30
0.0
  40
 5.9999998211861
   1
Ｍ４８×１.５
   7
STANDARD
 100
AcDbText
   0
DIMENSION
   5
299
 100
AcDbEntity
   8
LEVEL003
   6
CONTINUOUS
  62
3
 100
AcDbDimension
   2
*D17
  10
 181.49999570847
  20
 37.500000000000
  30
0.0
  11
 165.00000000000
  21
 37.500000000000
  31
0.0
  70
0
   1
\A1;%%c33
   3
GMM009
 100
AcDbAlignedDimension
  13
 148.50000429153
  23
 58.499992981553
  33
0.0
  14
 181.49999570847
  24
 58.499992981553
  34
0.0
 100
AcDbRotatedDimension
   0
DIMENSION
   5
29B
 100
AcDbEntity
   8
LEVEL003
   6
CONTINUOUS
  62
3
 100
AcDbDimension
   2
*D18
  10
 210.99999861419
  20
 22.500000000000
  30
0.0
  11
 165.00000000000
  21
 22.500000000000
  31
0.0
  70
0
   1
\A1;%%c92
   3
GMM009
 100
AcDbAlignedDimension
  13
 119.00000138581
  23
 49.499998971820
  33
0.0
  14
 210.99999861419
  24
 49.499998971820
  34
0.0
 100
AcDbRotatedDimension
   0
DIMENSION
   5
29D
 100
AcDbEntity
   8
LEVEL003
   6
CONTINUOUS
  62
3
 100
AcDbDimension
   2
*D19
  10
 209.99999485910
  20
 187.50000000000
  30
0.0
  11
 165.00000000000
  21
 187.50000000000
  31
0.0
  70
0
   1
\A1;%%c90
   3
GMM010
 100
AcDbAlignedDimension
  13
 120.00000514090
  23
 187.50000000000
  33
0.0
  14
 209.99999485910
  24
 187.50000000000
  34
0.0
 100
AcDbRotatedDimension
   0
DIMENSION
   5
29F
 100
AcDbEntity
   8
LEVEL003
   6
CONTINUOUS
  62
3
 100
AcDbDimension
   2
*D20
  10
 198.49998757243
  20
 202.50000000000
  30
0.0
  11
 165.00000000000
  21
 202.50000000000
  31
0.0
  70
0
   1
\A1;%%c67
   3
GMM010
 100
AcDbAlignedDimension
  13
 131.50001242757
  23
 202.50000000000
  33
0.0
  14
 198.49998757243
  24
 202.50000000000
  34
0.0
 100
AcDbRotatedDimension
   0
DIMENSION
   5
2A1
 100
AcDbEntity
   8
LEVEL003
   6
CONTINUOUS
  62
3
 100
AcDbDimension
   2
*D21
  10
 187.49999552965
  20
 217.50000000000
  30
0.0
  11
 165.00000000000
  21
 217.50000000000
  31
0.0
  70
0
   1
\A1;%%c45
   3
GMM010
 100
AcDbAlignedDimension
  13
 142.50000447035
  23
 217.50000000000
  33
0.0
  14
 187.49999552965
  24
 217.50000000000
  34
0.0
 100
AcDbRotatedDimension
   0
DIMENSION
   5
2A3
 100
AcDbEntity
   8
LEVEL003
   6
CONTINUOUS
  62
3
 100
AcDbDimension
   2
*D22
  10
 181.49999570847
  20
 405.00000000000
  30
0.0
  11
 165.00000000000
  21
 405.00000000000
  31
0.0
  70
0
   1
\A1;%%c33
   3
GMM009
 100
AcDbAlignedDimension
  13
 148.50000429153
  23
 387.50004993379
  33
0.0
  14
 181.49999570847
  24
 387.50004993379
  34
0.0
 100
AcDbRotatedDimension
   0
LINE
   5
2A5
 100
AcDbEntity
   8
LEVEL001
 100
AcDbLine
   6
DASHDOT
  62
1
  10
 292.00000004470
  20
 84.500001743436
  30
0.0
  11
 209.99999485910
  21
 84.500001743436
  31
0.0
   0
LINE
   5
2A6
 100
AcDbEntity
   8
LEVEL001
 100
AcDbLine
   6
DASHDOT
  62
1
  10
 292.00000004470
  20
 314.50002159178
  30
0.0
  11
 209.99999485910
  21
 314.50002159178
  31
0.0
   0
TEXT
   5
2A7
 100
AcDbEntity
   8
LEVEL003
  62
7
 100
AcDbText
  10
 464.66114925373
  20
 39.049568656717
  30
0.0
  40
 10.000000000000
   1
ＯＳＡＫＡ ＪＡＣＫ
   7
STANDARD
 100
AcDbText
   0
TEXT
   5
2A8
 100
AcDbEntity
   8
LEVEL003
  62
7
 100
AcDbText
  10
 467.57214925373
  20
 55.942968656717
  30
0.0
  40
 6.0000000000000
   1
Model : ＥＣ３０Ｈ２５
   7
STANDARD
 100
AcDbText
   0
CIRCLE
   5
2A9
 100
AcDbEntity
   8
LEVEL003
 100
AcDbCircle
   6
CONTINUOUS
  62
7
  10
 446.88695099009
  20
 45.481369090146
  30
0.0
  40
 3.0000000000000
   0
LINE
   5
2AA
 100
AcDbEntity
   8
LEVEL003
 100
AcDbLine
   6
CONTINUOUS
  62
7
  10
 452.77495099009
  20
 48.481369090146
  30
0.0
  11
 448.96595099009
  21
 41.881369090146
  31
0.0
   0
LINE
   5
2AB
 100
AcDbEntity
   8
LEVEL003
 100
AcDbLine
   6
CONTINUOUS
  62
7
  10
 448.96595099009
  20
 41.881369090146
  30
0.0
  11
 441.34495099009
  21
 41.881369090146
  31
0.0
   0
LINE
   5
2AC
 100
AcDbEntity
   8
LEVEL003
 100
AcDbLine
   6
CONTINUOUS
  62
7
  10
 440.47795099009
  20
 40.381369090146
  30
0.0
  11
 454.09895099009
  21
 40.381369090146
  31
0.0
   0
LINE
   5
2AD
 100
AcDbEntity
   8
LEVEL003
 100
AcDbLine
   6
CONTINUOUS
  62
7
  10
 454.09895099009
  20
 40.381369090146
  30
0.0
  11
 458.77495099009
  21
 48.481369090146
  31
0.0
   0
LINE
   5
2AE
 100
AcDbEntity
   8
LEVEL003
 100
AcDbLine
   6
CONTINUOUS
  62
7
  10
 458.77495099009
  20
 48.481369090146
  30
0.0
  11
 452.77495099009
  21
 48.481369090146
  31
0.0
   0
LINE
   5
2AF
 100
AcDbEntity
   8
LEVEL003
 100
AcDbLine
   6
CONTINUOUS
  62
7
  10
 441.34495099009
  20
 41.881369090146
  30
0.0
  11
 440.47795099009
  21
 40.381369090146
  31
0.0
   0
ENDSEC
  0
SECTION
  2
OBJECTS
  0
DICTIONARY
  5
C
100
AcDbDictionary
  3
ACAD_GROUP
350
D
  3
ACAD_MLINESTYLE
350
1B
  0
DICTIONARY
  5
D
102
{ACAD_REACTORS
330
C
102
}
100
AcDbDictionary
  0
DICTIONARY
  5
1B
102
{ACAD_REACTORS
330
C
102
}
100
AcDbDictionary
  3
STANDARD
350
1C
  0
MLINESTYLE
  5
1C
102
{ACAD_REACTORS
330
1B
102
}
100
AcDbMlineStyle
  2
STANDARD
 70
     0
  3

 62
   256
 51
90.0
 52
90.0
 71
     2
 49
0.5
 62
   256
  6
BYLAYER
 49
-0.5
 62
   256
  6
BYLAYER
  0
ENDSEC
   0
EOF
