   0
SECTION
   2
HEADER
   9
$ACADVER
   1
AC1014
   9
$LIMMIN
  10
0.0
  20
0.0
   9
$LIMMAX
  10
 630.00000000000
  20
 446.00000000000
   9
$EXTMIN
  10
0.0
  20
0.0
  30
0.0
   9
$EXTMAX
  10
 630.00000000000
  20
 446.00000000000
  30
0.0
   9
$LTSCALE
  40
 12.600000000000
   9
$HANDSEED
   5
2D8
   0
ENDSEC
   0
SECTION
   2
TABLES
  0
TABLE
  2
VPORT
  5
8
100
AcDbSymbolTable
 70
     1
  0
VPORT
  5
2D7
100
AcDbSymbolTableRecord
100
AcDbViewportTableRecord
  2
*ACTIVE
 70
     0
 10
0.0
 20
0.0
 11
1.0
 21
1.0
  12
 315.00000000000
  22
 223.00000000000
 13
0.0
 23
0.0
 14
1.0
 24
1.0
 15
0.0
 25
0.0
 16
0.0
 26
0.0
 36
1.0
 17
0.0
 27
0.0
 37
0.0
  40
 630.00000000000
  41
 1.4787878787879
 42
50.0
 43
0.0
 44
0.0
 50
0.0
 51
0.0
 71
     0
 72
   100
 73
     1
 74
     1
 75
     0
 76
     0
 77
     0
 78
     0
  0
ENDTAB
  0
TABLE
  2
LTYPE
  5
5
100
AcDbSymbolTable
 70
    25
  0
LTYPE
  5
12
100
AcDbSymbolTableRecord
100
AcDbLinetypeTableRecord
  2
BYBLOCK
 70
     0
  3

 72
    65
 73
     0
 40
0.0
  0
LTYPE
  5
13
100
AcDbSymbolTableRecord
100
AcDbLinetypeTableRecord
  2
BYLAYER
 70
     0
  3

 72
    65
 73
     0
 40
0.0
  0
LTYPE
  5
14
100
AcDbSymbolTableRecord
100
AcDbLinetypeTableRecord
  2
CONTINUOUS
 70
     0
  3
Solid line
 72
    65
 73
     0
 40
0.0
  0
LTYPE
  5
20
100
AcDbSymbolTableRecord
100
AcDbLinetypeTableRecord
  2
BORDER
 70
     0
  3
__ __ . __ __ . __ __ . __ __ . __ __ . __ __ .
 72
    65
 73
     6
 40
1.75
 49
0.5
 74
     0
 49
-0.25
 74
     0
 49
0.5
 74
     0
 49
-0.25
 74
     0
 49
0.0
 74
     0
 49
-0.25
 74
     0
  0
LTYPE
  5
21
100
AcDbSymbolTableRecord
100
AcDbLinetypeTableRecord
  2
BORDER2
 70
     0
  3
__.__.__.__.__.__.__.__.__.__.__.__.__.__.__.__
 72
    65
 73
     6
 40
0.875
 49
0.25
 74
     0
 49
-0.125
 74
     0
 49
0.25
 74
     0
 49
-0.125
 74
     0
 49
0.0
 74
     0
 49
-0.125
 74
     0
  0
LTYPE
  5
22
100
AcDbSymbolTableRecord
100
AcDbLinetypeTableRecord
  2
BORDERX2
 70
     0
  3
____  ____  .  ____  ____  .  ____  ____  .  __
 72
    65
 73
     6
 40
3.5
 49
1.0
 74
     0
 49
-0.5
 74
     0
 49
1.0
 74
     0
 49
-0.5
 74
     0
 49
0.0
 74
     0
 49
-0.5
 74
     0
  0
LTYPE
  5
23
100
AcDbSymbolTableRecord
100
AcDbLinetypeTableRecord
  2
CENTER
 70
     0
  3
____ _ ____ _ ____ _ ____ _ ____ _ ____ _ ____ 
 72
    65
 73
     4
 40
2.0
 49
1.25
 74
     0
 49
-0.25
 74
     0
 49
0.25
 74
     0
 49
-0.25
 74
     0
  0
LTYPE
  5
24
100
AcDbSymbolTableRecord
100
AcDbLinetypeTableRecord
  2
CENTER2
 70
     0
  3
___ _ ___ _ ___ _ ___ _ ___ _ ___ _ ___ _ ___ _
 72
    65
 73
     4
 40
1.125
 49
0.75
 74
     0
 49
-0.125
 74
     0
 49
0.125
 74
     0
 49
-0.125
 74
     0
  0
LTYPE
  5
25
100
AcDbSymbolTableRecord
100
AcDbLinetypeTableRecord
  2
CENTERX2
 70
     0
  3
________  __  ________  __  ________  __  _____
 72
    65
 73
     4
 40
4.0
 49
2.5
 74
     0
 49
-0.5
 74
     0
 49
0.5
 74
     0
 49
-0.5
 74
     0
  0
LTYPE
  5
26
100
AcDbSymbolTableRecord
100
AcDbLinetypeTableRecord
  2
DASHDOT
 70
     0
  3
__ . __ . __ . __ . __ . __ . __ . __ . __ . __
 72
    65
 73
     4
 40
1.0
 49
0.5
 74
     0
 49
-0.25
 74
     0
 49
0.0
 74
     0
 49
-0.25
 74
     0
  0
LTYPE
  5
27
100
AcDbSymbolTableRecord
100
AcDbLinetypeTableRecord
  2
DASHDOT2
 70
     0
  3
_._._._._._._._._._._._._._._._._._._._._._._._
 72
    65
 73
     4
 40
0.5
 49
0.25
 74
     0
 49
-0.125
 74
     0
 49
0.0
 74
     0
 49
-0.125
 74
     0
  0
LTYPE
  5
28
100
AcDbSymbolTableRecord
100
AcDbLinetypeTableRecord
  2
DASHDOTX2
 70
     0
  3
____  .  ____  .  ____  .  ____  .  ____  .  __
 72
    65
 73
     4
 40
2.0
 49
1.0
 74
     0
 49
-0.5
 74
     0
 49
0.0
 74
     0
 49
-0.5
 74
     0
  0
LTYPE
  5
29
100
AcDbSymbolTableRecord
100
AcDbLinetypeTableRecord
  2
DASHED
 70
     0
  3
__ __ __ __ __ __ __ __ __ __ __ __ __ __ __ __
 72
    65
 73
     2
 40
0.75
 49
0.5
 74
     0
 49
-0.25
 74
     0
  0
LTYPE
  5
2A
100
AcDbSymbolTableRecord
100
AcDbLinetypeTableRecord
  2
DASHED2
 70
     0
  3
_ _ _ _ _ _ _ _ _ _ _ _ _ _ _ _ _ _ _ _ _ _ _ _
 72
    65
 73
     2
 40
0.375
 49
0.25
 74
     0
 49
-0.125
 74
     0
  0
LTYPE
  5
2B
100
AcDbSymbolTableRecord
100
AcDbLinetypeTableRecord
  2
DASHEDX2
 70
     0
  3
____  ____  ____  ____  ____  ____  ____  ____ 
 72
    65
 73
     2
 40
1.5
 49
1.0
 74
     0
 49
-0.5
 74
     0
  0
LTYPE
  5
2C
100
AcDbSymbolTableRecord
100
AcDbLinetypeTableRecord
  2
DIVIDE
 70
     0
  3
____ . . ____ . . ____ . . ____ . . ____ . . __
 72
    65
 73
     6
 40
1.25
 49
0.5
 74
     0
 49
-0.25
 74
     0
 49
0.0
 74
     0
 49
-0.25
 74
     0
 49
0.0
 74
     0
 49
-0.25
 74
     0
  0
LTYPE
  5
2D
100
AcDbSymbolTableRecord
100
AcDbLinetypeTableRecord
  2
DIVIDE2
 70
     0
  3
__..__..__..__..__..__..__..__..__..__..__..__.
 72
    65
 73
     6
 40
0.625
 49
0.25
 74
     0
 49
-0.125
 74
     0
 49
0.0
 74
     0
 49
-0.125
 74
     0
 49
0.0
 74
     0
 49
-0.125
 74
     0
  0
LTYPE
  5
2E
100
AcDbSymbolTableRecord
100
AcDbLinetypeTableRecord
  2
DIVIDEX2
 70
     0
  3
________  .  .  ________  .  .  ________  .  . 
 72
    65
 73
     6
 40
2.5
 49
1.0
 74
     0
 49
-0.5
 74
     0
 49
0.0
 74
     0
 49
-0.5
 74
     0
 49
0.0
 74
     0
 49
-0.5
 74
     0
  0
LTYPE
  5
2F
100
AcDbSymbolTableRecord
100
AcDbLinetypeTableRecord
  2
DOT
 70
     0
  3
. . . . . . . . . . . . . . . . . . . . . . . .
 72
    65
 73
     2
 40
0.25
 49
0.0
 74
     0
 49
-0.25
 74
     0
  0
LTYPE
  5
30
100
AcDbSymbolTableRecord
100
AcDbLinetypeTableRecord
  2
DOT2
 70
     0
  3
...............................................
 72
    65
 73
     2
 40
0.125
 49
0.0
 74
     0
 49
-0.125
 74
     0
  0
LTYPE
  5
31
100
AcDbSymbolTableRecord
100
AcDbLinetypeTableRecord
  2
DOTX2
 70
     0
  3
.  .  .  .  .  .  .  .  .  .  .  .  .  .  .  . 
 72
    65
 73
     2
 40
0.5
 49
0.0
 74
     0
 49
-0.5
 74
     0
  0
LTYPE
  5
32
100
AcDbSymbolTableRecord
100
AcDbLinetypeTableRecord
  2
HIDDEN
 70
     0
  3
__ __ __ __ __ __ __ __ __ __ __ __ __ __ __ __
 72
    65
 73
     2
 40
0.375
 49
0.25
 74
     0
 49
-0.125
 74
     0
  0
LTYPE
  5
33
100
AcDbSymbolTableRecord
100
AcDbLinetypeTableRecord
  2
HIDDEN2
 70
     0
  3
_ _ _ _ _ _ _ _ _ _ _ _ _ _ _ _ _ _ _ _ _ _ _ _
 72
    65
 73
     2
 40
0.1875
 49
0.125
 74
     0
 49
-0.0625
 74
     0
  0
LTYPE
  5
34
100
AcDbSymbolTableRecord
100
AcDbLinetypeTableRecord
  2
HIDDENX2
 70
     0
  3
____ ____ ____ ____ ____ ____ ____ ____ ____ __
 72
    65
 73
     2
 40
0.75
 49
0.5
 74
     0
 49
-0.25
 74
     0
  0
LTYPE
  5
35
100
AcDbSymbolTableRecord
100
AcDbLinetypeTableRecord
  2
PHANTOM
 70
     0
  3
______  __  __  ______  __  __  ______  __  __ 
 72
    65
 73
     6
 40
2.5
 49
1.25
 74
     0
 49
-0.25
 74
     0
 49
0.25
 74
     0
 49
-0.25
 74
     0
 49
0.25
 74
     0
 49
-0.25
 74
     0
  0
LTYPE
  5
36
100
AcDbSymbolTableRecord
100
AcDbLinetypeTableRecord
  2
PHANTOM2
 70
     0
  3
___ _ _ ___ _ _ ___ _ _ ___ _ _ ___ _ _ ___ _ _
 72
    65
 73
     6
 40
1.25
 49
0.625
 74
     0
 49
-0.125
 74
     0
 49
0.125
 74
     0
 49
-0.125
 74
     0
 49
0.125
 74
     0
 49
-0.125
 74
     0
  0
LTYPE
  5
37
100
AcDbSymbolTableRecord
100
AcDbLinetypeTableRecord
  2
PHANTOMX2
 70
     0
  3
____________    ____    ____    ____________   
 72
    65
 73
     6
 40
5.0
 49
2.5
 74
     0
 49
-0.5
 74
     0
 49
0.5
 74
     0
 49
-0.5
 74
     0
 49
0.5
 74
     0
 49
-0.5
 74
     0
  0
ENDTAB
   0
TABLE
   2
LAYER
   5
2
 100
AcDbSymbolTable
  70
6
   0
LAYER
   5
E
 100
AcDbSymbolTableRecord
 100
AcDbLayerTableRecord
   2
0
  70
0
  62
7
   6
CONTINUOUS
   0
LAYER
   5
39
 100
AcDbSymbolTableRecord
 100
AcDbLayerTableRecord
   2
LEVEL001
  70
0
  62
7
   6
CONTINUOUS
   0
LAYER
   5
3A
 100
AcDbSymbolTableRecord
 100
AcDbLayerTableRecord
   2
LEVEL003
  70
0
  62
7
   6
CONTINUOUS
   0
LAYER
   5
3B
 100
AcDbSymbolTableRecord
 100
AcDbLayerTableRecord
   2
LEVEL020
  70
0
  62
7
   6
CONTINUOUS
   0
LAYER
   5
3C
 100
AcDbSymbolTableRecord
 100
AcDbLayerTableRecord
   2
LEVEL050
  70
0
  62
7
   6
CONTINUOUS
   0
LAYER
   5
3D
 100
AcDbSymbolTableRecord
 100
AcDbLayerTableRecord
   2
LEVEL110
  70
0
  62
7
   6
CONTINUOUS
   0
ENDTAB
  0
TABLE
  2
STYLE
  5
3
100
AcDbSymbolTable
  70
4
  0
STYLE
  5
F
100
AcDbSymbolTableRecord
100
AcDbTextStyleTableRecord
  2
STANDARD
 70
     0
 40
0.0
 41
1.0
 50
0.0
 71
     0
 42
0.2
  3
TXT
  4
BIGFONT
  0
STYLE
  5
38
100
AcDbSymbolTableRecord
100
AcDbTextStyleTableRecord
  2
STANDARD1
 70
     4
 40
0.0
 41
1.0
 50
0.0
 71
     0
 42
0.2
  3
TXT
  4
BIGFONT
   0
STYLE
   5
3E
 100
AcDbSymbolTableRecord
 100
AcDbTextStyleTableRecord
   2
GMM001
  70
0
  40
0.0
  41
 1.0000000000000
  50
0.0
  71
     0
  42
1.0
   3
txt.shx
   4
bigfont.shx
   0
STYLE
   5
3F
 100
AcDbSymbolTableRecord
 100
AcDbTextStyleTableRecord
   2
GMM002
  70
0
  40
0.0
  41
 1.0000000000000
  50
0.0
  71
     0
  42
1.0
   3

   4

1001
ACAD
1000
ＭＳ ゴシック
1071
32817
   0
ENDTAB
  0
TABLE
  2
VIEW
  5
6
100
AcDbSymbolTable
 70
     0
  0
ENDTAB
  0
TABLE
  2
UCS
  5
7
100
AcDbSymbolTable
 70
     0
  0
ENDTAB
  0
TABLE
  2
APPID
  5
9
100
AcDbSymbolTable
 70
     1
  0
APPID
  5
10
100
AcDbSymbolTableRecord
100
AcDbRegAppTableRecord
  2
ACAD
 70
     0
  0
ENDTAB
   0
TABLE
   2
DIMSTYLE
   5
A
 100
AcDbSymbolTable
  70
16
  0
DIMSTYLE
105
1D
100
AcDbSymbolTableRecord
100
AcDbDimStyleTableRecord
  2
STANDARD
 70
     0
  3

  4

  5

  6

  7

 40
1.0
 41
0.18
 42
0.0625
 43
0.38
 44
0.18
 45
0.0
 46
0.0
 47
0.0
 48
0.0
140
0.18
141
0.09
142
0.0
143
25.4
144
1.0
145
0.0
146
1.0
147
0.09
 71
     0
 72
     0
 73
     1
 74
     1
 75
     0
 76
     0
 77
     0
 78
     0
170
     0
171
     2
172
     0
173
     0
174
     0
175
     0
176
     0
177
     0
178
     0
270
     2
271
     4
272
     4
273
     2
274
     2
340
F
275
     0
280
     0
281
     0
282
     0
283
     1
284
     0
285
     0
286
     0
287
     3
288
     0
   0
DIMSTYLE
 105
40
 100
AcDbSymbolTableRecord
 100
AcDbDimStyleTableRecord
   2
GMM001
  70
0
   3

   4

   5

   6
_OPEN
   7
_OPEN
  40
 1.0000000000000
  41
 4.5000000000000
  42
 1.5000000000000
  43
 0.10000000000000E-5
  44
 3.0000000000000
  45
0.0
  46
0.0
  47
0.0
  48
0.0
 140
 6.0000000000000
 141
 1.5000000000000
 142
0.0
 143
 0.39400000000000E-1
 144
 1.0000000000000
 145
0.0
 146
 0.62500000000000
 147
0.0
  71
0
  72
0
  73
0
  74
0
  75
0
  76
0
  77
1
  78
0
 170
0
 171
2
 172
1
 173
1
 174
0
 175
0
 176
3
 177
3
 178
7
 270
2
 271
0
 272
0
 273
2
 274
2
 340
F
 275
1
 280
0
 281
0
 282
0
 283
1
 284
0
 285
0
 286
0
 287
3
 288
1
   0
DIMSTYLE
 105
41
 100
AcDbSymbolTableRecord
 100
AcDbDimStyleTableRecord
   2
GMM002
  70
0
   3

   4

   5

   6
_OPEN
   7
_OPEN
  40
 1.0000000000000
  41
 4.5000000000000
  42
 1.5000000000000
  43
 0.10000000000000E-5
  44
 3.0000000000000
  45
0.0
  46
0.0
  47
0.0
  48
0.0
 140
 6.0000000000000
 141
 1.5000000000000
 142
0.0
 143
 0.39400000000000E-1
 144
 1.0000000000000
 145
0.0
 146
 0.62500000000000
 147
 1.2000045418738
  71
0
  72
0
  73
0
  74
0
  75
0
  76
0
  77
3
  78
0
 170
0
 171
2
 172
1
 173
1
 174
0
 175
0
 176
3
 177
3
 178
3
 270
2
 271
0
 272
0
 273
2
 274
2
 340
3E
 275
1
 280
0
 281
0
 282
0
 283
1
 284
0
 285
0
 286
0
 287
3
 288
1
   0
DIMSTYLE
 105
42
 100
AcDbSymbolTableRecord
 100
AcDbDimStyleTableRecord
   2
GMM003
  70
0
   3

   4

   5

   6
_OPEN
   7
_OPEN
  40
 1.0000000000000
  41
 4.5000000000000
  42
 1.5000000000000
  43
 0.10000000000000E-5
  44
 3.0000000000000
  45
0.0
  46
0.0
  47
0.0
  48
0.0
 140
 6.0000000000000
 141
 1.5000000000000
 142
0.0
 143
 0.39400000000000E-1
 144
 1.0000000000000
 145
0.0
 146
 0.62500000000000
 147
0.0
  71
0
  72
0
  73
0
  74
0
  75
0
  76
0
  77
1
  78
0
 170
0
 171
2
 172
1
 173
1
 174
0
 175
0
 176
3
 177
3
 178
7
 270
2
 271
0
 272
0
 273
2
 274
2
 340
F
 275
1
 280
0
 281
0
 282
0
 283
1
 284
0
 285
0
 286
0
 287
3
 288
1
   0
DIMSTYLE
 105
43
 100
AcDbSymbolTableRecord
 100
AcDbDimStyleTableRecord
   2
GMM004
  70
0
   3

   4

   5

   6
_OPEN
   7
_OPEN
  40
 1.0000000000000
  41
 4.5000000000000
  42
 1.5000000000000
  43
 0.10000000000000E-5
  44
 3.0000000000000
  45
0.0
  46
0.0
  47
0.0
  48
0.0
 140
 6.0000000000000
 141
 1.5000000000000
 142
0.0
 143
 0.39400000000000E-1
 144
 1.0000000000000
 145
0.0
 146
 0.62500000000000
 147
0.0
  71
0
  72
0
  73
0
  74
0
  75
0
  76
0
  77
0
  78
0
 170
0
 171
2
 172
1
 173
1
 174
0
 175
0
 176
3
 177
3
 178
7
 270
2
 271
0
 272
0
 273
2
 274
2
 340
F
 275
1
 280
0
 281
0
 282
0
 283
1
 284
0
 285
0
 286
0
 287
3
 288
1
   0
DIMSTYLE
 105
44
 100
AcDbSymbolTableRecord
 100
AcDbDimStyleTableRecord
   2
GMM005
  70
0
   3

   4

   5

   6
_OPEN
   7
_OPEN
  40
 1.0000000000000
  41
 4.5000000000000
  42
 1.5000000000000
  43
 0.10000000000000E-5
  44
 3.0000000000000
  45
0.0
  46
0.0
  47
0.0
  48
0.0
 140
 6.0000000000000
 141
 1.5000000000000
 142
0.0
 143
 0.39400000000000E-1
 144
 1.0000000000000
 145
0.0
 146
 0.62500000000000
 147
 1.2000045418738
  71
0
  72
0
  73
0
  74
0
  75
0
  76
0
  77
3
  78
0
 170
0
 171
2
 172
1
 173
1
 174
0
 175
0
 176
3
 177
3
 178
3
 270
2
 271
0
 272
0
 273
2
 274
2
 340
3E
 275
1
 280
0
 281
0
 282
0
 283
1
 284
0
 285
0
 286
0
 287
3
 288
1
   0
DIMSTYLE
 105
45
 100
AcDbSymbolTableRecord
 100
AcDbDimStyleTableRecord
   2
GMM006
  70
0
   3

   4

   5

   6
_OPEN
   7
_OPEN
  40
 1.0000000000000
  41
 4.5000000000000
  42
 1.5000000000000
  43
 0.10000000000000E-5
  44
 3.0000000000000
  45
0.0
  46
0.0
  47
0.0
  48
0.0
 140
 6.0000000000000
 141
 1.5000000000000
 142
0.0
 143
 0.39400000000000E-1
 144
 1.0000000000000
 145
0.0
 146
 0.62500000000000
 147
 1.2000045418738
  71
0
  72
0
  73
0
  74
0
  75
1
  76
0
  77
3
  78
0
 170
0
 171
2
 172
1
 173
1
 174
0
 175
0
 176
3
 177
3
 178
3
 270
2
 271
0
 272
0
 273
2
 274
2
 340
3E
 275
1
 280
0
 281
0
 282
0
 283
1
 284
0
 285
0
 286
0
 287
3
 288
1
   0
DIMSTYLE
 105
46
 100
AcDbSymbolTableRecord
 100
AcDbDimStyleTableRecord
   2
GMM007
  70
0
   3

   4

   5

   6
_OPEN
   7
_OPEN
  40
 1.0000000000000
  41
 4.5000000000000
  42
 1.5000000000000
  43
 0.10000000000000E-5
  44
 3.0000000000000
  45
0.0
  46
0.0
  47
0.0
  48
0.0
 140
 6.0000000000000
 141
 1.5000000000000
 142
0.0
 143
 0.39400000000000E-1
 144
 1.0000000000000
 145
0.0
 146
 0.62500000000000
 147
 1.2000045418738
  71
0
  72
0
  73
0
  74
0
  75
1
  76
1
  77
3
  78
0
 170
0
 171
2
 172
1
 173
1
 174
0
 175
0
 176
3
 177
3
 178
3
 270
2
 271
0
 272
0
 273
2
 274
2
 340
3E
 275
1
 280
0
 281
0
 282
0
 283
1
 284
0
 285
0
 286
0
 287
3
 288
1
   0
DIMSTYLE
 105
47
 100
AcDbSymbolTableRecord
 100
AcDbDimStyleTableRecord
   2
GMM008
  70
0
   3

   4

   5

   6
_OPEN
   7
_OPEN
  40
 1.0000000000000
  41
 4.5000000000000
  42
 1.5000000000000
  43
 0.10000000000000E-5
  44
 3.0000000000000
  45
0.0
  46
0.0
  47
0.0
  48
0.0
 140
 6.0000000000000
 141
 1.5000000000000
 142
0.0
 143
 0.39400000000000E-1
 144
 1.0000000000000
 145
0.0
 146
 0.62500000000000
 147
 1.2000045418738
  71
0
  72
0
  73
0
  74
0
  75
1
  76
1
  77
3
  78
0
 170
0
 171
2
 172
1
 173
1
 174
0
 175
0
 176
3
 177
3
 178
3
 270
2
 271
0
 272
0
 273
2
 274
2
 340
3E
 275
1
 280
0
 281
0
 282
0
 283
1
 284
0
 285
0
 286
0
 287
3
 288
1
   0
DIMSTYLE
 105
48
 100
AcDbSymbolTableRecord
 100
AcDbDimStyleTableRecord
   2
GMM009
  70
0
   3

   4

   5

   6
_OPEN
   7
_OPEN
  40
 1.0000000000000
  41
 4.5000000000000
  42
 1.5000000000000
  43
 0.10000000000000E-5
  44
 3.0000000000000
  45
0.0
  46
0.0
  47
0.0
  48
0.0
 140
 6.0000000000000
 141
 1.5000000000000
 142
0.0
 143
 0.39400000000000E-1
 144
 1.0000000000000
 145
0.0
 146
 0.62500000000000
 147
 1.1999816536909
  71
0
  72
0
  73
0
  74
0
  75
0
  76
0
  77
3
  78
0
 170
0
 171
2
 172
1
 173
1
 174
0
 175
0
 176
3
 177
3
 178
3
 270
2
 271
0
 272
0
 273
2
 274
2
 340
3E
 275
1
 280
0
 281
0
 282
0
 283
1
 284
0
 285
0
 286
0
 287
3
 288
1
   0
DIMSTYLE
 105
49
 100
AcDbSymbolTableRecord
 100
AcDbDimStyleTableRecord
   2
GMM010
  70
0
   3

   4

   5

   6
_OPEN
   7
_OPEN
  40
 1.0000000000000
  41
 4.5000000000000
  42
 1.5000000000000
  43
 0.10000000000000E-5
  44
 3.0000000000000
  45
0.0
  46
0.0
  47
0.0
  48
0.0
 140
 6.0000000000000
 141
 1.5000000000000
 142
0.0
 143
 0.39400000000000E-1
 144
 1.0000000000000
 145
0.0
 146
 0.62500000000000
 147
0.0
  71
0
  72
0
  73
0
  74
0
  75
0
  76
0
  77
0
  78
0
 170
0
 171
2
 172
1
 173
1
 174
0
 175
0
 176
3
 177
3
 178
7
 270
2
 271
0
 272
0
 273
2
 274
2
 340
F
 275
1
 280
0
 281
0
 282
0
 283
1
 284
0
 285
0
 286
0
 287
3
 288
1
   0
DIMSTYLE
 105
4A
 100
AcDbSymbolTableRecord
 100
AcDbDimStyleTableRecord
   2
GMM011
  70
0
   3

   4

   5

   6
_OPEN
   7
_OPEN
  40
 1.0000000000000
  41
 4.5000000000000
  42
 1.5000000000000
  43
 12.000000000000
  44
 3.0000000000000
  45
0.0
  46
0.0
  47
0.0
  48
0.0
 140
 6.0000000000000
 141
 1.5000000000000
 142
0.0
 143
 0.39400000000000E-1
 144
 1.0000000000000
 145
0.0
 146
 0.62500000000000
 147
 1.2000000000000
  71
0
  72
0
  73
0
  74
0
  75
0
  76
0
  77
3
  78
8
 170
0
 171
2
 172
1
 173
1
 174
0
 175
0
 176
3
 177
3
 178
3
 270
2
 271
2
 272
0
 273
2
 274
2
 340
3E
 275
0
 280
0
 281
0
 282
0
 283
1
 284
0
 285
0
 286
0
 287
3
 288
0
   0
DIMSTYLE
 105
4B
 100
AcDbSymbolTableRecord
 100
AcDbDimStyleTableRecord
   2
GMM012
  70
0
   3

   4

   5

   6
_OPEN
   7
_OPEN
  40
 1.0000000000000
  41
 4.5000000000000
  42
 1.5000000000000
  43
 12.000000000000
  44
 3.0000000000000
  45
0.0
  46
0.0
  47
0.0
  48
0.0
 140
 6.0000000000000
 141
 1.5000000000000
 142
0.0
 143
 0.39400000000000E-1
 144
 1.0000000000000
 145
0.0
 146
 0.62500000000000
 147
 1.2000000000000
  71
0
  72
0
  73
0
  74
0
  75
1
  76
1
  77
3
  78
8
 170
0
 171
2
 172
1
 173
1
 174
0
 175
0
 176
3
 177
3
 178
3
 270
2
 271
2
 272
0
 273
2
 274
2
 340
3E
 275
0
 280
0
 281
0
 282
0
 283
1
 284
0
 285
0
 286
0
 287
3
 288
0
   0
DIMSTYLE
 105
4C
 100
AcDbSymbolTableRecord
 100
AcDbDimStyleTableRecord
   2
GMM013
  70
0
   3

   4

   5

   6
_OPEN
   7
_OPEN
  40
 1.0000000000000
  41
 4.5000000000000
  42
 1.5000000000000
  43
 12.000000000000
  44
 3.0000000000000
  45
0.0
  46
0.0
  47
0.0
  48
0.0
 140
 6.0000000000000
 141
 1.5000000000000
 142
0.0
 143
 0.39400000000000E-1
 144
 1.0000000000000
 145
0.0
 146
 0.62500000000000
 147
0.0
  71
0
  72
0
  73
0
  74
0
  75
0
  76
0
  77
1
  78
8
 170
0
 171
2
 172
1
 173
1
 174
0
 175
0
 176
3
 177
3
 178
7
 270
2
 271
2
 272
0
 273
2
 274
2
 340
F
 275
0
 280
0
 281
0
 282
0
 283
1
 284
0
 285
0
 286
0
 287
3
 288
1
   0
DIMSTYLE
 105
4D
 100
AcDbSymbolTableRecord
 100
AcDbDimStyleTableRecord
   2
GMM014
  70
0
   3

   4

   5

   6
_OPEN
   7
_OPEN
  40
 1.0000000000000
  41
 4.5000000000000
  42
 1.5000000000000
  43
 0.10000000000000E-5
  44
 3.0000000000000
  45
0.0
  46
0.0
  47
0.0
  48
0.0
 140
 6.0000000000000
 141
 1.5000000000000
 142
0.0
 143
 0.39400000000000E-1
 144
 1.0000000000000
 145
0.0
 146
 0.62500000000000
 147
 1.2000045418738
  71
0
  72
0
  73
0
  74
0
  75
0
  76
0
  77
3
  78
0
 170
0
 171
2
 172
1
 173
1
 174
0
 175
0
 176
3
 177
3
 178
3
 270
2
 271
0
 272
0
 273
2
 274
2
 340
3E
 275
1
 280
0
 281
0
 282
0
 283
1
 284
0
 285
0
 286
0
 287
3
 288
1
   0
ENDTAB
  0
TABLE
  2
BLOCK_RECORD
  5
1
100
AcDbSymbolTable
 70
     0
  0
BLOCK_RECORD
  5
18
100
AcDbSymbolTableRecord
100
AcDbBlockTableRecord
  2
*MODEL_SPACE
  0
BLOCK_RECORD
  5
15
100
AcDbSymbolTableRecord
100
AcDbBlockTableRecord
  2
*PAPER_SPACE
   0
BLOCK_RECORD
   5
4E
 100
AcDbSymbolTableRecord
 100
AcDbBlockTableRecord
   2
*D2
   0
BLOCK_RECORD
   5
4F
 100
AcDbSymbolTableRecord
 100
AcDbBlockTableRecord
   2
*D7
   0
BLOCK_RECORD
   5
50
 100
AcDbSymbolTableRecord
 100
AcDbBlockTableRecord
   2
*D8
   0
BLOCK_RECORD
   5
51
 100
AcDbSymbolTableRecord
 100
AcDbBlockTableRecord
   2
*D9
   0
BLOCK_RECORD
   5
52
 100
AcDbSymbolTableRecord
 100
AcDbBlockTableRecord
   2
*D10
   0
BLOCK_RECORD
   5
53
 100
AcDbSymbolTableRecord
 100
AcDbBlockTableRecord
   2
*D11
   0
BLOCK_RECORD
   5
54
 100
AcDbSymbolTableRecord
 100
AcDbBlockTableRecord
   2
*D12
   0
BLOCK_RECORD
   5
55
 100
AcDbSymbolTableRecord
 100
AcDbBlockTableRecord
   2
*D13
   0
BLOCK_RECORD
   5
56
 100
AcDbSymbolTableRecord
 100
AcDbBlockTableRecord
   2
*D14
   0
BLOCK_RECORD
   5
57
 100
AcDbSymbolTableRecord
 100
AcDbBlockTableRecord
   2
*D15
   0
BLOCK_RECORD
   5
58
 100
AcDbSymbolTableRecord
 100
AcDbBlockTableRecord
   2
*D17
   0
BLOCK_RECORD
   5
59
 100
AcDbSymbolTableRecord
 100
AcDbBlockTableRecord
   2
*D18
   0
BLOCK_RECORD
   5
5A
 100
AcDbSymbolTableRecord
 100
AcDbBlockTableRecord
   2
*D19
   0
BLOCK_RECORD
   5
5B
 100
AcDbSymbolTableRecord
 100
AcDbBlockTableRecord
   2
*D20
   0
BLOCK_RECORD
   5
5C
 100
AcDbSymbolTableRecord
 100
AcDbBlockTableRecord
   2
*D21
   0
BLOCK_RECORD
   5
5D
 100
AcDbSymbolTableRecord
 100
AcDbBlockTableRecord
   2
*D23
   0
BLOCK_RECORD
   5
5E
 100
AcDbSymbolTableRecord
 100
AcDbBlockTableRecord
   2
_ARCHTICK
   0
BLOCK_RECORD
   5
5F
 100
AcDbSymbolTableRecord
 100
AcDbBlockTableRecord
   2
_BOXBLANK
   0
BLOCK_RECORD
   5
60
 100
AcDbSymbolTableRecord
 100
AcDbBlockTableRecord
   2
_BOXFILLED
   0
BLOCK_RECORD
   5
61
 100
AcDbSymbolTableRecord
 100
AcDbBlockTableRecord
   2
_CLOSED
   0
BLOCK_RECORD
   5
62
 100
AcDbSymbolTableRecord
 100
AcDbBlockTableRecord
   2
_CLOSEDBLANK
   0
BLOCK_RECORD
   5
63
 100
AcDbSymbolTableRecord
 100
AcDbBlockTableRecord
   2
_DATUMBLANK
   0
BLOCK_RECORD
   5
64
 100
AcDbSymbolTableRecord
 100
AcDbBlockTableRecord
   2
_DATUMFILLED
   0
BLOCK_RECORD
   5
65
 100
AcDbSymbolTableRecord
 100
AcDbBlockTableRecord
   2
_DOT
   0
BLOCK_RECORD
   5
66
 100
AcDbSymbolTableRecord
 100
AcDbBlockTableRecord
   2
_DOTBLANK
   0
BLOCK_RECORD
   5
67
 100
AcDbSymbolTableRecord
 100
AcDbBlockTableRecord
   2
_DOTSMALL
   0
BLOCK_RECORD
   5
68
 100
AcDbSymbolTableRecord
 100
AcDbBlockTableRecord
   2
_INTEGRAL
   0
BLOCK_RECORD
   5
69
 100
AcDbSymbolTableRecord
 100
AcDbBlockTableRecord
   2
_NONE
   0
BLOCK_RECORD
   5
6A
 100
AcDbSymbolTableRecord
 100
AcDbBlockTableRecord
   2
_OBLIQUE
   0
BLOCK_RECORD
   5
6B
 100
AcDbSymbolTableRecord
 100
AcDbBlockTableRecord
   2
_OPEN
   0
BLOCK_RECORD
   5
6C
 100
AcDbSymbolTableRecord
 100
AcDbBlockTableRecord
   2
_OPEN30
   0
BLOCK_RECORD
   5
6D
 100
AcDbSymbolTableRecord
 100
AcDbBlockTableRecord
   2
_OPEN90
   0
BLOCK_RECORD
   5
6E
 100
AcDbSymbolTableRecord
 100
AcDbBlockTableRecord
   2
_ORIGIN
   0
ENDTAB
   0
ENDSEC
  0
SECTION
  2
BLOCKS
  0
BLOCK
  5
19
100
AcDbEntity
  8
0
100
AcDbBlockBegin
  2
*MODEL_SPACE
 70
     0
 10
0.0
 20
0.0
 30
0.0
  3
*MODEL_SPACE
  1

  0
ENDBLK
  5
1A
100
AcDbEntity
  8
0
100
AcDbBlockEnd
  0
BLOCK
  5
16
100
AcDbEntity
 67
     1
  8
0
100
AcDbBlockBegin
  2
*PAPER_SPACE
 70
     0
 10
0.0
 20
0.0
 30
0.0
  3
*PAPER_SPACE
  1

  0
ENDBLK
  5
17
100
AcDbEntity
 67
     1
  8
0
100
AcDbBlockEnd
   0
BLOCK
   5
6F
 100
AcDbEntity
   8
0
 100
AcDbBlockBegin
   2
_ARCHTICK
  70
0
  10
0.0
  20
0.0
  30
0.0
   3
_ARCHTICK
   0
POLYLINE
   5
70
 100
AcDbEntity
   8
0
   6
BYBLOCK
  62
0
 100
AcDb2dPolyline
  66
1
  10
0.0
  20
0.0
  30
0.0
  70
1
  40
 0.15000000000000
  41
 0.15000000000000
   0
VERTEX
   5
71
 100
AcDbEntity
   8
0
   6
BYBLOCK
  62
0
 100
AcDbVertex
 100
AcDb2dVertex
  10
-0.50000000000000
  20
-0.50000000000000
  30
0.0
  40
 0.15000000000000
  41
 0.15000000000000
   0
VERTEX
   5
72
 100
AcDbEntity
   8
0
   6
BYBLOCK
  62
0
 100
AcDbVertex
 100
AcDb2dVertex
  10
 0.50000000000000
  20
 0.50000000000000
  30
0.0
  40
 0.15000000000000
  41
 0.15000000000000
   0
SEQEND
   5
73
 100
AcDbEntity
   8
0
   6
BYBLOCK
  62
0
   0
ENDBLK
   5
74
 100
AcDbEntity
   8
0
 100
AcDbBlockEnd
   0
BLOCK
   5
75
 100
AcDbEntity
   8
0
 100
AcDbBlockBegin
   2
_OBLIQUE
  70
0
  10
0.0
  20
0.0
  30
0.0
   3
_OBLIQUE
   0
LINE
   5
76
 100
AcDbEntity
   8
0
 100
AcDbLine
   6
BYBLOCK
  62
0
  10
-0.50000000000000
  20
-0.50000000000000
  30
0.0
  11
 0.50000000000000
  21
 0.50000000000000
  31
0.0
   0
ENDBLK
   5
77
 100
AcDbEntity
   8
0
 100
AcDbBlockEnd
   0
BLOCK
   5
78
 100
AcDbEntity
   8
0
 100
AcDbBlockBegin
   2
_BOXBLANK
  70
0
  10
0.0
  20
0.0
  30
0.0
   3
_BOXBLANK
   0
LINE
   5
79
 100
AcDbEntity
   8
0
 100
AcDbLine
   6
BYBLOCK
  62
0
  10
-0.50000000000000
  20
-0.50000000000000
  30
0.0
  11
 0.50000000000000
  21
-0.50000000000000
  31
0.0
   0
LINE
   5
7A
 100
AcDbEntity
   8
0
 100
AcDbLine
   6
BYBLOCK
  62
0
  10
 0.50000000000000
  20
-0.50000000000000
  30
0.0
  11
 0.50000000000000
  21
 0.50000000000000
  31
0.0
   0
LINE
   5
7B
 100
AcDbEntity
   8
0
 100
AcDbLine
   6
BYBLOCK
  62
0
  10
 0.50000000000000
  20
 0.50000000000000
  30
0.0
  11
-0.50000000000000
  21
 0.50000000000000
  31
0.0
   0
LINE
   5
7C
 100
AcDbEntity
   8
0
 100
AcDbLine
   6
BYBLOCK
  62
0
  10
-0.50000000000000
  20
 0.50000000000000
  30
0.0
  11
-0.50000000000000
  21
-0.50000000000000
  31
0.0
   0
LINE
   5
7D
 100
AcDbEntity
   8
0
 100
AcDbLine
   6
BYBLOCK
  62
0
  10
-0.50000000000000
  20
0.0
  30
0.0
  11
-1.0000000000000
  21
0.0
  31
0.0
   0
ENDBLK
   5
7E
 100
AcDbEntity
   8
0
 100
AcDbBlockEnd
   0
BLOCK
   5
7F
 100
AcDbEntity
   8
0
 100
AcDbBlockBegin
   2
_BOXFILLED
  70
0
  10
0.0
  20
0.0
  30
0.0
   3
_BOXFILLED
   0
SOLID
   5
80
 100
AcDbEntity
   8
0
 100
AcDbTrace
   6
BYBLOCK
  62
0
  10
-0.50000000000000
  20
 0.50000000000000
  30
0.0
  11
 0.50000000000000
  21
 0.50000000000000
  31
0.0
  12
-0.50000000000000
  22
-0.50000000000000
  32
0.0
  13
 0.50000000000000
  23
-0.50000000000000
  33
0.0
   0
LINE
   5
81
 100
AcDbEntity
   8
0
 100
AcDbLine
   6
BYBLOCK
  62
0
  10
-0.50000000000000
  20
0.0
  30
0.0
  11
-1.0000000000000
  21
0.0
  31
0.0
   0
ENDBLK
   5
82
 100
AcDbEntity
   8
0
 100
AcDbBlockEnd
   0
BLOCK
   5
83
 100
AcDbEntity
   8
0
 100
AcDbBlockBegin
   2
_CLOSED
  70
0
  10
0.0
  20
0.0
  30
0.0
   3
_CLOSED
   0
LINE
   5
84
 100
AcDbEntity
   8
0
 100
AcDbLine
   6
BYBLOCK
  62
0
  10
-1.0000000000000
  20
 0.16666666666667
  30
0.0
  11
0.0
  21
0.0
  31
0.0
   0
LINE
   5
85
 100
AcDbEntity
   8
0
 100
AcDbLine
   6
BYBLOCK
  62
0
  10
0.0
  20
0.0
  30
0.0
  11
-1.0000000000000
  21
-0.16666666666667
  31
0.0
   0
LINE
   5
86
 100
AcDbEntity
   8
0
 100
AcDbLine
   6
BYBLOCK
  62
0
  10
-1.0000000000000
  20
 0.16666666666667
  30
0.0
  11
-1.0000000000000
  21
-0.16666666666667
  31
0.0
   0
LINE
   5
87
 100
AcDbEntity
   8
0
 100
AcDbLine
   6
BYBLOCK
  62
0
  10
0.0
  20
0.0
  30
0.0
  11
-1.0000000000000
  21
0.0
  31
0.0
   0
ENDBLK
   5
88
 100
AcDbEntity
   8
0
 100
AcDbBlockEnd
   0
BLOCK
   5
89
 100
AcDbEntity
   8
0
 100
AcDbBlockBegin
   2
_OPEN
  70
0
  10
0.0
  20
0.0
  30
0.0
   3
_OPEN
   0
LINE
   5
8A
 100
AcDbEntity
   8
0
 100
AcDbLine
   6
BYBLOCK
  62
0
  10
-1.0000000000000
  20
 0.16666666666667
  30
0.0
  11
0.0
  21
0.0
  31
0.0
   0
LINE
   5
8B
 100
AcDbEntity
   8
0
 100
AcDbLine
   6
BYBLOCK
  62
0
  10
0.0
  20
0.0
  30
0.0
  11
-1.0000000000000
  21
-0.16666666666667
  31
0.0
   0
LINE
   5
8C
 100
AcDbEntity
   8
0
 100
AcDbLine
   6
BYBLOCK
  62
0
  10
0.0
  20
0.0
  30
0.0
  11
-1.0000000000000
  21
0.0
  31
0.0
   0
ENDBLK
   5
8D
 100
AcDbEntity
   8
0
 100
AcDbBlockEnd
   0
BLOCK
   5
8E
 100
AcDbEntity
   8
0
 100
AcDbBlockBegin
   2
_OPEN30
  70
0
  10
0.0
  20
0.0
  30
0.0
   3
_OPEN30
   0
LINE
   5
8F
 100
AcDbEntity
   8
0
 100
AcDbLine
   6
BYBLOCK
  62
0
  10
-1.0000000000000
  20
 0.26794919243110
  30
0.0
  11
0.0
  21
0.0
  31
0.0
   0
LINE
   5
90
 100
AcDbEntity
   8
0
 100
AcDbLine
   6
BYBLOCK
  62
0
  10
0.0
  20
0.0
  30
0.0
  11
-1.0000000000000
  21
-0.26794919243110
  31
0.0
   0
LINE
   5
91
 100
AcDbEntity
   8
0
 100
AcDbLine
   6
BYBLOCK
  62
0
  10
0.0
  20
0.0
  30
0.0
  11
-1.0000000000000
  21
0.0
  31
0.0
   0
ENDBLK
   5
92
 100
AcDbEntity
   8
0
 100
AcDbBlockEnd
   0
BLOCK
   5
93
 100
AcDbEntity
   8
0
 100
AcDbBlockBegin
   2
_OPEN90
  70
0
  10
0.0
  20
0.0
  30
0.0
   3
_OPEN90
   0
LINE
   5
94
 100
AcDbEntity
   8
0
 100
AcDbLine
   6
BYBLOCK
  62
0
  10
-0.50000000000000
  20
 0.50000000000000
  30
0.0
  11
0.0
  21
0.0
  31
0.0
   0
LINE
   5
95
 100
AcDbEntity
   8
0
 100
AcDbLine
   6
BYBLOCK
  62
0
  10
0.0
  20
0.0
  30
0.0
  11
-0.50000000000000
  21
-0.50000000000000
  31
0.0
   0
LINE
   5
96
 100
AcDbEntity
   8
0
 100
AcDbLine
   6
BYBLOCK
  62
0
  10
0.0
  20
0.0
  30
0.0
  11
-1.0000000000000
  21
0.0
  31
0.0
   0
ENDBLK
   5
97
 100
AcDbEntity
   8
0
 100
AcDbBlockEnd
   0
BLOCK
   5
98
 100
AcDbEntity
   8
0
 100
AcDbBlockBegin
   2
_CLOSEDBLANK
  70
0
  10
0.0
  20
0.0
  30
0.0
   3
_CLOSEDBLANK
   0
LINE
   5
99
 100
AcDbEntity
   8
0
 100
AcDbLine
   6
BYBLOCK
  62
0
  10
-1.0000000000000
  20
 0.16666666666667
  30
0.0
  11
0.0
  21
0.0
  31
0.0
   0
LINE
   5
9A
 100
AcDbEntity
   8
0
 100
AcDbLine
   6
BYBLOCK
  62
0
  10
0.0
  20
0.0
  30
0.0
  11
-1.0000000000000
  21
-0.16666666666667
  31
0.0
   0
LINE
   5
9B
 100
AcDbEntity
   8
0
 100
AcDbLine
   6
BYBLOCK
  62
0
  10
-1.0000000000000
  20
 0.16666666666667
  30
0.0
  11
-1.0000000000000
  21
-0.16666666666667
  31
0.0
   0
ENDBLK
   5
9C
 100
AcDbEntity
   8
0
 100
AcDbBlockEnd
   0
BLOCK
   5
9D
 100
AcDbEntity
   8
0
 100
AcDbBlockBegin
   2
_DOT
  70
0
  10
0.0
  20
0.0
  30
0.0
   3
_DOT
   0
POLYLINE
   5
9E
 100
AcDbEntity
   8
0
   6
BYBLOCK
  62
0
 100
AcDb2dPolyline
  66
1
  10
0.0
  20
0.0
  30
0.0
  70
1
  40
 0.50000000000000
  41
 0.50000000000000
   0
VERTEX
   5
9F
 100
AcDbEntity
   8
0
   6
BYBLOCK
  62
0
 100
AcDbVertex
 100
AcDb2dVertex
  10
-0.25000000000000
  20
0.0
  30
0.0
  42
 1.0000000000000
  40
 0.50000000000000
  41
 0.50000000000000
   0
VERTEX
   5
A0
 100
AcDbEntity
   8
0
   6
BYBLOCK
  62
0
 100
AcDbVertex
 100
AcDb2dVertex
  10
 0.25000000000000
  20
0.0
  30
0.0
  42
 1.0000000000000
  40
 0.50000000000000
  41
 0.50000000000000
   0
SEQEND
   5
A1
 100
AcDbEntity
   8
0
   6
BYBLOCK
  62
0
   0
LINE
   5
A2
 100
AcDbEntity
   8
0
 100
AcDbLine
   6
BYBLOCK
  62
0
  10
-0.50000000000000
  20
0.0
  30
0.0
  11
-1.0000000000000
  21
0.0
  31
0.0
   0
ENDBLK
   5
A3
 100
AcDbEntity
   8
0
 100
AcDbBlockEnd
   0
BLOCK
   5
A4
 100
AcDbEntity
   8
0
 100
AcDbBlockBegin
   2
_DOTSMALL
  70
0
  10
0.0
  20
0.0
  30
0.0
   3
_DOTSMALL
   0
POLYLINE
   5
A5
 100
AcDbEntity
   8
0
   6
BYBLOCK
  62
0
 100
AcDb2dPolyline
  66
1
  10
0.0
  20
0.0
  30
0.0
  70
1
  40
 0.50000000000000
  41
 0.50000000000000
   0
VERTEX
   5
A6
 100
AcDbEntity
   8
0
   6
BYBLOCK
  62
0
 100
AcDbVertex
 100
AcDb2dVertex
  10
-0.62500000000000E-1
  20
0.0
  30
0.0
  42
 1.0000000000000
  40
 0.50000000000000
  41
 0.50000000000000
   0
VERTEX
   5
A7
 100
AcDbEntity
   8
0
   6
BYBLOCK
  62
0
 100
AcDbVertex
 100
AcDb2dVertex
  10
 0.62500000000000E-1
  20
0.0
  30
0.0
  42
 1.0000000000000
  40
 0.50000000000000
  41
 0.50000000000000
   0
SEQEND
   5
A8
 100
AcDbEntity
   8
0
   6
BYBLOCK
  62
0
   0
ENDBLK
   5
A9
 100
AcDbEntity
   8
0
 100
AcDbBlockEnd
   0
BLOCK
   5
AA
 100
AcDbEntity
   8
0
 100
AcDbBlockBegin
   2
_DATUMBLANK
  70
0
  10
0.0
  20
0.0
  30
0.0
   3
_DATUMBLANK
   0
LINE
   5
AB
 100
AcDbEntity
   8
0
 100
AcDbLine
   6
BYBLOCK
  62
0
  10
0.0
  20
 0.57735027000000
  30
0.0
  11
-1.0000000000000
  21
0.0
  31
0.0
   0
LINE
   5
AC
 100
AcDbEntity
   8
0
 100
AcDbLine
   6
BYBLOCK
  62
0
  10
-1.0000000000000
  20
0.0
  30
0.0
  11
0.0
  21
-0.57735027000000
  31
0.0
   0
LINE
   5
AD
 100
AcDbEntity
   8
0
 100
AcDbLine
   6
BYBLOCK
  62
0
  10
0.0
  20
-0.57735027000000
  30
0.0
  11
0.0
  21
 0.57735027000000
  31
0.0
   0
ENDBLK
   5
AE
 100
AcDbEntity
   8
0
 100
AcDbBlockEnd
   0
BLOCK
   5
AF
 100
AcDbEntity
   8
0
 100
AcDbBlockBegin
   2
_DATUMFILLED
  70
0
  10
0.0
  20
0.0
  30
0.0
   3
_DATUMFILLED
   0
SOLID
   5
B0
 100
AcDbEntity
   8
0
 100
AcDbTrace
   6
BYBLOCK
  62
0
  10
0.0
  20
 0.57735027000000
  30
0.0
  11
-1.0000000000000
  21
0.0
  31
0.0
  12
0.0
  22
-0.57735027000000
  32
0.0
  13
0.0
  23
-0.57735027000000
  33
0.0
   0
ENDBLK
   5
B1
 100
AcDbEntity
   8
0
 100
AcDbBlockEnd
   0
BLOCK
   5
B2
 100
AcDbEntity
   8
0
 100
AcDbBlockBegin
   2
_ORIGIN
  70
0
  10
0.0
  20
0.0
  30
0.0
   3
_ORIGIN
   0
CIRCLE
   5
B3
 100
AcDbEntity
   8
0
 100
AcDbCircle
   6
BYBLOCK
  62
0
  10
0.0
  20
0.0
  30
0.0
  40
 0.50000000000000
   0
LINE
   5
B4
 100
AcDbEntity
   8
0
 100
AcDbLine
   6
BYBLOCK
  62
0
  10
0.0
  20
0.0
  30
0.0
  11
-1.0000000000000
  21
0.0
  31
0.0
   0
ENDBLK
   5
B5
 100
AcDbEntity
   8
0
 100
AcDbBlockEnd
   0
BLOCK
   5
B6
 100
AcDbEntity
   8
0
 100
AcDbBlockBegin
   2
_NONE
  70
0
  10
0.0
  20
0.0
  30
0.0
   3
_NONE
   0
CIRCLE
   5
B7
 100
AcDbEntity
   8
0
 100
AcDbCircle
   6
BYBLOCK
  62
0
  10
0.0
  20
0.0
  30
0.0
  40
 0.25000000000000
   0
ENDBLK
   5
B8
 100
AcDbEntity
   8
0
 100
AcDbBlockEnd
   0
BLOCK
   5
B9
 100
AcDbEntity
   8
0
 100
AcDbBlockBegin
   2
_DOTBLANK
  70
0
  10
0.0
  20
0.0
  30
0.0
   3
_DOTBLANK
   0
CIRCLE
   5
BA
 100
AcDbEntity
   8
0
 100
AcDbCircle
   6
BYBLOCK
  62
0
  10
0.0
  20
0.0
  30
0.0
  40
 0.50000000000000
   0
LINE
   5
BB
 100
AcDbEntity
   8
0
 100
AcDbLine
   6
BYBLOCK
  62
0
  10
-0.50000000000000
  20
0.0
  30
0.0
  11
-1.0000000000000
  21
0.0
  31
0.0
   0
ENDBLK
   5
BC
 100
AcDbEntity
   8
0
 100
AcDbBlockEnd
   0
BLOCK
   5
BD
 100
AcDbEntity
   8
0
 100
AcDbBlockBegin
   2
_INTEGRAL
  70
0
  10
0.0
  20
0.0
  30
0.0
   3
_INTEGRAL
   0
ARC
   5
BE
 100
AcDbEntity
   8
0
   6
BYBLOCK
  62
0
 100
AcDbCircle
  10
 0.44488800000000
  20
-0.91335000000000E-1
  30
0.0
  40
 0.45416700000000
 100
AcDbArc
  50
 102.00000000000
  51
 168.00000000000
   0
ARC
   5
BF
 100
AcDbEntity
   8
0
   6
BYBLOCK
  62
0
 100
AcDbCircle
  10
-0.44488800000000
  20
 0.91335000000000E-1
  30
0.0
  40
 0.45416700000000
 100
AcDbArc
  50
 282.00000000000
  51
 348.00000000000
   0
ENDBLK
   5
C0
 100
AcDbEntity
   8
0
 100
AcDbBlockEnd
   0
BLOCK
   5
C1
 100
AcDbEntity
   8
0
 100
AcDbBlockBegin
   2
*D2
  70
65
  10
0.0
  20
0.0
  30
0.0
   3
*D2
   0
LINE
   5
C2
 100
AcDbEntity
   8
LEVEL003
 100
AcDbLine
   6
CONTINUOUS
  62
3
  10
 271.00000071526
  20
 88.999967277051
  30
0.0
  11
 287.99999262393
  21
 88.999967277051
  31
0.0
   0
LINE
   5
C3
 100
AcDbEntity
   8
LEVEL003
 100
AcDbLine
   6
CONTINUOUS
  62
3
  10
 199.00000286102
  20
 61.999968081714
  30
0.0
  11
 287.99999262393
  21
 61.999968081714
  31
0.0
   0
LINE
   5
C4
 100
AcDbEntity
   8
LEVEL003
 100
AcDbLine
   6
CONTINUOUS
  62
3
  10
 284.99999262393
  20
 88.999967277051
  30
0.0
  11
 284.99999262393
  21
 81.537467679382
  31
0.0
   0
LINE
   5
C5
 100
AcDbEntity
   8
LEVEL003
 100
AcDbLine
   6
CONTINUOUS
  62
3
  10
 284.99999262393
  20
 61.999968081714
  30
0.0
  11
 284.99999262393
  21
 69.462467679382
  31
0.0
   0
INSERT
   5
C6
 100
AcDbEntity
   8
LEVEL003
   6
CONTINUOUS
  62
3
 100
AcDbBlockReference
   2
_OPEN
  10
 284.99999262393
  20
 88.999967277051
  30
0.0
  41
 4.5000000000000
  42
 4.5000000000000
  43
 4.5000000000000
  50
 90.000000000000
   0
INSERT
   5
C7
 100
AcDbEntity
   8
LEVEL003
   6
CONTINUOUS
  62
3
 100
AcDbBlockReference
   2
_OPEN
  10
 284.99999262393
  20
 61.999968081714
  30
0.0
  41
 4.5000000000000
  42
 4.5000000000000
  43
 4.5000000000000
  50
 270.00000000000
   0
MTEXT
   5
C8
 100
AcDbEntity
   8
LEVEL003
  62
3
 100
AcDbMText
  10
 283.79998808206
  20
 75.499967679382
  30
0.0
  40
 6.0000000000000
  41
0.0
  71
8
  72
1
   1
\A1;27
   7
GMM001
  11
0.0
  21
 1.0000000000000
  31
0.0
   0
ENDBLK
   5
C9
 100
AcDbEntity
   8
0
 100
AcDbBlockEnd
   0
BLOCK
   5
CA
 100
AcDbEntity
   8
0
 100
AcDbBlockBegin
   2
*D7
  70
65
  10
0.0
  20
0.0
  30
0.0
   3
*D7
   0
LINE
   5
CB
 100
AcDbEntity
   8
LEVEL003
 100
AcDbLine
   6
CONTINUOUS
  62
3
  10
 226.49999441206
  20
 166.99996495247
  30
0.0
  11
 272.99999307096
  21
 166.99996495247
  31
0.0
   0
LINE
   5
CC
 100
AcDbEntity
   8
LEVEL003
 100
AcDbLine
   6
CONTINUOUS
  62
3
  10
 229.00000196695
  20
 286.99996137619
  30
0.0
  11
 272.99999307096
  21
 286.99996137619
  31
0.0
   0
LINE
   5
CD
 100
AcDbEntity
   8
LEVEL003
 100
AcDbLine
   6
CONTINUOUS
  62
3
  10
 269.99999307096
  20
 166.99996495247
  30
0.0
  11
 269.99999307096
  21
 219.45308816433
  31
0.0
   0
LINE
   5
CE
 100
AcDbEntity
   8
LEVEL003
 100
AcDbLine
   6
CONTINUOUS
  62
3
  10
 269.99999307096
  20
 286.99996137619
  30
0.0
  11
 269.99999307096
  21
 234.54683816433
  31
0.0
   0
INSERT
   5
CF
 100
AcDbEntity
   8
LEVEL003
   6
CONTINUOUS
  62
3
 100
AcDbBlockReference
   2
_OPEN
  10
 269.99999307096
  20
 166.99996495247
  30
0.0
  41
 4.5000000000000
  42
 4.5000000000000
  43
 4.5000000000000
  50
 270.00000000000
   0
INSERT
   5
D0
 100
AcDbEntity
   8
LEVEL003
   6
CONTINUOUS
  62
3
 100
AcDbBlockReference
   2
_OPEN
  10
 269.99999307096
  20
 286.99996137619
  30
0.0
  41
 4.5000000000000
  42
 4.5000000000000
  43
 4.5000000000000
  50
 90.000000000000
   0
MTEXT
   5
D1
 100
AcDbEntity
   8
LEVEL003
  62
3
 100
AcDbMText
  10
 268.79998852909
  20
 226.99996316433
  30
0.0
  40
 6.0000000000000
  41
0.0
  71
8
  72
1
   1
\A1;120
   7
GMM001
  11
0.0
  21
 1.0000000000000
  31
0.0
   0
ENDBLK
   5
D2
 100
AcDbEntity
   8
0
 100
AcDbBlockEnd
   0
BLOCK
   5
D3
 100
AcDbEntity
   8
0
 100
AcDbBlockBegin
   2
*D8
  70
65
  10
0.0
  20
0.0
  30
0.0
   3
*D8
   0
LINE
   5
D4
 100
AcDbEntity
   8
LEVEL003
 100
AcDbLine
   6
CONTINUOUS
  62
3
  10
 173.99999597669
  20
 389.99998882413
  30
0.0
  11
 272.99999307096
  21
 389.99998882413
  31
0.0
   0
LINE
   5
D5
 100
AcDbEntity
   8
LEVEL003
 100
AcDbLine
   6
CONTINUOUS
  62
3
  10
 175.35962270619
  20
 379.99995860458
  30
0.0
  11
 272.99999307096
  21
 379.99995860458
  31
0.0
   0
LINE
   5
D6
 100
AcDbEntity
   8
LEVEL003
 100
AcDbLine
   6
CONTINUOUS
  62
3
  10
 269.99999307096
  20
 389.99998882413
  30
0.0
  11
 269.99999307096
  21
 389.52809871435
  31
0.0
   0
LINE
   5
D7
 100
AcDbEntity
   8
LEVEL003
 100
AcDbLine
   6
CONTINUOUS
  62
3
  10
 269.99999307096
  20
 379.99995860458
  30
0.0
  11
 269.99999307096
  21
 380.47184871435
  31
0.0
   0
INSERT
   5
D8
 100
AcDbEntity
   8
LEVEL003
   6
CONTINUOUS
  62
3
 100
AcDbBlockReference
   2
_OPEN
  10
 269.99999307096
  20
 389.99998882413
  30
0.0
  41
 4.5000000000000
  42
 4.5000000000000
  43
 4.5000000000000
  50
 90.000000000000
   0
INSERT
   5
D9
 100
AcDbEntity
   8
LEVEL003
   6
CONTINUOUS
  62
3
 100
AcDbBlockReference
   2
_OPEN
  10
 269.99999307096
  20
 379.99995860458
  30
0.0
  41
 4.5000000000000
  42
 4.5000000000000
  43
 4.5000000000000
  50
 270.00000000000
   0
MTEXT
   5
DA
 100
AcDbEntity
   8
LEVEL003
  62
3
 100
AcDbMText
  10
 268.79998852909
  20
 384.99997371435
  30
0.0
  40
 6.0000000000000
  41
0.0
  71
8
  72
1
   1
\A1;10
   7
GMM001
  11
0.0
  21
 1.0000000000000
  31
0.0
   0
ENDBLK
   5
DB
 100
AcDbEntity
   8
0
 100
AcDbBlockEnd
   0
BLOCK
   5
DC
 100
AcDbEntity
   8
0
 100
AcDbBlockBegin
   2
*D9
  70
65
  10
0.0
  20
0.0
  30
0.0
   3
*D9
   0
LINE
   5
DD
 100
AcDbEntity
   8
LEVEL003
 100
AcDbLine
   6
CONTINUOUS
  62
3
  10
 202.00000277162
  20
 336.99997514486
  30
0.0
  11
 287.99999262393
  21
 336.99997514486
  31
0.0
   0
LINE
   5
DE
 100
AcDbEntity
   8
LEVEL003
 100
AcDbLine
   6
CONTINUOUS
  62
3
  10
 196.49999530613
  20
 376.99995869398
  30
0.0
  11
 287.99999262393
  21
 376.99995869398
  31
0.0
   0
LINE
   5
DF
 100
AcDbEntity
   8
LEVEL003
 100
AcDbLine
   6
CONTINUOUS
  62
3
  10
 284.99999262393
  20
 336.99997514486
  30
0.0
  11
 284.99999262393
  21
 351.48746691942
  31
0.0
   0
LINE
   5
E0
 100
AcDbEntity
   8
LEVEL003
 100
AcDbLine
   6
CONTINUOUS
  62
3
  10
 284.99999262393
  20
 376.99995869398
  30
0.0
  11
 284.99999262393
  21
 362.51246691942
  31
0.0
   0
INSERT
   5
E1
 100
AcDbEntity
   8
LEVEL003
   6
CONTINUOUS
  62
3
 100
AcDbBlockReference
   2
_OPEN
  10
 284.99999262393
  20
 336.99997514486
  30
0.0
  41
 4.5000000000000
  42
 4.5000000000000
  43
 4.5000000000000
  50
 270.00000000000
   0
INSERT
   5
E2
 100
AcDbEntity
   8
LEVEL003
   6
CONTINUOUS
  62
3
 100
AcDbBlockReference
   2
_OPEN
  10
 284.99999262393
  20
 376.99995869398
  30
0.0
  41
 4.5000000000000
  42
 4.5000000000000
  43
 4.5000000000000
  50
 90.000000000000
   0
MTEXT
   5
E3
 100
AcDbEntity
   8
LEVEL003
  62
3
 100
AcDbMText
  10
 283.79998808206
  20
 356.99996691942
  30
0.0
  40
 6.0000000000000
  41
0.0
  71
8
  72
1
   1
\A1;40
   7
GMM001
  11
0.0
  21
 1.0000000000000
  31
0.0
   0
ENDBLK
   5
E4
 100
AcDbEntity
   8
0
 100
AcDbBlockEnd
   0
BLOCK
   5
E5
 100
AcDbEntity
   8
0
 100
AcDbBlockBegin
   2
*D10
  70
65
  10
0.0
  20
0.0
  30
0.0
   3
*D10
   0
LINE
   5
E6
 100
AcDbEntity
   8
LEVEL003
 100
AcDbLine
   6
CONTINUOUS
  62
3
  10
 173.99999597669
  20
 389.99998882413
  30
0.0
  11
 287.99999262393
  21
 389.99998882413
  31
0.0
   0
LINE
   5
E7
 100
AcDbEntity
   8
LEVEL003
 100
AcDbLine
   6
CONTINUOUS
  62
3
  10
 196.49999530613
  20
 376.99995869398
  30
0.0
  11
 287.99999262393
  21
 376.99995869398
  31
0.0
   0
LINE
   5
E8
 100
AcDbEntity
   8
LEVEL003
 100
AcDbLine
   6
CONTINUOUS
  62
3
  10
 284.99999262393
  20
 389.99998882413
  30
0.0
  11
 284.99999262393
  21
 388.55309875906
  31
0.0
   0
LINE
   5
E9
 100
AcDbEntity
   8
LEVEL003
 100
AcDbLine
   6
CONTINUOUS
  62
3
  10
 284.99999262393
  20
 376.99995869398
  30
0.0
  11
 284.99999262393
  21
 378.44684875906
  31
0.0
   0
INSERT
   5
EA
 100
AcDbEntity
   8
LEVEL003
   6
CONTINUOUS
  62
3
 100
AcDbBlockReference
   2
_OPEN
  10
 284.99999262393
  20
 389.99998882413
  30
0.0
  41
 4.5000000000000
  42
 4.5000000000000
  43
 4.5000000000000
  50
 90.000000000000
   0
INSERT
   5
EB
 100
AcDbEntity
   8
LEVEL003
   6
CONTINUOUS
  62
3
 100
AcDbBlockReference
   2
_OPEN
  10
 284.99999262393
  20
 376.99995869398
  30
0.0
  41
 4.5000000000000
  42
 4.5000000000000
  43
 4.5000000000000
  50
 270.00000000000
   0
MTEXT
   5
EC
 100
AcDbEntity
   8
LEVEL003
  62
3
 100
AcDbMText
  10
 283.79998808206
  20
 383.49997375906
  30
0.0
  40
 6.0000000000000
  41
0.0
  71
8
  72
1
   1
\A1;13
   7
GMM001
  11
0.0
  21
 1.0000000000000
  31
0.0
   0
ENDBLK
   5
ED
 100
AcDbEntity
   8
0
 100
AcDbBlockEnd
   0
BLOCK
   5
EE
 100
AcDbEntity
   8
0
 100
AcDbBlockBegin
   2
*D11
  70
65
  10
0.0
  20
0.0
  30
0.0
   3
*D11
   0
LINE
   5
EF
 100
AcDbEntity
   8
LEVEL003
 100
AcDbLine
   6
CONTINUOUS
  62
3
  10
 202.00000277162
  20
 371.99998936057
  30
0.0
  11
 257.99999351800
  21
 371.99998936057
  31
0.0
   0
LINE
   5
F0
 100
AcDbEntity
   8
LEVEL003
 100
AcDbLine
   6
CONTINUOUS
  62
3
  10
 254.99999351800
  20
 382.62495869398
  30
0.0
  11
 254.99999351800
  21
 368.34953590111
  31
0.0
   0
LINE
   5
F1
 100
AcDbEntity
   8
LEVEL003
 100
AcDbLine
   6
CONTINUOUS
  62
3
  10
 254.99999351800
  20
 362.31203590111
  30
0.0
  11
 254.99999351800
  21
 362.31203590111
  31
0.0
   0
INSERT
   5
F2
 100
AcDbEntity
   8
LEVEL003
   6
CONTINUOUS
  62
3
 100
AcDbBlockReference
   2
_OPEN
  10
 254.99999351800
  20
 376.99995869398
  30
0.0
  41
 4.5000000000000
  42
 4.5000000000000
  43
 4.5000000000000
  50
 270.00000000000
   0
INSERT
   5
F3
 100
AcDbEntity
   8
LEVEL003
   6
CONTINUOUS
  62
3
 100
AcDbBlockReference
   2
_OPEN
  10
 254.99999351800
  20
 371.99998936057
  30
0.0
  41
 4.5000000000000
  42
 4.5000000000000
  43
 4.5000000000000
  50
 90.000000000000
   0
MTEXT
   5
F4
 100
AcDbEntity
   8
LEVEL003
  62
3
 100
AcDbMText
  10
 253.79998897613
  20
 368.34953590111
  30
0.0
  40
 6.0000000000000
  41
0.0
  71
9
  72
1
   1
\A1;5
   7
GMM001
  11
0.0
  21
 1.0000000000000
  31
0.0
   0
ENDBLK
   5
F5
 100
AcDbEntity
   8
0
 100
AcDbBlockEnd
   0
BLOCK
   5
F6
 100
AcDbEntity
   8
0
 100
AcDbBlockBegin
   2
*D12
  70
65
  10
0.0
  20
0.0
  30
0.0
   3
*D12
   0
LINE
   5
F7
 100
AcDbEntity
   8
LEVEL003
 100
AcDbLine
   6
CONTINUOUS
  62
3
  10
 85.499998569489
  20
 187.49999485910
  30
0.0
  11
 131.21249687076
  21
 187.49999485910
  31
0.0
   0
LINE
   5
F8
 100
AcDbEntity
   8
LEVEL003
 100
AcDbLine
   6
CONTINUOUS
  62
3
  10
 199.49999517202
  20
 187.49999485910
  30
0.0
  11
 153.78749687076
  21
 187.49999485910
  31
0.0
   0
INSERT
   5
F9
 100
AcDbEntity
   8
LEVEL003
   6
CONTINUOUS
  62
3
 100
AcDbBlockReference
   2
_OPEN
  10
 85.499998569489
  20
 187.49999485910
  30
0.0
  41
 4.5000000000000
  42
 4.5000000000000
  43
 4.5000000000000
  50
 180.00000000000
   0
INSERT
   5
FA
 100
AcDbEntity
   8
LEVEL003
   6
CONTINUOUS
  62
3
 100
AcDbBlockReference
   2
_OPEN
  10
 199.49999517202
  20
 187.49999485910
  30
0.0
  41
 4.5000000000000
  42
 4.5000000000000
  43
 4.5000000000000
  50
0.0
   0
MTEXT
   5
FB
 100
AcDbEntity
   8
LEVEL003
  62
3
 100
AcDbMText
  10
 142.49999687076
  20
 188.69999940097
  30
0.0
  40
 6.0000000000000
  41
0.0
  71
8
  72
1
   1
\A1;%%c114
   7
GMM001
   0
ENDBLK
   5
FC
 100
AcDbEntity
   8
0
 100
AcDbBlockEnd
   0
BLOCK
   5
FD
 100
AcDbEntity
   8
0
 100
AcDbBlockBegin
   2
*D13
  70
65
  10
0.0
  20
0.0
  30
0.0
   3
*D13
   0
LINE
   5
FE
 100
AcDbEntity
   8
LEVEL003
 100
AcDbLine
   6
CONTINUOUS
  62
3
  10
 199.49999517202
  20
 187.49999485910
  30
0.0
  11
 219.94686941206
  21
 187.49999485910
  31
0.0
   0
LINE
   5
FF
 100
AcDbEntity
   8
LEVEL003
 100
AcDbLine
   6
CONTINUOUS
  62
3
  10
 250.49999365211
  20
 187.49999485910
  30
0.0
  11
 230.05311941206
  21
 187.49999485910
  31
0.0
   0
INSERT
   5
100
 100
AcDbEntity
   8
LEVEL003
   6
CONTINUOUS
  62
3
 100
AcDbBlockReference
   2
_OPEN
  10
 199.49999517202
  20
 187.49999485910
  30
0.0
  41
 4.5000000000000
  42
 4.5000000000000
  43
 4.5000000000000
  50
 180.00000000000
   0
INSERT
   5
101
 100
AcDbEntity
   8
LEVEL003
   6
CONTINUOUS
  62
3
 100
AcDbBlockReference
   2
_OPEN
  10
 250.49999365211
  20
 187.49999485910
  30
0.0
  41
 4.5000000000000
  42
 4.5000000000000
  43
 4.5000000000000
  50
0.0
   0
MTEXT
   5
102
 100
AcDbEntity
   8
LEVEL003
  62
3
 100
AcDbMText
  10
 224.99999441206
  20
 188.69999940097
  30
0.0
  40
 6.0000000000000
  41
0.0
  71
8
  72
1
   1
\A1;51
   7
GMM001
   0
ENDBLK
   5
103
 100
AcDbEntity
   8
0
 100
AcDbBlockEnd
   0
BLOCK
   5
104
 100
AcDbEntity
   8
0
 100
AcDbBlockBegin
   2
*D14
  70
65
  10
0.0
  20
0.0
  30
0.0
   3
*D14
   0
LINE
   5
105
 100
AcDbEntity
   8
LEVEL003
 100
AcDbLine
   6
CONTINUOUS
  62
3
  10
 173.50000357628
  20
 390.50000411272
  30
0.0
  11
 173.50000357628
  21
 415.50000139877
  31
0.0
   0
LINE
   5
106
 100
AcDbEntity
   8
LEVEL003
 100
AcDbLine
   6
CONTINUOUS
  62
3
  10
 111.49999016523
  20
 390.50000411272
  30
0.0
  11
 111.49999016523
  21
 415.50000139877
  31
0.0
   0
LINE
   5
107
 100
AcDbEntity
   8
LEVEL003
 100
AcDbLine
   6
CONTINUOUS
  62
3
  10
 173.50000357628
  20
 412.50000139877
  30
0.0
  11
 152.73749903010
  21
 412.50000139877
  31
0.0
   0
LINE
   5
108
 100
AcDbEntity
   8
LEVEL003
 100
AcDbLine
   6
CONTINUOUS
  62
3
  10
 111.49999016523
  20
 412.50000139877
  30
0.0
  11
 132.26249903010
  21
 412.50000139877
  31
0.0
   0
INSERT
   5
109
 100
AcDbEntity
   8
LEVEL003
   6
CONTINUOUS
  62
3
 100
AcDbBlockReference
   2
_OPEN
  10
 173.50000357628
  20
 412.50000139877
  30
0.0
  41
 4.5000000000000
  42
 4.5000000000000
  43
 4.5000000000000
  50
0.0
   0
INSERT
   5
10A
 100
AcDbEntity
   8
LEVEL003
   6
CONTINUOUS
  62
3
 100
AcDbBlockReference
   2
_OPEN
  10
 111.49999016523
  20
 412.50000139877
  30
0.0
  41
 4.5000000000000
  42
 4.5000000000000
  43
 4.5000000000000
  50
 180.00000000000
   0
MTEXT
   5
10B
 100
AcDbEntity
   8
LEVEL003
  62
3
 100
AcDbMText
  10
 142.49999903010
  20
 413.69998305246
  30
0.0
  40
 6.0000000000000
  41
0.0
  71
8
  72
1
   1
\A1;%%c62
   7
GMM001
   0
ENDBLK
   5
10C
 100
AcDbEntity
   8
0
 100
AcDbBlockEnd
   0
BLOCK
   5
10D
 100
AcDbEntity
   8
0
 100
AcDbBlockBegin
   2
*D15
  70
65
  10
0.0
  20
0.0
  30
0.0
   3
*D15
   0
LINE
   5
10E
 100
AcDbEntity
   8
LEVEL003
 100
AcDbLine
   6
CONTINUOUS
  62
3
  10
 164.99999615550
  20
 379.99995860458
  30
0.0
  11
 150.74999653548
  21
 379.99995860458
  31
0.0
   0
LINE
   5
10F
 100
AcDbEntity
   8
LEVEL003
 100
AcDbLine
   6
CONTINUOUS
  62
3
  10
 164.00001144409
  20
 349.99998238683
  30
0.0
  11
 150.74999653548
  21
 349.99998238683
  31
0.0
   0
LINE
   5
110
 100
AcDbEntity
   8
LEVEL003
 100
AcDbLine
   6
CONTINUOUS
  62
3
  10
 153.74999653548
  20
 379.99995860458
  30
0.0
  11
 153.74999653548
  21
 370.51245905161
  31
0.0
   0
LINE
   5
111
 100
AcDbEntity
   8
LEVEL003
 100
AcDbLine
   6
CONTINUOUS
  62
3
  10
 153.74999653548
  20
 349.99998238683
  30
0.0
  11
 153.74999653548
  21
 359.48745905161
  31
0.0
   0
INSERT
   5
112
 100
AcDbEntity
   8
LEVEL003
   6
CONTINUOUS
  62
3
 100
AcDbBlockReference
   2
_OPEN
  10
 153.74999653548
  20
 379.99995860458
  30
0.0
  41
 4.5000000000000
  42
 4.5000000000000
  43
 4.5000000000000
  50
 90.000000000000
   0
INSERT
   5
113
 100
AcDbEntity
   8
LEVEL003
   6
CONTINUOUS
  62
3
 100
AcDbBlockReference
   2
_OPEN
  10
 153.74999653548
  20
 349.99998238683
  30
0.0
  41
 4.5000000000000
  42
 4.5000000000000
  43
 4.5000000000000
  50
 270.00000000000
   0
MTEXT
   5
114
 100
AcDbEntity
   8
LEVEL003
  62
3
 100
AcDbMText
  10
 152.54999199361
  20
 364.99995905161
  30
0.0
  40
 6.0000000000000
  41
0.0
  71
8
  72
1
   1
\A1;30
   7
GMM001
  11
0.0
  21
 1.0000000000000
  31
0.0
   0
ENDBLK
   5
115
 100
AcDbEntity
   8
0
 100
AcDbBlockEnd
   0
BLOCK
   5
116
 100
AcDbEntity
   8
0
 100
AcDbBlockBegin
   2
*D17
  70
65
  10
0.0
  20
0.0
  30
0.0
   3
*D17
   0
LINE
   5
117
 100
AcDbEntity
   8
LEVEL003
 100
AcDbLine
   6
CONTINUOUS
  62
3
  10
 126.00000362098
  20
 66.499967902900
  30
0.0
  11
 126.00000362098
  21
 42.000000000000
  31
0.0
   0
LINE
   5
118
 100
AcDbEntity
   8
LEVEL003
 100
AcDbLine
   6
CONTINUOUS
  62
3
  10
 158.99999637902
  20
 66.499967902900
  30
0.0
  11
 158.99999637902
  21
 42.000000000000
  31
0.0
   0
LINE
   5
119
 100
AcDbEntity
   8
LEVEL003
 100
AcDbLine
   6
CONTINUOUS
  62
3
  10
 126.00000362098
  20
 45.000000000000
  30
0.0
  11
 132.26250000000
  21
 45.000000000000
  31
0.0
   0
LINE
   5
11A
 100
AcDbEntity
   8
LEVEL003
 100
AcDbLine
   6
CONTINUOUS
  62
3
  10
 158.99999637902
  20
 45.000000000000
  30
0.0
  11
 152.73750000000
  21
 45.000000000000
  31
0.0
   0
INSERT
   5
11B
 100
AcDbEntity
   8
LEVEL003
   6
CONTINUOUS
  62
3
 100
AcDbBlockReference
   2
_OPEN
  10
 126.00000362098
  20
 45.000000000000
  30
0.0
  41
 4.5000000000000
  42
 4.5000000000000
  43
 4.5000000000000
  50
 180.00000000000
   0
INSERT
   5
11C
 100
AcDbEntity
   8
LEVEL003
   6
CONTINUOUS
  62
3
 100
AcDbBlockReference
   2
_OPEN
  10
 158.99999637902
  20
 45.000000000000
  30
0.0
  41
 4.5000000000000
  42
 4.5000000000000
  43
 4.5000000000000
  50
0.0
   0
MTEXT
   5
11D
 100
AcDbEntity
   8
LEVEL003
  62
3
 100
AcDbMText
  10
 142.50000000000
  20
 46.200000000000
  30
0.0
  40
 6.0000000000000
  41
0.0
  71
8
  72
1
   1
\A1;%%c33
   7
GMM001
   0
ENDBLK
   5
11E
 100
AcDbEntity
   8
0
 100
AcDbBlockEnd
   0
BLOCK
   5
11F
 100
AcDbEntity
   8
0
 100
AcDbBlockBegin
   2
*D18
  70
65
  10
0.0
  20
0.0
  30
0.0
   3
*D18
   0
LINE
   5
120
 100
AcDbEntity
   8
LEVEL003
 100
AcDbLine
   6
CONTINUOUS
  62
3
  10
 97.500004470348
  20
 202.50000000000
  30
0.0
  11
 132.78750000000
  21
 202.50000000000
  31
0.0
   0
LINE
   5
121
 100
AcDbEntity
   8
LEVEL003
 100
AcDbLine
   6
CONTINUOUS
  62
3
  10
 187.49999552965
  20
 202.50000000000
  30
0.0
  11
 152.21250000000
  21
 202.50000000000
  31
0.0
   0
INSERT
   5
122
 100
AcDbEntity
   8
LEVEL003
   6
CONTINUOUS
  62
3
 100
AcDbBlockReference
   2
_OPEN
  10
 97.500004470348
  20
 202.50000000000
  30
0.0
  41
 4.5000000000000
  42
 4.5000000000000
  43
 4.5000000000000
  50
 180.00000000000
   0
INSERT
   5
123
 100
AcDbEntity
   8
LEVEL003
   6
CONTINUOUS
  62
3
 100
AcDbBlockReference
   2
_OPEN
  10
 187.49999552965
  20
 202.50000000000
  30
0.0
  41
 4.5000000000000
  42
 4.5000000000000
  43
 4.5000000000000
  50
0.0
   0
MTEXT
   5
124
 100
AcDbEntity
   8
LEVEL003
  62
3
 100
AcDbMText
  10
 142.50000000000
  20
 203.70000000000
  30
0.0
  40
 6.0000000000000
  41
0.0
  71
8
  72
1
   1
\A1;%%c90
   7
GMM001
   0
ENDBLK
   5
125
 100
AcDbEntity
   8
0
 100
AcDbBlockEnd
   0
BLOCK
   5
126
 100
AcDbEntity
   8
0
 100
AcDbBlockBegin
   2
*D19
  70
65
  10
0.0
  20
0.0
  30
0.0
   3
*D19
   0
LINE
   5
127
 100
AcDbEntity
   8
LEVEL003
 100
AcDbLine
   6
CONTINUOUS
  62
3
  10
 175.00000353158
  20
 217.50000000000
  30
0.0
  11
 152.73750000000
  21
 217.50000000000
  31
0.0
   0
LINE
   5
128
 100
AcDbEntity
   8
LEVEL003
 100
AcDbLine
   6
CONTINUOUS
  62
3
  10
 109.99999646842
  20
 217.50000000000
  30
0.0
  11
 132.26250000000
  21
 217.50000000000
  31
0.0
   0
INSERT
   5
129
 100
AcDbEntity
   8
LEVEL003
   6
CONTINUOUS
  62
3
 100
AcDbBlockReference
   2
_OPEN
  10
 175.00000353158
  20
 217.50000000000
  30
0.0
  41
 4.5000000000000
  42
 4.5000000000000
  43
 4.5000000000000
  50
0.0
   0
INSERT
   5
12A
 100
AcDbEntity
   8
LEVEL003
   6
CONTINUOUS
  62
3
 100
AcDbBlockReference
   2
_OPEN
  10
 109.99999646842
  20
 217.50000000000
  30
0.0
  41
 4.5000000000000
  42
 4.5000000000000
  43
 4.5000000000000
  50
 180.00000000000
   0
MTEXT
   5
12B
 100
AcDbEntity
   8
LEVEL003
  62
3
 100
AcDbMText
  10
 142.50000000000
  20
 218.70000000000
  30
0.0
  40
 6.0000000000000
  41
0.0
  71
8
  72
1
   1
\A1;%%c65
   7
GMM001
   0
ENDBLK
   5
12C
 100
AcDbEntity
   8
0
 100
AcDbBlockEnd
   0
BLOCK
   5
12D
 100
AcDbEntity
   8
0
 100
AcDbBlockBegin
   2
*D20
  70
65
  10
0.0
  20
0.0
  30
0.0
   3
*D20
   0
LINE
   5
12E
 100
AcDbEntity
   8
LEVEL003
 100
AcDbLine
   6
CONTINUOUS
  62
3
  10
 120.00000379980
  20
 232.50000000000
  30
0.0
  11
 132.26250000000
  21
 232.50000000000
  31
0.0
   0
LINE
   5
12F
 100
AcDbEntity
   8
LEVEL003
 100
AcDbLine
   6
CONTINUOUS
  62
3
  10
 164.99999620020
  20
 232.50000000000
  30
0.0
  11
 152.73750000000
  21
 232.50000000000
  31
0.0
   0
INSERT
   5
130
 100
AcDbEntity
   8
LEVEL003
   6
CONTINUOUS
  62
3
 100
AcDbBlockReference
   2
_OPEN
  10
 120.00000379980
  20
 232.50000000000
  30
0.0
  41
 4.5000000000000
  42
 4.5000000000000
  43
 4.5000000000000
  50
 180.00000000000
   0
INSERT
   5
131
 100
AcDbEntity
   8
LEVEL003
   6
CONTINUOUS
  62
3
 100
AcDbBlockReference
   2
_OPEN
  10
 164.99999620020
  20
 232.50000000000
  30
0.0
  41
 4.5000000000000
  42
 4.5000000000000
  43
 4.5000000000000
  50
0.0
   0
MTEXT
   5
132
 100
AcDbEntity
   8
LEVEL003
  62
3
 100
AcDbMText
  10
 142.50000000000
  20
 233.70000000000
  30
0.0
  40
 6.0000000000000
  41
0.0
  71
8
  72
1
   1
\A1;%%c45
   7
GMM001
   0
ENDBLK
   5
133
 100
AcDbEntity
   8
0
 100
AcDbBlockEnd
   0
BLOCK
   5
134
 100
AcDbEntity
   8
0
 100
AcDbBlockBegin
   2
*D21
  70
65
  10
0.0
  20
0.0
  30
0.0
   3
*D21
   0
LINE
   5
135
 100
AcDbEntity
   8
LEVEL003
 100
AcDbLine
   6
CONTINUOUS
  62
3
  10
 126.00000362098
  20
 386.50001949072
  30
0.0
  11
 126.00000362098
  21
 400.50000000000
  31
0.0
   0
LINE
   5
136
 100
AcDbEntity
   8
LEVEL003
 100
AcDbLine
   6
CONTINUOUS
  62
3
  10
 158.99999637902
  20
 386.50001949072
  30
0.0
  11
 158.99999637902
  21
 400.50000000000
  31
0.0
   0
LINE
   5
137
 100
AcDbEntity
   8
LEVEL003
 100
AcDbLine
   6
CONTINUOUS
  62
3
  10
 126.00000362098
  20
 397.50000000000
  30
0.0
  11
 132.26250000000
  21
 397.50000000000
  31
0.0
   0
LINE
   5
138
 100
AcDbEntity
   8
LEVEL003
 100
AcDbLine
   6
CONTINUOUS
  62
3
  10
 158.99999637902
  20
 397.50000000000
  30
0.0
  11
 152.73750000000
  21
 397.50000000000
  31
0.0
   0
INSERT
   5
139
 100
AcDbEntity
   8
LEVEL003
   6
CONTINUOUS
  62
3
 100
AcDbBlockReference
   2
_OPEN
  10
 126.00000362098
  20
 397.50000000000
  30
0.0
  41
 4.5000000000000
  42
 4.5000000000000
  43
 4.5000000000000
  50
 180.00000000000
   0
INSERT
   5
13A
 100
AcDbEntity
   8
LEVEL003
   6
CONTINUOUS
  62
3
 100
AcDbBlockReference
   2
_OPEN
  10
 158.99999637902
  20
 397.50000000000
  30
0.0
  41
 4.5000000000000
  42
 4.5000000000000
  43
 4.5000000000000
  50
0.0
   0
MTEXT
   5
13B
 100
AcDbEntity
   8
LEVEL003
  62
3
 100
AcDbMText
  10
 142.50000000000
  20
 398.70000000000
  30
0.0
  40
 6.0000000000000
  41
0.0
  71
8
  72
1
   1
\A1;%%c33
   7
GMM001
   0
ENDBLK
   5
13C
 100
AcDbEntity
   8
0
 100
AcDbBlockEnd
   0
BLOCK
   5
13D
 100
AcDbEntity
   8
0
 100
AcDbBlockBegin
   2
*D23
  70
65
  10
0.0
  20
0.0
  30
0.0
   3
*D23
   0
LINE
   5
13E
 100
AcDbEntity
   8
LEVEL003
 100
AcDbLine
   6
CONTINUOUS
  62
3
  10
 173.99999597669
  20
 389.99998882413
  30
0.0
  11
 302.99999217689
  21
 389.99998882413
  31
0.0
   0
LINE
   5
13F
 100
AcDbEntity
   8
LEVEL003
 100
AcDbLine
   6
CONTINUOUS
  62
3
  10
 199.00000286102
  20
 61.999968081714
  30
0.0
  11
 302.99999217689
  21
 61.999968081714
  31
0.0
   0
LINE
   5
140
 100
AcDbEntity
   8
LEVEL003
 100
AcDbLine
   6
CONTINUOUS
  62
3
  10
 299.99999217689
  20
 389.99998882413
  30
0.0
  11
 299.99999217689
  21
 235.05622845292
  31
0.0
   0
LINE
   5
141
 100
AcDbEntity
   8
LEVEL003
 100
AcDbLine
   6
CONTINUOUS
  62
3
  10
 299.99999217689
  20
 61.999968081714
  30
0.0
  11
 299.99999217689
  21
 216.94372845292
  31
0.0
   0
INSERT
   5
142
 100
AcDbEntity
   8
LEVEL003
   6
CONTINUOUS
  62
3
 100
AcDbBlockReference
   2
_OPEN
  10
 299.99999217689
  20
 389.99998882413
  30
0.0
  41
 4.5000000000000
  42
 4.5000000000000
  43
 4.5000000000000
  50
 90.000000000000
   0
INSERT
   5
143
 100
AcDbEntity
   8
LEVEL003
   6
CONTINUOUS
  62
3
 100
AcDbBlockReference
   2
_OPEN
  10
 299.99999217689
  20
 61.999968081714
  30
0.0
  41
 4.5000000000000
  42
 4.5000000000000
  43
 4.5000000000000
  50
 270.00000000000
   0
MTEXT
   5
144
 100
AcDbEntity
   8
LEVEL003
  62
3
 100
AcDbMText
  10
 298.79998763502
  20
 225.99997845292
  30
0.0
  40
 6.0000000000000
  41
0.0
  71
8
  72
1
   1
\A1;343
   7
GMM001
  11
0.0
  21
 1.0000000000000
  31
0.0
   0
ENDBLK
   5
145
 100
AcDbEntity
   8
0
 100
AcDbBlockEnd
   0
ENDSEC
   0
SECTION
   2
ENTITIES
   0
LINE
   5
146
 100
AcDbEntity
   8
LEVEL001
 100
AcDbLine
   6
CONTINUOUS
  62
7
  10
 199.49999517202
  20
 63.999983280898
  30
0.0
  11
 197.50000286102
  21
 61.999968081714
  31
0.0
   0
LINE
   5
147
 100
AcDbEntity
   8
LEVEL001
 100
AcDbLine
   6
CONTINUOUS
  62
7
  10
 197.50000286102
  20
 61.999968081714
  30
0.0
  11
 142.49999687076
  21
 61.999968081714
  31
0.0
   0
LINE
   5
148
 100
AcDbEntity
   8
LEVEL001
 100
AcDbLine
   6
DASHDOT
  62
1
  10
 180.50001099706
  20
 58.999968171121
  30
0.0
  11
 180.50001099706
  21
 86.468351141562
  31
0.0
   0
ARC
   5
149
 100
AcDbEntity
   8
LEVEL001
   6
CONTINUOUS
  62
7
 100
AcDbCircle
  10
 227.50000911951
  20
 176.99996513128
  30
0.0
  40
 10.000000178814
 100
AcDbArc
  50
 269.99995901885
  51
 0.40981146012077E-4
   0
ARC
   5
14A
 100
AcDbEntity
   8
LEVEL001
   6
CONTINUOUS
  62
7
 100
AcDbCircle
  10
 227.50000196695
  20
 176.99997228384
  30
0.0
  40
 22.999991685152
 100
AcDbArc
  50
 270.00000000000
  51
0.0
   0
ARC
   5
14B
 100
AcDbEntity
   8
LEVEL001
   6
DASHDOT
  62
1
 100
AcDbCircle
  10
 227.50000196695
  20
 176.99997228384
  30
0.0
  40
 16.499999508262
 100
AcDbArc
  50
 270.00000000000
  51
0.0
   0
LINE
   5
14C
 100
AcDbEntity
   8
LEVEL001
 100
AcDbLine
   6
CONTINUOUS
  62
7
  10
 227.50000196695
  20
 166.99996495247
  30
0.0
  11
 199.49999517202
  21
 166.99996495247
  31
0.0
   0
LINE
   5
14D
 100
AcDbEntity
   8
LEVEL001
 100
AcDbLine
   6
CONTINUOUS
  62
7
  10
 227.50000196695
  20
 153.99993482232
  30
0.0
  11
 199.49999517202
  21
 153.99993482232
  31
0.0
   0
LINE
   5
14E
 100
AcDbEntity
   8
LEVEL001
 100
AcDbLine
   6
DASHDOT
  62
1
  10
 196.00000290573
  20
 160.49994988740
  30
0.0
  11
 227.50000196695
  21
 160.49994988740
  31
0.0
   0
LINE
   5
14F
 100
AcDbEntity
   8
LEVEL001
 100
AcDbLine
   6
CONTINUOUS
  62
7
  10
 202.49999508262
  20
 166.99996495247
  30
0.0
  11
 199.49999517202
  21
 169.99996486306
  31
0.0
   0
LINE
   5
150
 100
AcDbEntity
   8
LEVEL001
 100
AcDbLine
   6
CONTINUOUS
  62
7
  10
 202.49999508262
  20
 153.99993482232
  30
0.0
  11
 199.49999517202
  21
 150.99993491173
  31
0.0
   0
ARC
   5
151
 100
AcDbEntity
   8
LEVEL001
   6
CONTINUOUS
  62
7
 100
AcDbCircle
  10
 227.50000911951
  20
 276.99996119738
  30
0.0
  40
 10.000000178814
 100
AcDbArc
  50
 0.65137758711613E-12
  51
 90.000040981144
   0
LINE
   5
152
 100
AcDbEntity
   8
LEVEL001
 100
AcDbLine
   6
CONTINUOUS
  62
7
  10
 199.49999517202
  20
 286.99996137619
  30
0.0
  11
 227.50000196695
  21
 286.99996137619
  31
0.0
   0
LINE
   5
153
 100
AcDbEntity
   8
LEVEL001
 100
AcDbLine
   6
CONTINUOUS
  62
7
  10
 199.49999517202
  20
 299.99996861816
  30
0.0
  11
 227.50000196695
  21
 299.99996861816
  31
0.0
   0
LINE
   5
154
 100
AcDbEntity
   8
LEVEL001
 100
AcDbLine
   6
DASHDOT
  62
1
  10
 227.50000196695
  20
 293.49997644126
  30
0.0
  11
 196.00000290573
  21
 293.49997644126
  31
0.0
   0
ARC
   5
155
 100
AcDbEntity
   8
LEVEL001
   6
CONTINUOUS
  62
7
 100
AcDbCircle
  10
 227.50000196695
  20
 276.99995404482
  30
0.0
  40
 22.999991685152
 100
AcDbArc
  50
 0.14160387701014E-12
  51
 89.999999999999
   0
ARC
   5
156
 100
AcDbEntity
   8
LEVEL001
   6
DASHDOT
  62
1
 100
AcDbCircle
  10
 227.50000196695
  20
 276.99995404482
  30
0.0
  40
 16.499999508262
 100
AcDbArc
  50
0.0
  51
 89.999999999997
   0
LINE
   5
157
 100
AcDbEntity
   8
LEVEL001
 100
AcDbLine
   6
CONTINUOUS
  62
7
  10
 237.50000929832
  20
 276.99995404482
  30
0.0
  11
 237.50000929832
  21
 176.99997228384
  31
0.0
   0
LINE
   5
158
 100
AcDbEntity
   8
LEVEL001
 100
AcDbLine
   6
CONTINUOUS
  62
7
  10
 250.49999365211
  20
 276.99995404482
  30
0.0
  11
 250.49999365211
  21
 176.99997228384
  31
0.0
   0
LINE
   5
159
 100
AcDbEntity
   8
LEVEL001
 100
AcDbLine
   6
DASHDOT
  62
1
  10
 244.00000147521
  20
 176.99997228384
  30
0.0
  11
 244.00000147521
  21
 276.99995404482
  31
0.0
   0
LINE
   5
15A
 100
AcDbEntity
   8
LEVEL001
 100
AcDbLine
   6
CONTINUOUS
  62
7
  10
 202.49999508262
  20
 299.99999150634
  30
0.0
  11
 199.49999517202
  21
 302.99999141693
  31
0.0
   0
LINE
   5
15B
 100
AcDbEntity
   8
LEVEL001
 100
AcDbLine
   6
CONTINUOUS
  62
7
  10
 202.49999508262
  20
 286.99991559983
  30
0.0
  11
 199.49999517202
  21
 283.99991568923
  31
0.0
   0
LINE
   5
15C
 100
AcDbEntity
   8
LEVEL001
 100
AcDbLine
   6
CONTINUOUS
  62
7
  10
 85.499998569489
  20
 63.999983280898
  30
0.0
  11
 87.499990880490
  21
 61.999968081714
  31
0.0
   0
LINE
   5
15D
 100
AcDbEntity
   8
LEVEL001
 100
AcDbLine
   6
CONTINUOUS
  62
7
  10
 87.499990880490
  20
 61.999968081714
  30
0.0
  11
 142.49999687076
  21
 61.999968081714
  31
0.0
   0
LINE
   5
15E
 100
AcDbEntity
   8
LEVEL001
 100
AcDbLine
   6
CONTINUOUS
  62
7
  10
 85.499998569489
  20
 63.999983280898
  30
0.0
  11
 142.49999687076
  21
 63.999983280898
  31
0.0
   0
LINE
   5
15F
 100
AcDbEntity
   8
LEVEL001
 100
AcDbLine
   6
CONTINUOUS
  62
7
  10
 173.50000357628
  20
 389.00000411272
  30
0.0
  11
 172.49999597669
  21
 389.99998882413
  31
0.0
   0
LINE
   5
160
 100
AcDbEntity
   8
LEVEL001
 100
AcDbLine
   6
CONTINUOUS
  62
7
  10
 173.50000357628
  20
 379.99995860458
  30
0.0
  11
 173.50000357628
  21
 389.00000411272
  31
0.0
   0
LINE
   5
161
 100
AcDbEntity
   8
LEVEL001
 100
AcDbLine
   6
CONTINUOUS
  62
7
  10
 172.49999597669
  20
 389.99998882413
  30
0.0
  11
 142.49999687076
  21
 389.99998882413
  31
0.0
   0
ARC
   5
162
 100
AcDbEntity
   8
LEVEL001
   6
CONTINUOUS
  62
7
 100
AcDbCircle
  10
 173.85962679540
  20
 379.49995860459
  30
0.0
  40
 0.50000000000000
 100
AcDbArc
  50
 14.039115294709
  51
 90.000468588216
   0
LINE
   5
163
 100
AcDbEntity
   8
LEVEL001
 100
AcDbLine
   6
CONTINUOUS
  62
7
  10
 174.34469196663
  20
 379.62125073012
  30
0.0
  11
 175.00000353158
  21
 376.99995869398
  31
0.0
   0
LINE
   5
164
 100
AcDbEntity
   8
LEVEL001
 100
AcDbLine
   6
CONTINUOUS
  62
3
  10
 196.49999526143
  20
 336.99997514486
  30
0.0
  11
 197.50000286102
  21
 333.26791959203
  31
0.0
   0
LINE
   5
165
 100
AcDbEntity
   8
LEVEL001
 100
AcDbLine
   6
CONTINUOUS
  62
3
  10
 196.49999526143
  20
 371.50001989305
  30
0.0
  11
 196.49999526143
  21
 336.99997514486
  31
0.0
   0
LINE
   5
166
 100
AcDbEntity
   8
LEVEL001
 100
AcDbLine
   6
CONTINUOUS
  62
3
  10
 196.49999526143
  20
 336.99997514486
  30
0.0
  11
 197.50000286102
  21
 336.99997514486
  31
0.0
   0
LINE
   5
167
 100
AcDbEntity
   8
LEVEL001
 100
AcDbLine
   6
CONTINUOUS
  62
7
  10
 196.00000290573
  20
 376.00001975894
  30
0.0
  11
 194.99999530613
  21
 376.99995869398
  31
0.0
   0
LINE
   5
168
 100
AcDbEntity
   8
LEVEL001
 100
AcDbLine
   6
CONTINUOUS
  62
7
  10
 196.00000290573
  20
 371.99998936057
  30
0.0
  11
 196.00000290573
  21
 376.00001975894
  31
0.0
   0
LINE
   5
169
 100
AcDbEntity
   8
LEVEL001
 100
AcDbLine
   6
CONTINUOUS
  62
7
  10
 196.00000290573
  20
 371.99998936057
  30
0.0
  11
 197.50000286102
  21
 370.49998940527
  31
0.0
   0
LINE
   5
16A
 100
AcDbEntity
   8
LEVEL001
 100
AcDbLine
   6
CONTINUOUS
  62
7
  10
 197.50000286102
  20
 370.49998940527
  30
0.0
  11
 197.50000286102
  21
 331.99998292327
  31
0.0
   0
LINE
   5
16B
 100
AcDbEntity
   8
LEVEL001
 100
AcDbLine
   6
CONTINUOUS
  62
7
  10
 197.50000286102
  20
 331.99998292327
  30
0.0
  11
 199.49999517202
  21
 326.99999070168
  31
0.0
   0
LINE
   5
16C
 100
AcDbEntity
   8
LEVEL001
 100
AcDbLine
   6
CONTINUOUS
  62
7
  10
 88.999990835786
  20
 376.00001975894
  30
0.0
  11
 89.999998435378
  21
 376.99995869398
  31
0.0
   0
LINE
   5
16D
 100
AcDbEntity
   8
LEVEL001
 100
AcDbLine
   6
CONTINUOUS
  62
7
  10
 88.999990835786
  20
 371.99998936057
  30
0.0
  11
 88.999990835786
  21
 376.00001975894
  31
0.0
   0
LINE
   5
16E
 100
AcDbEntity
   8
LEVEL001
 100
AcDbLine
   6
CONTINUOUS
  62
7
  10
 87.499990880490
  20
 331.99998292327
  30
0.0
  11
 85.499998569489
  21
 326.99999070168
  31
0.0
   0
LINE
   5
16F
 100
AcDbEntity
   8
LEVEL001
 100
AcDbLine
   6
CONTINUOUS
  62
7
  10
 111.49999016523
  20
 389.00000411272
  30
0.0
  11
 112.49999776483
  21
 389.99998882413
  31
0.0
   0
LINE
   5
170
 100
AcDbEntity
   8
LEVEL001
 100
AcDbLine
   6
CONTINUOUS
  62
7
  10
 111.49999016523
  20
 379.99995860458
  30
0.0
  11
 111.49999016523
  21
 389.00000411272
  31
0.0
   0
LINE
   5
171
 100
AcDbEntity
   8
LEVEL001
 100
AcDbLine
   6
CONTINUOUS
  62
7
  10
 112.49999776483
  20
 389.99998882413
  30
0.0
  11
 142.49999687076
  21
 389.99998882413
  31
0.0
   0
ARC
   5
172
 100
AcDbEntity
   8
LEVEL001
   6
CONTINUOUS
  62
7
 100
AcDbCircle
  10
 111.14036694607
  20
 379.49995860456
  30
0.0
  40
 0.50000000000000
 100
AcDbArc
  50
 89.999531406067
  51
 165.96088470053
   0
LINE
   5
173
 100
AcDbEntity
   8
LEVEL001
 100
AcDbLine
   6
CONTINUOUS
  62
7
  10
 110.65530177488
  20
 379.62125073012
  30
0.0
  11
 109.99999020994
  21
 376.99995869398
  31
0.0
   0
LINE
   5
174
 100
AcDbEntity
   8
LEVEL001
 100
AcDbLine
   6
CONTINUOUS
  62
7
  10
 111.49999016523
  20
 389.00000411272
  30
0.0
  11
 142.49999687076
  21
 389.00000411272
  31
0.0
   0
LINE
   5
175
 100
AcDbEntity
   8
LEVEL001
 100
AcDbLine
   6
CONTINUOUS
  62
7
  10
 142.49999687076
  20
 376.00001975894
  30
0.0
  11
 88.999990835786
  21
 376.00001975894
  31
0.0
   0
LINE
   5
176
 100
AcDbEntity
   8
LEVEL001
 100
AcDbLine
   6
CONTINUOUS
  62
7
  10
 87.499990880490
  20
 331.99998292327
  30
0.0
  11
 142.49999687076
  21
 331.99998292327
  31
0.0
   0
LINE
   5
177
 100
AcDbEntity
   8
LEVEL001
 100
AcDbLine
   6
CONTINUOUS
  62
7
  10
 142.49999687076
  20
 333.26791959203
  30
0.0
  11
 87.499990880490
  21
 333.26791959203
  31
0.0
   0
LINE
   5
178
 100
AcDbEntity
   8
LEVEL001
 100
AcDbLine
   6
CONTINUOUS
  62
7
  10
 85.499998569489
  20
 326.99999070168
  30
0.0
  11
 142.49999687076
  21
 326.99999070168
  31
0.0
   0
LINE
   5
179
 100
AcDbEntity
   8
LEVEL001
 100
AcDbLine
   6
CONTINUOUS
  62
7
  10
 89.999998435378
  20
 376.99995869398
  30
0.0
  11
 142.49999687076
  21
 376.99995869398
  31
0.0
   0
LINE
   5
17A
 100
AcDbEntity
   8
LEVEL001
 100
AcDbLine
   6
CONTINUOUS
  62
7
  10
 142.49999687076
  20
 379.99995860458
  30
0.0
  11
 111.14037103533
  21
 379.99995860458
  31
0.0
   0
LINE
   5
17B
 100
AcDbEntity
   8
LEVEL001
 100
AcDbLine
   6
CONTINUOUS
  62
7
  10
 85.499998569489
  20
 326.99999070168
  30
0.0
  11
 85.499998569489
  21
 300.63811404591
  31
0.0
   0
LINE
   5
17C
 100
AcDbEntity
   8
LEVEL001
 100
AcDbLine
   6
CONTINUOUS
  62
7
  10
 85.499998569489
  20
 296.88813704586
  30
0.0
  11
 85.499998569489
  21
 63.999983280898
  31
0.0
   0
LINE
   5
17D
 100
AcDbEntity
   8
LEVEL001
 100
AcDbLine
   6
CONTINUOUS
  62
7
  10
 199.49999517202
  20
 326.99999070168
  30
0.0
  11
 199.49999517202
  21
 310.61182285512
  31
0.0
   0
TEXT
   5
17E
 100
AcDbEntity
   8
LEVEL003
  62
3
 100
AcDbText
  10
 224.99999441206
  20
 401.24998848885
  30
0.0
  40
 5.9999998211861
   1
Ｍ１１０×２
   7
STANDARD
 100
AcDbText
   0
LEADER
   5
17F
 100
AcDbEntity
   8
LEVEL003
   6
CONTINUOUS
  62
3
 100
AcDbLeader
   3
GMM001
  73
0
  74
1
  75
0
  40
 6.0000000000000
  41
0.0
  76
3
  10
 197.50000286102
  20
 363.74998960644
  30
0.0
  10
 224.99999441206
  20
 401.24998848885
  30
0.0
  10
 262.49999329448
  20
 401.24998848885
  30
0.0
  77
3
   0
LINE
   5
180
 100
AcDbEntity
   8
LEVEL001
 100
AcDbLine
   6
DOT
  62
3
  10
 188.28773812092
  20
 76.999967634679
  30
0.0
  11
 187.40304118684
  21
 80.301691016504
  31
0.0
   0
LINE
   5
181
 100
AcDbEntity
   8
LEVEL001
 100
AcDbLine
   6
DOT
  62
3
  10
 172.71226098501
  20
 76.999967634679
  30
0.0
  11
 173.59699225137
  21
 80.301816901510
  31
0.0
   0
LINE
   5
182
 100
AcDbEntity
   8
LEVEL001
 100
AcDbLine
   6
DASHDOT
  62
1
  10
 78.749998770654
  20
 300.04757603861
  30
0.0
  11
 206.24999497086
  21
 311.20238375061
  31
0.0
   0
LINE
   5
183
 100
AcDbEntity
   8
LEVEL001
 100
AcDbLine
   6
DASHDOT
  62
1
  10
 78.749998770654
  20
 296.29757615037
  30
0.0
  11
 206.24999497086
  21
 307.45238386236
  31
0.0
   0
LINE
   5
184
 100
AcDbEntity
   8
LEVEL001
 100
AcDbLine
   6
DASHDOT
  62
1
  10
 96.500002056360
  20
 58.999968171121
  30
0.0
  11
 96.500002056360
  21
 85.252736858942
  31
0.0
   0
TEXT
   5
185
 100
AcDbEntity
   8
LEVEL003
  62
3
 100
AcDbText
  10
 224.99999441206
  20
 44.999999105930
  30
0.0
  40
 5.9999998211861
   1
２－ＮＰＴ３／８
   7
STANDARD
 100
AcDbText
   0
LINE
   5
186
 100
AcDbEntity
   8
LEVEL001
 100
AcDbLine
   6
CONTINUOUS
  62
3
  10
 209.50000250340
  20
 97.643472115890
  30
0.0
  11
 205.88366960336
  21
 96.674478004143
  31
0.0
   0
LINE
   5
187
 100
AcDbEntity
   8
LEVEL001
 100
AcDbLine
   6
CONTINUOUS
  62
3
  10
 209.50000250340
  20
 80.356462438212
  30
0.0
  11
 205.88362382699
  21
 81.325467994050
  31
0.0
   0
LINE
   5
188
 100
AcDbEntity
   8
LEVEL001
 100
AcDbLine
   6
CONTINUOUS
  62
7
  10
 209.50000250340
  20
 97.643472115890
  30
0.0
  11
 210.98352296700
  21
 98.499993696809
  31
0.0
   0
LINE
   5
189
 100
AcDbEntity
   8
LEVEL001
 100
AcDbLine
   6
CONTINUOUS
  62
7
  10
 226.49999436736
  20
 98.499970808626
  30
0.0
  11
 210.98352296700
  21
 98.499970808626
  31
0.0
   0
LINE
   5
18A
 100
AcDbEntity
   8
LEVEL001
 100
AcDbLine
   6
CONTINUOUS
  62
7
  10
 209.50000250340
  20
 80.356462438212
  30
0.0
  11
 210.98352296700
  21
 79.499963745476
  31
0.0
   0
LINE
   5
18B
 100
AcDbEntity
   8
LEVEL001
 100
AcDbLine
   6
CONTINUOUS
  62
7
  10
 226.49999436736
  20
 79.499963745476
  30
0.0
  11
 210.98352296700
  21
 79.499963745476
  31
0.0
   0
ARC
   5
18C
 100
AcDbEntity
   8
LEVEL001
   6
CONTINUOUS
  62
7
 100
AcDbCircle
  10
 227.99999432266
  20
 101.99996307492
  30
0.0
  40
 1.4999999552965
 100
AcDbArc
  50
 90.000000000005
  51
 179.99999999994
   0
LINE
   5
18D
 100
AcDbEntity
   8
LEVEL001
 100
AcDbLine
   6
CONTINUOUS
  62
7
  10
 227.99999432266
  20
 103.49996303022
  30
0.0
  11
 232.99998654425
  21
 103.49996303022
  31
0.0
   0
ARC
   5
18E
 100
AcDbEntity
   8
LEVEL001
   6
CONTINUOUS
  62
7
 100
AcDbCircle
  10
 227.99999432265
  20
 75.999965757133
  30
0.0
  40
 1.4999999552965
 100
AcDbArc
  50
 179.99978143395
  51
 270.00000000046
   0
LINE
   5
18F
 100
AcDbEntity
   8
LEVEL001
 100
AcDbLine
   6
CONTINUOUS
  62
7
  10
 226.49999436736
  20
 75.999971479178
  30
0.0
  11
 226.49999436736
  21
 101.99996307492
  31
0.0
   0
LINE
   5
190
 100
AcDbEntity
   8
LEVEL001
 100
AcDbLine
   6
CONTINUOUS
  62
7
  10
 227.99999432266
  20
 74.499965801836
  30
0.0
  11
 232.99998654425
  21
 74.499965801836
  31
0.0
   0
ARC
   5
191
 100
AcDbEntity
   8
LEVEL001
   6
CONTINUOUS
  62
7
 100
AcDbCircle
  10
 248.99999369681
  20
 101.99996307492
  30
0.0
  40
 1.4999999552965
 100
AcDbArc
  50
0.0
  51
 90.000000000061
   0
LINE
   5
192
 100
AcDbEntity
   8
LEVEL001
 100
AcDbLine
   6
CONTINUOUS
  62
7
  10
 244.00000147521
  20
 103.49996303022
  30
0.0
  11
 248.99999369681
  21
 103.49996303022
  31
0.0
   0
ARC
   5
193
 100
AcDbEntity
   8
LEVEL001
   6
CONTINUOUS
  62
7
 100
AcDbCircle
  10
 248.99999369682
  20
 75.999965757132
  30
0.0
  40
 1.4999999552965
 100
AcDbArc
  50
 269.99999999958
  51
 0.21856607623916E-3
   0
LINE
   5
194
 100
AcDbEntity
   8
LEVEL001
 100
AcDbLine
   6
CONTINUOUS
  62
7
  10
 244.00000147521
  20
 74.499965801836
  30
0.0
  11
 248.99999369681
  21
 74.499965801836
  31
0.0
   0
LINE
   5
195
 100
AcDbEntity
   8
LEVEL001
 100
AcDbLine
   6
CONTINUOUS
  62
7
  10
 250.49999365211
  20
 101.99996307492
  30
0.0
  11
 250.49999365211
  21
 75.999971479178
  31
0.0
   0
ARC
   5
196
 100
AcDbEntity
   8
LEVEL001
   6
DASHDOT
  62
1
 100
AcDbCircle
  10
 259.50000098352
  20
 101.99997067454
  30
0.0
  40
 1.0000000000000
 100
AcDbArc
  50
0.0
  51
 90.000435426709
   0
LINE
   5
197
 100
AcDbEntity
   8
LEVEL001
 100
AcDbLine
   6
DASHDOT
  62
1
  10
 251.50000125170
  20
 102.99997067452
  30
0.0
  11
 259.49999338388
  21
 102.99997067452
  31
0.0
   0
ARC
   5
198
 100
AcDbEntity
   8
LEVEL001
   6
DASHDOT
  62
1
 100
AcDbCircle
  10
 259.50000098348
  20
 75.999969601600
  30
0.0
  40
 1.0000000000000
 100
AcDbArc
  50
 269.99956457535
  51
 0.10757728618638E-3
   0
LINE
   5
199
 100
AcDbEntity
   8
LEVEL001
 100
AcDbLine
   6
DASHDOT
  62
1
  10
 251.50000125170
  20
 74.999969601632
  30
0.0
  11
 259.49999338388
  21
 74.999969601632
  31
0.0
   0
LINE
   5
19A
 100
AcDbEntity
   8
LEVEL001
 100
AcDbLine
   6
DASHDOT
  62
1
  10
 260.50000098348
  20
 101.99996307492
  30
0.0
  11
 260.50000098348
  21
 75.999971479178
  31
0.0
   0
CIRCLE
   5
19B
 100
AcDbEntity
   8
LEVEL001
 100
AcDbCircle
   6
DASHDOT
  62
1
  10
 263.50000089407
  20
 88.999967277051
  30
0.0
  40
 1.4999999552965
   0
ARC
   5
19C
 100
AcDbEntity
   8
LEVEL001
   6
DASHDOT
  62
1
 100
AcDbCircle
  10
 251.49999365210
  20
 75.999969601603
  30
0.0
  40
 1.0000000000000
 100
AcDbArc
  50
 179.99989242288
  51
 270.00043542468
   0
ARC
   5
19D
 100
AcDbEntity
   8
LEVEL001
   6
DASHDOT
  62
1
 100
AcDbCircle
  10
 251.49999365208
  20
 101.99997067454
  30
0.0
  40
 1.0000000000000
 100
AcDbArc
  50
 89.999564573838
  51
 180.00043542628
   0
ARC
   5
19E
 100
AcDbEntity
   8
LEVEL001
   6
DASHDOT
  62
1
 100
AcDbCircle
  10
 262.50000098346
  20
 94.499970987425
  30
0.0
  40
 2.0000000000000
 100
AcDbArc
  50
 180.00022027317
  51
 269.99977972685
   0
ARC
   5
19F
 100
AcDbEntity
   8
LEVEL001
   6
DASHDOT
  62
1
 100
AcDbCircle
  10
 262.50000098346
  20
 83.499963566675
  30
0.0
  40
 2.0000000000000
 100
AcDbArc
  50
 90.000220273151
  51
 179.99977972676
   0
LINE
   5
1A0
 100
AcDbEntity
   8
LEVEL001
 100
AcDbLine
   6
DASHDOT
  62
1
  10
 262.49999329448
  20
 92.499970987440
  30
0.0
  11
 262.99998565018
  21
 92.499970987440
  31
0.0
   0
LINE
   5
1A1
 100
AcDbEntity
   8
LEVEL001
 100
AcDbLine
   6
DASHDOT
  62
1
  10
 262.49999329448
  20
 85.499963566662
  30
0.0
  11
 262.99998565018
  21
 85.499963566662
  31
0.0
   0
ARC
   5
1A2
 100
AcDbEntity
   8
LEVEL001
   6
DASHDOT
  62
1
 100
AcDbCircle
  10
 262.99998565018
  20
 88.999967277051
  30
0.0
  40
 3.5000037103890
 100
AcDbArc
  50
 270.00000000000
  51
 90.000000000000
   0
LINE
   5
1A3
 100
AcDbEntity
   8
LEVEL001
 100
AcDbLine
   6
CONTINUOUS
  62
7
  10
 210.98352296700
  20
 79.499963745476
  30
0.0
  11
 210.98352296700
  21
 83.169019574850
  31
0.0
   0
LINE
   5
1A4
 100
AcDbEntity
   8
LEVEL001
 100
AcDbLine
   6
CONTINUOUS
  62
7
  10
 210.98352296700
  20
 94.830914979252
  30
0.0
  11
 210.98352296700
  21
 98.499982252718
  31
0.0
   0
LINE
   5
1A5
 100
AcDbEntity
   8
LEVEL001
 100
AcDbLine
   6
CONTINUOUS
  62
7
  10
 205.49999499321
  20
 84.960786641813
  30
0.0
  11
 219.49998694658
  21
 94.830914979252
  31
0.0
   0
LINE
   5
1A6
 100
AcDbEntity
   8
LEVEL001
 100
AcDbLine
   6
CONTINUOUS
  62
7
  10
 205.49999499321
  20
 93.039147912289
  30
0.0
  11
 219.49998694658
  21
 83.169019574850
  31
0.0
   0
LINE
   5
1A7
 100
AcDbEntity
   8
LEVEL001
 100
AcDbLine
   6
CONTINUOUS
  62
3
  10
 205.88366960336
  20
 96.674466560052
  30
0.0
  11
 205.88366960336
  21
 93.039147912289
  31
0.0
   0
LINE
   5
1A8
 100
AcDbEntity
   8
LEVEL001
 100
AcDbLine
   6
CONTINUOUS
  62
3
  10
 205.88362382699
  20
 84.960786641813
  30
0.0
  11
 205.88362382699
  21
 81.325467994050
  31
0.0
   0
LINE
   5
1A9
 100
AcDbEntity
   8
LEVEL001
 100
AcDbLine
   6
CONTINUOUS
  62
7
  10
 209.50000250340
  20
 97.643472115890
  30
0.0
  11
 209.50000250340
  21
 93.296502640948
  31
0.0
   0
LINE
   5
1AA
 100
AcDbEntity
   8
LEVEL001
 100
AcDbLine
   6
CONTINUOUS
  62
7
  10
 209.50000250340
  20
 84.703431913154
  30
0.0
  11
 209.50000250340
  21
 80.356462438212
  31
0.0
   0
LINE
   5
1AB
 100
AcDbEntity
   8
LEVEL001
 100
AcDbLine
   6
CONTINUOUS
  62
3
  10
 232.99998654425
  20
 75.999971479178
  30
0.0
  11
 244.00000147521
  21
 75.999971479178
  31
0.0
   0
LINE
   5
1AC
 100
AcDbEntity
   8
LEVEL001
 100
AcDbLine
   6
CONTINUOUS
  62
3
  10
 232.99998654425
  20
 77.999963790179
  30
0.0
  11
 244.00000147521
  21
 77.999963790179
  31
0.0
   0
LINE
   5
1AD
 100
AcDbEntity
   8
LEVEL001
 100
AcDbLine
   6
CONTINUOUS
  62
3
  10
 232.99998654425
  20
 79.999967545272
  30
0.0
  11
 244.00000147521
  21
 79.999967545272
  31
0.0
   0
LINE
   5
1AE
 100
AcDbEntity
   8
LEVEL001
 100
AcDbLine
   6
CONTINUOUS
  62
3
  10
 232.99998654425
  20
 81.999971300364
  30
0.0
  11
 244.00000147521
  21
 81.999971300364
  31
0.0
   0
LINE
   5
1AF
 100
AcDbEntity
   8
LEVEL001
 100
AcDbLine
   6
CONTINUOUS
  62
3
  10
 232.99998654425
  20
 83.999963611365
  30
0.0
  11
 244.00000147521
  21
 83.999963611365
  31
0.0
   0
LINE
   5
1B0
 100
AcDbEntity
   8
LEVEL001
 100
AcDbLine
   6
CONTINUOUS
  62
3
  10
 232.99998654425
  20
 85.999967366458
  30
0.0
  11
 244.00000147521
  21
 85.999967366458
  31
0.0
   0
LINE
   5
1B1
 100
AcDbEntity
   8
LEVEL001
 100
AcDbLine
   6
CONTINUOUS
  62
3
  10
 232.99998654425
  20
 87.999971121550
  30
0.0
  11
 244.00000147521
  21
 87.999971121550
  31
0.0
   0
LINE
   5
1B2
 100
AcDbEntity
   8
LEVEL001
 100
AcDbLine
   6
CONTINUOUS
  62
3
  10
 232.99998654425
  20
 89.999963432552
  30
0.0
  11
 244.00000147521
  21
 89.999963432552
  31
0.0
   0
LINE
   5
1B3
 100
AcDbEntity
   8
LEVEL001
 100
AcDbLine
   6
CONTINUOUS
  62
3
  10
 232.99998654425
  20
 91.999967187644
  30
0.0
  11
 244.00000147521
  21
 91.999967187644
  31
0.0
   0
LINE
   5
1B4
 100
AcDbEntity
   8
LEVEL001
 100
AcDbLine
   6
CONTINUOUS
  62
3
  10
 232.99998654425
  20
 93.999970942737
  30
0.0
  11
 244.00000147521
  21
 93.999970942737
  31
0.0
   0
LINE
   5
1B5
 100
AcDbEntity
   8
LEVEL001
 100
AcDbLine
   6
CONTINUOUS
  62
3
  10
 232.99998654425
  20
 95.999963253738
  30
0.0
  11
 244.00000147521
  21
 95.999963253738
  31
0.0
   0
LINE
   5
1B6
 100
AcDbEntity
   8
LEVEL001
 100
AcDbLine
   6
CONTINUOUS
  62
3
  10
 232.99998654425
  20
 97.999967008830
  30
0.0
  11
 244.00000147521
  21
 97.999967008830
  31
0.0
   0
LINE
   5
1B7
 100
AcDbEntity
   8
LEVEL001
 100
AcDbLine
   6
CONTINUOUS
  62
3
  10
 232.99998654425
  20
 99.999970763923
  30
0.0
  11
 244.00000147521
  21
 99.999970763923
  31
0.0
   0
LINE
   5
1B8
 100
AcDbEntity
   8
LEVEL001
 100
AcDbLine
   6
CONTINUOUS
  62
3
  10
 232.99998654425
  20
 101.99996307492
  30
0.0
  11
 244.00000147521
  21
 101.99996307492
  31
0.0
   0
LINE
   5
1B9
 100
AcDbEntity
   8
LEVEL001
 100
AcDbLine
   6
CONTINUOUS
  62
7
  10
 205.49999499321
  20
 84.960786641813
  30
0.0
  11
 205.49999499321
  21
 93.039147912289
  31
0.0
   0
LINE
   5
1BA
 100
AcDbEntity
   8
LEVEL001
 100
AcDbLine
   6
CONTINUOUS
  62
7
  10
 205.49999499321
  20
 93.039147912289
  30
0.0
  11
 209.50000250340
  21
 93.296502640948
  31
0.0
   0
LINE
   5
1BB
 100
AcDbEntity
   8
LEVEL001
 100
AcDbLine
   6
CONTINUOUS
  62
7
  10
 209.50000250340
  20
 93.296502640948
  30
0.0
  11
 210.98352296700
  21
 94.830914979252
  31
0.0
   0
LINE
   5
1BC
 100
AcDbEntity
   8
LEVEL001
 100
AcDbLine
   6
CONTINUOUS
  62
7
  10
 210.98352296700
  20
 94.830914979252
  30
0.0
  11
 219.49998694658
  21
 94.830914979252
  31
0.0
   0
LINE
   5
1BD
 100
AcDbEntity
   8
LEVEL001
 100
AcDbLine
   6
CONTINUOUS
  62
7
  10
 219.49998694658
  20
 94.830914979252
  30
0.0
  11
 219.49998694658
  21
 83.169019574850
  31
0.0
   0
LINE
   5
1BE
 100
AcDbEntity
   8
LEVEL001
 100
AcDbLine
   6
CONTINUOUS
  62
7
  10
 219.49998694658
  20
 83.169019574850
  30
0.0
  11
 210.98352296700
  21
 83.169019574850
  31
0.0
   0
LINE
   5
1BF
 100
AcDbEntity
   8
LEVEL001
 100
AcDbLine
   6
CONTINUOUS
  62
7
  10
 210.98352296700
  20
 83.169019574850
  30
0.0
  11
 209.50000250340
  21
 84.703431913154
  31
0.0
   0
LINE
   5
1C0
 100
AcDbEntity
   8
LEVEL001
 100
AcDbLine
   6
CONTINUOUS
  62
7
  10
 209.50000250340
  20
 84.703431913154
  30
0.0
  11
 205.49999499321
  21
 84.960786641813
  31
0.0
   0
LINE
   5
1C1
 100
AcDbEntity
   8
LEVEL001
 100
AcDbLine
   6
CONTINUOUS
  62
7
  10
 232.99998654425
  20
 73.999967724086
  30
0.0
  11
 232.99998654425
  21
 103.99996683002
  31
0.0
   0
LINE
   5
1C2
 100
AcDbEntity
   8
LEVEL001
 100
AcDbLine
   6
CONTINUOUS
  62
7
  10
 232.99998654425
  20
 103.99996683002
  30
0.0
  11
 244.00000147521
  21
 103.99996683002
  31
0.0
   0
LINE
   5
1C3
 100
AcDbEntity
   8
LEVEL001
 100
AcDbLine
   6
CONTINUOUS
  62
7
  10
 244.00000147521
  20
 103.99996683002
  30
0.0
  11
 244.00000147521
  21
 73.999967724086
  31
0.0
   0
LINE
   5
1C4
 100
AcDbEntity
   8
LEVEL001
 100
AcDbLine
   6
CONTINUOUS
  62
7
  10
 244.00000147521
  20
 73.999967724086
  30
0.0
  11
 232.99998654425
  21
 73.999967724086
  31
0.0
   0
LINE
   5
1C5
 100
AcDbEntity
   8
LEVEL001
 100
AcDbLine
   6
DASHDOT
  62
1
  10
 269.50000071526
  20
 88.999967277051
  30
0.0
  11
 171.56320553830
  21
 88.999967277051
  31
0.0
   0
DIMENSION
   5
1C6
 100
AcDbEntity
   8
LEVEL003
   6
CONTINUOUS
  62
3
 100
AcDbDimension
   2
*D2
  10
 284.99999262393
  20
 61.999968081714
  30
0.0
  11
 284.99999262393
  21
 75.499967679382
  31
0.0
  70
128
   1
\A1;27
   3
GMM002
 100
AcDbAlignedDimension
  13
 269.50000071526
  23
 88.999967277051
  33
0.0
  14
 197.50000286102
  24
 61.999968081714
  34
0.0
  50
 270.00000000000
 100
AcDbRotatedDimension
   0
LEADER
   5
1C8
 100
AcDbEntity
   8
LEVEL003
   6
CONTINUOUS
  62
3
 100
AcDbLeader
   3
GMM003
  73
0
  74
1
  75
0
  40
 6.0000000000000
  41
0.0
  76
3
  10
 203.67690544793
  20
 80.538434936451
  30
0.0
  10
 224.99999441206
  20
 44.999999105930
  30
0.0
  10
 277.49999284744
  20
 44.999999105930
  30
0.0
  77
3
   0
CIRCLE
   5
1C9
 100
AcDbEntity
   8
LEVEL001
 100
AcDbCircle
   6
CONTINUOUS
  62
7
  10
 352.49999061227
  20
 135.89999410808
  30
0.0
  40
 17.600001287460
   0
CIRCLE
   5
1CA
 100
AcDbEntity
   8
LEVEL001
 100
AcDbCircle
   6
CONTINUOUS
  62
7
  10
 352.49999061227
  20
 135.89999410808
  30
0.0
  40
 16.896000835419
   0
CIRCLE
   5
1CB
 100
AcDbEntity
   8
LEVEL001
 100
AcDbCircle
   6
CONTINUOUS
  62
7
  10
 352.49999061227
  20
 135.89999410808
  30
0.0
  40
 11.616000306129
   0
CIRCLE
   5
1CC
 100
AcDbEntity
   8
LEVEL001
 100
AcDbCircle
   6
CONTINUOUS
  62
7
  10
 352.49999061227
  20
 135.89999410808
  30
0.0
  40
 12.320000758171
   0
CIRCLE
   5
1CD
 100
AcDbEntity
   8
LEVEL001
 100
AcDbCircle
   6
CONTINUOUS
  62
7
  10
 375.39893096987
  20
 158.79893446568
  30
0.0
  40
 2.9920003118515
   0
CIRCLE
   5
1CE
 100
AcDbEntity
   8
LEVEL001
 100
AcDbCircle
   6
CONTINUOUS
  62
3
  10
 375.39893096987
  20
 158.79893446568
  30
0.0
  40
 3.5200001144409
   0
LINE
   5
1CF
 100
AcDbEntity
   8
LEVEL001
 100
AcDbLine
   6
DASHDOT
  62
1
  10
 379.38138324376
  20
 162.78136385139
  30
0.0
  11
 371.41650158416
  21
 154.81649363588
  31
0.0
   0
CIRCLE
   5
1D0
 100
AcDbEntity
   8
LEVEL001
 100
AcDbCircle
   6
CONTINUOUS
  62
7
  10
 329.60105025467
  20
 158.79894590977
  30
0.0
  40
 2.9920003118515
   0
CIRCLE
   5
1D1
 100
AcDbEntity
   8
LEVEL001
 100
AcDbCircle
   6
CONTINUOUS
  62
3
  10
 329.60105025467
  20
 158.79894590977
  30
0.0
  40
 3.5200001144409
   0
LINE
   5
1D2
 100
AcDbEntity
   8
LEVEL001
 100
AcDbLine
   6
DASHDOT
  62
1
  10
 325.61862086896
  20
 162.78136385139
  30
0.0
  11
 333.58350252856
  21
 154.81650507997
  31
0.0
   0
CIRCLE
   5
1D3
 100
AcDbEntity
   8
LEVEL001
 100
AcDbCircle
   6
CONTINUOUS
  62
7
  10
 329.60102736649
  20
 113.00107663867
  30
0.0
  40
 2.9920003118515
   0
CIRCLE
   5
1D4
 100
AcDbEntity
   8
LEVEL001
 100
AcDbCircle
   6
CONTINUOUS
  62
3
  10
 329.60102736649
  20
 113.00107663867
  30
0.0
  40
 3.5200001144409
   0
LINE
   5
1D5
 100
AcDbEntity
   8
LEVEL001
 100
AcDbLine
   6
DASHDOT
  62
1
  10
 325.61862086896
  20
 109.01863580887
  30
0.0
  11
 333.58347964038
  21
 116.98350602438
  31
0.0
   0
CIRCLE
   5
1D6
 100
AcDbEntity
   8
LEVEL001
 100
AcDbCircle
   6
CONTINUOUS
  62
7
  10
 375.39888519350
  20
 113.00105375048
  30
0.0
  40
 2.9920003118515
   0
CIRCLE
   5
1D7
 100
AcDbEntity
   8
LEVEL001
 100
AcDbCircle
   6
CONTINUOUS
  62
3
  10
 375.39888519350
  20
 113.00105375048
  30
0.0
  40
 3.5200001144409
   0
LINE
   5
1D8
 100
AcDbEntity
   8
LEVEL001
 100
AcDbLine
   6
DASHDOT
  62
1
  10
 379.38138324376
  20
 109.01863580887
  30
0.0
  11
 371.41645580779
  21
 116.98349458028
  31
0.0
   0
ARC
   5
1D9
 100
AcDbEntity
   8
LEVEL001
   6
DASHDOT
  62
1
 100
AcDbCircle
  10
 352.50001134661
  20
 135.90001935731
  30
0.0
  40
 32.384003627777
 100
AcDbArc
  50
 301.02445927425
  51
 328.97542215998
   0
ARC
   5
1DA
 100
AcDbEntity
   8
LEVEL001
   6
DASHDOT
  62
1
 100
AcDbCircle
  10
 352.50005931083
  20
 135.89995377709
  30
0.0
  40
 32.384003627777
 100
AcDbArc
  50
 31.024585350403
  51
 58.975592497970
   0
ARC
   5
1DB
 100
AcDbEntity
   8
LEVEL001
   6
DASHDOT
  62
1
 100
AcDbCircle
  10
 352.49998066180
  20
 135.89999823291
  30
0.0
  40
 32.384003627777
 100
AcDbArc
  50
 121.02448153875
  51
 148.97545917840
   0
ARC
   5
1DC
 100
AcDbEntity
   8
LEVEL001
   6
DASHDOT
  62
1
 100
AcDbCircle
  10
 352.50001738917
  20
 135.89996325003
  30
0.0
  40
 32.384003627777
 100
AcDbArc
  50
 211.02441474517
  51
 238.97534812306
   0
CIRCLE
   5
1DD
 100
AcDbEntity
   8
LEVEL001
 100
AcDbCircle
   6
CONTINUOUS
  62
7
  10
 352.49999061227
  20
 109.14799981868
  30
0.0
  40
 5.2624005895138
   0
CIRCLE
   5
1DE
 100
AcDbEntity
   8
LEVEL001
 100
AcDbCircle
   6
CONTINUOUS
  62
3
  10
 352.49999061227
  20
 109.14799981868
  30
0.0
  40
 5.8650246302776
   0
ARC
   5
1DF
 100
AcDbEntity
   8
LEVEL001
   6
DASHDOT
  62
1
 100
AcDbCircle
  10
 352.49996772409
  20
 135.90000678742
  30
0.0
  40
 26.752002872467
 100
AcDbArc
  50
 244.14895564375
  51
 295.85104435625
   0
LINE
   5
1E0
 100
AcDbEntity
   8
LEVEL001
 100
AcDbLine
   6
DASHDOT
  62
1
  10
 352.49999061227
  20
 181.66000632465
  30
0.0
  11
 352.49999061227
  21
 90.139993335605
  31
0.0
   0
CIRCLE
   5
1E1
 100
AcDbEntity
   8
LEVEL001
 100
AcDbCircle
   6
CONTINUOUS
  62
7
  10
 352.49999061227
  20
 135.88659307699
  30
0.0
  40
 38.719999113083
   0
CIRCLE
   5
1E2
 100
AcDbEntity
   8
LEVEL001
 100
AcDbCircle
   6
CONTINUOUS
  62
7
  10
 352.49999061227
  20
 135.89999410808
  30
0.0
  40
 40.128000017166
   0
LINE
   5
1E3
 100
AcDbEntity
   8
LEVEL001
 100
AcDbLine
   6
CONTINUOUS
  62
3
  10
 399.22333211531
  20
 141.97837451165
  30
0.0
  11
 396.68269803576
  21
 141.29761128731
  31
0.0
   0
LINE
   5
1E4
 100
AcDbEntity
   8
LEVEL001
 100
AcDbLine
   6
CONTINUOUS
  62
3
  10
 399.22333211531
  20
 129.83361855645
  30
0.0
  11
 396.68269803576
  21
 130.51439322488
  31
0.0
   0
LINE
   5
1E5
 100
AcDbEntity
   8
LEVEL001
 100
AcDbLine
   6
CONTINUOUS
  62
7
  10
 399.22333211531
  20
 141.97837451165
  30
0.0
  11
 400.26556841238
  21
 142.58010484039
  31
0.0
   0
LINE
   5
1E6
 100
AcDbEntity
   8
LEVEL001
 100
AcDbLine
   6
CONTINUOUS
  62
7
  10
 411.16643173497
  20
 142.58008195221
  30
0.0
  11
 400.26556841238
  21
 142.58008195221
  31
0.0
   0
LINE
   5
1E7
 100
AcDbEntity
   8
LEVEL001
 100
AcDbLine
   6
CONTINUOUS
  62
7
  10
 399.22333211531
  20
 129.83361855645
  30
0.0
  11
 400.26556841238
  21
 129.23191111589
  31
0.0
   0
LINE
   5
1E8
 100
AcDbEntity
   8
LEVEL001
 100
AcDbLine
   6
CONTINUOUS
  62
7
  10
 411.16643173497
  20
 129.23191111589
  30
0.0
  11
 400.26556841238
  21
 129.23191111589
  31
0.0
   0
ARC
   5
1E9
 100
AcDbEntity
   8
LEVEL001
   6
CONTINUOUS
  62
7
 100
AcDbCircle
  10
 412.22023532624
  20
 145.03896212471
  30
0.0
  40
 1.0538035913168
 100
AcDbArc
  50
 89.999231944185
  51
 179.99952361779
   0
LINE
   5
1EA
 100
AcDbEntity
   8
LEVEL001
 100
AcDbLine
   6
CONTINUOUS
  62
7
  10
 412.22024945258
  20
 146.09276571593
  30
0.0
  11
 415.73294466040
  21
 146.09276571593
  31
0.0
   0
ARC
   5
1EB
 100
AcDbEntity
   8
LEVEL001
   6
CONTINUOUS
  62
7
 100
AcDbCircle
  10
 412.22023532624
  20
 126.77304238748
  30
0.0
  40
 1.0538035913168
 100
AcDbArc
  50
 180.00047638238
  51
 270.00076805577
   0
LINE
   5
1EC
 100
AcDbEntity
   8
LEVEL001
 100
AcDbLine
   6
CONTINUOUS
  62
7
  10
 411.16643173497
  20
 126.77303362569
  30
0.0
  11
 411.16643173497
  21
 145.03897088650
  31
0.0
   0
LINE
   5
1ED
 100
AcDbEntity
   8
LEVEL001
 100
AcDbLine
   6
CONTINUOUS
  62
7
  10
 412.22024945258
  20
 125.71923879626
  30
0.0
  11
 415.73294466040
  21
 125.71923879626
  31
0.0
   0
ARC
   5
1EE
 100
AcDbEntity
   8
LEVEL001
   6
CONTINUOUS
  62
7
 100
AcDbCircle
  10
 426.97352852010
  20
 145.03896212472
  30
0.0
  40
 1.0538035913168
 100
AcDbArc
  50
 0.47638212548942E-3
  51
 90.000768055352
   0
LINE
   5
1EF
 100
AcDbEntity
   8
LEVEL001
 100
AcDbLine
   6
CONTINUOUS
  62
7
  10
 423.46081918595
  20
 146.09276571593
  30
0.0
  11
 426.97351439376
  21
 146.09276571593
  31
0.0
   0
ARC
   5
1F0
 100
AcDbEntity
   8
LEVEL001
   6
CONTINUOUS
  62
7
 100
AcDbCircle
  10
 426.97352852010
  20
 126.77304238747
  30
0.0
  40
 1.0538035913168
 100
AcDbArc
  50
 269.99923194466
  51
0.0
   0
LINE
   5
1F1
 100
AcDbEntity
   8
LEVEL001
 100
AcDbLine
   6
CONTINUOUS
  62
7
  10
 423.46081918595
  20
 125.71923879626
  30
0.0
  11
 426.97351439376
  21
 125.71923879626
  31
0.0
   0
LINE
   5
1F2
 100
AcDbEntity
   8
LEVEL001
 100
AcDbLine
   6
CONTINUOUS
  62
7
  10
 428.02733211138
  20
 145.03897088650
  30
0.0
  11
 428.02733211138
  21
 126.77303362569
  31
0.0
   0
ARC
   5
1F3
 100
AcDbEntity
   8
LEVEL001
   6
DASHDOT
  62
1
 100
AcDbCircle
  10
 434.35014105292
  20
 145.03896507618
  30
0.0
  40
 0.70253569774223
 100
AcDbArc
  50
 0.47386465824961E-3
  51
 90.003259367992
   0
LINE
   5
1F4
 100
AcDbEntity
   8
LEVEL001
 100
AcDbLine
   6
DASHDOT
  62
1
  10
 428.72986199767
  20
 145.74150077279
  30
0.0
  11
 434.35010108798
  21
 145.74150077279
  31
0.0
   0
ARC
   5
1F5
 100
AcDbEntity
   8
LEVEL001
   6
DASHDOT
  62
1
 100
AcDbCircle
  10
 434.35014105292
  20
 126.77303943603
  30
0.0
  40
 0.70253569774223
 100
AcDbArc
  50
 269.99674063220
  51
0.0
   0
LINE
   5
1F6
 100
AcDbEntity
   8
LEVEL001
 100
AcDbLine
   6
DASHDOT
  62
1
  10
 428.72986199767
  20
 126.07050373940
  30
0.0
  11
 434.35010108798
  21
 126.07050373940
  31
0.0
   0
LINE
   5
1F7
 100
AcDbEntity
   8
LEVEL001
 100
AcDbLine
   6
DASHDOT
  62
1
  10
 435.05267675064
  20
 145.03897088650
  30
0.0
  11
 435.05267675064
  21
 126.77303362569
  31
0.0
   0
CIRCLE
   5
1F8
 100
AcDbEntity
   8
LEVEL001
 100
AcDbCircle
   6
DASHDOT
  62
1
  10
 437.16026640951
  20
 135.90600225610
  30
0.0
  40
 1.0538035913168
   0
ARC
   5
1F9
 100
AcDbEntity
   8
LEVEL001
   6
DASHDOT
  62
1
 100
AcDbCircle
  10
 428.72986780908
  20
 126.77303943712
  30
0.0
  40
 0.70253569774223
 100
AcDbArc
  50
 180.00047395524
  51
 269.99952604626
   0
ARC
   5
1FA
 100
AcDbEntity
   8
LEVEL001
   6
DASHDOT
  62
1
 100
AcDbCircle
  10
 428.72986780909
  20
 145.03896507507
  30
0.0
  40
 0.70253569774223
 100
AcDbArc
  50
 90.000473954688
  51
 179.99952604496
   0
ARC
   5
1FB
 100
AcDbEntity
   8
LEVEL001
   6
DASHDOT
  62
1
 100
AcDbCircle
  10
 436.45774814608
  20
 139.76993969764
  30
0.0
  40
 1.4050713954845
 100
AcDbArc
  50
 179.99954062433
  51
 269.99952604475
   0
ARC
   5
1FC
 100
AcDbEntity
   8
LEVEL001
   6
DASHDOT
  62
1
 100
AcDbCircle
  10
 436.45774814608
  20
 132.04205337046
  30
0.0
  40
 1.4050713954845
 100
AcDbArc
  50
 90.000473955186
  51
 180.00045937546
   0
LINE
   5
1FD
 100
AcDbEntity
   8
LEVEL001
 100
AcDbLine
   6
DASHDOT
  62
1
  10
 436.45773652322
  20
 138.36486830220
  30
0.0
  11
 436.80902435455
  21
 138.36486830220
  31
0.0
   0
LINE
   5
1FE
 100
AcDbEntity
   8
LEVEL001
 100
AcDbLine
   6
DASHDOT
  62
1
  10
 436.45773652322
  20
 133.44712476590
  30
0.0
  11
 436.80902435455
  21
 133.44712476590
  31
0.0
   0
ARC
   5
1FF
 100
AcDbEntity
   8
LEVEL001
   6
DASHDOT
  62
1
 100
AcDbCircle
  10
 436.80515794247
  20
 135.90599653405
  30
0.0
  40
 2.4588748079874
 100
AcDbArc
  50
 270.09009372245
  51
 89.909906277545
   0
LINE
   5
200
 100
AcDbEntity
   8
LEVEL001
 100
AcDbLine
   6
CONTINUOUS
  62
7
  10
 400.26556841238
  20
 129.23191111589
  30
0.0
  11
 400.26556841238
  21
 131.80955538721
  31
0.0
   0
LINE
   5
201
 100
AcDbEntity
   8
LEVEL001
 100
AcDbLine
   6
CONTINUOUS
  62
7
  10
 400.26556841238
  20
 140.00244912498
  30
0.0
  11
 400.26556841238
  21
 142.58009339630
  31
0.0
   0
LINE
   5
202
 100
AcDbEntity
   8
LEVEL001
 100
AcDbLine
   6
CONTINUOUS
  62
7
  10
 396.41321257015
  20
 133.06832533871
  30
0.0
  11
 406.24872253094
  21
 140.00244912498
  31
0.0
   0
LINE
   5
203
 100
AcDbEntity
   8
LEVEL001
 100
AcDbLine
   6
CONTINUOUS
  62
7
  10
 396.41321257015
  20
 138.74367917348
  30
0.0
  11
 406.24872253094
  21
 131.80955538721
  31
0.0
   0
LINE
   5
204
 100
AcDbEntity
   8
LEVEL001
 100
AcDbLine
   6
CONTINUOUS
  62
3
  10
 396.68269803576
  20
 141.29759984322
  30
0.0
  11
 396.68269803576
  21
 138.74367917348
  31
0.0
   0
LINE
   5
205
 100
AcDbEntity
   8
LEVEL001
 100
AcDbLine
   6
CONTINUOUS
  62
3
  10
 396.68269803576
  20
 133.06832533871
  30
0.0
  11
 396.68269803576
  21
 130.51439322488
  31
0.0
   0
LINE
   5
206
 100
AcDbEntity
   8
LEVEL001
 100
AcDbLine
   6
CONTINUOUS
  62
7
  10
 399.22333211531
  20
 141.97837451165
  30
0.0
  11
 399.22333211531
  21
 138.92447293030
  31
0.0
   0
LINE
   5
207
 100
AcDbEntity
   8
LEVEL001
 100
AcDbLine
   6
CONTINUOUS
  62
7
  10
 399.22333211531
  20
 132.88753158189
  30
0.0
  11
 399.22333211531
  21
 129.83361855645
  31
0.0
   0
LINE
   5
208
 100
AcDbEntity
   8
LEVEL001
 100
AcDbLine
   6
CONTINUOUS
  62
3
  10
 415.73294466040
  20
 126.77303362569
  30
0.0
  11
 423.46081918595
  21
 126.77303362569
  31
0.0
   0
LINE
   5
209
 100
AcDbEntity
   8
LEVEL001
 100
AcDbLine
   6
CONTINUOUS
  62
3
  10
 415.73294466040
  20
 128.17810484236
  30
0.0
  11
 423.46081918595
  21
 128.17810484236
  31
0.0
   0
LINE
   5
20A
 100
AcDbEntity
   8
LEVEL001
 100
AcDbLine
   6
CONTINUOUS
  62
3
  10
 415.73294466040
  20
 129.58317605903
  30
0.0
  11
 423.46081918595
  21
 129.58317605903
  31
0.0
   0
LINE
   5
20B
 100
AcDbEntity
   8
LEVEL001
 100
AcDbLine
   6
CONTINUOUS
  62
3
  10
 415.73294466040
  20
 130.98824727570
  30
0.0
  11
 423.46081918595
  21
 130.98824727570
  31
0.0
   0
LINE
   5
20C
 100
AcDbEntity
   8
LEVEL001
 100
AcDbLine
   6
CONTINUOUS
  62
3
  10
 415.73294466040
  20
 132.39331849237
  30
0.0
  11
 423.46081918595
  21
 132.39331849237
  31
0.0
   0
LINE
   5
20D
 100
AcDbEntity
   8
LEVEL001
 100
AcDbLine
   6
CONTINUOUS
  62
3
  10
 415.73294466040
  20
 133.79838970904
  30
0.0
  11
 423.46081918595
  21
 133.79838970904
  31
0.0
   0
LINE
   5
20E
 100
AcDbEntity
   8
LEVEL001
 100
AcDbLine
   6
CONTINUOUS
  62
3
  10
 415.73294466040
  20
 135.20346092571
  30
0.0
  11
 423.46081918595
  21
 135.20346092571
  31
0.0
   0
LINE
   5
20F
 100
AcDbEntity
   8
LEVEL001
 100
AcDbLine
   6
CONTINUOUS
  62
3
  10
 415.73294466040
  20
 136.60854358648
  30
0.0
  11
 423.46081918595
  21
 136.60854358648
  31
0.0
   0
LINE
   5
210
 100
AcDbEntity
   8
LEVEL001
 100
AcDbLine
   6
CONTINUOUS
  62
3
  10
 415.73294466040
  20
 138.01360335906
  30
0.0
  11
 423.46081918595
  21
 138.01360335906
  31
0.0
   0
LINE
   5
211
 100
AcDbEntity
   8
LEVEL001
 100
AcDbLine
   6
CONTINUOUS
  62
3
  10
 415.73294466040
  20
 139.41868601982
  30
0.0
  11
 423.46081918595
  21
 139.41868601982
  31
0.0
   0
LINE
   5
212
 100
AcDbEntity
   8
LEVEL001
 100
AcDbLine
   6
CONTINUOUS
  62
3
  10
 415.73294466040
  20
 140.82374579240
  30
0.0
  11
 423.46081918595
  21
 140.82374579240
  31
0.0
   0
LINE
   5
213
 100
AcDbEntity
   8
LEVEL001
 100
AcDbLine
   6
CONTINUOUS
  62
3
  10
 415.73294466040
  20
 142.22882845316
  30
0.0
  11
 423.46081918595
  21
 142.22882845316
  31
0.0
   0
LINE
   5
214
 100
AcDbEntity
   8
LEVEL001
 100
AcDbLine
   6
CONTINUOUS
  62
3
  10
 415.73294466040
  20
 143.63388822574
  30
0.0
  11
 423.46081918595
  21
 143.63388822574
  31
0.0
   0
LINE
   5
215
 100
AcDbEntity
   8
LEVEL001
 100
AcDbLine
   6
CONTINUOUS
  62
3
  10
 415.73294466040
  20
 145.03897088650
  30
0.0
  11
 423.46081918595
  21
 145.03897088650
  31
0.0
   0
LINE
   5
216
 100
AcDbEntity
   8
LEVEL001
 100
AcDbLine
   6
CONTINUOUS
  62
7
  10
 399.22333211531
  20
 141.97837451165
  30
0.0
  11
 392.19798747605
  21
 141.75881961707
  31
0.0
   0
LINE
   5
217
 100
AcDbEntity
   8
LEVEL001
 100
AcDbLine
   6
CONTINUOUS
  62
3
  10
 396.68269803576
  20
 141.29759984322
  30
0.0
  11
 392.19798747605
  21
 141.15744405516
  31
0.0
   0
LINE
   5
218
 100
AcDbEntity
   8
LEVEL001
 100
AcDbLine
   6
CONTINUOUS
  62
3
  10
 396.68269803576
  20
 130.51439322488
  30
0.0
  11
 392.19798747605
  21
 130.65453756885
  31
0.0
   0
LINE
   5
219
 100
AcDbEntity
   8
LEVEL001
 100
AcDbLine
   6
CONTINUOUS
  62
7
  10
 399.22333211531
  20
 129.83361855645
  30
0.0
  11
 392.19798747605
  21
 130.05317345103
  31
0.0
   0
LINE
   5
21A
 100
AcDbEntity
   8
LEVEL001
 100
AcDbLine
   6
CONTINUOUS
  62
7
  10
 396.41321257015
  20
 133.06832533871
  30
0.0
  11
 396.41321257015
  21
 138.74367917348
  31
0.0
   0
LINE
   5
21B
 100
AcDbEntity
   8
LEVEL001
 100
AcDbLine
   6
CONTINUOUS
  62
7
  10
 396.41321257015
  20
 138.74367917348
  30
0.0
  11
 399.22333211531
  21
 138.92447293030
  31
0.0
   0
LINE
   5
21C
 100
AcDbEntity
   8
LEVEL001
 100
AcDbLine
   6
CONTINUOUS
  62
7
  10
 399.22333211531
  20
 138.92447293030
  30
0.0
  11
 400.26556841238
  21
 140.00244912498
  31
0.0
   0
LINE
   5
21D
 100
AcDbEntity
   8
LEVEL001
 100
AcDbLine
   6
CONTINUOUS
  62
7
  10
 400.26556841238
  20
 140.00244912498
  30
0.0
  11
 406.24872253094
  21
 140.00244912498
  31
0.0
   0
LINE
   5
21E
 100
AcDbEntity
   8
LEVEL001
 100
AcDbLine
   6
CONTINUOUS
  62
7
  10
 406.24872253094
  20
 140.00244912498
  30
0.0
  11
 406.24872253094
  21
 131.80955538721
  31
0.0
   0
LINE
   5
21F
 100
AcDbEntity
   8
LEVEL001
 100
AcDbLine
   6
CONTINUOUS
  62
7
  10
 406.24872253094
  20
 131.80955538721
  30
0.0
  11
 400.26556841238
  21
 131.80955538721
  31
0.0
   0
LINE
   5
220
 100
AcDbEntity
   8
LEVEL001
 100
AcDbLine
   6
CONTINUOUS
  62
7
  10
 400.26556841238
  20
 131.80955538721
  30
0.0
  11
 399.22333211531
  21
 132.88753158189
  31
0.0
   0
LINE
   5
221
 100
AcDbEntity
   8
LEVEL001
 100
AcDbLine
   6
CONTINUOUS
  62
7
  10
 399.22333211531
  20
 132.88753158189
  30
0.0
  11
 396.41321257015
  21
 133.06832533871
  31
0.0
   0
LINE
   5
222
 100
AcDbEntity
   8
LEVEL001
 100
AcDbLine
   6
CONTINUOUS
  62
7
  10
 415.73294466040
  20
 125.36796240902
  30
0.0
  11
 415.73294466040
  21
 146.44403065908
  31
0.0
   0
LINE
   5
223
 100
AcDbEntity
   8
LEVEL001
 100
AcDbLine
   6
CONTINUOUS
  62
7
  10
 415.73294466040
  20
 146.44403065908
  30
0.0
  11
 423.46081918595
  21
 146.44403065908
  31
0.0
   0
LINE
   5
224
 100
AcDbEntity
   8
LEVEL001
 100
AcDbLine
   6
CONTINUOUS
  62
7
  10
 423.46081918595
  20
 146.44403065908
  30
0.0
  11
 423.46081918595
  21
 125.36796240902
  31
0.0
   0
LINE
   5
225
 100
AcDbEntity
   8
LEVEL001
 100
AcDbLine
   6
CONTINUOUS
  62
7
  10
 423.46081918595
  20
 125.36796240902
  30
0.0
  11
 415.73294466040
  21
 125.36796240902
  31
0.0
   0
LINE
   5
226
 100
AcDbEntity
   8
LEVEL001
 100
AcDbLine
   6
DASHDOT
  62
1
  10
 441.37544572725
  20
 135.88659307699
  30
0.0
  11
 306.73998983979
  21
 135.88659307699
  31
0.0
   0
LINE
   5
227
 100
AcDbEntity
   8
LEVEL003
 100
AcDbLine
   6
CONTINUOUS
  62
3
  10
 333.74999117106
  20
 74.999998211861
  30
0.0
  11
 371.24999005348
  21
 74.999998211861
  31
0.0
   0
TEXT
   5
228
 100
AcDbEntity
   8
LEVEL003
  62
3
 100
AcDbText
  10
 337.26241172068
  20
 74.964704633811
  30
0.0
  40
 5.9999998211861
   1
Ａ　矢　視
   7
STANDARD
 100
AcDbText
   0
TEXT
   5
229
 100
AcDbEntity
   8
LEVEL003
  62
3
 100
AcDbText
  10
 44.999999776483
  20
 44.999999105930
  30
0.0
  40
 5.9999998211861
   1
４－Ｍ１０
   7
STANDARD
 100
AcDbText
   0
TEXT
   5
22A
 100
AcDbEntity
   8
LEVEL003
  62
3
 100
AcDbText
  10
 44.999999776483
  20
 36.999999344349
  30
0.0
  40
 5.9999998211861
   1
タップ　１５
   7
STANDARD
 100
AcDbText
   0
LEADER
   5
22B
 100
AcDbEntity
   8
LEVEL003
   6
CONTINUOUS
  62
3
 100
AcDbLeader
   3
GMM001
  73
0
  74
1
  75
0
  40
 6.0000000000000
  41
0.0
  76
3
  10
 96.500002056360
  20
 61.999968081714
  30
0.0
  10
 82.499998658896
  20
 44.999999105930
  30
0.0
  10
 44.999999776483
  20
 44.999999105930
  30
0.0
  77
3
   0
LEADER
   5
22C
 100
AcDbEntity
   8
LEVEL003
   6
CONTINUOUS
  62
3
 100
AcDbLeader
   3
GMM004
  73
0
  74
1
  75
0
  40
 6.0000000000000
  41
0.0
  76
2
  10
 180.50001099706
  20
 61.999968081714
  30
0.0
  10
 224.99999441206
  20
 44.999999105930
  30
0.0
  77
3
   0
LINE
   5
22D
 100
AcDbEntity
   8
LEVEL001
 100
AcDbLine
   6
DASHDOT
  62
1
  10
 142.49999687076
  20
 187.49999485910
  30
0.0
  11
 142.49999687076
  21
 54.499968305231
  31
0.0
   0
TEXT
   5
22E
 100
AcDbEntity
   8
LEVEL003
  62
3
 100
AcDbText
  10
 389.99998949468
  20
 179.99999508262
  30
0.0
  40
 5.9999998211861
   1
４－Ｍ１０
   7
STANDARD
 100
AcDbText
   0
LEADER
   5
22F
 100
AcDbEntity
   8
LEVEL003
   6
CONTINUOUS
  62
3
 100
AcDbLeader
   3
GMM001
  73
0
  74
1
  75
0
  40
 6.0000000000000
  41
0.0
  76
3
  10
 377.39549005343
  20
 161.69792882508
  30
0.0
  10
 389.99998949468
  20
 179.99999508262
  30
0.0
  10
 419.99998860061
  20
 179.99999508262
  30
0.0
  77
3
   0
DIMENSION
   5
230
 100
AcDbEntity
   8
LEVEL003
   6
CONTINUOUS
  62
3
 100
AcDbDimension
   2
*D7
  10
 269.99999307096
  20
 286.99996137619
  30
0.0
  11
 269.99999307096
  21
 226.99996316433
  31
0.0
  70
128
   1
\A1;120
   3
GMM005
 100
AcDbAlignedDimension
  13
 224.99999441206
  23
 166.99996495247
  33
0.0
  14
 227.50000196695
  24
 286.99996137619
  34
0.0
  50
 90.000000000000
 100
AcDbRotatedDimension
   0
DIMENSION
   5
232
 100
AcDbEntity
   8
LEVEL003
   6
CONTINUOUS
  62
3
 100
AcDbDimension
   2
*D8
  10
 269.99999307096
  20
 379.99995860458
  30
0.0
  11
 269.99999307096
  21
 384.99997371435
  31
0.0
  70
128
   1
\A1;10
   3
GMM002
 100
AcDbAlignedDimension
  13
 172.49999597669
  23
 389.99998882413
  33
0.0
  14
 173.85962270619
  24
 379.99995860458
  34
0.0
  50
 270.00000000000
 100
AcDbRotatedDimension
   0
DIMENSION
   5
234
 100
AcDbEntity
   8
LEVEL003
   6
CONTINUOUS
  62
3
 100
AcDbDimension
   2
*D9
  10
 284.99999262393
  20
 376.99995869398
  30
0.0
  11
 284.99999262393
  21
 356.99996691942
  31
0.0
  70
128
   1
\A1;40
   3
GMM002
 100
AcDbAlignedDimension
  13
 200.50000277162
  23
 336.99997514486
  33
0.0
  14
 194.99999530613
  24
 376.99995869398
  34
0.0
  50
 90.000000000000
 100
AcDbRotatedDimension
   0
DIMENSION
   5
236
 100
AcDbEntity
   8
LEVEL003
   6
CONTINUOUS
  62
3
 100
AcDbDimension
   2
*D10
  10
 284.99999262393
  20
 376.99995869398
  30
0.0
  11
 284.99999262393
  21
 383.49997375906
  31
0.0
  70
128
   1
\A1;13
   3
GMM002
 100
AcDbAlignedDimension
  13
 172.49999597669
  23
 389.99998882413
  33
0.0
  14
 194.99999530613
  24
 376.99995869398
  34
0.0
  50
 270.00000000000
 100
AcDbRotatedDimension
   0
DIMENSION
   5
238
 100
AcDbEntity
   8
LEVEL003
   6
CONTINUOUS
  62
3
 100
AcDbDimension
   2
*D11
  10
 254.99999351800
  20
 371.99998936057
  30
0.0
  11
 254.99999351800
  21
 368.34953590111
  31
0.0
  70
128
   1
\A1;5
   3
GMM006
 100
AcDbAlignedDimension
  13
 254.99999351800
  23
 376.99995869398
  33
0.0
  14
 200.50000277162
  24
 371.99998936057
  34
0.0
  50
 270.00000000000
 100
AcDbRotatedDimension
   0
DIMENSION
   5
23A
 100
AcDbEntity
   8
LEVEL003
   6
CONTINUOUS
  62
3
 100
AcDbDimension
   2
*D12
  10
 199.49999517202
  20
 187.49999485910
  30
0.0
  11
 142.49999687076
  21
 187.49999485910
  31
0.0
  70
128
   1
\A1;%%c114
   3
GMM007
 100
AcDbAlignedDimension
  13
 85.499998569489
  23
 187.49999485910
  33
0.0
  14
 199.49999517202
  24
 187.49999485910
  34
0.0
 100
AcDbRotatedDimension
   0
DIMENSION
   5
23C
 100
AcDbEntity
   8
LEVEL003
   6
CONTINUOUS
  62
3
 100
AcDbDimension
   2
*D13
  10
 250.49999365211
  20
 187.49999485910
  30
0.0
  11
 224.99999441206
  21
 187.49999485910
  31
0.0
  70
128
   1
\A1;51
   3
GMM008
 100
AcDbAlignedDimension
  13
 199.49999517202
  23
 187.49999485910
  33
0.0
  14
 250.49999365211
  24
 187.49999485910
  34
0.0
 100
AcDbRotatedDimension
   0
DIMENSION
   5
23E
 100
AcDbEntity
   8
LEVEL003
   6
CONTINUOUS
  62
3
 100
AcDbDimension
   2
*D14
  10
 111.49999016523
  20
 412.50000139877
  30
0.0
  11
 142.49999903010
  21
 412.50000139877
  31
0.0
  70
128
   1
\A1;%%c62
   3
GMM009
 100
AcDbAlignedDimension
  13
 173.50000357628
  23
 389.00000411272
  33
0.0
  14
 111.49999016523
  24
 389.00000411272
  34
0.0
  50
 180.00000000000
 100
AcDbRotatedDimension
   0
LINE
   5
240
 100
AcDbEntity
   8
LEVEL001
 100
AcDbLine
   6
DASHDOT
  62
1
  10
 197.50000286102
  20
 336.99997514486
  30
0.0
  11
 200.50000277162
  21
 336.99997514486
  31
0.0
   0
LINE
   5
241
 100
AcDbEntity
   8
LEVEL001
 100
AcDbLine
   6
DASHDOT
  62
1
  10
 200.50000277162
  20
 336.99997514486
  30
0.0
  11
 200.50000277162
  21
 371.99998936057
  31
0.0
   0
LINE
   5
242
 100
AcDbEntity
   8
LEVEL001
 100
AcDbLine
   6
DASHDOT
  62
1
  10
 200.50000277162
  20
 371.99998936057
  30
0.0
  11
 196.00000290573
  21
 371.99998936057
  31
0.0
   0
DIMENSION
   5
243
 100
AcDbEntity
   8
LEVEL003
   6
CONTINUOUS
  62
3
 100
AcDbDimension
   2
*D15
  10
 153.74999653548
  20
 349.99998238683
  30
0.0
  11
 153.74999653548
  21
 364.99995905161
  31
0.0
  70
128
   1
\A1;30
   3
GMM002
 100
AcDbAlignedDimension
  13
 166.49999615550
  23
 379.99995860458
  33
0.0
  14
 165.50001144409
  24
 349.99998238683
  34
0.0
  50
 270.00000000000
 100
AcDbRotatedDimension
   0
ARC
   5
245
 100
AcDbEntity
   8
LEVEL001
   6
DOT
  62
3
 100
AcDbCircle
  10
 160.81981245861
  20
 355.99999749633
  30
0.0
  40
 1.0000000000000
 100
AcDbArc
  50
 191.31156809620
  51
 270.00133749593
   0
LINE
   5
246
 100
AcDbEntity
   8
LEVEL001
 100
AcDbLine
   6
DOT
  62
3
  10
 159.83923738184
  20
 355.80385336864
  30
0.0
  11
 158.99999637902
  21
 359.99998971820
  31
0.0
   0
ARC
   5
247
 100
AcDbEntity
   8
LEVEL001
   6
DOT
  62
3
 100
AcDbCircle
  10
 166.49999615551
  20
 377.74995867163
  30
0.0
  40
 0.74999997764826
 100
AcDbArc
  50
 180.00000000000
  51
 269.99999999914
   0
ARC
   5
248
 100
AcDbEntity
   8
LEVEL001
   6
DOT
  62
3
 100
AcDbCircle
  10
 166.49999615550
  20
 379.24995862694
  30
0.0
  40
 0.74999997764826
 100
AcDbArc
  50
 90.000000000000
  51
 180.00000000149
   0
LINE
   5
249
 100
AcDbEntity
   8
LEVEL001
 100
AcDbLine
   6
DOT
  62
3
  10
 165.74999617785
  20
 377.74995867163
  30
0.0
  11
 165.74999617785
  21
 379.24995862693
  31
0.0
   0
ARC
   5
24A
 100
AcDbEntity
   8
LEVEL001
   6
DOT
  62
3
 100
AcDbCircle
  10
 160.81981703659
  20
 388.99998882414
  30
0.0
  40
 1.0000000000000
 100
AcDbArc
  50
 90.000236199138
  51
 168.68976926041
   0
LINE
   5
24B
 100
AcDbEntity
   8
LEVEL001
 100
AcDbLine
   6
DOT
  62
3
  10
 159.83923738184
  20
 389.19611006391
  30
0.0
  11
 158.99999637902
  21
 385.00001949072
  31
0.0
   0
LINE
   5
24C
 100
AcDbEntity
   8
LEVEL001
 100
AcDbLine
   6
DOT
  62
3
  10
 166.49999615550
  20
 379.99995860458
  30
0.0
  11
 166.49999615550
  21
 376.99995869398
  31
0.0
   0
LINE
   5
24D
 100
AcDbEntity
   8
LEVEL001
 100
AcDbLine
   6
DOT
  62
3
  10
 158.99999637902
  20
 385.00001949072
  30
0.0
  11
 158.99999637902
  21
 359.99998971820
  31
0.0
   0
LINE
   5
24E
 100
AcDbEntity
   8
LEVEL001
 100
AcDbLine
   6
DOT
  62
3
  10
 165.50001144409
  20
 307.49999128282
  30
0.0
  11
 165.50001144409
  21
 349.99998238683
  31
0.0
   0
LINE
   5
24F
 100
AcDbEntity
   8
LEVEL001
 100
AcDbLine
   6
DOT
  62
3
  10
 166.49999615550
  20
 349.99998238683
  30
0.0
  11
 165.50002288818
  21
 347.20096361038
  31
0.0
   0
LINE
   5
250
 100
AcDbEntity
   8
LEVEL001
 100
AcDbLine
   6
DOT
  62
3
  10
 165.74999617785
  20
 349.99998238683
  30
0.0
  11
 165.50001144409
  21
 349.99998238683
  31
0.0
   0
LINE
   5
251
 100
AcDbEntity
   8
LEVEL001
 100
AcDbLine
   6
DOT
  62
3
  10
 166.49999615550
  20
 355.75002036244
  30
0.0
  11
 166.49999615550
  21
 349.99998238683
  31
0.0
   0
LINE
   5
252
 100
AcDbEntity
   8
LEVEL001
 100
AcDbLine
   6
DOT
  62
3
  10
 166.49999615550
  20
 349.99998238683
  30
0.0
  11
 165.74999617785
  21
 349.99998238683
  31
0.0
   0
LINE
   5
253
 100
AcDbEntity
   8
LEVEL001
 100
AcDbLine
   6
DOT
  62
3
  10
 165.74999617785
  20
 354.99999749660
  30
0.0
  11
 165.74999617785
  21
 349.99998238683
  31
0.0
   0
LINE
   5
254
 100
AcDbEntity
   8
LEVEL001
 100
AcDbLine
   6
DOT
  62
3
  10
 160.81983580232
  20
 354.99999749660
  30
0.0
  11
 165.74999617785
  21
 354.99999749660
  31
0.0
   0
LINE
   5
255
 100
AcDbEntity
   8
LEVEL001
 100
AcDbLine
   6
DOT
  62
3
  10
 165.74999617785
  20
 354.99999749660
  30
0.0
  11
 166.49999615550
  21
 355.75002036244
  31
0.0
   0
LINE
   5
256
 100
AcDbEntity
   8
LEVEL001
 100
AcDbLine
   6
DOT
  62
3
  10
 166.49999615550
  20
 355.75002036244
  30
0.0
  11
 166.49999615550
  21
 376.99995869398
  31
0.0
   0
LINE
   5
257
 100
AcDbEntity
   8
LEVEL001
 100
AcDbLine
   6
DOT
  62
3
  10
 166.49999615550
  20
 379.99995860458
  30
0.0
  11
 165.74999617785
  21
 379.24995862693
  31
0.0
   0
LINE
   5
258
 100
AcDbEntity
   8
LEVEL001
 100
AcDbLine
   6
DOT
  62
3
  10
 165.74999617785
  20
 379.24995862693
  30
0.0
  11
 165.74999617785
  21
 354.99999749660
  31
0.0
   0
LINE
   5
259
 100
AcDbEntity
   8
LEVEL001
 100
AcDbLine
   6
DOT
  62
3
  10
 175.00000353158
  20
 376.99995869398
  30
0.0
  11
 175.00000353158
  21
 308.46836741363
  31
0.0
   0
LINE
   5
25A
 100
AcDbEntity
   8
LEVEL001
 100
AcDbLine
   6
DOT
  62
3
  10
 187.50622648265
  20
 76.999967634679
  30
0.0
  11
 188.28773812092
  21
 76.999967634679
  31
0.0
   0
LINE
   5
25B
 100
AcDbEntity
   8
LEVEL001
 100
AcDbLine
   6
DOT
  62
3
  10
 172.71228387319
  20
 76.999967634679
  30
0.0
  11
 173.49379232308
  21
 76.999967634679
  31
0.0
   0
LINE
   5
25C
 100
AcDbEntity
   8
LEVEL001
 100
AcDbLine
   6
CONTINUOUS
  62
7
  10
 199.49999517202
  20
 306.86184585506
  30
0.0
  11
 199.49999517202
  21
 63.999983280898
  31
0.0
   0
LINE
   5
25D
 100
AcDbEntity
   8
LEVEL001
 100
AcDbLine
   6
CONTINUOUS
  62
7
  10
 209.50000250340
  20
 97.643472115890
  30
0.0
  11
 199.49999517202
  21
 97.330959768331
  31
0.0
   0
LINE
   5
25E
 100
AcDbEntity
   8
LEVEL001
 100
AcDbLine
   6
CONTINUOUS
  62
3
  10
 205.88366960336
  20
 96.674466560052
  30
0.0
  11
 199.49999517202
  21
 96.474961655097
  31
0.0
   0
LINE
   5
25F
 100
AcDbEntity
   8
LEVEL001
 100
AcDbLine
   6
CONTINUOUS
  62
3
  10
 205.88362382699
  20
 81.325467994050
  30
0.0
  11
 199.49999517202
  21
 81.524972725061
  31
0.0
   0
LINE
   5
260
 100
AcDbEntity
   8
LEVEL001
 100
AcDbLine
   6
CONTINUOUS
  62
7
  10
 209.50000250340
  20
 80.356462438212
  30
0.0
  11
 199.49999517202
  21
 80.668974785771
  31
0.0
   0
LINE
   5
261
 100
AcDbEntity
   8
LEVEL001
 100
AcDbLine
   6
DOT
  62
3
  10
 187.49999552965
  20
 96.999936521055
  30
0.0
  11
 187.49999552965
  21
 273.99997702241
  31
0.0
   0
LINE
   5
262
 100
AcDbEntity
   8
LEVEL001
 100
AcDbLine
   6
DOT
  62
3
  10
 164.99999620020
  20
 79.999967545272
  30
0.0
  11
 164.99999620020
  21
 272.99994653464
  31
0.0
   0
LINE
   5
263
 100
AcDbEntity
   8
LEVEL001
 100
AcDbLine
   6
DOT
  62
3
  10
 164.00001148879
  20
 277.99996164441
  30
0.0
  11
 164.99999620020
  21
 272.99994653464
  31
0.0
   0
LINE
   5
264
 100
AcDbEntity
   8
LEVEL001
 100
AcDbLine
   6
DOT
  62
3
  10
 160.00000397861
  20
 277.99996164441
  30
0.0
  11
 158.99999637902
  21
 272.99994653464
  31
0.0
   0
LINE
   5
265
 100
AcDbEntity
   8
LEVEL001
 100
AcDbLine
   6
DOT
  62
3
  10
 175.00000353158
  20
 304.71836752539
  30
0.0
  11
 175.00000353158
  21
 131.99999651313
  31
0.0
   0
LINE
   5
266
 100
AcDbEntity
   8
LEVEL001
 100
AcDbLine
   6
DOT
  62
3
  10
 164.00001148879
  20
 277.99996164441
  30
0.0
  11
 160.00000397861
  21
 277.99996164441
  31
0.0
   0
LINE
   5
267
 100
AcDbEntity
   8
LEVEL001
 100
AcDbLine
   6
DOT
  62
3
  10
 165.50001144409
  20
 277.99996164441
  30
0.0
  11
 165.50001144409
  21
 303.74999139458
  31
0.0
   0
LINE
   5
268
 100
AcDbEntity
   8
LEVEL001
 100
AcDbLine
   6
DOT
  62
3
  10
 159.83921449366
  20
 63.803831553345
  30
0.0
  11
 158.99999637902
  21
 67.999967902900
  31
0.0
   0
LINE
   5
269
 100
AcDbEntity
   8
LEVEL001
 100
AcDbLine
   6
DOT
  62
3
  10
 172.50086572764
  20
 71.163297886750
  30
0.0
  11
 173.33752036579
  21
 71.999952524902
  31
0.0
   0
LINE
   5
26A
 100
AcDbEntity
   8
LEVEL001
 100
AcDbLine
   6
DOT
  62
3
  10
 188.49911049011
  20
 71.163343663116
  30
0.0
  11
 187.66250162832
  21
 71.999952524902
  31
0.0
   0
LINE
   5
26B
 100
AcDbEntity
   8
LEVEL001
 100
AcDbLine
   6
DOT
  62
3
  10
 187.66250162832
  20
 71.999952524902
  30
0.0
  11
 173.33752036579
  21
 71.999952524902
  31
0.0
   0
LINE
   5
26C
 100
AcDbEntity
   8
LEVEL001
 100
AcDbLine
   6
DOT
  62
3
  10
 188.49911049011
  20
 71.163343663116
  30
0.0
  11
 172.50086572764
  21
 71.163297886750
  31
0.0
   0
LINE
   5
26D
 100
AcDbEntity
   8
LEVEL001
 100
AcDbLine
   6
DOT
  62
3
  10
 172.71226098501
  20
 76.999967634679
  30
0.0
  11
 172.50087717173
  21
 71.163303608796
  31
0.0
   0
LINE
   5
26E
 100
AcDbEntity
   8
LEVEL001
 100
AcDbLine
   6
DOT
  62
3
  10
 188.49913337829
  20
 71.163349385162
  30
0.0
  11
 188.28773812092
  21
 76.999967634679
  31
0.0
   0
LINE
   5
26F
 100
AcDbEntity
   8
LEVEL001
 100
AcDbLine
   6
DOT
  62
3
  10
 158.99999637902
  20
 272.99994653464
  30
0.0
  11
 158.99999637902
  21
 67.999967902900
  31
0.0
   0
LINE
   5
270
 100
AcDbEntity
   8
LEVEL001
 100
AcDbLine
   6
DOT
  62
3
  10
 172.16900996360
  20
 61.999968081714
  30
0.0
  11
 173.05263115309
  21
 62.883589271200
  31
0.0
   0
LINE
   5
271
 100
AcDbEntity
   8
LEVEL001
 100
AcDbLine
   6
DOT
  62
3
  10
 188.83101203051
  20
 61.999968081714
  30
0.0
  11
 187.94739084103
  21
 62.883589271200
  31
0.0
   0
LINE
   5
272
 100
AcDbEntity
   8
LEVEL001
 100
AcDbLine
   6
DOT
  62
3
  10
 187.91537027313
  20
 61.999968081714
  30
0.0
  11
 188.79899146262
  21
 62.883589271200
  31
0.0
   0
LINE
   5
273
 100
AcDbEntity
   8
LEVEL001
 100
AcDbLine
   6
DOT
  62
3
  10
 173.08462883280
  20
 61.999968081714
  30
0.0
  11
 172.20100764331
  21
 62.883589271200
  31
0.0
   0
LINE
   5
274
 100
AcDbEntity
   8
LEVEL001
 100
AcDbLine
   6
DOT
  62
3
  10
 172.20100764331
  20
 62.883589271200
  30
0.0
  11
 188.79899146262
  21
 62.883589271200
  31
0.0
   0
LINE
   5
275
 100
AcDbEntity
   8
LEVEL001
 100
AcDbLine
   6
DOT
  62
3
  10
 172.20100764331
  20
 62.883589271200
  30
0.0
  11
 172.16900996360
  21
 61.999968081714
  31
0.0
   0
LINE
   5
276
 100
AcDbEntity
   8
LEVEL001
 100
AcDbLine
   6
DOT
  62
3
  10
 188.83101203051
  20
 61.999968081714
  30
0.0
  11
 188.79901435080
  21
 62.883589271200
  31
0.0
   0
LINE
   5
277
 100
AcDbEntity
   8
LEVEL001
 100
AcDbLine
   6
DOT
  62
3
  10
 173.02501656040
  20
 61.999968081714
  30
0.0
  11
 173.05263115309
  21
 62.883589271200
  31
0.0
   0
LINE
   5
278
 100
AcDbEntity
   8
LEVEL001
 100
AcDbLine
   6
DOT
  62
3
  10
 187.94739084103
  20
 62.883589271200
  30
0.0
  11
 187.97500543371
  21
 61.999968081714
  31
0.0
   0
LINE
   5
279
 100
AcDbEntity
   8
LEVEL001
 100
AcDbLine
   6
DOT
  62
3
  10
 172.20100764331
  20
 62.883589271200
  30
0.0
  11
 172.50087717173
  21
 71.163303608796
  31
0.0
   0
LINE
   5
27A
 100
AcDbEntity
   8
LEVEL001
 100
AcDbLine
   6
DOT
  62
3
  10
 188.79901435080
  20
 62.883589271200
  30
0.0
  11
 188.49913337829
  21
 71.163349385162
  31
0.0
   0
LINE
   5
27B
 100
AcDbEntity
   8
LEVEL001
 100
AcDbLine
   6
DOT
  62
3
  10
 173.05263115309
  20
 62.883589271200
  30
0.0
  11
 173.59698080728
  21
 80.301816901510
  31
0.0
   0
LINE
   5
27C
 100
AcDbEntity
   8
LEVEL001
 100
AcDbLine
   6
DOT
  62
3
  10
 173.59698080728
  20
 80.301816901510
  30
0.0
  11
 173.59699225134
  21
 80.301816901406
  31
0.0
   0
LINE
   5
27D
 100
AcDbEntity
   8
LEVEL001
 100
AcDbLine
   6
DOT
  62
3
  10
 187.40304118684
  20
 80.301691016504
  30
0.0
  11
 187.94739084103
  21
 62.883589271200
  31
0.0
   0
LINE
   5
27E
 100
AcDbEntity
   8
LEVEL001
 100
AcDbLine
   6
DOT
  62
3
  10
 92.249998368323
  20
 79.799009299308
  30
0.0
  11
 100.75000574440
  21
 79.799009299308
  31
0.0
   0
LINE
   5
27F
 100
AcDbEntity
   8
LEVEL001
 100
AcDbLine
   6
DOT
  62
3
  10
 91.499998390675
  20
 76.999967634679
  30
0.0
  11
 101.50000572205
  21
 76.999967634679
  31
0.0
   0
LINE
   5
280
 100
AcDbEntity
   8
LEVEL001
 100
AcDbLine
   6
DOT
  62
3
  10
 92.249998368323
  20
 62.749968059362
  30
0.0
  11
 100.75000574440
  21
 62.749968059362
  31
0.0
   0
LINE
   5
281
 100
AcDbEntity
   8
LEVEL001
 100
AcDbLine
   6
DOT
  62
3
  10
 91.499998390675
  20
 61.999968081714
  30
0.0
  11
 92.249998368323
  21
 62.749968059362
  31
0.0
   0
LINE
   5
282
 100
AcDbEntity
   8
LEVEL001
 100
AcDbLine
   6
DOT
  62
3
  10
 92.249998368323
  20
 62.749968059362
  30
0.0
  11
 92.249998368323
  21
 79.799009299308
  31
0.0
   0
LINE
   5
283
 100
AcDbEntity
   8
LEVEL001
 100
AcDbLine
   6
DOT
  62
3
  10
 92.249998368323
  20
 79.799009299308
  30
0.0
  11
 96.500002056360
  21
 82.252736948349
  31
0.0
   0
LINE
   5
284
 100
AcDbEntity
   8
LEVEL001
 100
AcDbLine
   6
DOT
  62
3
  10
 96.500002056360
  20
 82.252736948349
  30
0.0
  11
 100.75000574440
  21
 79.799009299308
  31
0.0
   0
LINE
   5
285
 100
AcDbEntity
   8
LEVEL001
 100
AcDbLine
   6
DOT
  62
3
  10
 100.75000574440
  20
 79.799009299308
  30
0.0
  11
 100.75000574440
  21
 62.749968059362
  31
0.0
   0
LINE
   5
286
 100
AcDbEntity
   8
LEVEL001
 100
AcDbLine
   6
DOT
  62
3
  10
 100.75000574440
  20
 62.749968059362
  30
0.0
  11
 101.50000572205
  21
 61.999968081714
  31
0.0
   0
LINE
   5
287
 100
AcDbEntity
   8
LEVEL001
 100
AcDbLine
   6
DOT
  62
3
  10
 91.499998390675
  20
 61.999968081714
  30
0.0
  11
 91.499998390675
  21
 76.999967634679
  31
0.0
   0
LINE
   5
288
 100
AcDbEntity
   8
LEVEL001
 100
AcDbLine
   6
DOT
  62
3
  10
 91.499998390675
  20
 76.999967634679
  30
0.0
  11
 92.249998368323
  21
 79.799009299308
  31
0.0
   0
LINE
   5
289
 100
AcDbEntity
   8
LEVEL001
 100
AcDbLine
   6
DOT
  62
3
  10
 100.75000574440
  20
 79.799009299308
  30
0.0
  11
 101.50000572205
  21
 76.999967634679
  31
0.0
   0
LINE
   5
28A
 100
AcDbEntity
   8
LEVEL001
 100
AcDbLine
   6
DOT
  62
3
  10
 101.50000572205
  20
 76.999967634679
  30
0.0
  11
 101.50000572205
  21
 61.999968081714
  31
0.0
   0
LINE
   5
28B
 100
AcDbEntity
   8
LEVEL001
 100
AcDbLine
   6
CONTINUOUS
  62
3
  10
 88.500004738569
  20
 336.99997514486
  30
0.0
  11
 87.499997138977
  21
 333.26791959203
  31
0.0
   0
LINE
   5
28C
 100
AcDbEntity
   8
LEVEL001
 100
AcDbLine
   6
CONTINUOUS
  62
3
  10
 88.500004738569
  20
 371.50001989305
  30
0.0
  11
 88.500004738569
  21
 336.99997514486
  31
0.0
   0
LINE
   5
28D
 100
AcDbEntity
   8
LEVEL001
 100
AcDbLine
   6
CONTINUOUS
  62
3
  10
 88.500004738569
  20
 336.99997514486
  30
0.0
  11
 87.499997138977
  21
 336.99997514486
  31
0.0
   0
LINE
   5
28E
 100
AcDbEntity
   8
LEVEL001
 100
AcDbLine
   6
CONTINUOUS
  62
7
  10
 88.999997094274
  20
 371.99998936057
  30
0.0
  11
 87.499997138977
  21
 370.49998940527
  31
0.0
   0
LINE
   5
28F
 100
AcDbEntity
   8
LEVEL001
 100
AcDbLine
   6
CONTINUOUS
  62
7
  10
 87.499997138977
  20
 370.49998940527
  30
0.0
  11
 87.499997138977
  21
 331.99998292327
  31
0.0
   0
LINE
   5
290
 100
AcDbEntity
   8
LEVEL001
 100
AcDbLine
   6
DASHDOT
  62
1
  10
 87.499997138977
  20
 336.99997514486
  30
0.0
  11
 84.499997228384
  21
 336.99997514486
  31
0.0
   0
LINE
   5
291
 100
AcDbEntity
   8
LEVEL001
 100
AcDbLine
   6
DASHDOT
  62
1
  10
 84.499997228384
  20
 336.99997514486
  30
0.0
  11
 84.499997228384
  21
 371.99998936057
  31
0.0
   0
LINE
   5
292
 100
AcDbEntity
   8
LEVEL001
 100
AcDbLine
   6
DASHDOT
  62
1
  10
 84.499997228384
  20
 371.99998936057
  30
0.0
  11
 88.999997094274
  21
 371.99998936057
  31
0.0
   0
LINE
   5
293
 100
AcDbEntity
   8
LEVEL001
 100
AcDbLine
   6
CONTINUOUS
  62
7
  10
 142.50000312924
  20
 376.00001975894
  30
0.0
  11
 196.00000916421
  21
 376.00001975894
  31
0.0
   0
LINE
   5
294
 100
AcDbEntity
   8
LEVEL001
 100
AcDbLine
   6
CONTINUOUS
  62
7
  10
 195.00000156462
  20
 376.99995869398
  30
0.0
  11
 142.50000312924
  21
 376.99995869398
  31
0.0
   0
LINE
   5
295
 100
AcDbEntity
   8
LEVEL001
 100
AcDbLine
   6
CONTINUOUS
  62
7
  10
 142.50000312924
  20
 379.99995860458
  30
0.0
  11
 173.85962896467
  21
 379.99995860458
  31
0.0
   0
LINE
   5
296
 100
AcDbEntity
   8
LEVEL001
 100
AcDbLine
   6
CONTINUOUS
  62
7
  10
 173.50000983477
  20
 389.00000411272
  30
0.0
  11
 142.50000312924
  21
 389.00000411272
  31
0.0
   0
LINE
   5
297
 100
AcDbEntity
   8
LEVEL001
 100
AcDbLine
   6
CONTINUOUS
  62
7
  10
 197.50000911951
  20
 331.99998292327
  30
0.0
  11
 142.50000312924
  21
 331.99998292327
  31
0.0
   0
LINE
   5
298
 100
AcDbEntity
   8
LEVEL001
 100
AcDbLine
   6
CONTINUOUS
  62
7
  10
 142.50000312924
  20
 333.26791959203
  30
0.0
  11
 197.50000911951
  21
 333.26791959203
  31
0.0
   0
LINE
   5
299
 100
AcDbEntity
   8
LEVEL001
 100
AcDbLine
   6
CONTINUOUS
  62
7
  10
 199.50000143051
  20
 326.99999070168
  30
0.0
  11
 142.50000312924
  21
 326.99999070168
  31
0.0
   0
LINE
   5
29A
 100
AcDbEntity
   8
LEVEL001
 100
AcDbLine
   6
DOT
  62
3
  10
 120.00000379980
  20
 79.999967545272
  30
0.0
  11
 120.00000379980
  21
 272.99994653464
  31
0.0
   0
LINE
   5
29B
 100
AcDbEntity
   8
LEVEL001
 100
AcDbLine
   6
DOT
  62
3
  10
 120.99998851121
  20
 277.99996164441
  30
0.0
  11
 120.00000379980
  21
 272.99994653464
  31
0.0
   0
LINE
   5
29C
 100
AcDbEntity
   8
LEVEL001
 100
AcDbLine
   6
DOT
  62
3
  10
 124.99999602139
  20
 277.99996164441
  30
0.0
  11
 126.00000362098
  21
 272.99994653464
  31
0.0
   0
LINE
   5
29D
 100
AcDbEntity
   8
LEVEL001
 100
AcDbLine
   6
DOT
  62
3
  10
 109.99999646842
  20
 304.71836752539
  30
0.0
  11
 109.99999646842
  21
 131.99999651313
  31
0.0
   0
LINE
   5
29E
 100
AcDbEntity
   8
LEVEL001
 100
AcDbLine
   6
DOT
  62
3
  10
 120.99998851121
  20
 277.99996164441
  30
0.0
  11
 124.99999602139
  21
 277.99996164441
  31
0.0
   0
LINE
   5
29F
 100
AcDbEntity
   8
LEVEL001
 100
AcDbLine
   6
DOT
  62
3
  10
 119.49998855591
  20
 277.99996164441
  30
0.0
  11
 119.49998855591
  21
 303.74999139458
  31
0.0
   0
LINE
   5
2A0
 100
AcDbEntity
   8
LEVEL001
 100
AcDbLine
   6
DOT
  62
3
  10
 126.00000362098
  20
 272.99994653464
  30
0.0
  11
 126.00000362098
  21
 67.999967902900
  31
0.0
   0
LINE
   5
2A1
 100
AcDbEntity
   8
LEVEL001
 100
AcDbLine
   6
DOT
  62
3
  10
 119.49998855591
  20
 307.49999128282
  30
0.0
  11
 119.49998855591
  21
 349.99998238683
  31
0.0
   0
LINE
   5
2A2
 100
AcDbEntity
   8
LEVEL001
 100
AcDbLine
   6
DOT
  62
3
  10
 109.99999646842
  20
 376.99995869398
  30
0.0
  11
 109.99999646842
  21
 308.46836741363
  31
0.0
   0
ARC
   5
2A3
 100
AcDbEntity
   8
LEVEL001
   6
DOT
  62
3
 100
AcDbCircle
  10
 118.50000384450
  20
 377.74995867163
  30
0.0
  40
 0.74999997764826
 100
AcDbArc
  50
 270.00000000017
  51
0.0
   0
LINE
   5
2A4
 100
AcDbEntity
   8
LEVEL001
 100
AcDbLine
   6
DOT
  62
3
  10
 119.25000382215
  20
 377.74995867163
  30
0.0
  11
 119.25000382215
  21
 379.24995862693
  31
0.0
   0
LINE
   5
2A5
 100
AcDbEntity
   8
LEVEL001
 100
AcDbLine
   6
DOT
  62
3
  10
 118.50000384450
  20
 379.99995860458
  30
0.0
  11
 118.50000384450
  21
 376.99995869398
  31
0.0
   0
LINE
   5
2A6
 100
AcDbEntity
   8
LEVEL001
 100
AcDbLine
   6
DOT
  62
3
  10
 118.50000384450
  20
 349.99998238683
  30
0.0
  11
 119.49997711182
  21
 347.20096361038
  31
0.0
   0
LINE
   5
2A7
 100
AcDbEntity
   8
LEVEL001
 100
AcDbLine
   6
DOT
  62
3
  10
 119.25000382215
  20
 349.99998238683
  30
0.0
  11
 119.49998855591
  21
 349.99998238683
  31
0.0
   0
LINE
   5
2A8
 100
AcDbEntity
   8
LEVEL001
 100
AcDbLine
   6
DOT
  62
3
  10
 118.50000384450
  20
 355.75002036244
  30
0.0
  11
 118.50000384450
  21
 349.99998238683
  31
0.0
   0
LINE
   5
2A9
 100
AcDbEntity
   8
LEVEL001
 100
AcDbLine
   6
DOT
  62
3
  10
 118.50000384450
  20
 349.99998238683
  30
0.0
  11
 119.25000382215
  21
 349.99998238683
  31
0.0
   0
LINE
   5
2AA
 100
AcDbEntity
   8
LEVEL001
 100
AcDbLine
   6
DOT
  62
3
  10
 119.25000382215
  20
 354.99999749660
  30
0.0
  11
 119.25000382215
  21
 349.99998238683
  31
0.0
   0
LINE
   5
2AB
 100
AcDbEntity
   8
LEVEL001
 100
AcDbLine
   6
DOT
  62
3
  10
 124.18016419768
  20
 354.99999749660
  30
0.0
  11
 119.25000382215
  21
 354.99999749660
  31
0.0
   0
LINE
   5
2AC
 100
AcDbEntity
   8
LEVEL001
 100
AcDbLine
   6
DOT
  62
3
  10
 119.25000382215
  20
 354.99999749660
  30
0.0
  11
 118.50000384450
  21
 355.75002036244
  31
0.0
   0
LINE
   5
2AD
 100
AcDbEntity
   8
LEVEL001
 100
AcDbLine
   6
DOT
  62
3
  10
 118.50000384450
  20
 355.75002036244
  30
0.0
  11
 118.50000384450
  21
 376.99995869398
  31
0.0
   0
LINE
   5
2AE
 100
AcDbEntity
   8
LEVEL001
 100
AcDbLine
   6
DOT
  62
3
  10
 118.50000384450
  20
 379.99995860458
  30
0.0
  11
 119.25000382215
  21
 379.24995862693
  31
0.0
   0
LINE
   5
2AF
 100
AcDbEntity
   8
LEVEL001
 100
AcDbLine
   6
DOT
  62
3
  10
 119.25000382215
  20
 379.24995862693
  30
0.0
  11
 119.25000382215
  21
 354.99999749660
  31
0.0
   0
ARC
   5
2B0
 100
AcDbEntity
   8
LEVEL001
   6
DOT
  62
3
 100
AcDbCircle
  10
 124.18018754140
  20
 355.99999749634
  30
0.0
  40
 1.0000000000000
 100
AcDbArc
  50
 269.99866250353
  51
 348.68843190383
   0
LINE
   5
2B1
 100
AcDbEntity
   8
LEVEL001
 100
AcDbLine
   6
DOT
  62
3
  10
 125.16076261816
  20
 355.80385336864
  30
0.0
  11
 126.00000362098
  21
 359.99998971820
  31
0.0
   0
LINE
   5
2B2
 100
AcDbEntity
   8
LEVEL001
 100
AcDbLine
   6
DOT
  62
3
  10
 126.00000362098
  20
 385.00001949072
  30
0.0
  11
 126.00000362098
  21
 359.99998971820
  31
0.0
   0
LINE
   5
2B3
 100
AcDbEntity
   8
LEVEL001
 100
AcDbLine
   6
DOT
  62
3
  10
 125.16076261816
  20
 389.19611006391
  30
0.0
  11
 126.00000362098
  21
 385.00001949072
  31
0.0
   0
LINE
   5
2B4
 100
AcDbEntity
   8
LEVEL001
 100
AcDbLine
   6
DOT
  62
3
  10
 97.500004470348
  20
 96.999936521055
  30
0.0
  11
 97.500004470348
  21
 273.99997702241
  31
0.0
   0
LINE
   5
2B5
 100
AcDbEntity
   8
LEVEL001
 100
AcDbLine
   6
DOT
  62
3
  10
 125.16078550634
  20
 63.803831553345
  30
0.0
  11
 126.00000362098
  21
 67.999967902900
  31
0.0
   0
LINE
   5
2B6
 100
AcDbEntity
   8
LEVEL001
 100
AcDbLine
   6
CONTINUOUS
  62
7
  10
 199.50000143051
  20
 63.999983280898
  30
0.0
  11
 142.50000312924
  21
 63.999983280898
  31
0.0
   0
LEADER
   5
2B7
 100
AcDbEntity
   8
LEVEL003
   6
CONTINUOUS
  62
3
 100
AcDbLeader
   3
GMM010
  73
0
  74
1
  75
0
  40
 6.0000000000000
  41
0.0
  76
2
  10
 142.49999687076
  20
 29.999999329448
  30
0.0
  10
 142.49999687076
  20
 22.499999552965
  30
0.0
  77
3
   0
TEXT
   5
2B8
 100
AcDbEntity
   8
LEVEL003
  62
3
 100
AcDbText
  10
 139.25191194558
  20
 15.317298656187
  30
0.0
  40
 5.9999998211861
   1
Ａ
   7
STANDARD
 100
AcDbText
   0
LINE
   5
2B9
 100
AcDbEntity
   8
LEVEL003
 100
AcDbLine
   6
CONTINUOUS
  62
3
  10
 96.500002056360
  20
 57.499968171121
  30
0.0
  11
 96.500002056360
  21
 27.000000000000
  31
0.0
   0
LINE
   5
2BA
 100
AcDbEntity
   8
LEVEL003
 100
AcDbLine
   6
CONTINUOUS
  62
3
  10
 96.500002056360
  20
 30.000000000000
  30
0.0
  11
 142.50000000000
  21
 30.000000000000
  31
0.0
   0
LINE
   5
2BB
 100
AcDbEntity
   8
LEVEL003
 100
AcDbLine
   6
CONTINUOUS
  62
3
  10
 101.00000205636
  20
 29.250000000000
  30
0.0
  11
 96.500002056360
  21
 30.000000000000
  31
0.0
   0
LINE
   5
2BC
 100
AcDbEntity
   8
LEVEL003
 100
AcDbLine
   6
CONTINUOUS
  62
3
  10
 96.500002056360
  20
 30.000000000000
  30
0.0
  11
 101.00000205636
  21
 30.750000000000
  31
0.0
   0
LINE
   5
2BD
 100
AcDbEntity
   8
LEVEL003
 100
AcDbLine
   6
CONTINUOUS
  62
3
  10
 96.500002056360
  20
 30.000000000000
  30
0.0
  11
 101.00000205636
  21
 30.000000000000
  31
0.0
   0
MTEXT
   5
2BE
 100
AcDbEntity
   8
LEVEL003
  62
3
 100
AcDbMText
  10
 144.00000000000
  20
 31.200000000000
  30
0.0
  40
 6.0000000000000
  41
0.0
  71
8
  72
1
   1
%%c\Ftxt.shx;92
   7
GMM002
   0
DIMENSION
   5
2BF
 100
AcDbEntity
   8
LEVEL003
   6
CONTINUOUS
  62
3
 100
AcDbDimension
   2
*D17
  10
 158.99999637902
  20
 45.000000000000
  30
0.0
  11
 142.50000000000
  21
 45.000000000000
  31
0.0
  70
0
   1
\A1;%%c33
   3
GMM011
 100
AcDbAlignedDimension
  13
 126.00000362098
  23
 67.999967902900
  33
0.0
  14
 158.99999637902
  24
 67.999967902900
  34
0.0
 100
AcDbRotatedDimension
   0
DIMENSION
   5
2C1
 100
AcDbEntity
   8
LEVEL003
   6
CONTINUOUS
  62
3
 100
AcDbDimension
   2
*D18
  10
 187.49999552965
  20
 202.50000000000
  30
0.0
  11
 142.50000000000
  21
 202.50000000000
  31
0.0
  70
0
   1
\A1;%%c90
   3
GMM012
 100
AcDbAlignedDimension
  13
 97.500004470348
  23
 202.50000000000
  33
0.0
  14
 187.49999552965
  24
 202.50000000000
  34
0.0
 100
AcDbRotatedDimension
   0
DIMENSION
   5
2C3
 100
AcDbEntity
   8
LEVEL003
   6
CONTINUOUS
  62
3
 100
AcDbDimension
   2
*D19
  10
 109.99999646842
  20
 217.50000000000
  30
0.0
  11
 142.50000000000
  21
 217.50000000000
  31
0.0
  70
0
   1
\A1;%%c65
   3
GMM012
 100
AcDbAlignedDimension
  13
 175.00000353158
  23
 217.50000000000
  33
0.0
  14
 109.99999646842
  24
 217.50000000000
  34
0.0
  50
 180.00000000000
 100
AcDbRotatedDimension
   0
DIMENSION
   5
2C5
 100
AcDbEntity
   8
LEVEL003
   6
CONTINUOUS
  62
3
 100
AcDbDimension
   2
*D20
  10
 164.99999620020
  20
 232.50000000000
  30
0.0
  11
 142.50000000000
  21
 232.50000000000
  31
0.0
  70
0
   1
\A1;%%c45
   3
GMM012
 100
AcDbAlignedDimension
  13
 120.00000379980
  23
 232.50000000000
  33
0.0
  14
 164.99999620020
  24
 232.50000000000
  34
0.0
 100
AcDbRotatedDimension
   0
LINE
   5
2C7
 100
AcDbEntity
   8
LEVEL001
 100
AcDbLine
   6
DASHDOT
  62
1
  10
 142.49999687076
  20
 397.49998860061
  30
0.0
  11
 142.49999687076
  21
 240.00000000000
  31
0.0
   0
DIMENSION
   5
2C8
 100
AcDbEntity
   8
LEVEL003
   6
CONTINUOUS
  62
3
 100
AcDbDimension
   2
*D21
  10
 158.99999637902
  20
 397.50000000000
  30
0.0
  11
 142.50000000000
  21
 397.50000000000
  31
0.0
  70
0
   1
\A1;%%c33
   3
GMM011
 100
AcDbAlignedDimension
  13
 126.00000362098
  23
 385.00001949072
  33
0.0
  14
 158.99999637902
  24
 385.00001949072
  34
0.0
 100
AcDbRotatedDimension
   0
LEADER
   5
2CA
 100
AcDbEntity
   8
LEVEL003
   6
CONTINUOUS
  62
3
 100
AcDbLeader
   3
GMM013
  73
0
  74
1
  75
0
  40
 6.0000000000000
  41
0.0
  76
3
  10
 166.49999615550
  20
 367.50000000000
  30
0.0
  10
 187.50000000000
  20
 412.50000000000
  30
0.0
  10
 224.99999329448
  20
 412.50000000000
  30
0.0
  77
3
   0
TEXT
   5
2CB
 100
AcDbEntity
   8
LEVEL003
  62
3
 100
AcDbText
  10
 187.50000000000
  20
 412.50000000000
  30
0.0
  40
 5.9999998211861
   1
Ｍ４８×１.５
   7
STANDARD
 100
AcDbText
   0
DIMENSION
   5
2CC
 100
AcDbEntity
   8
LEVEL003
   6
CONTINUOUS
  62
3
 100
AcDbDimension
   2
*D23
  10
 299.99999217689
  20
 61.999968081714
  30
0.0
  11
 299.99999217689
  21
 225.99997845292
  31
0.0
  70
128
   1
\A1;343
   3
GMM014
 100
AcDbAlignedDimension
  13
 172.49999597669
  23
 389.99998882413
  33
0.0
  14
 197.50000286102
  24
 61.999968081714
  34
0.0
  50
 270.00000000000
 100
AcDbRotatedDimension
   0
TEXT
   5
2CE
 100
AcDbEntity
   8
LEVEL003
  62
7
 100
AcDbText
  10
 490.30045273632
  20
 34.881658208956
  30
0.0
  40
 10.000000000000
   1
ＯＳＡＫＡ ＪＡＣＫ
   7
STANDARD
 100
AcDbText
   0
TEXT
   5
2CF
 100
AcDbEntity
   8
LEVEL003
  62
7
 100
AcDbText
  10
 493.21145273632
  20
 51.775058208956
  30
0.0
  40
 6.0000000000000
   1
Model : ＥＣ３０Ｓ１５
   7
STANDARD
 100
AcDbText
   0
CIRCLE
   5
2D0
 100
AcDbEntity
   8
LEVEL003
 100
AcDbCircle
   6
CONTINUOUS
  62
7
  10
 472.24017674563
  20
 41.882141083874
  30
0.0
  40
 3.0000000000000
   0
LINE
   5
2D1
 100
AcDbEntity
   8
LEVEL003
 100
AcDbLine
   6
CONTINUOUS
  62
7
  10
 478.12817674563
  20
 44.882141083874
  30
0.0
  11
 474.31917674563
  21
 38.282141083874
  31
0.0
   0
LINE
   5
2D2
 100
AcDbEntity
   8
LEVEL003
 100
AcDbLine
   6
CONTINUOUS
  62
7
  10
 474.31917674563
  20
 38.282141083874
  30
0.0
  11
 466.69817674563
  21
 38.282141083874
  31
0.0
   0
LINE
   5
2D3
 100
AcDbEntity
   8
LEVEL003
 100
AcDbLine
   6
CONTINUOUS
  62
7
  10
 465.83117674563
  20
 36.782141083874
  30
0.0
  11
 479.45217674563
  21
 36.782141083874
  31
0.0
   0
LINE
   5
2D4
 100
AcDbEntity
   8
LEVEL003
 100
AcDbLine
   6
CONTINUOUS
  62
7
  10
 479.45217674563
  20
 36.782141083874
  30
0.0
  11
 484.12817674563
  21
 44.882141083874
  31
0.0
   0
LINE
   5
2D5
 100
AcDbEntity
   8
LEVEL003
 100
AcDbLine
   6
CONTINUOUS
  62
7
  10
 484.12817674563
  20
 44.882141083874
  30
0.0
  11
 478.12817674563
  21
 44.882141083874
  31
0.0
   0
LINE
   5
2D6
 100
AcDbEntity
   8
LEVEL003
 100
AcDbLine
   6
CONTINUOUS
  62
7
  10
 466.69817674563
  20
 38.282141083874
  30
0.0
  11
 465.83117674563
  21
 36.782141083874
  31
0.0
   0
ENDSEC
  0
SECTION
  2
OBJECTS
  0
DICTIONARY
  5
C
100
AcDbDictionary
  3
ACAD_GROUP
350
D
  3
ACAD_MLINESTYLE
350
1B
  0
DICTIONARY
  5
D
102
{ACAD_REACTORS
330
C
102
}
100
AcDbDictionary
  0
DICTIONARY
  5
1B
102
{ACAD_REACTORS
330
C
102
}
100
AcDbDictionary
  3
STANDARD
350
1C
  0
MLINESTYLE
  5
1C
102
{ACAD_REACTORS
330
1B
102
}
100
AcDbMlineStyle
  2
STANDARD
 70
     0
  3

 62
   256
 51
90.0
 52
90.0
 71
     2
 49
0.5
 62
   256
  6
BYLAYER
 49
-0.5
 62
   256
  6
BYLAYER
  0
ENDSEC
   0
EOF
