   0
SECTION
   2
HEADER
   9
$ACADVER
   1
AC1014
   9
$LIMMIN
  10
0.0
  20
0.0
   9
$LIMMAX
  10
 420.00000000000
  20
 297.00000000000
   9
$EXTMIN
  10
0.0
  20
0.0
  30
0.0
   9
$EXTMAX
  10
 420.00000000000
  20
 297.00000000000
  30
0.0
   9
$LTSCALE
  40
 8.4000000000000
   9
$HANDSEED
   5
2B2
   0
ENDSEC
   0
SECTION
   2
TABLES
  0
TABLE
  2
VPORT
  5
8
100
AcDbSymbolTable
 70
     1
  0
VPORT
  5
2B1
100
AcDbSymbolTableRecord
100
AcDbViewportTableRecord
  2
*ACTIVE
 70
     0
 10
0.0
 20
0.0
 11
1.0
 21
1.0
  12
 210.00000000000
  22
 148.50000000000
 13
0.0
 23
0.0
 14
1.0
 24
1.0
 15
0.0
 25
0.0
 16
0.0
 26
0.0
 36
1.0
 17
0.0
 27
0.0
 37
0.0
  40
 420.00000000000
  41
 1.4787878787879
 42
50.0
 43
0.0
 44
0.0
 50
0.0
 51
0.0
 71
     0
 72
   100
 73
     1
 74
     1
 75
     0
 76
     0
 77
     0
 78
     0
  0
ENDTAB
  0
TABLE
  2
LTYPE
  5
5
100
AcDbSymbolTable
 70
    25
  0
LTYPE
  5
12
100
AcDbSymbolTableRecord
100
AcDbLinetypeTableRecord
  2
BYBLOCK
 70
     0
  3

 72
    65
 73
     0
 40
0.0
  0
LTYPE
  5
13
100
AcDbSymbolTableRecord
100
AcDbLinetypeTableRecord
  2
BYLAYER
 70
     0
  3

 72
    65
 73
     0
 40
0.0
  0
LTYPE
  5
14
100
AcDbSymbolTableRecord
100
AcDbLinetypeTableRecord
  2
CONTINUOUS
 70
     0
  3
Solid line
 72
    65
 73
     0
 40
0.0
  0
LTYPE
  5
20
100
AcDbSymbolTableRecord
100
AcDbLinetypeTableRecord
  2
BORDER
 70
     0
  3
__ __ . __ __ . __ __ . __ __ . __ __ . __ __ .
 72
    65
 73
     6
 40
1.75
 49
0.5
 74
     0
 49
-0.25
 74
     0
 49
0.5
 74
     0
 49
-0.25
 74
     0
 49
0.0
 74
     0
 49
-0.25
 74
     0
  0
LTYPE
  5
21
100
AcDbSymbolTableRecord
100
AcDbLinetypeTableRecord
  2
BORDER2
 70
     0
  3
__.__.__.__.__.__.__.__.__.__.__.__.__.__.__.__
 72
    65
 73
     6
 40
0.875
 49
0.25
 74
     0
 49
-0.125
 74
     0
 49
0.25
 74
     0
 49
-0.125
 74
     0
 49
0.0
 74
     0
 49
-0.125
 74
     0
  0
LTYPE
  5
22
100
AcDbSymbolTableRecord
100
AcDbLinetypeTableRecord
  2
BORDERX2
 70
     0
  3
____  ____  .  ____  ____  .  ____  ____  .  __
 72
    65
 73
     6
 40
3.5
 49
1.0
 74
     0
 49
-0.5
 74
     0
 49
1.0
 74
     0
 49
-0.5
 74
     0
 49
0.0
 74
     0
 49
-0.5
 74
     0
  0
LTYPE
  5
23
100
AcDbSymbolTableRecord
100
AcDbLinetypeTableRecord
  2
CENTER
 70
     0
  3
____ _ ____ _ ____ _ ____ _ ____ _ ____ _ ____ 
 72
    65
 73
     4
 40
2.0
 49
1.25
 74
     0
 49
-0.25
 74
     0
 49
0.25
 74
     0
 49
-0.25
 74
     0
  0
LTYPE
  5
24
100
AcDbSymbolTableRecord
100
AcDbLinetypeTableRecord
  2
CENTER2
 70
     0
  3
___ _ ___ _ ___ _ ___ _ ___ _ ___ _ ___ _ ___ _
 72
    65
 73
     4
 40
1.125
 49
0.75
 74
     0
 49
-0.125
 74
     0
 49
0.125
 74
     0
 49
-0.125
 74
     0
  0
LTYPE
  5
25
100
AcDbSymbolTableRecord
100
AcDbLinetypeTableRecord
  2
CENTERX2
 70
     0
  3
________  __  ________  __  ________  __  _____
 72
    65
 73
     4
 40
4.0
 49
2.5
 74
     0
 49
-0.5
 74
     0
 49
0.5
 74
     0
 49
-0.5
 74
     0
  0
LTYPE
  5
26
100
AcDbSymbolTableRecord
100
AcDbLinetypeTableRecord
  2
DASHDOT
 70
     0
  3
__ . __ . __ . __ . __ . __ . __ . __ . __ . __
 72
    65
 73
     4
 40
1.0
 49
0.5
 74
     0
 49
-0.25
 74
     0
 49
0.0
 74
     0
 49
-0.25
 74
     0
  0
LTYPE
  5
27
100
AcDbSymbolTableRecord
100
AcDbLinetypeTableRecord
  2
DASHDOT2
 70
     0
  3
_._._._._._._._._._._._._._._._._._._._._._._._
 72
    65
 73
     4
 40
0.5
 49
0.25
 74
     0
 49
-0.125
 74
     0
 49
0.0
 74
     0
 49
-0.125
 74
     0
  0
LTYPE
  5
28
100
AcDbSymbolTableRecord
100
AcDbLinetypeTableRecord
  2
DASHDOTX2
 70
     0
  3
____  .  ____  .  ____  .  ____  .  ____  .  __
 72
    65
 73
     4
 40
2.0
 49
1.0
 74
     0
 49
-0.5
 74
     0
 49
0.0
 74
     0
 49
-0.5
 74
     0
  0
LTYPE
  5
29
100
AcDbSymbolTableRecord
100
AcDbLinetypeTableRecord
  2
DASHED
 70
     0
  3
__ __ __ __ __ __ __ __ __ __ __ __ __ __ __ __
 72
    65
 73
     2
 40
0.75
 49
0.5
 74
     0
 49
-0.25
 74
     0
  0
LTYPE
  5
2A
100
AcDbSymbolTableRecord
100
AcDbLinetypeTableRecord
  2
DASHED2
 70
     0
  3
_ _ _ _ _ _ _ _ _ _ _ _ _ _ _ _ _ _ _ _ _ _ _ _
 72
    65
 73
     2
 40
0.375
 49
0.25
 74
     0
 49
-0.125
 74
     0
  0
LTYPE
  5
2B
100
AcDbSymbolTableRecord
100
AcDbLinetypeTableRecord
  2
DASHEDX2
 70
     0
  3
____  ____  ____  ____  ____  ____  ____  ____ 
 72
    65
 73
     2
 40
1.5
 49
1.0
 74
     0
 49
-0.5
 74
     0
  0
LTYPE
  5
2C
100
AcDbSymbolTableRecord
100
AcDbLinetypeTableRecord
  2
DIVIDE
 70
     0
  3
____ . . ____ . . ____ . . ____ . . ____ . . __
 72
    65
 73
     6
 40
1.25
 49
0.5
 74
     0
 49
-0.25
 74
     0
 49
0.0
 74
     0
 49
-0.25
 74
     0
 49
0.0
 74
     0
 49
-0.25
 74
     0
  0
LTYPE
  5
2D
100
AcDbSymbolTableRecord
100
AcDbLinetypeTableRecord
  2
DIVIDE2
 70
     0
  3
__..__..__..__..__..__..__..__..__..__..__..__.
 72
    65
 73
     6
 40
0.625
 49
0.25
 74
     0
 49
-0.125
 74
     0
 49
0.0
 74
     0
 49
-0.125
 74
     0
 49
0.0
 74
     0
 49
-0.125
 74
     0
  0
LTYPE
  5
2E
100
AcDbSymbolTableRecord
100
AcDbLinetypeTableRecord
  2
DIVIDEX2
 70
     0
  3
________  .  .  ________  .  .  ________  .  . 
 72
    65
 73
     6
 40
2.5
 49
1.0
 74
     0
 49
-0.5
 74
     0
 49
0.0
 74
     0
 49
-0.5
 74
     0
 49
0.0
 74
     0
 49
-0.5
 74
     0
  0
LTYPE
  5
2F
100
AcDbSymbolTableRecord
100
AcDbLinetypeTableRecord
  2
DOT
 70
     0
  3
. . . . . . . . . . . . . . . . . . . . . . . .
 72
    65
 73
     2
 40
0.25
 49
0.0
 74
     0
 49
-0.25
 74
     0
  0
LTYPE
  5
30
100
AcDbSymbolTableRecord
100
AcDbLinetypeTableRecord
  2
DOT2
 70
     0
  3
...............................................
 72
    65
 73
     2
 40
0.125
 49
0.0
 74
     0
 49
-0.125
 74
     0
  0
LTYPE
  5
31
100
AcDbSymbolTableRecord
100
AcDbLinetypeTableRecord
  2
DOTX2
 70
     0
  3
.  .  .  .  .  .  .  .  .  .  .  .  .  .  .  . 
 72
    65
 73
     2
 40
0.5
 49
0.0
 74
     0
 49
-0.5
 74
     0
  0
LTYPE
  5
32
100
AcDbSymbolTableRecord
100
AcDbLinetypeTableRecord
  2
HIDDEN
 70
     0
  3
__ __ __ __ __ __ __ __ __ __ __ __ __ __ __ __
 72
    65
 73
     2
 40
0.375
 49
0.25
 74
     0
 49
-0.125
 74
     0
  0
LTYPE
  5
33
100
AcDbSymbolTableRecord
100
AcDbLinetypeTableRecord
  2
HIDDEN2
 70
     0
  3
_ _ _ _ _ _ _ _ _ _ _ _ _ _ _ _ _ _ _ _ _ _ _ _
 72
    65
 73
     2
 40
0.1875
 49
0.125
 74
     0
 49
-0.0625
 74
     0
  0
LTYPE
  5
34
100
AcDbSymbolTableRecord
100
AcDbLinetypeTableRecord
  2
HIDDENX2
 70
     0
  3
____ ____ ____ ____ ____ ____ ____ ____ ____ __
 72
    65
 73
     2
 40
0.75
 49
0.5
 74
     0
 49
-0.25
 74
     0
  0
LTYPE
  5
35
100
AcDbSymbolTableRecord
100
AcDbLinetypeTableRecord
  2
PHANTOM
 70
     0
  3
______  __  __  ______  __  __  ______  __  __ 
 72
    65
 73
     6
 40
2.5
 49
1.25
 74
     0
 49
-0.25
 74
     0
 49
0.25
 74
     0
 49
-0.25
 74
     0
 49
0.25
 74
     0
 49
-0.25
 74
     0
  0
LTYPE
  5
36
100
AcDbSymbolTableRecord
100
AcDbLinetypeTableRecord
  2
PHANTOM2
 70
     0
  3
___ _ _ ___ _ _ ___ _ _ ___ _ _ ___ _ _ ___ _ _
 72
    65
 73
     6
 40
1.25
 49
0.625
 74
     0
 49
-0.125
 74
     0
 49
0.125
 74
     0
 49
-0.125
 74
     0
 49
0.125
 74
     0
 49
-0.125
 74
     0
  0
LTYPE
  5
37
100
AcDbSymbolTableRecord
100
AcDbLinetypeTableRecord
  2
PHANTOMX2
 70
     0
  3
____________    ____    ____    ____________   
 72
    65
 73
     6
 40
5.0
 49
2.5
 74
     0
 49
-0.5
 74
     0
 49
0.5
 74
     0
 49
-0.5
 74
     0
 49
0.5
 74
     0
 49
-0.5
 74
     0
  0
ENDTAB
   0
TABLE
   2
LAYER
   5
2
 100
AcDbSymbolTable
  70
6
   0
LAYER
   5
E
 100
AcDbSymbolTableRecord
 100
AcDbLayerTableRecord
   2
0
  70
0
  62
7
   6
CONTINUOUS
   0
LAYER
   5
39
 100
AcDbSymbolTableRecord
 100
AcDbLayerTableRecord
   2
LEVEL001
  70
0
  62
7
   6
CONTINUOUS
   0
LAYER
   5
3A
 100
AcDbSymbolTableRecord
 100
AcDbLayerTableRecord
   2
LEVEL003
  70
0
  62
7
   6
CONTINUOUS
   0
LAYER
   5
3B
 100
AcDbSymbolTableRecord
 100
AcDbLayerTableRecord
   2
LEVEL020
  70
0
  62
7
   6
CONTINUOUS
   0
LAYER
   5
3C
 100
AcDbSymbolTableRecord
 100
AcDbLayerTableRecord
   2
LEVEL050
  70
0
  62
7
   6
CONTINUOUS
   0
LAYER
   5
3D
 100
AcDbSymbolTableRecord
 100
AcDbLayerTableRecord
   2
LEVEL110
  70
0
  62
7
   6
CONTINUOUS
   0
ENDTAB
  0
TABLE
  2
STYLE
  5
3
100
AcDbSymbolTable
  70
4
  0
STYLE
  5
F
100
AcDbSymbolTableRecord
100
AcDbTextStyleTableRecord
  2
STANDARD
 70
     0
 40
0.0
 41
1.0
 50
0.0
 71
     0
 42
0.2
  3
TXT
  4
BIGFONT
  0
STYLE
  5
38
100
AcDbSymbolTableRecord
100
AcDbTextStyleTableRecord
  2
STANDARD1
 70
     4
 40
0.0
 41
1.0
 50
0.0
 71
     0
 42
0.2
  3
TXT
  4
BIGFONT
   0
STYLE
   5
3E
 100
AcDbSymbolTableRecord
 100
AcDbTextStyleTableRecord
   2
GMM001
  70
0
  40
0.0
  41
 1.0000000000000
  50
0.0
  71
     0
  42
1.0
   3
txt.shx
   4
bigfont.shx
   0
STYLE
   5
3F
 100
AcDbSymbolTableRecord
 100
AcDbTextStyleTableRecord
   2
GMM002
  70
0
  40
0.0
  41
 1.0000000000000
  50
0.0
  71
     0
  42
1.0
   3

   4

1001
ACAD
1000
ＭＳ ゴシック
1071
32817
   0
ENDTAB
  0
TABLE
  2
VIEW
  5
6
100
AcDbSymbolTable
 70
     0
  0
ENDTAB
  0
TABLE
  2
UCS
  5
7
100
AcDbSymbolTable
 70
     0
  0
ENDTAB
  0
TABLE
  2
APPID
  5
9
100
AcDbSymbolTable
 70
     1
  0
APPID
  5
10
100
AcDbSymbolTableRecord
100
AcDbRegAppTableRecord
  2
ACAD
 70
     0
  0
ENDTAB
   0
TABLE
   2
DIMSTYLE
   5
A
 100
AcDbSymbolTable
  70
15
  0
DIMSTYLE
105
1D
100
AcDbSymbolTableRecord
100
AcDbDimStyleTableRecord
  2
STANDARD
 70
     0
  3

  4

  5

  6

  7

 40
1.0
 41
0.18
 42
0.0625
 43
0.38
 44
0.18
 45
0.0
 46
0.0
 47
0.0
 48
0.0
140
0.18
141
0.09
142
0.0
143
25.4
144
1.0
145
0.0
146
1.0
147
0.09
 71
     0
 72
     0
 73
     1
 74
     1
 75
     0
 76
     0
 77
     0
 78
     0
170
     0
171
     2
172
     0
173
     0
174
     0
175
     0
176
     0
177
     0
178
     0
270
     2
271
     4
272
     4
273
     2
274
     2
340
F
275
     0
280
     0
281
     0
282
     0
283
     1
284
     0
285
     0
286
     0
287
     3
288
     0
   0
DIMSTYLE
 105
40
 100
AcDbSymbolTableRecord
 100
AcDbDimStyleTableRecord
   2
GMM001
  70
0
   3

   4

   5

   6
_OPEN
   7
_OPEN
  40
 1.0000000000000
  41
 3.0000000000000
  42
 1.0000000000000
  43
 0.10000000000000E-5
  44
 2.0000000000000
  45
0.0
  46
0.0
  47
0.0
  48
0.0
 140
 4.0000000000000
 141
 1.0000000000000
 142
0.0
 143
 0.39400000000000E-1
 144
 1.0000000000000
 145
0.0
 146
 0.62500000000000
 147
 0.79998779296875
  71
0
  72
0
  73
0
  74
0
  75
0
  76
0
  77
3
  78
0
 170
0
 171
2
 172
1
 173
1
 174
0
 175
0
 176
3
 177
3
 178
3
 270
2
 271
0
 272
0
 273
2
 274
2
 340
3E
 275
1
 280
0
 281
0
 282
0
 283
1
 284
0
 285
0
 286
0
 287
3
 288
1
   0
DIMSTYLE
 105
41
 100
AcDbSymbolTableRecord
 100
AcDbDimStyleTableRecord
   2
GMM002
  70
0
   3

   4

   5

   6
_OPEN
   7
_OPEN
  40
 1.0000000000000
  41
 3.0000000000000
  42
 1.0000000000000
  43
 0.10000000000000E-5
  44
 2.0000000000000
  45
0.0
  46
0.0
  47
0.0
  48
0.0
 140
 4.0000000000000
 141
 1.0000000000000
 142
0.0
 143
 0.39400000000000E-1
 144
 1.0000000000000
 145
0.0
 146
 0.62500000000000
 147
 0.80000305175781
  71
0
  72
0
  73
0
  74
0
  75
1
  76
1
  77
3
  78
0
 170
0
 171
2
 172
1
 173
1
 174
0
 175
0
 176
3
 177
3
 178
3
 270
2
 271
0
 272
0
 273
2
 274
2
 340
3E
 275
1
 280
0
 281
0
 282
0
 283
1
 284
0
 285
0
 286
0
 287
3
 288
1
   0
DIMSTYLE
 105
42
 100
AcDbSymbolTableRecord
 100
AcDbDimStyleTableRecord
   2
GMM003
  70
0
   3

   4

   5

   6
_OPEN
   7
_OPEN
  40
 1.0000000000000
  41
 3.0000000000000
  42
 1.0000000000000
  43
 0.10000000000000E-5
  44
 2.0000000000000
  45
0.0
  46
0.0
  47
0.0
  48
0.0
 140
 4.0000000000000
 141
 1.0000000000000
 142
0.0
 143
 0.39400000000000E-1
 144
 1.0000000000000
 145
0.0
 146
 0.62500000000000
 147
 0.80000305175781
  71
0
  72
0
  73
0
  74
0
  75
1
  76
0
  77
3
  78
0
 170
0
 171
2
 172
1
 173
1
 174
0
 175
0
 176
3
 177
3
 178
3
 270
2
 271
0
 272
0
 273
2
 274
2
 340
3E
 275
1
 280
0
 281
0
 282
0
 283
1
 284
0
 285
0
 286
0
 287
3
 288
1
   0
DIMSTYLE
 105
43
 100
AcDbSymbolTableRecord
 100
AcDbDimStyleTableRecord
   2
GMM004
  70
0
   3

   4

   5

   6
_OPEN
   7
_OPEN
  40
 1.0000000000000
  41
 3.0000000000000
  42
 1.0000000000000
  43
 0.10000000000000E-5
  44
 2.0000000000000
  45
0.0
  46
0.0
  47
0.0
  48
0.0
 140
 4.0000000000000
 141
 1.0000000000000
 142
0.0
 143
 0.39400000000000E-1
 144
 1.0000000000000
 145
0.0
 146
 0.62500000000000
 147
0.0
  71
0
  72
0
  73
0
  74
0
  75
0
  76
0
  77
1
  78
0
 170
0
 171
2
 172
1
 173
1
 174
0
 175
0
 176
3
 177
3
 178
7
 270
2
 271
0
 272
0
 273
2
 274
2
 340
F
 275
1
 280
0
 281
0
 282
0
 283
1
 284
0
 285
0
 286
0
 287
3
 288
1
   0
DIMSTYLE
 105
44
 100
AcDbSymbolTableRecord
 100
AcDbDimStyleTableRecord
   2
GMM005
  70
0
   3

   4

   5

   6
_OPEN
   7
_OPEN
  40
 1.0000000000000
  41
 3.0000000000000
  42
 1.0000000000000
  43
 0.10000000000000E-5
  44
 2.0000000000000
  45
0.0
  46
0.0
  47
0.0
  48
0.0
 140
 4.0000000000000
 141
 1.0000000000000
 142
0.0
 143
 0.39400000000000E-1
 144
 1.0000000000000
 145
0.0
 146
 0.62500000000000
 147
0.0
  71
0
  72
0
  73
0
  74
0
  75
0
  76
0
  77
0
  78
0
 170
0
 171
2
 172
1
 173
1
 174
0
 175
0
 176
3
 177
3
 178
7
 270
2
 271
0
 272
0
 273
2
 274
2
 340
F
 275
1
 280
0
 281
0
 282
0
 283
1
 284
0
 285
0
 286
0
 287
3
 288
1
   0
DIMSTYLE
 105
45
 100
AcDbSymbolTableRecord
 100
AcDbDimStyleTableRecord
   2
GMM006
  70
0
   3

   4

   5

   6
_OPEN
   7
_OPEN
  40
 1.0000000000000
  41
 3.0000000000000
  42
 1.0000000000000
  43
 0.10000000000000E-5
  44
 2.0000000000000
  45
0.0
  46
0.0
  47
0.0
  48
0.0
 140
 4.0000000000000
 141
 1.0000000000000
 142
0.0
 143
 0.39400000000000E-1
 144
 1.0000000000000
 145
0.0
 146
 0.62500000000000
 147
 0.80000305175781
  71
0
  72
0
  73
0
  74
0
  75
0
  76
0
  77
3
  78
0
 170
0
 171
2
 172
1
 173
1
 174
0
 175
0
 176
3
 177
3
 178
3
 270
2
 271
0
 272
0
 273
2
 274
2
 340
3E
 275
1
 280
0
 281
0
 282
0
 283
1
 284
0
 285
0
 286
0
 287
3
 288
1
   0
DIMSTYLE
 105
46
 100
AcDbSymbolTableRecord
 100
AcDbDimStyleTableRecord
   2
GMM007
  70
0
   3

   4

   5

   6
_OPEN
   7
_OPEN
  40
 1.0000000000000
  41
 3.0000000000000
  42
 1.0000000000000
  43
 0.10000000000000E-5
  44
 2.0000000000000
  45
0.0
  46
0.0
  47
0.0
  48
0.0
 140
 4.0000000000000
 141
 1.0000000000000
 142
0.0
 143
 0.39400000000000E-1
 144
 1.0000000000000
 145
0.0
 146
 0.62500000000000
 147
 0.79998779296875
  71
0
  72
0
  73
0
  74
0
  75
0
  76
0
  77
3
  78
0
 170
0
 171
2
 172
1
 173
1
 174
0
 175
0
 176
3
 177
3
 178
3
 270
2
 271
0
 272
0
 273
2
 274
2
 340
3E
 275
1
 280
0
 281
0
 282
0
 283
1
 284
0
 285
0
 286
0
 287
3
 288
1
   0
DIMSTYLE
 105
47
 100
AcDbSymbolTableRecord
 100
AcDbDimStyleTableRecord
   2
GMM008
  70
0
   3

   4

   5

   6
_OPEN
   7
_OPEN
  40
 1.0000000000000
  41
 3.0000000000000
  42
 1.0000000000000
  43
 0.10000000000000E-5
  44
 2.0000000000000
  45
0.0
  46
0.0
  47
0.0
  48
0.0
 140
 4.0000000000000
 141
 1.0000000000000
 142
0.0
 143
 0.39400000000000E-1
 144
 1.0000000000000
 145
0.0
 146
 0.62500000000000
 147
 2.9522002570905
  71
0
  72
0
  73
1
  74
1
  75
1
  76
0
  77
3
  78
0
 170
0
 171
2
 172
1
 173
1
 174
0
 175
0
 176
3
 177
3
 178
3
 270
2
 271
0
 272
0
 273
2
 274
2
 340
3E
 275
0
 280
0
 281
0
 282
0
 283
1
 284
0
 285
0
 286
0
 287
3
 288
1
   0
DIMSTYLE
 105
48
 100
AcDbSymbolTableRecord
 100
AcDbDimStyleTableRecord
   2
GMM009
  70
0
   3

   4

   5

   6
_OPEN
   7
_OPEN
  40
 1.0000000000000
  41
 3.0000000000000
  42
 1.0000000000000
  43
 0.10000000000000E-5
  44
 2.0000000000000
  45
0.0
  46
0.0
  47
0.0
  48
0.0
 140
 4.0000000000000
 141
 1.0000000000000
 142
0.0
 143
 0.39400000000000E-1
 144
 1.0000000000000
 145
0.0
 146
 0.62500000000000
 147
0.0
  71
0
  72
0
  73
0
  74
0
  75
0
  76
0
  77
1
  78
0
 170
0
 171
2
 172
1
 173
1
 174
0
 175
0
 176
3
 177
3
 178
7
 270
2
 271
0
 272
0
 273
2
 274
2
 340
F
 275
1
 280
0
 281
0
 282
0
 283
1
 284
0
 285
0
 286
0
 287
3
 288
1
   0
DIMSTYLE
 105
49
 100
AcDbSymbolTableRecord
 100
AcDbDimStyleTableRecord
   2
GMM010
  70
0
   3

   4

   5

   6
_OPEN
   7
_OPEN
  40
 1.0000000000000
  41
 3.0000000000000
  42
 1.0000000000000
  43
 0.10000000000000E-5
  44
 2.0000000000000
  45
0.0
  46
0.0
  47
0.0
  48
0.0
 140
 4.0000000000000
 141
 1.0000000000000
 142
0.0
 143
 0.39400000000000E-1
 144
 1.0000000000000
 145
0.0
 146
 0.62500000000000
 147
 0.80000305175781
  71
0
  72
0
  73
0
  74
0
  75
0
  76
0
  77
3
  78
0
 170
0
 171
2
 172
1
 173
1
 174
0
 175
0
 176
3
 177
3
 178
3
 270
2
 271
0
 272
0
 273
2
 274
2
 340
3E
 275
1
 280
0
 281
0
 282
0
 283
1
 284
0
 285
0
 286
0
 287
3
 288
1
   0
DIMSTYLE
 105
4A
 100
AcDbSymbolTableRecord
 100
AcDbDimStyleTableRecord
   2
GMM011
  70
0
   3

   4

   5

   6
_OPEN
   7
_OPEN
  40
 1.0000000000000
  41
 3.0000000000000
  42
 1.0000000000000
  43
 8.0000000000000
  44
 2.0000000000000
  45
0.0
  46
0.0
  47
0.0
  48
0.0
 140
 4.0000000000000
 141
 1.0000000000000
 142
0.0
 143
 0.39400000000000E-1
 144
 1.0000000000000
 145
0.0
 146
 0.62500000000000
 147
 0.80000000000000
  71
0
  72
0
  73
0
  74
0
  75
0
  76
0
  77
3
  78
8
 170
0
 171
2
 172
1
 173
1
 174
0
 175
0
 176
3
 177
3
 178
3
 270
2
 271
2
 272
0
 273
2
 274
2
 340
3E
 275
0
 280
0
 281
0
 282
0
 283
1
 284
0
 285
0
 286
0
 287
3
 288
0
   0
DIMSTYLE
 105
4B
 100
AcDbSymbolTableRecord
 100
AcDbDimStyleTableRecord
   2
GMM012
  70
0
   3

   4

   5

   6
_OPEN
   7
_OPEN
  40
 1.0000000000000
  41
 3.0000000000000
  42
 1.0000000000000
  43
 8.0000000000000
  44
 2.0000000000000
  45
0.0
  46
0.0
  47
0.0
  48
0.0
 140
 4.0000000000000
 141
 1.0000000000000
 142
0.0
 143
 0.39400000000000E-1
 144
 1.0000000000000
 145
0.0
 146
 0.62500000000000
 147
 0.80000000000000
  71
0
  72
0
  73
0
  74
0
  75
1
  76
1
  77
3
  78
8
 170
0
 171
2
 172
1
 173
1
 174
0
 175
0
 176
3
 177
3
 178
3
 270
2
 271
2
 272
0
 273
2
 274
2
 340
3E
 275
0
 280
0
 281
0
 282
0
 283
1
 284
0
 285
0
 286
0
 287
3
 288
0
   0
DIMSTYLE
 105
4C
 100
AcDbSymbolTableRecord
 100
AcDbDimStyleTableRecord
   2
GMM013
  70
0
   3

   4

   5

   6
_OPEN
   7
_OPEN
  40
 1.0000000000000
  41
 3.0000000000000
  42
 1.0000000000000
  43
 8.0000000000000
  44
 2.0000000000000
  45
0.0
  46
0.0
  47
0.0
  48
0.0
 140
 4.0000000000000
 141
 1.0000000000000
 142
0.0
 143
 0.39400000000000E-1
 144
 1.0000000000000
 145
0.0
 146
 0.62500000000000
 147
0.0
  71
0
  72
0
  73
0
  74
0
  75
0
  76
0
  77
1
  78
8
 170
0
 171
2
 172
1
 173
1
 174
0
 175
0
 176
3
 177
3
 178
7
 270
2
 271
2
 272
0
 273
2
 274
2
 340
F
 275
0
 280
0
 281
0
 282
0
 283
1
 284
0
 285
0
 286
0
 287
3
 288
1
   0
ENDTAB
  0
TABLE
  2
BLOCK_RECORD
  5
1
100
AcDbSymbolTable
 70
     0
  0
BLOCK_RECORD
  5
18
100
AcDbSymbolTableRecord
100
AcDbBlockTableRecord
  2
*MODEL_SPACE
  0
BLOCK_RECORD
  5
15
100
AcDbSymbolTableRecord
100
AcDbBlockTableRecord
  2
*PAPER_SPACE
   0
BLOCK_RECORD
   5
4D
 100
AcDbSymbolTableRecord
 100
AcDbBlockTableRecord
   2
*D1
   0
BLOCK_RECORD
   5
4E
 100
AcDbSymbolTableRecord
 100
AcDbBlockTableRecord
   2
*D2
   0
BLOCK_RECORD
   5
4F
 100
AcDbSymbolTableRecord
 100
AcDbBlockTableRecord
   2
*D3
   0
BLOCK_RECORD
   5
50
 100
AcDbSymbolTableRecord
 100
AcDbBlockTableRecord
   2
*D6
   0
BLOCK_RECORD
   5
51
 100
AcDbSymbolTableRecord
 100
AcDbBlockTableRecord
   2
*D7
   0
BLOCK_RECORD
   5
52
 100
AcDbSymbolTableRecord
 100
AcDbBlockTableRecord
   2
*D8
   0
BLOCK_RECORD
   5
53
 100
AcDbSymbolTableRecord
 100
AcDbBlockTableRecord
   2
*D9
   0
BLOCK_RECORD
   5
54
 100
AcDbSymbolTableRecord
 100
AcDbBlockTableRecord
   2
*D10
   0
BLOCK_RECORD
   5
55
 100
AcDbSymbolTableRecord
 100
AcDbBlockTableRecord
   2
*D11
   0
BLOCK_RECORD
   5
56
 100
AcDbSymbolTableRecord
 100
AcDbBlockTableRecord
   2
*D15
   0
BLOCK_RECORD
   5
57
 100
AcDbSymbolTableRecord
 100
AcDbBlockTableRecord
   2
*D16
   0
BLOCK_RECORD
   5
58
 100
AcDbSymbolTableRecord
 100
AcDbBlockTableRecord
   2
*D17
   0
BLOCK_RECORD
   5
59
 100
AcDbSymbolTableRecord
 100
AcDbBlockTableRecord
   2
*D18
   0
BLOCK_RECORD
   5
5A
 100
AcDbSymbolTableRecord
 100
AcDbBlockTableRecord
   2
*D19
   0
BLOCK_RECORD
   5
5B
 100
AcDbSymbolTableRecord
 100
AcDbBlockTableRecord
   2
*D20
   0
BLOCK_RECORD
   5
5C
 100
AcDbSymbolTableRecord
 100
AcDbBlockTableRecord
   2
_ARCHTICK
   0
BLOCK_RECORD
   5
5D
 100
AcDbSymbolTableRecord
 100
AcDbBlockTableRecord
   2
_BOXBLANK
   0
BLOCK_RECORD
   5
5E
 100
AcDbSymbolTableRecord
 100
AcDbBlockTableRecord
   2
_BOXFILLED
   0
BLOCK_RECORD
   5
5F
 100
AcDbSymbolTableRecord
 100
AcDbBlockTableRecord
   2
_CLOSED
   0
BLOCK_RECORD
   5
60
 100
AcDbSymbolTableRecord
 100
AcDbBlockTableRecord
   2
_CLOSEDBLANK
   0
BLOCK_RECORD
   5
61
 100
AcDbSymbolTableRecord
 100
AcDbBlockTableRecord
   2
_DATUMBLANK
   0
BLOCK_RECORD
   5
62
 100
AcDbSymbolTableRecord
 100
AcDbBlockTableRecord
   2
_DATUMFILLED
   0
BLOCK_RECORD
   5
63
 100
AcDbSymbolTableRecord
 100
AcDbBlockTableRecord
   2
_DOT
   0
BLOCK_RECORD
   5
64
 100
AcDbSymbolTableRecord
 100
AcDbBlockTableRecord
   2
_DOTBLANK
   0
BLOCK_RECORD
   5
65
 100
AcDbSymbolTableRecord
 100
AcDbBlockTableRecord
   2
_DOTSMALL
   0
BLOCK_RECORD
   5
66
 100
AcDbSymbolTableRecord
 100
AcDbBlockTableRecord
   2
_INTEGRAL
   0
BLOCK_RECORD
   5
67
 100
AcDbSymbolTableRecord
 100
AcDbBlockTableRecord
   2
_NONE
   0
BLOCK_RECORD
   5
68
 100
AcDbSymbolTableRecord
 100
AcDbBlockTableRecord
   2
_OBLIQUE
   0
BLOCK_RECORD
   5
69
 100
AcDbSymbolTableRecord
 100
AcDbBlockTableRecord
   2
_OPEN
   0
BLOCK_RECORD
   5
6A
 100
AcDbSymbolTableRecord
 100
AcDbBlockTableRecord
   2
_OPEN30
   0
BLOCK_RECORD
   5
6B
 100
AcDbSymbolTableRecord
 100
AcDbBlockTableRecord
   2
_OPEN90
   0
BLOCK_RECORD
   5
6C
 100
AcDbSymbolTableRecord
 100
AcDbBlockTableRecord
   2
_ORIGIN
   0
ENDTAB
   0
ENDSEC
  0
SECTION
  2
BLOCKS
  0
BLOCK
  5
19
100
AcDbEntity
  8
0
100
AcDbBlockBegin
  2
*MODEL_SPACE
 70
     0
 10
0.0
 20
0.0
 30
0.0
  3
*MODEL_SPACE
  1

  0
ENDBLK
  5
1A
100
AcDbEntity
  8
0
100
AcDbBlockEnd
  0
BLOCK
  5
16
100
AcDbEntity
 67
     1
  8
0
100
AcDbBlockBegin
  2
*PAPER_SPACE
 70
     0
 10
0.0
 20
0.0
 30
0.0
  3
*PAPER_SPACE
  1

  0
ENDBLK
  5
17
100
AcDbEntity
 67
     1
  8
0
100
AcDbBlockEnd
   0
BLOCK
   5
6D
 100
AcDbEntity
   8
0
 100
AcDbBlockBegin
   2
_ARCHTICK
  70
0
  10
0.0
  20
0.0
  30
0.0
   3
_ARCHTICK
   0
POLYLINE
   5
6E
 100
AcDbEntity
   8
0
   6
BYBLOCK
  62
0
 100
AcDb2dPolyline
  66
1
  10
0.0
  20
0.0
  30
0.0
  70
1
  40
 0.15000000000000
  41
 0.15000000000000
   0
VERTEX
   5
6F
 100
AcDbEntity
   8
0
   6
BYBLOCK
  62
0
 100
AcDbVertex
 100
AcDb2dVertex
  10
-0.50000000000000
  20
-0.50000000000000
  30
0.0
  40
 0.15000000000000
  41
 0.15000000000000
   0
VERTEX
   5
70
 100
AcDbEntity
   8
0
   6
BYBLOCK
  62
0
 100
AcDbVertex
 100
AcDb2dVertex
  10
 0.50000000000000
  20
 0.50000000000000
  30
0.0
  40
 0.15000000000000
  41
 0.15000000000000
   0
SEQEND
   5
71
 100
AcDbEntity
   8
0
   6
BYBLOCK
  62
0
   0
ENDBLK
   5
72
 100
AcDbEntity
   8
0
 100
AcDbBlockEnd
   0
BLOCK
   5
73
 100
AcDbEntity
   8
0
 100
AcDbBlockBegin
   2
_OBLIQUE
  70
0
  10
0.0
  20
0.0
  30
0.0
   3
_OBLIQUE
   0
LINE
   5
74
 100
AcDbEntity
   8
0
 100
AcDbLine
   6
BYBLOCK
  62
0
  10
-0.50000000000000
  20
-0.50000000000000
  30
0.0
  11
 0.50000000000000
  21
 0.50000000000000
  31
0.0
   0
ENDBLK
   5
75
 100
AcDbEntity
   8
0
 100
AcDbBlockEnd
   0
BLOCK
   5
76
 100
AcDbEntity
   8
0
 100
AcDbBlockBegin
   2
_BOXBLANK
  70
0
  10
0.0
  20
0.0
  30
0.0
   3
_BOXBLANK
   0
LINE
   5
77
 100
AcDbEntity
   8
0
 100
AcDbLine
   6
BYBLOCK
  62
0
  10
-0.50000000000000
  20
-0.50000000000000
  30
0.0
  11
 0.50000000000000
  21
-0.50000000000000
  31
0.0
   0
LINE
   5
78
 100
AcDbEntity
   8
0
 100
AcDbLine
   6
BYBLOCK
  62
0
  10
 0.50000000000000
  20
-0.50000000000000
  30
0.0
  11
 0.50000000000000
  21
 0.50000000000000
  31
0.0
   0
LINE
   5
79
 100
AcDbEntity
   8
0
 100
AcDbLine
   6
BYBLOCK
  62
0
  10
 0.50000000000000
  20
 0.50000000000000
  30
0.0
  11
-0.50000000000000
  21
 0.50000000000000
  31
0.0
   0
LINE
   5
7A
 100
AcDbEntity
   8
0
 100
AcDbLine
   6
BYBLOCK
  62
0
  10
-0.50000000000000
  20
 0.50000000000000
  30
0.0
  11
-0.50000000000000
  21
-0.50000000000000
  31
0.0
   0
LINE
   5
7B
 100
AcDbEntity
   8
0
 100
AcDbLine
   6
BYBLOCK
  62
0
  10
-0.50000000000000
  20
0.0
  30
0.0
  11
-1.0000000000000
  21
0.0
  31
0.0
   0
ENDBLK
   5
7C
 100
AcDbEntity
   8
0
 100
AcDbBlockEnd
   0
BLOCK
   5
7D
 100
AcDbEntity
   8
0
 100
AcDbBlockBegin
   2
_BOXFILLED
  70
0
  10
0.0
  20
0.0
  30
0.0
   3
_BOXFILLED
   0
SOLID
   5
7E
 100
AcDbEntity
   8
0
 100
AcDbTrace
   6
BYBLOCK
  62
0
  10
-0.50000000000000
  20
 0.50000000000000
  30
0.0
  11
 0.50000000000000
  21
 0.50000000000000
  31
0.0
  12
-0.50000000000000
  22
-0.50000000000000
  32
0.0
  13
 0.50000000000000
  23
-0.50000000000000
  33
0.0
   0
LINE
   5
7F
 100
AcDbEntity
   8
0
 100
AcDbLine
   6
BYBLOCK
  62
0
  10
-0.50000000000000
  20
0.0
  30
0.0
  11
-1.0000000000000
  21
0.0
  31
0.0
   0
ENDBLK
   5
80
 100
AcDbEntity
   8
0
 100
AcDbBlockEnd
   0
BLOCK
   5
81
 100
AcDbEntity
   8
0
 100
AcDbBlockBegin
   2
_CLOSED
  70
0
  10
0.0
  20
0.0
  30
0.0
   3
_CLOSED
   0
LINE
   5
82
 100
AcDbEntity
   8
0
 100
AcDbLine
   6
BYBLOCK
  62
0
  10
-1.0000000000000
  20
 0.16666666666667
  30
0.0
  11
0.0
  21
0.0
  31
0.0
   0
LINE
   5
83
 100
AcDbEntity
   8
0
 100
AcDbLine
   6
BYBLOCK
  62
0
  10
0.0
  20
0.0
  30
0.0
  11
-1.0000000000000
  21
-0.16666666666667
  31
0.0
   0
LINE
   5
84
 100
AcDbEntity
   8
0
 100
AcDbLine
   6
BYBLOCK
  62
0
  10
-1.0000000000000
  20
 0.16666666666667
  30
0.0
  11
-1.0000000000000
  21
-0.16666666666667
  31
0.0
   0
LINE
   5
85
 100
AcDbEntity
   8
0
 100
AcDbLine
   6
BYBLOCK
  62
0
  10
0.0
  20
0.0
  30
0.0
  11
-1.0000000000000
  21
0.0
  31
0.0
   0
ENDBLK
   5
86
 100
AcDbEntity
   8
0
 100
AcDbBlockEnd
   0
BLOCK
   5
87
 100
AcDbEntity
   8
0
 100
AcDbBlockBegin
   2
_OPEN
  70
0
  10
0.0
  20
0.0
  30
0.0
   3
_OPEN
   0
LINE
   5
88
 100
AcDbEntity
   8
0
 100
AcDbLine
   6
BYBLOCK
  62
0
  10
-1.0000000000000
  20
 0.16666666666667
  30
0.0
  11
0.0
  21
0.0
  31
0.0
   0
LINE
   5
89
 100
AcDbEntity
   8
0
 100
AcDbLine
   6
BYBLOCK
  62
0
  10
0.0
  20
0.0
  30
0.0
  11
-1.0000000000000
  21
-0.16666666666667
  31
0.0
   0
LINE
   5
8A
 100
AcDbEntity
   8
0
 100
AcDbLine
   6
BYBLOCK
  62
0
  10
0.0
  20
0.0
  30
0.0
  11
-1.0000000000000
  21
0.0
  31
0.0
   0
ENDBLK
   5
8B
 100
AcDbEntity
   8
0
 100
AcDbBlockEnd
   0
BLOCK
   5
8C
 100
AcDbEntity
   8
0
 100
AcDbBlockBegin
   2
_OPEN30
  70
0
  10
0.0
  20
0.0
  30
0.0
   3
_OPEN30
   0
LINE
   5
8D
 100
AcDbEntity
   8
0
 100
AcDbLine
   6
BYBLOCK
  62
0
  10
-1.0000000000000
  20
 0.26794919243110
  30
0.0
  11
0.0
  21
0.0
  31
0.0
   0
LINE
   5
8E
 100
AcDbEntity
   8
0
 100
AcDbLine
   6
BYBLOCK
  62
0
  10
0.0
  20
0.0
  30
0.0
  11
-1.0000000000000
  21
-0.26794919243110
  31
0.0
   0
LINE
   5
8F
 100
AcDbEntity
   8
0
 100
AcDbLine
   6
BYBLOCK
  62
0
  10
0.0
  20
0.0
  30
0.0
  11
-1.0000000000000
  21
0.0
  31
0.0
   0
ENDBLK
   5
90
 100
AcDbEntity
   8
0
 100
AcDbBlockEnd
   0
BLOCK
   5
91
 100
AcDbEntity
   8
0
 100
AcDbBlockBegin
   2
_OPEN90
  70
0
  10
0.0
  20
0.0
  30
0.0
   3
_OPEN90
   0
LINE
   5
92
 100
AcDbEntity
   8
0
 100
AcDbLine
   6
BYBLOCK
  62
0
  10
-0.50000000000000
  20
 0.50000000000000
  30
0.0
  11
0.0
  21
0.0
  31
0.0
   0
LINE
   5
93
 100
AcDbEntity
   8
0
 100
AcDbLine
   6
BYBLOCK
  62
0
  10
0.0
  20
0.0
  30
0.0
  11
-0.50000000000000
  21
-0.50000000000000
  31
0.0
   0
LINE
   5
94
 100
AcDbEntity
   8
0
 100
AcDbLine
   6
BYBLOCK
  62
0
  10
0.0
  20
0.0
  30
0.0
  11
-1.0000000000000
  21
0.0
  31
0.0
   0
ENDBLK
   5
95
 100
AcDbEntity
   8
0
 100
AcDbBlockEnd
   0
BLOCK
   5
96
 100
AcDbEntity
   8
0
 100
AcDbBlockBegin
   2
_CLOSEDBLANK
  70
0
  10
0.0
  20
0.0
  30
0.0
   3
_CLOSEDBLANK
   0
LINE
   5
97
 100
AcDbEntity
   8
0
 100
AcDbLine
   6
BYBLOCK
  62
0
  10
-1.0000000000000
  20
 0.16666666666667
  30
0.0
  11
0.0
  21
0.0
  31
0.0
   0
LINE
   5
98
 100
AcDbEntity
   8
0
 100
AcDbLine
   6
BYBLOCK
  62
0
  10
0.0
  20
0.0
  30
0.0
  11
-1.0000000000000
  21
-0.16666666666667
  31
0.0
   0
LINE
   5
99
 100
AcDbEntity
   8
0
 100
AcDbLine
   6
BYBLOCK
  62
0
  10
-1.0000000000000
  20
 0.16666666666667
  30
0.0
  11
-1.0000000000000
  21
-0.16666666666667
  31
0.0
   0
ENDBLK
   5
9A
 100
AcDbEntity
   8
0
 100
AcDbBlockEnd
   0
BLOCK
   5
9B
 100
AcDbEntity
   8
0
 100
AcDbBlockBegin
   2
_DOT
  70
0
  10
0.0
  20
0.0
  30
0.0
   3
_DOT
   0
POLYLINE
   5
9C
 100
AcDbEntity
   8
0
   6
BYBLOCK
  62
0
 100
AcDb2dPolyline
  66
1
  10
0.0
  20
0.0
  30
0.0
  70
1
  40
 0.50000000000000
  41
 0.50000000000000
   0
VERTEX
   5
9D
 100
AcDbEntity
   8
0
   6
BYBLOCK
  62
0
 100
AcDbVertex
 100
AcDb2dVertex
  10
-0.25000000000000
  20
0.0
  30
0.0
  42
 1.0000000000000
  40
 0.50000000000000
  41
 0.50000000000000
   0
VERTEX
   5
9E
 100
AcDbEntity
   8
0
   6
BYBLOCK
  62
0
 100
AcDbVertex
 100
AcDb2dVertex
  10
 0.25000000000000
  20
0.0
  30
0.0
  42
 1.0000000000000
  40
 0.50000000000000
  41
 0.50000000000000
   0
SEQEND
   5
9F
 100
AcDbEntity
   8
0
   6
BYBLOCK
  62
0
   0
LINE
   5
A0
 100
AcDbEntity
   8
0
 100
AcDbLine
   6
BYBLOCK
  62
0
  10
-0.50000000000000
  20
0.0
  30
0.0
  11
-1.0000000000000
  21
0.0
  31
0.0
   0
ENDBLK
   5
A1
 100
AcDbEntity
   8
0
 100
AcDbBlockEnd
   0
BLOCK
   5
A2
 100
AcDbEntity
   8
0
 100
AcDbBlockBegin
   2
_DOTSMALL
  70
0
  10
0.0
  20
0.0
  30
0.0
   3
_DOTSMALL
   0
POLYLINE
   5
A3
 100
AcDbEntity
   8
0
   6
BYBLOCK
  62
0
 100
AcDb2dPolyline
  66
1
  10
0.0
  20
0.0
  30
0.0
  70
1
  40
 0.50000000000000
  41
 0.50000000000000
   0
VERTEX
   5
A4
 100
AcDbEntity
   8
0
   6
BYBLOCK
  62
0
 100
AcDbVertex
 100
AcDb2dVertex
  10
-0.62500000000000E-1
  20
0.0
  30
0.0
  42
 1.0000000000000
  40
 0.50000000000000
  41
 0.50000000000000
   0
VERTEX
   5
A5
 100
AcDbEntity
   8
0
   6
BYBLOCK
  62
0
 100
AcDbVertex
 100
AcDb2dVertex
  10
 0.62500000000000E-1
  20
0.0
  30
0.0
  42
 1.0000000000000
  40
 0.50000000000000
  41
 0.50000000000000
   0
SEQEND
   5
A6
 100
AcDbEntity
   8
0
   6
BYBLOCK
  62
0
   0
ENDBLK
   5
A7
 100
AcDbEntity
   8
0
 100
AcDbBlockEnd
   0
BLOCK
   5
A8
 100
AcDbEntity
   8
0
 100
AcDbBlockBegin
   2
_DATUMBLANK
  70
0
  10
0.0
  20
0.0
  30
0.0
   3
_DATUMBLANK
   0
LINE
   5
A9
 100
AcDbEntity
   8
0
 100
AcDbLine
   6
BYBLOCK
  62
0
  10
0.0
  20
 0.57735027000000
  30
0.0
  11
-1.0000000000000
  21
0.0
  31
0.0
   0
LINE
   5
AA
 100
AcDbEntity
   8
0
 100
AcDbLine
   6
BYBLOCK
  62
0
  10
-1.0000000000000
  20
0.0
  30
0.0
  11
0.0
  21
-0.57735027000000
  31
0.0
   0
LINE
   5
AB
 100
AcDbEntity
   8
0
 100
AcDbLine
   6
BYBLOCK
  62
0
  10
0.0
  20
-0.57735027000000
  30
0.0
  11
0.0
  21
 0.57735027000000
  31
0.0
   0
ENDBLK
   5
AC
 100
AcDbEntity
   8
0
 100
AcDbBlockEnd
   0
BLOCK
   5
AD
 100
AcDbEntity
   8
0
 100
AcDbBlockBegin
   2
_DATUMFILLED
  70
0
  10
0.0
  20
0.0
  30
0.0
   3
_DATUMFILLED
   0
SOLID
   5
AE
 100
AcDbEntity
   8
0
 100
AcDbTrace
   6
BYBLOCK
  62
0
  10
0.0
  20
 0.57735027000000
  30
0.0
  11
-1.0000000000000
  21
0.0
  31
0.0
  12
0.0
  22
-0.57735027000000
  32
0.0
  13
0.0
  23
-0.57735027000000
  33
0.0
   0
ENDBLK
   5
AF
 100
AcDbEntity
   8
0
 100
AcDbBlockEnd
   0
BLOCK
   5
B0
 100
AcDbEntity
   8
0
 100
AcDbBlockBegin
   2
_ORIGIN
  70
0
  10
0.0
  20
0.0
  30
0.0
   3
_ORIGIN
   0
CIRCLE
   5
B1
 100
AcDbEntity
   8
0
 100
AcDbCircle
   6
BYBLOCK
  62
0
  10
0.0
  20
0.0
  30
0.0
  40
 0.50000000000000
   0
LINE
   5
B2
 100
AcDbEntity
   8
0
 100
AcDbLine
   6
BYBLOCK
  62
0
  10
0.0
  20
0.0
  30
0.0
  11
-1.0000000000000
  21
0.0
  31
0.0
   0
ENDBLK
   5
B3
 100
AcDbEntity
   8
0
 100
AcDbBlockEnd
   0
BLOCK
   5
B4
 100
AcDbEntity
   8
0
 100
AcDbBlockBegin
   2
_NONE
  70
0
  10
0.0
  20
0.0
  30
0.0
   3
_NONE
   0
CIRCLE
   5
B5
 100
AcDbEntity
   8
0
 100
AcDbCircle
   6
BYBLOCK
  62
0
  10
0.0
  20
0.0
  30
0.0
  40
 0.25000000000000
   0
ENDBLK
   5
B6
 100
AcDbEntity
   8
0
 100
AcDbBlockEnd
   0
BLOCK
   5
B7
 100
AcDbEntity
   8
0
 100
AcDbBlockBegin
   2
_DOTBLANK
  70
0
  10
0.0
  20
0.0
  30
0.0
   3
_DOTBLANK
   0
CIRCLE
   5
B8
 100
AcDbEntity
   8
0
 100
AcDbCircle
   6
BYBLOCK
  62
0
  10
0.0
  20
0.0
  30
0.0
  40
 0.50000000000000
   0
LINE
   5
B9
 100
AcDbEntity
   8
0
 100
AcDbLine
   6
BYBLOCK
  62
0
  10
-0.50000000000000
  20
0.0
  30
0.0
  11
-1.0000000000000
  21
0.0
  31
0.0
   0
ENDBLK
   5
BA
 100
AcDbEntity
   8
0
 100
AcDbBlockEnd
   0
BLOCK
   5
BB
 100
AcDbEntity
   8
0
 100
AcDbBlockBegin
   2
_INTEGRAL
  70
0
  10
0.0
  20
0.0
  30
0.0
   3
_INTEGRAL
   0
ARC
   5
BC
 100
AcDbEntity
   8
0
   6
BYBLOCK
  62
0
 100
AcDbCircle
  10
 0.44488800000000
  20
-0.91335000000000E-1
  30
0.0
  40
 0.45416700000000
 100
AcDbArc
  50
 102.00000000000
  51
 168.00000000000
   0
ARC
   5
BD
 100
AcDbEntity
   8
0
   6
BYBLOCK
  62
0
 100
AcDbCircle
  10
-0.44488800000000
  20
 0.91335000000000E-1
  30
0.0
  40
 0.45416700000000
 100
AcDbArc
  50
 282.00000000000
  51
 348.00000000000
   0
ENDBLK
   5
BE
 100
AcDbEntity
   8
0
 100
AcDbBlockEnd
   0
BLOCK
   5
BF
 100
AcDbEntity
   8
0
 100
AcDbBlockBegin
   2
*D1
  70
65
  10
0.0
  20
0.0
  30
0.0
   3
*D1
   0
LINE
   5
C0
 100
AcDbEntity
   8
LEVEL003
 100
AcDbLine
   6
CONTINUOUS
  62
3
  10
 141.00000000000
  20
 240.00000000000
  30
0.0
  11
 141.00000000000
  21
 262.00000000001
  31
0.0
   0
LINE
   5
C1
 100
AcDbEntity
   8
LEVEL003
 100
AcDbLine
   6
CONTINUOUS
  62
3
  10
 79.000000000000
  20
 240.00000000000
  30
0.0
  11
 79.000000000000
  21
 262.00000000001
  31
0.0
   0
LINE
   5
C2
 100
AcDbEntity
   8
LEVEL003
 100
AcDbLine
   6
CONTINUOUS
  62
3
  10
 141.00000000000
  20
 260.00000000001
  30
0.0
  11
 116.82500190582
  21
 260.00000000001
  31
0.0
   0
LINE
   5
C3
 100
AcDbEntity
   8
LEVEL003
 100
AcDbLine
   6
CONTINUOUS
  62
3
  10
 79.000000000000
  20
 260.00000000001
  30
0.0
  11
 103.17500190582
  21
 260.00000000001
  31
0.0
   0
INSERT
   5
C4
 100
AcDbEntity
   8
LEVEL003
   6
CONTINUOUS
  62
3
 100
AcDbBlockReference
   2
_OPEN
  10
 141.00000000000
  20
 260.00000000001
  30
0.0
  41
 3.0000000000000
  42
 3.0000000000000
  43
 3.0000000000000
  50
0.0
   0
INSERT
   5
C5
 100
AcDbEntity
   8
LEVEL003
   6
CONTINUOUS
  62
3
 100
AcDbBlockReference
   2
_OPEN
  10
 79.000000000000
  20
 260.00000000001
  30
0.0
  41
 3.0000000000000
  42
 3.0000000000000
  43
 3.0000000000000
  50
 180.00000000000
   0
MTEXT
   5
C6
 100
AcDbEntity
   8
LEVEL003
  62
3
 100
AcDbMText
  10
 110.00000190582
  20
 260.79998779298
  30
0.0
  40
 4.0000000000000
  41
0.0
  71
8
  72
1
   1
\A1;%%c62
   7
GMM001
   0
ENDBLK
   5
C7
 100
AcDbEntity
   8
0
 100
AcDbBlockEnd
   0
BLOCK
   5
C8
 100
AcDbEntity
   8
0
 100
AcDbBlockBegin
   2
*D2
  70
65
  10
0.0
  20
0.0
  30
0.0
   3
*D2
   0
LINE
   5
C9
 100
AcDbEntity
   8
LEVEL003
 100
AcDbLine
   6
CONTINUOUS
  62
3
  10
 53.000000000000
  20
 100.00000000000
  30
0.0
  11
 102.47500000000
  21
 100.00000000000
  31
0.0
   0
LINE
   5
CA
 100
AcDbEntity
   8
LEVEL003
 100
AcDbLine
   6
CONTINUOUS
  62
3
  10
 167.00000000000
  20
 100.00000000000
  30
0.0
  11
 117.52500000000
  21
 100.00000000000
  31
0.0
   0
INSERT
   5
CB
 100
AcDbEntity
   8
LEVEL003
   6
CONTINUOUS
  62
3
 100
AcDbBlockReference
   2
_OPEN
  10
 53.000000000000
  20
 100.00000000000
  30
0.0
  41
 3.0000000000000
  42
 3.0000000000000
  43
 3.0000000000000
  50
 180.00000000000
   0
INSERT
   5
CC
 100
AcDbEntity
   8
LEVEL003
   6
CONTINUOUS
  62
3
 100
AcDbBlockReference
   2
_OPEN
  10
 167.00000000000
  20
 100.00000000000
  30
0.0
  41
 3.0000000000000
  42
 3.0000000000000
  43
 3.0000000000000
  50
0.0
   0
MTEXT
   5
CD
 100
AcDbEntity
   8
LEVEL003
  62
3
 100
AcDbMText
  10
 110.00000000000
  20
 100.80000305176
  30
0.0
  40
 4.0000000000000
  41
0.0
  71
8
  72
1
   1
\A1;%%c114
   7
GMM001
   0
ENDBLK
   5
CE
 100
AcDbEntity
   8
0
 100
AcDbBlockEnd
   0
BLOCK
   5
CF
 100
AcDbEntity
   8
0
 100
AcDbBlockBegin
   2
*D3
  70
65
  10
0.0
  20
0.0
  30
0.0
   3
*D3
   0
LINE
   5
D0
 100
AcDbEntity
   8
LEVEL003
 100
AcDbLine
   6
CONTINUOUS
  62
3
  10
 169.00000000000
  20
 222.00000000000
  30
0.0
  11
 197.00000000000
  21
 222.00000000000
  31
0.0
   0
LINE
   5
D1
 100
AcDbEntity
   8
LEVEL003
 100
AcDbLine
   6
CONTINUOUS
  62
3
  10
 195.00000000000
  20
 230.75000000000
  30
0.0
  11
 195.00000000000
  21
 218.79375456871
  31
0.0
   0
LINE
   5
D2
 100
AcDbEntity
   8
LEVEL003
 100
AcDbLine
   6
CONTINUOUS
  62
3
  10
 195.00000000000
  20
 214.76875456871
  30
0.0
  11
 195.00000000000
  21
 214.76875456871
  31
0.0
   0
INSERT
   5
D3
 100
AcDbEntity
   8
LEVEL003
   6
CONTINUOUS
  62
3
 100
AcDbBlockReference
   2
_OPEN
  10
 195.00000000000
  20
 227.00000000000
  30
0.0
  41
 3.0000000000000
  42
 3.0000000000000
  43
 3.0000000000000
  50
 270.00000000000
   0
INSERT
   5
D4
 100
AcDbEntity
   8
LEVEL003
   6
CONTINUOUS
  62
3
 100
AcDbBlockReference
   2
_OPEN
  10
 195.00000000000
  20
 222.00000000000
  30
0.0
  41
 3.0000000000000
  42
 3.0000000000000
  43
 3.0000000000000
  50
 90.000000000000
   0
MTEXT
   5
D5
 100
AcDbEntity
   8
LEVEL003
  62
3
 100
AcDbMText
  10
 194.19999694824
  20
 218.79375456871
  30
0.0
  40
 4.0000000000000
  41
0.0
  71
9
  72
1
   1
\A1;5
   7
GMM001
  11
0.0
  21
 1.0000000000000
  31
0.0
   0
ENDBLK
   5
D6
 100
AcDbEntity
   8
0
 100
AcDbBlockEnd
   0
BLOCK
   5
D7
 100
AcDbEntity
   8
0
 100
AcDbBlockBegin
   2
*D6
  70
65
  10
0.0
  20
0.0
  30
0.0
   3
*D6
   0
LINE
   5
D8
 100
AcDbEntity
   8
LEVEL003
 100
AcDbLine
   6
CONTINUOUS
  62
3
  10
 141.00000000000
  20
 240.00000000000
  30
0.0
  11
 207.00000000000
  21
 240.00000000000
  31
0.0
   0
LINE
   5
D9
 100
AcDbEntity
   8
LEVEL003
 100
AcDbLine
   6
CONTINUOUS
  62
3
  10
 142.35961914063
  20
 230.00000000000
  30
0.0
  11
 207.00000000000
  21
 230.00000000000
  31
0.0
   0
LINE
   5
DA
 100
AcDbEntity
   8
LEVEL003
 100
AcDbLine
   6
CONTINUOUS
  62
3
  10
 205.00000000000
  20
 240.00000000000
  30
0.0
  11
 205.00000000000
  21
 238.01875000000
  31
0.0
   0
LINE
   5
DB
 100
AcDbEntity
   8
LEVEL003
 100
AcDbLine
   6
CONTINUOUS
  62
3
  10
 205.00000000000
  20
 230.00000000000
  30
0.0
  11
 205.00000000000
  21
 231.98125000000
  31
0.0
   0
INSERT
   5
DC
 100
AcDbEntity
   8
LEVEL003
   6
CONTINUOUS
  62
3
 100
AcDbBlockReference
   2
_OPEN
  10
 205.00000000000
  20
 240.00000000000
  30
0.0
  41
 3.0000000000000
  42
 3.0000000000000
  43
 3.0000000000000
  50
 90.000000000000
   0
INSERT
   5
DD
 100
AcDbEntity
   8
LEVEL003
   6
CONTINUOUS
  62
3
 100
AcDbBlockReference
   2
_OPEN
  10
 205.00000000000
  20
 230.00000000000
  30
0.0
  41
 3.0000000000000
  42
 3.0000000000000
  43
 3.0000000000000
  50
 270.00000000000
   0
MTEXT
   5
DE
 100
AcDbEntity
   8
LEVEL003
  62
3
 100
AcDbMText
  10
 204.19999694824
  20
 235.00000000000
  30
0.0
  40
 4.0000000000000
  41
0.0
  71
8
  72
1
   1
\A1;10
   7
GMM001
  11
0.0
  21
 1.0000000000000
  31
0.0
   0
ENDBLK
   5
DF
 100
AcDbEntity
   8
0
 100
AcDbBlockEnd
   0
BLOCK
   5
E0
 100
AcDbEntity
   8
0
 100
AcDbBlockBegin
   2
*D7
  70
65
  10
0.0
  20
0.0
  30
0.0
   3
*D7
   0
LINE
   5
E1
 100
AcDbEntity
   8
LEVEL003
 100
AcDbLine
   6
CONTINUOUS
  62
3
  10
 141.00000000000
  20
 240.00000000000
  30
0.0
  11
 217.00000000000
  21
 240.00000000000
  31
0.0
   0
LINE
   5
E2
 100
AcDbEntity
   8
LEVEL003
 100
AcDbLine
   6
CONTINUOUS
  62
3
  10
 163.50000000000
  20
 227.00000000000
  30
0.0
  11
 217.00000000000
  21
 227.00000000000
  31
0.0
   0
LINE
   5
E3
 100
AcDbEntity
   8
LEVEL003
 100
AcDbLine
   6
CONTINUOUS
  62
3
  10
 215.00000000000
  20
 240.00000000000
  30
0.0
  11
 215.00000000000
  21
 236.86875000000
  31
0.0
   0
LINE
   5
E4
 100
AcDbEntity
   8
LEVEL003
 100
AcDbLine
   6
CONTINUOUS
  62
3
  10
 215.00000000000
  20
 227.00000000000
  30
0.0
  11
 215.00000000000
  21
 230.13125000000
  31
0.0
   0
INSERT
   5
E5
 100
AcDbEntity
   8
LEVEL003
   6
CONTINUOUS
  62
3
 100
AcDbBlockReference
   2
_OPEN
  10
 215.00000000000
  20
 240.00000000000
  30
0.0
  41
 3.0000000000000
  42
 3.0000000000000
  43
 3.0000000000000
  50
 90.000000000000
   0
INSERT
   5
E6
 100
AcDbEntity
   8
LEVEL003
   6
CONTINUOUS
  62
3
 100
AcDbBlockReference
   2
_OPEN
  10
 215.00000000000
  20
 227.00000000000
  30
0.0
  41
 3.0000000000000
  42
 3.0000000000000
  43
 3.0000000000000
  50
 270.00000000000
   0
MTEXT
   5
E7
 100
AcDbEntity
   8
LEVEL003
  62
3
 100
AcDbMText
  10
 214.19999694824
  20
 233.50000000000
  30
0.0
  40
 4.0000000000000
  41
0.0
  71
8
  72
1
   1
\A1;13
   7
GMM001
  11
0.0
  21
 1.0000000000000
  31
0.0
   0
ENDBLK
   5
E8
 100
AcDbEntity
   8
0
 100
AcDbBlockEnd
   0
BLOCK
   5
E9
 100
AcDbEntity
   8
0
 100
AcDbBlockBegin
   2
*D8
  70
65
  10
0.0
  20
0.0
  30
0.0
   3
*D8
   0
LINE
   5
EA
 100
AcDbEntity
   8
LEVEL003
 100
AcDbLine
   6
CONTINUOUS
  62
3
  10
 163.50000000000
  20
 227.00000000000
  30
0.0
  11
 217.00000000000
  21
 227.00000000000
  31
0.0
   0
LINE
   5
EB
 100
AcDbEntity
   8
LEVEL003
 100
AcDbLine
   6
CONTINUOUS
  62
3
  10
 169.00000000000
  20
 187.00000000000
  30
0.0
  11
 217.00000000000
  21
 187.00000000000
  31
0.0
   0
LINE
   5
EC
 100
AcDbEntity
   8
LEVEL003
 100
AcDbLine
   6
CONTINUOUS
  62
3
  10
 215.00000000000
  20
 227.00000000000
  30
0.0
  11
 215.00000000000
  21
 210.67500000000
  31
0.0
   0
LINE
   5
ED
 100
AcDbEntity
   8
LEVEL003
 100
AcDbLine
   6
CONTINUOUS
  62
3
  10
 215.00000000000
  20
 187.00000000000
  30
0.0
  11
 215.00000000000
  21
 203.32500000000
  31
0.0
   0
INSERT
   5
EE
 100
AcDbEntity
   8
LEVEL003
   6
CONTINUOUS
  62
3
 100
AcDbBlockReference
   2
_OPEN
  10
 215.00000000000
  20
 227.00000000000
  30
0.0
  41
 3.0000000000000
  42
 3.0000000000000
  43
 3.0000000000000
  50
 90.000000000000
   0
INSERT
   5
EF
 100
AcDbEntity
   8
LEVEL003
   6
CONTINUOUS
  62
3
 100
AcDbBlockReference
   2
_OPEN
  10
 215.00000000000
  20
 187.00000000000
  30
0.0
  41
 3.0000000000000
  42
 3.0000000000000
  43
 3.0000000000000
  50
 270.00000000000
   0
MTEXT
   5
F0
 100
AcDbEntity
   8
LEVEL003
  62
3
 100
AcDbMText
  10
 214.19999694824
  20
 207.00000000000
  30
0.0
  40
 4.0000000000000
  41
0.0
  71
8
  72
1
   1
\A1;40
   7
GMM001
  11
0.0
  21
 1.0000000000000
  31
0.0
   0
ENDBLK
   5
F1
 100
AcDbEntity
   8
0
 100
AcDbBlockEnd
   0
BLOCK
   5
F2
 100
AcDbEntity
   8
0
 100
AcDbBlockBegin
   2
*D9
  70
65
  10
0.0
  20
0.0
  30
0.0
   3
*D9
   0
LINE
   5
F3
 100
AcDbEntity
   8
LEVEL003
 100
AcDbLine
   6
CONTINUOUS
  62
3
  10
 167.27290344238
  20
 65.980972290039
  30
0.0
  11
 247.00000000000
  21
 65.980972290039
  31
0.0
   0
LINE
   5
F4
 100
AcDbEntity
   8
LEVEL003
 100
AcDbLine
   6
CONTINUOUS
  62
3
  10
 166.00000000000
  20
 47.000000000000
  30
0.0
  11
 247.00000000000
  21
 47.000000000000
  31
0.0
   0
LINE
   5
F5
 100
AcDbEntity
   8
LEVEL003
 100
AcDbLine
   6
CONTINUOUS
  62
3
  10
 245.00000000000
  20
 65.980972290039
  30
0.0
  11
 245.00000000000
  21
 59.859236145020
  31
0.0
   0
LINE
   5
F6
 100
AcDbEntity
   8
LEVEL003
 100
AcDbLine
   6
CONTINUOUS
  62
3
  10
 245.00000000000
  20
 47.000000000000
  30
0.0
  11
 245.00000000000
  21
 53.121736145020
  31
0.0
   0
INSERT
   5
F7
 100
AcDbEntity
   8
LEVEL003
   6
CONTINUOUS
  62
3
 100
AcDbBlockReference
   2
_OPEN
  10
 245.00000000000
  20
 65.980972290039
  30
0.0
  41
 3.0000000000000
  42
 3.0000000000000
  43
 3.0000000000000
  50
 90.000000000000
   0
INSERT
   5
F8
 100
AcDbEntity
   8
LEVEL003
   6
CONTINUOUS
  62
3
 100
AcDbBlockReference
   2
_OPEN
  10
 245.00000000000
  20
 47.000000000000
  30
0.0
  41
 3.0000000000000
  42
 3.0000000000000
  43
 3.0000000000000
  50
 270.00000000000
   0
MTEXT
   5
F9
 100
AcDbEntity
   8
LEVEL003
  62
3
 100
AcDbMText
  10
 244.20001220703
  20
 56.490486145020
  30
0.0
  40
 4.0000000000000
  41
0.0
  71
8
  72
1
   1
\A1;19
   7
GMM001
  11
0.0
  21
 1.0000000000000
  31
0.0
   0
ENDBLK
   5
FA
 100
AcDbEntity
   8
0
 100
AcDbBlockEnd
   0
BLOCK
   5
FB
 100
AcDbEntity
   8
0
 100
AcDbBlockBegin
   2
*D10
  70
65
  10
0.0
  20
0.0
  30
0.0
   3
*D10
   0
LINE
   5
FC
 100
AcDbEntity
   8
LEVEL003
 100
AcDbLine
   6
CONTINUOUS
  62
3
  10
 166.00000000000
  20
 47.000000000000
  30
0.0
  11
 257.00000000000
  21
 47.000000000000
  31
0.0
   0
LINE
   5
FD
 100
AcDbEntity
   8
LEVEL003
 100
AcDbLine
   6
CONTINUOUS
  62
3
  10
 141.00000000000
  20
 240.00000000000
  30
0.0
  11
 257.00000000000
  21
 240.00000000000
  31
0.0
   0
LINE
   5
FE
 100
AcDbEntity
   8
LEVEL003
 100
AcDbLine
   6
CONTINUOUS
  62
3
  10
 255.00000000000
  20
 47.000000000000
  30
0.0
  11
 255.00000000000
  21
 138.11875000000
  31
0.0
   0
LINE
   5
FF
 100
AcDbEntity
   8
LEVEL003
 100
AcDbLine
   6
CONTINUOUS
  62
3
  10
 255.00000000000
  20
 240.00000000000
  30
0.0
  11
 255.00000000000
  21
 148.88125000000
  31
0.0
   0
INSERT
   5
100
 100
AcDbEntity
   8
LEVEL003
   6
CONTINUOUS
  62
3
 100
AcDbBlockReference
   2
_OPEN
  10
 255.00000000000
  20
 47.000000000000
  30
0.0
  41
 3.0000000000000
  42
 3.0000000000000
  43
 3.0000000000000
  50
 270.00000000000
   0
INSERT
   5
101
 100
AcDbEntity
   8
LEVEL003
   6
CONTINUOUS
  62
3
 100
AcDbBlockReference
   2
_OPEN
  10
 255.00000000000
  20
 240.00000000000
  30
0.0
  41
 3.0000000000000
  42
 3.0000000000000
  43
 3.0000000000000
  50
 90.000000000000
   0
MTEXT
   5
102
 100
AcDbEntity
   8
LEVEL003
  62
3
 100
AcDbMText
  10
 254.20001220703
  20
 143.50000000000
  30
0.0
  40
 4.0000000000000
  41
0.0
  71
8
  72
1
   1
\A1;193
   7
GMM001
  11
0.0
  21
 1.0000000000000
  31
0.0
   0
ENDBLK
   5
103
 100
AcDbEntity
   8
0
 100
AcDbBlockEnd
   0
BLOCK
   5
104
 100
AcDbEntity
   8
0
 100
AcDbBlockBegin
   2
*D11
  70
65
  10
0.0
  20
0.0
  30
0.0
   3
*D11
   0
LINE
   5
105
 100
AcDbEntity
   8
LEVEL003
 100
AcDbLine
   6
CONTINUOUS
  62
3
  10
 237.00373251868
  20
 72.151006388085
  30
0.0
  11
 246.79598791008
  21
 73.007720127177
  31
0.0
   0
ARC
   5
106
 100
AcDbEntity
   8
LEVEL003
   6
CONTINUOUS
  62
3
 100
AcDbCircle
  10
 166.48011779785
  20
 65.980972290039
  30
0.0
  40
 78.622665405275
 100
AcDbArc
  50
0.0
  51
 2.5000069738102
   0
ARC
   5
107
 100
AcDbEntity
   8
LEVEL003
   6
CONTINUOUS
  62
3
 100
AcDbCircle
  10
 166.48011779785
  20
 65.980972290039
  30
0.0
  40
 78.622665405275
 100
AcDbArc
  50
 2.5000069738102
  51
 5.0000139476205
   0
INSERT
   5
108
 100
AcDbEntity
   8
LEVEL003
   6
CONTINUOUS
  62
3
 100
AcDbBlockReference
   2
_OPEN
  10
 245.10278320313
  20
 65.980972290039
  30
0.0
  41
 3.0000000000000
  42
 3.0000000000000
  43
 3.0000000000000
  50
 270.00000000000
   0
INSERT
   5
109
 100
AcDbEntity
   8
LEVEL003
   6
CONTINUOUS
  62
3
 100
AcDbBlockReference
   2
_OPEN
  10
 244.80359855633
  20
 72.833408156670
  30
0.0
  41
 3.0000000000000
  42
 3.0000000000000
  43
 3.0000000000000
  50
 95.000013947621
   0
MTEXT
   5
10A
 100
AcDbEntity
   8
LEVEL003
  62
3
 100
AcDbMText
  10
 242.14973985837
  20
 66.338173858560
  30
0.0
  40
 4.0000000000000
  41
0.0
  71
8
  72
1
   1
\A1;5%%d
   7
GMM001
   0
ENDBLK
   5
10B
 100
AcDbEntity
   8
0
 100
AcDbBlockEnd
   0
BLOCK
   5
10C
 100
AcDbEntity
   8
0
 100
AcDbBlockBegin
   2
*D15
  70
65
  10
0.0
  20
0.0
  30
0.0
   3
*D15
   0
LINE
   5
10D
 100
AcDbEntity
   8
LEVEL003
 100
AcDbLine
   6
CONTINUOUS
  62
3
  10
 133.00000000000
  20
 230.00000000000
  30
0.0
  11
 113.00000000000
  21
 230.00000000000
  31
0.0
   0
LINE
   5
10E
 100
AcDbEntity
   8
LEVEL003
 100
AcDbLine
   6
CONTINUOUS
  62
3
  10
 132.00000000000
  20
 200.00000000000
  30
0.0
  11
 113.00000000000
  21
 200.00000000000
  31
0.0
   0
LINE
   5
10F
 100
AcDbEntity
   8
LEVEL003
 100
AcDbLine
   6
CONTINUOUS
  62
3
  10
 115.00000000000
  20
 230.00000000000
  30
0.0
  11
 115.00000000000
  21
 218.67500000000
  31
0.0
   0
LINE
   5
110
 100
AcDbEntity
   8
LEVEL003
 100
AcDbLine
   6
CONTINUOUS
  62
3
  10
 115.00000000000
  20
 200.00000000000
  30
0.0
  11
 115.00000000000
  21
 211.32500000000
  31
0.0
   0
INSERT
   5
111
 100
AcDbEntity
   8
LEVEL003
   6
CONTINUOUS
  62
3
 100
AcDbBlockReference
   2
_OPEN
  10
 115.00000000000
  20
 230.00000000000
  30
0.0
  41
 3.0000000000000
  42
 3.0000000000000
  43
 3.0000000000000
  50
 90.000000000000
   0
INSERT
   5
112
 100
AcDbEntity
   8
LEVEL003
   6
CONTINUOUS
  62
3
 100
AcDbBlockReference
   2
_OPEN
  10
 115.00000000000
  20
 200.00000000000
  30
0.0
  41
 3.0000000000000
  42
 3.0000000000000
  43
 3.0000000000000
  50
 270.00000000000
   0
MTEXT
   5
113
 100
AcDbEntity
   8
LEVEL003
  62
3
 100
AcDbMText
  10
 114.19999694824
  20
 215.00000000000
  30
0.0
  40
 4.0000000000000
  41
0.0
  71
8
  72
1
   1
\A1;30
   7
GMM001
  11
0.0
  21
 1.0000000000000
  31
0.0
   0
ENDBLK
   5
114
 100
AcDbEntity
   8
0
 100
AcDbBlockEnd
   0
BLOCK
   5
115
 100
AcDbEntity
   8
0
 100
AcDbBlockBegin
   2
*D16
  70
65
  10
0.0
  20
0.0
  30
0.0
   3
*D16
   0
LINE
   5
116
 100
AcDbEntity
   8
LEVEL003
 100
AcDbLine
   6
CONTINUOUS
  62
3
  10
 93.500000000000
  20
 55.299987792969
  30
0.0
  11
 93.500000000000
  21
 33.000000000000
  31
0.0
   0
LINE
   5
117
 100
AcDbEntity
   8
LEVEL003
 100
AcDbLine
   6
CONTINUOUS
  62
3
  10
 126.50000000000
  20
 55.299987792969
  30
0.0
  11
 126.50000000000
  21
 33.000000000000
  31
0.0
   0
LINE
   5
118
 100
AcDbEntity
   8
LEVEL003
 100
AcDbLine
   6
CONTINUOUS
  62
3
  10
 93.500000000000
  20
 35.000000000000
  30
0.0
  11
 103.17500000000
  21
 35.000000000000
  31
0.0
   0
LINE
   5
119
 100
AcDbEntity
   8
LEVEL003
 100
AcDbLine
   6
CONTINUOUS
  62
3
  10
 126.50000000000
  20
 35.000000000000
  30
0.0
  11
 116.82500000000
  21
 35.000000000000
  31
0.0
   0
INSERT
   5
11A
 100
AcDbEntity
   8
LEVEL003
   6
CONTINUOUS
  62
3
 100
AcDbBlockReference
   2
_OPEN
  10
 93.500000000000
  20
 35.000000000000
  30
0.0
  41
 3.0000000000000
  42
 3.0000000000000
  43
 3.0000000000000
  50
 180.00000000000
   0
INSERT
   5
11B
 100
AcDbEntity
   8
LEVEL003
   6
CONTINUOUS
  62
3
 100
AcDbBlockReference
   2
_OPEN
  10
 126.50000000000
  20
 35.000000000000
  30
0.0
  41
 3.0000000000000
  42
 3.0000000000000
  43
 3.0000000000000
  50
0.0
   0
MTEXT
   5
11C
 100
AcDbEntity
   8
LEVEL003
  62
3
 100
AcDbMText
  10
 110.00000000000
  20
 35.800000000000
  30
0.0
  40
 4.0000000000000
  41
0.0
  71
8
  72
1
   1
\A1;%%c33
   7
GMM001
   0
ENDBLK
   5
11D
 100
AcDbEntity
   8
0
 100
AcDbBlockEnd
   0
BLOCK
   5
11E
 100
AcDbEntity
   8
0
 100
AcDbBlockBegin
   2
*D17
  70
65
  10
0.0
  20
0.0
  30
0.0
   3
*D17
   0
LINE
   5
11F
 100
AcDbEntity
   8
LEVEL003
 100
AcDbLine
   6
CONTINUOUS
  62
3
  10
 65.000000000000
  20
 110.00000000000
  30
0.0
  11
 103.52500000000
  21
 110.00000000000
  31
0.0
   0
LINE
   5
120
 100
AcDbEntity
   8
LEVEL003
 100
AcDbLine
   6
CONTINUOUS
  62
3
  10
 155.00000000000
  20
 110.00000000000
  30
0.0
  11
 116.47500000000
  21
 110.00000000000
  31
0.0
   0
INSERT
   5
121
 100
AcDbEntity
   8
LEVEL003
   6
CONTINUOUS
  62
3
 100
AcDbBlockReference
   2
_OPEN
  10
 65.000000000000
  20
 110.00000000000
  30
0.0
  41
 3.0000000000000
  42
 3.0000000000000
  43
 3.0000000000000
  50
 180.00000000000
   0
INSERT
   5
122
 100
AcDbEntity
   8
LEVEL003
   6
CONTINUOUS
  62
3
 100
AcDbBlockReference
   2
_OPEN
  10
 155.00000000000
  20
 110.00000000000
  30
0.0
  41
 3.0000000000000
  42
 3.0000000000000
  43
 3.0000000000000
  50
0.0
   0
MTEXT
   5
123
 100
AcDbEntity
   8
LEVEL003
  62
3
 100
AcDbMText
  10
 110.00000000000
  20
 110.80000000000
  30
0.0
  40
 4.0000000000000
  41
0.0
  71
8
  72
1
   1
\A1;%%c90
   7
GMM001
   0
ENDBLK
   5
124
 100
AcDbEntity
   8
0
 100
AcDbBlockEnd
   0
BLOCK
   5
125
 100
AcDbEntity
   8
0
 100
AcDbBlockBegin
   2
*D18
  70
65
  10
0.0
  20
0.0
  30
0.0
   3
*D18
   0
LINE
   5
126
 100
AcDbEntity
   8
LEVEL003
 100
AcDbLine
   6
CONTINUOUS
  62
3
  10
 142.50000000000
  20
 120.00000000000
  30
0.0
  11
 116.82500000000
  21
 120.00000000000
  31
0.0
   0
LINE
   5
127
 100
AcDbEntity
   8
LEVEL003
 100
AcDbLine
   6
CONTINUOUS
  62
3
  10
 77.500000000000
  20
 120.00000000000
  30
0.0
  11
 103.17500000000
  21
 120.00000000000
  31
0.0
   0
INSERT
   5
128
 100
AcDbEntity
   8
LEVEL003
   6
CONTINUOUS
  62
3
 100
AcDbBlockReference
   2
_OPEN
  10
 142.50000000000
  20
 120.00000000000
  30
0.0
  41
 3.0000000000000
  42
 3.0000000000000
  43
 3.0000000000000
  50
0.0
   0
INSERT
   5
129
 100
AcDbEntity
   8
LEVEL003
   6
CONTINUOUS
  62
3
 100
AcDbBlockReference
   2
_OPEN
  10
 77.500000000000
  20
 120.00000000000
  30
0.0
  41
 3.0000000000000
  42
 3.0000000000000
  43
 3.0000000000000
  50
 180.00000000000
   0
MTEXT
   5
12A
 100
AcDbEntity
   8
LEVEL003
  62
3
 100
AcDbMText
  10
 110.00000000000
  20
 120.80000000000
  30
0.0
  40
 4.0000000000000
  41
0.0
  71
8
  72
1
   1
\A1;%%c65
   7
GMM001
   0
ENDBLK
   5
12B
 100
AcDbEntity
   8
0
 100
AcDbBlockEnd
   0
BLOCK
   5
12C
 100
AcDbEntity
   8
0
 100
AcDbBlockBegin
   2
*D19
  70
65
  10
0.0
  20
0.0
  30
0.0
   3
*D19
   0
LINE
   5
12D
 100
AcDbEntity
   8
LEVEL003
 100
AcDbLine
   6
CONTINUOUS
  62
3
  10
 87.500000000000
  20
 130.00000000000
  30
0.0
  11
 103.17500000000
  21
 130.00000000000
  31
0.0
   0
LINE
   5
12E
 100
AcDbEntity
   8
LEVEL003
 100
AcDbLine
   6
CONTINUOUS
  62
3
  10
 132.50000000000
  20
 130.00000000000
  30
0.0
  11
 116.82500000000
  21
 130.00000000000
  31
0.0
   0
INSERT
   5
12F
 100
AcDbEntity
   8
LEVEL003
   6
CONTINUOUS
  62
3
 100
AcDbBlockReference
   2
_OPEN
  10
 87.500000000000
  20
 130.00000000000
  30
0.0
  41
 3.0000000000000
  42
 3.0000000000000
  43
 3.0000000000000
  50
 180.00000000000
   0
INSERT
   5
130
 100
AcDbEntity
   8
LEVEL003
   6
CONTINUOUS
  62
3
 100
AcDbBlockReference
   2
_OPEN
  10
 132.50000000000
  20
 130.00000000000
  30
0.0
  41
 3.0000000000000
  42
 3.0000000000000
  43
 3.0000000000000
  50
0.0
   0
MTEXT
   5
131
 100
AcDbEntity
   8
LEVEL003
  62
3
 100
AcDbMText
  10
 110.00000000000
  20
 130.80000000000
  30
0.0
  40
 4.0000000000000
  41
0.0
  71
8
  72
1
   1
\A1;%%c45
   7
GMM001
   0
ENDBLK
   5
132
 100
AcDbEntity
   8
0
 100
AcDbBlockEnd
   0
BLOCK
   5
133
 100
AcDbEntity
   8
0
 100
AcDbBlockBegin
   2
*D20
  70
65
  10
0.0
  20
0.0
  30
0.0
   3
*D20
   0
LINE
   5
134
 100
AcDbEntity
   8
LEVEL003
 100
AcDbLine
   6
CONTINUOUS
  62
3
  10
 93.500000000000
  20
 236.00000000000
  30
0.0
  11
 93.500000000000
  21
 252.00000000000
  31
0.0
   0
LINE
   5
135
 100
AcDbEntity
   8
LEVEL003
 100
AcDbLine
   6
CONTINUOUS
  62
3
  10
 126.50000000000
  20
 236.00000000000
  30
0.0
  11
 126.50000000000
  21
 252.00000000000
  31
0.0
   0
LINE
   5
136
 100
AcDbEntity
   8
LEVEL003
 100
AcDbLine
   6
CONTINUOUS
  62
3
  10
 93.500000000000
  20
 250.00000000000
  30
0.0
  11
 103.17500000000
  21
 250.00000000000
  31
0.0
   0
LINE
   5
137
 100
AcDbEntity
   8
LEVEL003
 100
AcDbLine
   6
CONTINUOUS
  62
3
  10
 126.50000000000
  20
 250.00000000000
  30
0.0
  11
 116.82500000000
  21
 250.00000000000
  31
0.0
   0
INSERT
   5
138
 100
AcDbEntity
   8
LEVEL003
   6
CONTINUOUS
  62
3
 100
AcDbBlockReference
   2
_OPEN
  10
 93.500000000000
  20
 250.00000000000
  30
0.0
  41
 3.0000000000000
  42
 3.0000000000000
  43
 3.0000000000000
  50
 180.00000000000
   0
INSERT
   5
139
 100
AcDbEntity
   8
LEVEL003
   6
CONTINUOUS
  62
3
 100
AcDbBlockReference
   2
_OPEN
  10
 126.50000000000
  20
 250.00000000000
  30
0.0
  41
 3.0000000000000
  42
 3.0000000000000
  43
 3.0000000000000
  50
0.0
   0
MTEXT
   5
13A
 100
AcDbEntity
   8
LEVEL003
  62
3
 100
AcDbMText
  10
 110.00000000000
  20
 250.80000000000
  30
0.0
  40
 4.0000000000000
  41
0.0
  71
8
  72
1
   1
\A1;%%c33
   7
GMM001
   0
ENDBLK
   5
13B
 100
AcDbEntity
   8
0
 100
AcDbBlockEnd
   0
ENDSEC
   0
SECTION
   2
ENTITIES
   0
CIRCLE
   5
13C
 100
AcDbEntity
   8
LEVEL001
 100
AcDbCircle
   6
CONTINUOUS
  62
7
  10
 237.00000000000
  20
 265.00000000000
  30
0.0
  40
 19.250000000000
   0
CIRCLE
   5
13D
 100
AcDbEntity
   8
LEVEL001
 100
AcDbCircle
   6
CONTINUOUS
  62
7
  10
 237.00000000000
  20
 265.00000000000
  30
0.0
  40
 8.7500000000000
   0
CIRCLE
   5
13E
 100
AcDbEntity
   8
LEVEL001
 100
AcDbCircle
   6
CONTINUOUS
  62
7
  10
 237.00000000000
  20
 265.00000000000
  30
0.0
  40
 5.7750000953674
   0
CIRCLE
   5
13F
 100
AcDbEntity
   8
LEVEL001
 100
AcDbCircle
   6
CONTINUOUS
  62
7
  10
 237.00000000000
  20
 265.00000000000
  30
0.0
  40
 6.1250000000000
   0
CIRCLE
   5
140
 100
AcDbEntity
   8
LEVEL001
 100
AcDbCircle
   6
CONTINUOUS
  62
7
  10
 248.38442993164
  20
 276.38442993164
  30
0.0
  40
 1.4874999523163
   0
CIRCLE
   5
141
 100
AcDbEntity
   8
LEVEL001
 100
AcDbCircle
   6
CONTINUOUS
  62
7
  10
 248.38439941406
  20
 253.61557006836
  30
0.0
  40
 1.4874999523163
   0
CIRCLE
   5
142
 100
AcDbEntity
   8
LEVEL001
 100
AcDbCircle
   6
CONTINUOUS
  62
7
  10
 237.00000000000
  20
 251.70001220703
  30
0.0
  40
 2.6162500381470
   0
CIRCLE
   5
143
 100
AcDbEntity
   8
LEVEL001
 100
AcDbCircle
   6
CONTINUOUS
  62
7
  10
 225.61558532715
  20
 253.61557006836
  30
0.0
  40
 1.4874999523163
   0
CIRCLE
   5
144
 100
AcDbEntity
   8
LEVEL001
 100
AcDbCircle
   6
CONTINUOUS
  62
7
  10
 225.61560058594
  20
 276.38442993164
  30
0.0
  40
 1.4874999523163
   0
LINE
   5
145
 100
AcDbEntity
   8
LEVEL001
 100
AcDbLine
   6
CONTINUOUS
  62
7
  10
 259.92749023438
  20
 268.01858520508
  30
0.0
  11
 260.44671630859
  21
 268.31835937500
  31
0.0
   0
LINE
   5
146
 100
AcDbEntity
   8
LEVEL001
 100
AcDbLine
   6
CONTINUOUS
  62
7
  10
 265.87750244141
  20
 268.31835937500
  30
0.0
  11
 260.44671630859
  21
 268.31835937500
  31
0.0
   0
LINE
   5
147
 100
AcDbEntity
   8
LEVEL001
 100
AcDbLine
   6
CONTINUOUS
  62
7
  10
 259.92749023438
  20
 261.96810913086
  30
0.0
  11
 260.44671630859
  21
 261.66833496094
  31
0.0
   0
LINE
   5
148
 100
AcDbEntity
   8
LEVEL001
 100
AcDbLine
   6
CONTINUOUS
  62
7
  10
 265.87750244141
  20
 261.66833496094
  30
0.0
  11
 260.44671630859
  21
 261.66833496094
  31
0.0
   0
ARC
   5
149
 100
AcDbEntity
   8
LEVEL001
   6
CONTINUOUS
  62
7
 100
AcDbCircle
  10
 266.40250241700
  20
 269.54335939888
  30
0.0
  40
 0.52499997615814
 100
AcDbArc
  50
 90.000663442048
  51
 180.00266703015
   0
LINE
   5
14A
 100
AcDbEntity
   8
LEVEL001
 100
AcDbLine
   6
CONTINUOUS
  62
7
  10
 266.40249633789
  20
 270.06835937500
  30
0.0
  11
 268.15249633789
  21
 270.06835937500
  31
0.0
   0
ARC
   5
14B
 100
AcDbEntity
   8
LEVEL001
   6
CONTINUOUS
  62
7
 100
AcDbCircle
  10
 266.40250241700
  20
 260.44333493706
  30
0.0
  40
 0.52499997615814
 100
AcDbArc
  50
 179.99733296978
  51
 269.99933655850
   0
LINE
   5
14C
 100
AcDbEntity
   8
LEVEL001
 100
AcDbLine
   6
CONTINUOUS
  62
7
  10
 265.87750244141
  20
 260.44335937500
  30
0.0
  11
 265.87750244141
  21
 269.54333496094
  31
0.0
   0
LINE
   5
14D
 100
AcDbEntity
   8
LEVEL001
 100
AcDbLine
   6
CONTINUOUS
  62
7
  10
 266.40249633789
  20
 259.91833496094
  30
0.0
  11
 268.15249633789
  21
 259.91833496094
  31
0.0
   0
ARC
   5
14E
 100
AcDbEntity
   8
LEVEL001
   6
CONTINUOUS
  62
7
 100
AcDbCircle
  10
 273.75249636228
  20
 269.54335939888
  30
0.0
  40
 0.52499997615814
 100
AcDbArc
  50
 359.99733296979
  51
 89.999336556302
   0
LINE
   5
14F
 100
AcDbEntity
   8
LEVEL001
 100
AcDbLine
   6
CONTINUOUS
  62
7
  10
 272.00250244141
  20
 270.06835937500
  30
0.0
  11
 273.75250244141
  21
 270.06835937500
  31
0.0
   0
ARC
   5
150
 100
AcDbEntity
   8
LEVEL001
   6
CONTINUOUS
  62
7
 100
AcDbCircle
  10
 273.75249636230
  20
 260.44333493706
  30
0.0
  40
 0.52499997615814
 100
AcDbArc
  50
 270.00066344205
  51
 0.26670297751937E-2
   0
LINE
   5
151
 100
AcDbEntity
   8
LEVEL001
 100
AcDbLine
   6
CONTINUOUS
  62
7
  10
 272.00250244141
  20
 259.91833496094
  30
0.0
  11
 273.75250244141
  21
 259.91833496094
  31
0.0
   0
LINE
   5
152
 100
AcDbEntity
   8
LEVEL001
 100
AcDbLine
   6
CONTINUOUS
  62
7
  10
 274.27749633789
  20
 269.54333496094
  30
0.0
  11
 274.27749633789
  21
 260.44335937500
  31
0.0
   0
LINE
   5
153
 100
AcDbEntity
   8
LEVEL001
 100
AcDbLine
   6
CONTINUOUS
  62
7
  10
 260.44671630859
  20
 261.66833496094
  30
0.0
  11
 260.44671630859
  21
 262.95251464844
  31
0.0
   0
LINE
   5
154
 100
AcDbEntity
   8
LEVEL001
 100
AcDbLine
   6
CONTINUOUS
  62
7
  10
 260.44671630859
  20
 267.03417968750
  30
0.0
  11
 260.44671630859
  21
 268.31835937500
  31
0.0
   0
LINE
   5
155
 100
AcDbEntity
   8
LEVEL001
 100
AcDbLine
   6
CONTINUOUS
  62
7
  10
 258.52749633789
  20
 263.57962036133
  30
0.0
  11
 263.42749023438
  21
 267.03417968750
  31
0.0
   0
LINE
   5
156
 100
AcDbEntity
   8
LEVEL001
 100
AcDbLine
   6
CONTINUOUS
  62
7
  10
 258.52749633789
  20
 266.40707397461
  30
0.0
  11
 263.42749023438
  21
 262.95251464844
  31
0.0
   0
LINE
   5
157
 100
AcDbEntity
   8
LEVEL001
 100
AcDbLine
   6
CONTINUOUS
  62
7
  10
 259.92749023438
  20
 268.01858520508
  30
0.0
  11
 259.92749023438
  21
 266.49713134766
  31
0.0
   0
LINE
   5
158
 100
AcDbEntity
   8
LEVEL001
 100
AcDbLine
   6
CONTINUOUS
  62
7
  10
 259.92749023438
  20
 263.48956298828
  30
0.0
  11
 259.92749023438
  21
 261.96810913086
  31
0.0
   0
LINE
   5
159
 100
AcDbEntity
   8
LEVEL001
 100
AcDbLine
   6
CONTINUOUS
  62
7
  10
 258.52749633789
  20
 263.57962036133
  30
0.0
  11
 258.52749633789
  21
 266.40707397461
  31
0.0
   0
LINE
   5
15A
 100
AcDbEntity
   8
LEVEL001
 100
AcDbLine
   6
CONTINUOUS
  62
7
  10
 258.52749633789
  20
 266.40707397461
  30
0.0
  11
 259.92749023438
  21
 266.49713134766
  31
0.0
   0
LINE
   5
15B
 100
AcDbEntity
   8
LEVEL001
 100
AcDbLine
   6
CONTINUOUS
  62
7
  10
 259.92749023438
  20
 266.49713134766
  30
0.0
  11
 260.44671630859
  21
 267.03417968750
  31
0.0
   0
LINE
   5
15C
 100
AcDbEntity
   8
LEVEL001
 100
AcDbLine
   6
CONTINUOUS
  62
7
  10
 260.44671630859
  20
 267.03417968750
  30
0.0
  11
 263.42749023438
  21
 267.03417968750
  31
0.0
   0
LINE
   5
15D
 100
AcDbEntity
   8
LEVEL001
 100
AcDbLine
   6
CONTINUOUS
  62
7
  10
 263.42749023438
  20
 267.03417968750
  30
0.0
  11
 263.42749023438
  21
 262.95251464844
  31
0.0
   0
LINE
   5
15E
 100
AcDbEntity
   8
LEVEL001
 100
AcDbLine
   6
CONTINUOUS
  62
7
  10
 263.42749023438
  20
 262.95251464844
  30
0.0
  11
 260.44671630859
  21
 262.95251464844
  31
0.0
   0
LINE
   5
15F
 100
AcDbEntity
   8
LEVEL001
 100
AcDbLine
   6
CONTINUOUS
  62
7
  10
 260.44671630859
  20
 262.95251464844
  30
0.0
  11
 259.92749023438
  21
 263.48956298828
  31
0.0
   0
LINE
   5
160
 100
AcDbEntity
   8
LEVEL001
 100
AcDbLine
   6
CONTINUOUS
  62
7
  10
 259.92749023438
  20
 263.48956298828
  30
0.0
  11
 258.52749633789
  21
 263.57962036133
  31
0.0
   0
LINE
   5
161
 100
AcDbEntity
   8
LEVEL001
 100
AcDbLine
   6
CONTINUOUS
  62
7
  10
 268.15249633789
  20
 259.74334716797
  30
0.0
  11
 268.15249633789
  21
 270.24334716797
  31
0.0
   0
LINE
   5
162
 100
AcDbEntity
   8
LEVEL001
 100
AcDbLine
   6
CONTINUOUS
  62
7
  10
 268.15249633789
  20
 270.24334716797
  30
0.0
  11
 272.00250244141
  21
 270.24334716797
  31
0.0
   0
LINE
   5
163
 100
AcDbEntity
   8
LEVEL001
 100
AcDbLine
   6
CONTINUOUS
  62
7
  10
 272.00250244141
  20
 270.24334716797
  30
0.0
  11
 272.00250244141
  21
 259.74334716797
  31
0.0
   0
LINE
   5
164
 100
AcDbEntity
   8
LEVEL001
 100
AcDbLine
   6
CONTINUOUS
  62
7
  10
 272.00250244141
  20
 259.74334716797
  30
0.0
  11
 268.15249633789
  21
 259.74334716797
  31
0.0
   0
LINE
   5
165
 100
AcDbEntity
   8
LEVEL001
 100
AcDbLine
   6
CONTINUOUS
  62
7
  10
 259.92749023438
  20
 268.01858520508
  30
0.0
  11
 256.73532104492
  21
 267.91882324219
  31
0.0
   0
LINE
   5
166
 100
AcDbEntity
   8
LEVEL001
 100
AcDbLine
   6
CONTINUOUS
  62
7
  10
 259.92749023438
  20
 261.96810913086
  30
0.0
  11
 256.73339843750
  21
 262.06796264648
  31
0.0
   0
LINE
   5
167
 100
AcDbEntity
   8
LEVEL001
 100
AcDbLine
   6
DASHDOT
  62
1
  10
 250.36428833008
  20
 278.36431884766
  30
0.0
  11
 246.40452575684
  21
 274.40451049805
  31
0.0
   0
LINE
   5
168
 100
AcDbEntity
   8
LEVEL001
 100
AcDbLine
   6
DASHDOT
  62
1
  10
 250.36428833008
  20
 251.63571166992
  30
0.0
  11
 246.40449523926
  21
 255.59548950195
  31
0.0
   0
ARC
   5
169
 100
AcDbEntity
   8
LEVEL001
   6
DASHDOT
  62
1
 100
AcDbCircle
  10
 237.00000000000
  20
 265.00001667747
  30
0.0
  40
 13.300000190735
 100
AcDbArc
  50
 246.77669180171
  51
 293.22330819829
   0
ARC
   5
16A
 100
AcDbEntity
   8
LEVEL001
   6
DASHDOT
  62
1
 100
AcDbCircle
  10
 237.00004204245
  20
 265.00003782444
  30
0.0
  40
 16.100000381470
 100
AcDbArc
  50
 301.71152339951
  51
 328.28814249386
   0
ARC
   5
16B
 100
AcDbEntity
   8
LEVEL001
   6
DASHDOT
  62
1
 100
AcDbCircle
  10
 237.00001154022
  20
 265.00001154022
  30
0.0
  40
 16.100000381470
 100
AcDbArc
  50
 31.711650999133
  51
 58.288349000865
   0
LINE
   5
16C
 100
AcDbEntity
   8
LEVEL001
 100
AcDbLine
   6
DASHDOT
  62
1
  10
 237.00000000000
  20
 286.00000000000
  30
0.0
  11
 237.00000000000
  21
 244.00000000000
  31
0.0
   0
LINE
   5
16D
 100
AcDbEntity
   8
LEVEL001
 100
AcDbLine
   6
DASHDOT
  62
1
  10
 223.63569641113
  20
 251.63568115234
  30
0.0
  11
 227.59548950195
  21
 255.59548950195
  31
0.0
   0
ARC
   5
16E
 100
AcDbEntity
   8
LEVEL001
   6
DASHDOT
  62
1
 100
AcDbCircle
  10
 236.99998263991
  20
 265.00002257341
  30
0.0
  40
 16.100000381470
 100
AcDbArc
  50
 211.71179370652
  51
 238.28837334704
   0
LINE
   5
16F
 100
AcDbEntity
   8
LEVEL001
 100
AcDbLine
   6
DASHDOT
  62
1
  10
 223.63569641113
  20
 278.36428833008
  30
0.0
  11
 227.59550476074
  21
 274.40451049805
  31
0.0
   0
ARC
   5
170
 100
AcDbEntity
   8
LEVEL001
   6
DASHDOT
  62
1
 100
AcDbCircle
  10
 237.00001314209
  20
 265.00002679130
  30
0.0
  40
 16.100000381470
 100
AcDbArc
  50
 121.71175425253
  51
 148.28841280054
   0
ARC
   5
171
 100
AcDbEntity
   8
LEVEL001
   6
DASHDOT
  62
1
 100
AcDbCircle
  10
 277.42749634393
  20
 269.54334107047
  30
0.0
  40
 0.34999999403954
 100
AcDbArc
  50
 359.99899985641
  51
 90.001000147478
   0
LINE
   5
172
 100
AcDbEntity
   8
LEVEL001
 100
AcDbLine
   6
DASHDOT
  62
1
  10
 274.62750244141
  20
 269.89334106445
  30
0.0
  11
 277.42749023438
  21
 269.89334106445
  31
0.0
   0
ARC
   5
173
 100
AcDbEntity
   8
LEVEL001
   6
DASHDOT
  62
1
 100
AcDbCircle
  10
 277.42749634390
  20
 260.44335326550
  30
0.0
  40
 0.34999999403954
 100
AcDbArc
  50
 269.99899985641
  51
 0.10001397358615E-2
   0
LINE
   5
174
 100
AcDbEntity
   8
LEVEL001
 100
AcDbLine
   6
DASHDOT
  62
1
  10
 274.62750244141
  20
 260.09335327148
  30
0.0
  11
 277.42749023438
  21
 260.09335327148
  31
0.0
   0
LINE
   5
175
 100
AcDbEntity
   8
LEVEL001
 100
AcDbLine
   6
DASHDOT
  62
1
  10
 277.77749633789
  20
 269.54333496094
  30
0.0
  11
 277.77749633789
  21
 260.44335937500
  31
0.0
   0
CIRCLE
   5
176
 100
AcDbEntity
   8
LEVEL001
 100
AcDbCircle
   6
DASHDOT
  62
1
  10
 278.82748413086
  20
 264.99334716797
  30
0.0
  40
 0.52499997615814
   0
ARC
   5
177
 100
AcDbEntity
   8
LEVEL001
   6
DASHDOT
  62
1
 100
AcDbCircle
  10
 274.62749633188
  20
 260.44335326547
  30
0.0
  40
 0.34999999403954
 100
AcDbArc
  50
 179.99899985641
  51
 270.00100014450
   0
ARC
   5
178
 100
AcDbEntity
   8
LEVEL001
   6
DASHDOT
  62
1
 100
AcDbCircle
  10
 274.62749633188
  20
 269.54334107046
  30
0.0
  40
 0.34999999403954
 100
AcDbArc
  50
 89.998999856412
  51
 180.00100014229
   0
ARC
   5
179
 100
AcDbEntity
   8
LEVEL001
   6
DASHDOT
  62
1
 100
AcDbCircle
  10
 278.47749632574
  20
 266.91835325932
  30
0.0
  40
 0.69999998807907
 100
AcDbArc
  50
 180.00149774335
  51
 269.99850225653
   0
ARC
   5
17A
 100
AcDbEntity
   8
LEVEL001
   6
DASHDOT
  62
1
 100
AcDbCircle
  10
 278.47749632573
  20
 263.06834107662
  30
0.0
  40
 0.69999998807907
 100
AcDbArc
  50
 90.001497743353
  51
 179.99850225769
   0
LINE
   5
17B
 100
AcDbEntity
   8
LEVEL001
 100
AcDbLine
   6
DASHDOT
  62
1
  10
 278.47747802734
  20
 266.21835327148
  30
0.0
  11
 278.65249633789
  21
 266.21835327148
  31
0.0
   0
LINE
   5
17C
 100
AcDbEntity
   8
LEVEL001
 100
AcDbLine
   6
DASHDOT
  62
1
  10
 278.47747802734
  20
 263.76834106445
  30
0.0
  11
 278.65249633789
  21
 263.76834106445
  31
0.0
   0
ARC
   5
17D
 100
AcDbEntity
   8
LEVEL001
   6
DASHDOT
  62
1
 100
AcDbCircle
  10
 278.65249633789
  20
 264.99334716797
  30
0.0
  40
 1.2250061035156
 100
AcDbArc
  50
 270.00000000000
  51
 90.000000000000
   0
LINE
   5
17E
 100
AcDbEntity
   8
LEVEL001
 100
AcDbLine
   6
DASHDOT
  62
1
  10
 280.92749023438
  20
 264.99334716797
  30
0.0
  11
 216.00000000000
  21
 264.99334716797
  31
0.0
   0
CIRCLE
   5
17F
 100
AcDbEntity
   8
LEVEL001
 100
AcDbCircle
   6
CONTINUOUS
  62
3
  10
 248.38442993164
  20
 276.38442993164
  30
0.0
  40
 1.7500000000000
   0
CIRCLE
   5
180
 100
AcDbEntity
   8
LEVEL001
 100
AcDbCircle
   6
CONTINUOUS
  62
3
  10
 248.38439941406
  20
 253.61557006836
  30
0.0
  40
 1.7500000000000
   0
CIRCLE
   5
181
 100
AcDbEntity
   8
LEVEL001
 100
AcDbCircle
   6
CONTINUOUS
  62
3
  10
 237.00000000000
  20
 251.70001220703
  30
0.0
  40
 2.9158501625061
   0
CIRCLE
   5
182
 100
AcDbEntity
   8
LEVEL001
 100
AcDbCircle
   6
CONTINUOUS
  62
3
  10
 225.61558532715
  20
 253.61557006836
  30
0.0
  40
 1.7500000000000
   0
CIRCLE
   5
183
 100
AcDbEntity
   8
LEVEL001
 100
AcDbCircle
   6
CONTINUOUS
  62
3
  10
 225.61560058594
  20
 276.38442993164
  30
0.0
  40
 1.7500000000000
   0
LINE
   5
184
 100
AcDbEntity
   8
LEVEL001
 100
AcDbLine
   6
CONTINUOUS
  62
3
  10
 259.92749023438
  20
 268.01858520508
  30
0.0
  11
 258.66177368164
  21
 267.67941284180
  31
0.0
   0
LINE
   5
185
 100
AcDbEntity
   8
LEVEL001
 100
AcDbLine
   6
CONTINUOUS
  62
3
  10
 259.92749023438
  20
 261.96810913086
  30
0.0
  11
 258.66177368164
  21
 262.30728149414
  31
0.0
   0
LINE
   5
186
 100
AcDbEntity
   8
LEVEL001
 100
AcDbLine
   6
CONTINUOUS
  62
3
  10
 258.66177368164
  20
 267.67941284180
  30
0.0
  11
 258.66177368164
  21
 266.40707397461
  31
0.0
   0
LINE
   5
187
 100
AcDbEntity
   8
LEVEL001
 100
AcDbLine
   6
CONTINUOUS
  62
3
  10
 258.66177368164
  20
 263.57962036133
  30
0.0
  11
 258.66177368164
  21
 262.30728149414
  31
0.0
   0
LINE
   5
188
 100
AcDbEntity
   8
LEVEL001
 100
AcDbLine
   6
CONTINUOUS
  62
3
  10
 268.15249633789
  20
 260.44335937500
  30
0.0
  11
 272.00250244141
  21
 260.44335937500
  31
0.0
   0
LINE
   5
189
 100
AcDbEntity
   8
LEVEL001
 100
AcDbLine
   6
CONTINUOUS
  62
3
  10
 268.15249633789
  20
 261.14334106445
  30
0.0
  11
 272.00250244141
  21
 261.14334106445
  31
0.0
   0
LINE
   5
18A
 100
AcDbEntity
   8
LEVEL001
 100
AcDbLine
   6
CONTINUOUS
  62
3
  10
 268.15249633789
  20
 261.84335327148
  30
0.0
  11
 272.00250244141
  21
 261.84335327148
  31
0.0
   0
LINE
   5
18B
 100
AcDbEntity
   8
LEVEL001
 100
AcDbLine
   6
CONTINUOUS
  62
3
  10
 268.15249633789
  20
 262.54333496094
  30
0.0
  11
 272.00250244141
  21
 262.54333496094
  31
0.0
   0
LINE
   5
18C
 100
AcDbEntity
   8
LEVEL001
 100
AcDbLine
   6
CONTINUOUS
  62
3
  10
 268.15249633789
  20
 263.24334716797
  30
0.0
  11
 272.00250244141
  21
 263.24334716797
  31
0.0
   0
LINE
   5
18D
 100
AcDbEntity
   8
LEVEL001
 100
AcDbLine
   6
CONTINUOUS
  62
3
  10
 268.15249633789
  20
 263.94335937500
  30
0.0
  11
 272.00250244141
  21
 263.94335937500
  31
0.0
   0
LINE
   5
18E
 100
AcDbEntity
   8
LEVEL001
 100
AcDbLine
   6
CONTINUOUS
  62
3
  10
 268.15249633789
  20
 264.64334106445
  30
0.0
  11
 272.00250244141
  21
 264.64334106445
  31
0.0
   0
LINE
   5
18F
 100
AcDbEntity
   8
LEVEL001
 100
AcDbLine
   6
CONTINUOUS
  62
3
  10
 268.15249633789
  20
 265.34335327148
  30
0.0
  11
 272.00250244141
  21
 265.34335327148
  31
0.0
   0
LINE
   5
190
 100
AcDbEntity
   8
LEVEL001
 100
AcDbLine
   6
CONTINUOUS
  62
3
  10
 268.15249633789
  20
 266.04333496094
  30
0.0
  11
 272.00250244141
  21
 266.04333496094
  31
0.0
   0
LINE
   5
191
 100
AcDbEntity
   8
LEVEL001
 100
AcDbLine
   6
CONTINUOUS
  62
3
  10
 268.15249633789
  20
 266.74334716797
  30
0.0
  11
 272.00250244141
  21
 266.74334716797
  31
0.0
   0
LINE
   5
192
 100
AcDbEntity
   8
LEVEL001
 100
AcDbLine
   6
CONTINUOUS
  62
3
  10
 268.15249633789
  20
 267.44335937500
  30
0.0
  11
 272.00250244141
  21
 267.44335937500
  31
0.0
   0
LINE
   5
193
 100
AcDbEntity
   8
LEVEL001
 100
AcDbLine
   6
CONTINUOUS
  62
3
  10
 268.15249633789
  20
 268.14334106445
  30
0.0
  11
 272.00250244141
  21
 268.14334106445
  31
0.0
   0
LINE
   5
194
 100
AcDbEntity
   8
LEVEL001
 100
AcDbLine
   6
CONTINUOUS
  62
3
  10
 268.15249633789
  20
 268.84335327148
  30
0.0
  11
 272.00250244141
  21
 268.84335327148
  31
0.0
   0
LINE
   5
195
 100
AcDbEntity
   8
LEVEL001
 100
AcDbLine
   6
CONTINUOUS
  62
3
  10
 268.15249633789
  20
 269.54333496094
  30
0.0
  11
 272.00250244141
  21
 269.54333496094
  31
0.0
   0
LINE
   5
196
 100
AcDbEntity
   8
LEVEL001
 100
AcDbLine
   6
CONTINUOUS
  62
3
  10
 258.66177368164
  20
 267.67941284180
  30
0.0
  11
 256.77716064453
  21
 267.62054443359
  31
0.0
   0
LINE
   5
197
 100
AcDbEntity
   8
LEVEL001
 100
AcDbLine
   6
CONTINUOUS
  62
3
  10
 258.66177368164
  20
 262.30728149414
  30
0.0
  11
 256.77542114258
  21
 262.36624145508
  31
0.0
   0
LINE
   5
198
 100
AcDbEntity
   8
LEVEL003
 100
AcDbLine
   6
CONTINUOUS
  62
3
  10
 252.50000000000
  20
 245.00000000000
  30
0.0
  11
 277.50000000000
  21
 245.00000000000
  31
0.0
   0
TEXT
   5
199
 100
AcDbEntity
   8
LEVEL003
  62
3
 100
AcDbText
  10
 254.50524902344
  20
 245.00000000000
  30
0.0
  40
 4.0000000000000
   1
Ａ　矢　視
   7
STANDARD
 100
AcDbText
   0
LINE
   5
19A
 100
AcDbEntity
   8
LEVEL001
 100
AcDbLine
   6
CONTINUOUS
  62
7
  10
 141.00000000000
  20
 239.00000000000
  30
0.0
  11
 140.00000000000
  21
 240.00000000000
  31
0.0
   0
LINE
   5
19B
 100
AcDbEntity
   8
LEVEL001
 100
AcDbLine
   6
CONTINUOUS
  62
7
  10
 141.00000000000
  20
 230.00000000000
  30
0.0
  11
 141.00000000000
  21
 239.00000000000
  31
0.0
   0
LINE
   5
19C
 100
AcDbEntity
   8
LEVEL001
 100
AcDbLine
   6
CONTINUOUS
  62
7
  10
 140.00000000000
  20
 240.00000000000
  30
0.0
  11
 110.00000000000
  21
 240.00000000000
  31
0.0
   0
ARC
   5
19D
 100
AcDbEntity
   8
LEVEL001
   6
CONTINUOUS
  62
7
 100
AcDbCircle
  10
 141.35961179686
  20
 229.50000000005
  30
0.0
  40
 0.50000000000000
 100
AcDbArc
  50
 14.037311601679
  51
 89.999158467709
   0
LINE
   5
19E
 100
AcDbEntity
   8
LEVEL001
 100
AcDbLine
   6
CONTINUOUS
  62
7
  10
 141.84468078613
  20
 229.62127685547
  30
0.0
  11
 142.50000000000
  21
 227.00000000000
  31
0.0
   0
LINE
   5
19F
 100
AcDbEntity
   8
LEVEL001
 100
AcDbLine
   6
CONTINUOUS
  62
3
  10
 164.00000000000
  20
 187.00000000000
  30
0.0
  11
 165.00000000000
  21
 183.26794433594
  31
0.0
   0
LINE
   5
1A0
 100
AcDbEntity
   8
LEVEL001
 100
AcDbLine
   6
CONTINUOUS
  62
7
  10
 163.50000000000
  20
 226.00000000000
  30
0.0
  11
 162.50000000000
  21
 227.00000000000
  31
0.0
   0
LINE
   5
1A1
 100
AcDbEntity
   8
LEVEL001
 100
AcDbLine
   6
CONTINUOUS
  62
7
  10
 163.50000000000
  20
 226.00000000000
  30
0.0
  11
 163.50000000000
  21
 222.00000000000
  31
0.0
   0
LINE
   5
1A2
 100
AcDbEntity
   8
LEVEL001
 100
AcDbLine
   6
CONTINUOUS
  62
7
  10
 163.50000000000
  20
 222.00000000000
  30
0.0
  11
 165.00000000000
  21
 220.50000000000
  31
0.0
   0
LINE
   5
1A3
 100
AcDbEntity
   8
LEVEL001
 100
AcDbLine
   6
CONTINUOUS
  62
7
  10
 165.00000000000
  20
 220.50000000000
  30
0.0
  11
 165.00000000000
  21
 182.00000000000
  31
0.0
   0
LINE
   5
1A4
 100
AcDbEntity
   8
LEVEL001
 100
AcDbLine
   6
CONTINUOUS
  62
7
  10
 165.00000000000
  20
 182.00000000000
  30
0.0
  11
 167.00000000000
  21
 177.00000000000
  31
0.0
   0
LINE
   5
1A5
 100
AcDbEntity
   8
LEVEL001
 100
AcDbLine
   6
CONTINUOUS
  62
7
  10
 167.00000000000
  20
 49.000000000000
  30
0.0
  11
 165.00000000000
  21
 47.000000000000
  31
0.0
   0
LINE
   5
1A6
 100
AcDbEntity
   8
LEVEL001
 100
AcDbLine
   6
DASHDOT
  62
1
  10
 148.00000000000
  20
 44.000000000000
  30
0.0
  11
 148.00000000000
  21
 74.936798095703
  31
0.0
   0
LINE
   5
1A7
 100
AcDbEntity
   8
LEVEL001
 100
AcDbLine
   6
CONTINUOUS
  62
7
  10
 165.00000000000
  20
 47.000000000000
  30
0.0
  11
 110.00000000000
  21
 47.000000000000
  31
0.0
   0
LINE
   5
1A8
 100
AcDbEntity
   8
LEVEL001
 100
AcDbLine
   6
CONTINUOUS
  62
7
  10
 53.000000000000
  20
 49.000000000000
  30
0.0
  11
 55.000000000000
  21
 47.000000000000
  31
0.0
   0
LINE
   5
1A9
 100
AcDbEntity
   8
LEVEL001
 100
AcDbLine
   6
CONTINUOUS
  62
7
  10
 53.000000000000
  20
 177.00000000000
  30
0.0
  11
 53.000000000000
  21
 49.000000000000
  31
0.0
   0
LINE
   5
1AA
 100
AcDbEntity
   8
LEVEL001
 100
AcDbLine
   6
CONTINUOUS
  62
7
  10
 55.000000000000
  20
 47.000000000000
  30
0.0
  11
 110.00000000000
  21
 47.000000000000
  31
0.0
   0
LINE
   5
1AB
 100
AcDbEntity
   8
LEVEL001
 100
AcDbLine
   6
CONTINUOUS
  62
7
  10
 56.500000000000
  20
 226.00000000000
  30
0.0
  11
 57.500000000000
  21
 227.00000000000
  31
0.0
   0
LINE
   5
1AC
 100
AcDbEntity
   8
LEVEL001
 100
AcDbLine
   6
CONTINUOUS
  62
7
  10
 56.500000000000
  20
 226.00000000000
  30
0.0
  11
 56.500000000000
  21
 222.00000000000
  31
0.0
   0
LINE
   5
1AD
 100
AcDbEntity
   8
LEVEL001
 100
AcDbLine
   6
CONTINUOUS
  62
7
  10
 55.000000000000
  20
 182.00000000000
  30
0.0
  11
 53.000000000000
  21
 177.00000000000
  31
0.0
   0
LINE
   5
1AE
 100
AcDbEntity
   8
LEVEL001
 100
AcDbLine
   6
CONTINUOUS
  62
7
  10
 79.000000000000
  20
 239.00000000000
  30
0.0
  11
 80.000000000000
  21
 240.00000000000
  31
0.0
   0
LINE
   5
1AF
 100
AcDbEntity
   8
LEVEL001
 100
AcDbLine
   6
CONTINUOUS
  62
7
  10
 79.000000000000
  20
 230.00000000000
  30
0.0
  11
 79.000000000000
  21
 239.00000000000
  31
0.0
   0
LINE
   5
1B0
 100
AcDbEntity
   8
LEVEL001
 100
AcDbLine
   6
CONTINUOUS
  62
7
  10
 80.000000000000
  20
 240.00000000000
  30
0.0
  11
 110.00000000000
  21
 240.00000000000
  31
0.0
   0
ARC
   5
1B1
 100
AcDbEntity
   8
LEVEL001
   6
CONTINUOUS
  62
7
 100
AcDbCircle
  10
 78.640388203126
  20
 229.50000000005
  30
0.0
  40
 0.50000000000000
 100
AcDbArc
  50
 90.000841531833
  51
 165.96268839797
   0
LINE
   5
1B2
 100
AcDbEntity
   8
LEVEL001
 100
AcDbLine
   6
CONTINUOUS
  62
7
  10
 78.155319213867
  20
 229.62127685547
  30
0.0
  11
 77.500000000000
  21
 227.00000000000
  31
0.0
   0
LINE
   5
1B3
 100
AcDbEntity
   8
LEVEL001
 100
AcDbLine
   6
CONTINUOUS
  62
7
  10
 57.500000000000
  20
 227.00000000000
  30
0.0
  11
 110.00000000000
  21
 227.00000000000
  31
0.0
   0
LINE
   5
1B4
 100
AcDbEntity
   8
LEVEL001
 100
AcDbLine
   6
CONTINUOUS
  62
7
  10
 110.00000000000
  20
 230.00000000000
  30
0.0
  11
 78.640380859375
  21
 230.00000000000
  31
0.0
   0
LINE
   5
1B5
 100
AcDbEntity
   8
LEVEL001
 100
AcDbLine
   6
CONTINUOUS
  62
7
  10
 53.000000000000
  20
 49.000000000000
  30
0.0
  11
 110.00000000000
  21
 49.000000000000
  31
0.0
   0
LINE
   5
1B6
 100
AcDbEntity
   8
LEVEL001
 100
AcDbLine
   6
CONTINUOUS
  62
7
  10
 53.000000000000
  20
 177.00000000000
  30
0.0
  11
 110.00000000000
  21
 177.00000000000
  31
0.0
   0
LINE
   5
1B7
 100
AcDbEntity
   8
LEVEL001
 100
AcDbLine
   6
CONTINUOUS
  62
7
  10
 55.000000000000
  20
 182.00000000000
  30
0.0
  11
 110.00000000000
  21
 182.00000000000
  31
0.0
   0
LINE
   5
1B8
 100
AcDbEntity
   8
LEVEL001
 100
AcDbLine
   6
CONTINUOUS
  62
7
  10
 55.000000000000
  20
 183.75000000000
  30
0.0
  11
 110.00000000000
  21
 183.75000000000
  31
0.0
   0
LINE
   5
1B9
 100
AcDbEntity
   8
LEVEL001
 100
AcDbLine
   6
CONTINUOUS
  62
7
  10
 79.000000000000
  20
 239.00000000000
  30
0.0
  11
 110.00000000000
  21
 239.00000000000
  31
0.0
   0
LINE
   5
1BA
 100
AcDbEntity
   8
LEVEL001
 100
AcDbLine
   6
CONTINUOUS
  62
7
  10
 56.500000000000
  20
 226.00000000000
  30
0.0
  11
 110.00000000000
  21
 226.00000000000
  31
0.0
   0
LINE
   5
1BB
 100
AcDbEntity
   8
LEVEL001
 100
AcDbLine
   6
DASHDOT
  62
1
  10
 64.000000000000
  20
 44.000000000000
  30
0.0
  11
 64.000000000000
  21
 70.252777099609
  31
0.0
   0
LINE
   5
1BC
 100
AcDbEntity
   8
LEVEL001
 100
AcDbLine
   6
DOT
  62
7
  10
 59.000000000000
  20
 47.000000000000
  30
0.0
  11
 59.750000000000
  21
 47.750000000000
  31
0.0
   0
LINE
   5
1BD
 100
AcDbEntity
   8
LEVEL001
 100
AcDbLine
   6
DOT
  62
7
  10
 59.750000000000
  20
 47.750000000000
  30
0.0
  11
 59.750000000000
  21
 64.799041748047
  31
0.0
   0
LINE
   5
1BE
 100
AcDbEntity
   8
LEVEL001
 100
AcDbLine
   6
DOT
  62
7
  10
 59.750000000000
  20
 64.799041748047
  30
0.0
  11
 64.000000000000
  21
 67.252777099609
  31
0.0
   0
LINE
   5
1BF
 100
AcDbEntity
   8
LEVEL001
 100
AcDbLine
   6
DOT
  62
7
  10
 64.000000000000
  20
 67.252777099609
  30
0.0
  11
 68.250000000000
  21
 64.799041748047
  31
0.0
   0
LINE
   5
1C0
 100
AcDbEntity
   8
LEVEL001
 100
AcDbLine
   6
DOT
  62
7
  10
 68.250000000000
  20
 64.799041748047
  30
0.0
  11
 68.250000000000
  21
 47.750000000000
  31
0.0
   0
LINE
   5
1C1
 100
AcDbEntity
   8
LEVEL001
 100
AcDbLine
   6
DOT
  62
7
  10
 68.250000000000
  20
 47.750000000000
  30
0.0
  11
 69.000000000000
  21
 47.000000000000
  31
0.0
   0
LINE
   5
1C2
 100
AcDbEntity
   8
LEVEL001
 100
AcDbLine
   6
DOT
  62
7
  10
 59.750000000000
  20
 47.750000000000
  30
0.0
  11
 68.250000000000
  21
 47.750000000000
  31
0.0
   0
LINE
   5
1C3
 100
AcDbEntity
   8
LEVEL001
 100
AcDbLine
   6
DOT
  62
7
  10
 59.750000000000
  20
 64.799041748047
  30
0.0
  11
 68.250000000000
  21
 64.799041748047
  31
0.0
   0
LINE
   5
1C4
 100
AcDbEntity
   8
LEVEL001
 100
AcDbLine
   6
DOT
  62
3
  10
 68.250000000000
  20
 64.799041748047
  30
0.0
  11
 69.000000000000
  21
 62.000000000000
  31
0.0
   0
LINE
   5
1C5
 100
AcDbEntity
   8
LEVEL001
 100
AcDbLine
   6
DOT
  62
3
  10
 69.000000000000
  20
 62.000000000000
  30
0.0
  11
 69.000000000000
  21
 47.000000000000
  31
0.0
   0
LINE
   5
1C6
 100
AcDbEntity
   8
LEVEL001
 100
AcDbLine
   6
DOT
  62
3
  10
 59.000000000000
  20
 62.000000000000
  30
0.0
  11
 69.000000000000
  21
 62.000000000000
  31
0.0
   0
LINE
   5
1C7
 100
AcDbEntity
   8
LEVEL001
 100
AcDbLine
   6
DOT
  62
3
  10
 59.000000000000
  20
 47.000000000000
  30
0.0
  11
 59.000000000000
  21
 62.000000000000
  31
0.0
   0
LINE
   5
1C8
 100
AcDbEntity
   8
LEVEL001
 100
AcDbLine
   6
DOT
  62
3
  10
 59.000000000000
  20
 62.000000000000
  30
0.0
  11
 59.750000000000
  21
 64.799041748047
  31
0.0
   0
DIMENSION
   5
1C9
 100
AcDbEntity
   8
LEVEL003
   6
CONTINUOUS
  62
3
 100
AcDbDimension
   2
*D1
  10
 79.000000000000
  20
 260.00000000001
  30
0.0
  11
 110.00000190582
  21
 260.00000000001
  31
0.0
  70
128
   1
\A1;%%c62
   3
GMM001
 100
AcDbAlignedDimension
  13
 141.00000000000
  23
 239.00000000000
  33
0.0
  14
 79.000000000000
  24
 239.00000000000
  34
0.0
  50
 180.00000000000
 100
AcDbRotatedDimension
   0
DIMENSION
   5
1CB
 100
AcDbEntity
   8
LEVEL003
   6
CONTINUOUS
  62
3
 100
AcDbDimension
   2
*D2
  10
 167.00000000000
  20
 100.00000000000
  30
0.0
  11
 110.00000000000
  21
 100.00000000000
  31
0.0
  70
128
   1
\A1;%%c114
   3
GMM002
 100
AcDbAlignedDimension
  13
 53.000000000000
  23
 100.00000000000
  33
0.0
  14
 167.00000000000
  24
 100.00000000000
  34
0.0
 100
AcDbRotatedDimension
   0
DIMENSION
   5
1CD
 100
AcDbEntity
   8
LEVEL003
   6
CONTINUOUS
  62
3
 100
AcDbDimension
   2
*D3
  10
 195.00000000000
  20
 222.00000000000
  30
0.0
  11
 195.00000000000
  21
 218.79375456871
  31
0.0
  70
128
   1
\A1;5
   3
GMM003
 100
AcDbAlignedDimension
  13
 195.00000000000
  23
 227.00000000000
  33
0.0
  14
 168.00000000000
  24
 222.00000000000
  34
0.0
  50
 270.00000000000
 100
AcDbRotatedDimension
   0
LINE
   5
1CF
 100
AcDbEntity
   8
LEVEL001
 100
AcDbLine
   6
DASHDOT
  62
1
  10
 110.00000000000
  20
 245.00000000000
  30
0.0
  11
 110.00000000000
  21
 163.11341857910
  31
0.0
   0
TEXT
   5
1D0
 100
AcDbEntity
   8
LEVEL003
  62
3
 100
AcDbText
  10
 185.00000000000
  20
 250.00000000000
  30
0.0
  40
 4.0000000000000
   1
Ｍ１１０×２
   7
STANDARD
 100
AcDbText
   0
LEADER
   5
1D1
 100
AcDbEntity
   8
LEVEL003
   6
CONTINUOUS
  62
3
 100
AcDbLeader
   3
GMM004
  73
0
  74
1
  75
0
  40
 4.0000000000000
  41
0.0
  76
3
  10
 165.00000000000
  20
 215.00000000000
  30
0.0
  10
 185.00000000000
  20
 250.00000000000
  30
0.0
  10
 210.00000000000
  20
 250.00000000000
  30
0.0
  77
3
   0
LINE
   5
1D2
 100
AcDbEntity
   8
LEVEL001
 100
AcDbLine
   6
CONTINUOUS
  62
3
  10
 175.48252868652
  20
 75.445106506348
  30
0.0
  11
 171.96440124512
  21
 74.164611816406
  31
0.0
   0
LINE
   5
1D3
 100
AcDbEntity
   8
LEVEL001
 100
AcDbLine
   6
CONTINUOUS
  62
3
  10
 176.98919677734
  20
 58.223869323730
  30
0.0
  11
 173.30213928223
  21
 58.874008178711
  31
0.0
   0
LINE
   5
1D4
 100
AcDbEntity
   8
LEVEL001
 100
AcDbLine
   6
CONTINUOUS
  62
7
  10
 175.48252868652
  20
 75.445106506348
  30
0.0
  11
 176.88574218750
  21
 76.427665710449
  31
0.0
   0
LINE
   5
1D5
 100
AcDbEntity
   8
LEVEL001
 100
AcDbLine
   6
CONTINUOUS
  62
7
  10
 192.34318542480
  20
 77.779991149902
  30
0.0
  11
 176.88575744629
  21
 76.427635192871
  31
0.0
   0
LINE
   5
1D6
 100
AcDbEntity
   8
LEVEL001
 100
AcDbLine
   6
CONTINUOUS
  62
7
  10
 176.98919677734
  20
 58.223869323730
  30
0.0
  11
 178.54171752930
  21
 57.499938964844
  31
0.0
   0
LINE
   5
1D7
 100
AcDbEntity
   8
LEVEL001
 100
AcDbLine
   6
CONTINUOUS
  62
7
  10
 193.99914550781
  20
 58.852294921875
  30
0.0
  11
 178.54171752930
  21
 57.499938964844
  31
0.0
   0
ARC
   5
1D8
 100
AcDbEntity
   8
LEVEL001
   6
CONTINUOUS
  62
7
 100
AcDbCircle
  10
 193.53242343608
  20
 81.397407555042
  30
0.0
  40
 1.5000000000000
 100
AcDbArc
  50
 94.999499281482
  51
 185.00014240129
   0
LINE
   5
1D9
 100
AcDbEntity
   8
LEVEL001
 100
AcDbLine
   6
CONTINUOUS
  62
7
  10
 193.40170288086
  20
 82.891700744629
  30
0.0
  11
 198.38267517090
  21
 83.327476501465
  31
0.0
   0
ARC
   5
1DA
 100
AcDbEntity
   8
LEVEL001
   6
CONTINUOUS
  62
7
 100
AcDbCircle
  10
 195.79849096765
  20
 55.496345238238
  30
0.0
  40
 1.5000000000000
 100
AcDbArc
  50
 185.00013070336
  51
 274.99961257240
   0
LINE
   5
1DB
 100
AcDbEntity
   8
LEVEL001
 100
AcDbLine
   6
CONTINUOUS
  62
7
  10
 194.30419921875
  20
 55.365608215332
  30
0.0
  11
 192.03813171387
  21
 81.266670227051
  31
0.0
   0
LINE
   5
1DC
 100
AcDbEntity
   8
LEVEL001
 100
AcDbLine
   6
CONTINUOUS
  62
7
  10
 195.92921447754
  20
 54.002052307129
  30
0.0
  11
 200.91018676758
  21
 54.437835693359
  31
0.0
   0
LINE
   5
1DD
 100
AcDbEntity
   8
LEVEL001
 100
AcDbLine
   6
CONTINUOUS
  62
7
  10
 178.54171752930
  20
 57.499938964844
  30
0.0
  11
 178.22193908691
  21
 61.155029296875
  31
0.0
   0
LINE
   5
1DE
 100
AcDbEntity
   8
LEVEL001
 100
AcDbLine
   6
CONTINUOUS
  62
7
  10
 177.20553588867
  20
 72.772544860840
  30
0.0
  11
 176.88574218750
  21
 76.427650451660
  31
0.0
   0
LINE
   5
1DF
 100
AcDbEntity
   8
LEVEL001
 100
AcDbLine
   6
CONTINUOUS
  62
7
  10
 172.60311889648
  20
 62.462051391602
  30
0.0
  11
 185.68960571289
  21
 73.514808654785
  31
0.0
   0
LINE
   5
1E0
 100
AcDbEntity
   8
LEVEL001
 100
AcDbLine
   6
CONTINUOUS
  62
7
  10
 171.89903259277
  20
 70.509681701660
  30
0.0
  11
 186.70600891113
  21
 61.897293090820
  31
0.0
   0
LINE
   5
1E1
 100
AcDbEntity
   8
LEVEL001
 100
AcDbLine
   6
CONTINUOUS
  62
3
  10
 171.96440124512
  20
 74.164596557617
  30
0.0
  11
 172.28125000000
  21
 70.543121337891
  31
0.0
   0
LINE
   5
1E2
 100
AcDbEntity
   8
LEVEL001
 100
AcDbLine
   6
CONTINUOUS
  62
3
  10
 172.98529052734
  20
 62.495483398438
  30
0.0
  11
 173.30213928223
  21
 58.874008178711
  31
0.0
   0
LINE
   5
1E3
 100
AcDbEntity
   8
LEVEL001
 100
AcDbLine
   6
CONTINUOUS
  62
7
  10
 175.48252868652
  20
 75.445106506348
  30
0.0
  11
 175.86138916016
  21
 71.114677429199
  31
0.0
   0
LINE
   5
1E4
 100
AcDbEntity
   8
LEVEL001
 100
AcDbLine
   6
CONTINUOUS
  62
7
  10
 176.61032104492
  20
 62.554298400879
  30
0.0
  11
 176.98919677734
  21
 58.223869323730
  31
0.0
   0
LINE
   5
1E5
 100
AcDbEntity
   8
LEVEL001
 100
AcDbLine
   6
CONTINUOUS
  62
3
  10
 200.77946472168
  20
 55.932128906250
  30
0.0
  11
 211.73759460449
  21
 56.890838623047
  31
0.0
   0
LINE
   5
1E6
 100
AcDbEntity
   8
LEVEL001
 100
AcDbLine
   6
CONTINUOUS
  62
3
  10
 200.60514831543
  20
 57.924514770508
  30
0.0
  11
 211.56329345703
  21
 58.883232116699
  31
0.0
   0
LINE
   5
1E7
 100
AcDbEntity
   8
LEVEL001
 100
AcDbLine
   6
CONTINUOUS
  62
3
  10
 200.43083190918
  20
 59.916900634766
  30
0.0
  11
 211.38897705078
  21
 60.875617980957
  31
0.0
   0
LINE
   5
1E8
 100
AcDbEntity
   8
LEVEL001
 100
AcDbLine
   6
CONTINUOUS
  62
3
  10
 200.25653076172
  20
 61.909294128418
  30
0.0
  11
 211.21466064453
  21
 62.868011474609
  31
0.0
   0
LINE
   5
1E9
 100
AcDbEntity
   8
LEVEL001
 100
AcDbLine
   6
CONTINUOUS
  62
3
  10
 200.08221435547
  20
 63.901679992676
  30
0.0
  11
 211.04035949707
  21
 64.860397338867
  31
0.0
   0
LINE
   5
1EA
 100
AcDbEntity
   8
LEVEL001
 100
AcDbLine
   6
CONTINUOUS
  62
3
  10
 199.90789794922
  20
 65.894073486328
  30
0.0
  11
 210.86604309082
  21
 66.852790832520
  31
0.0
   0
LINE
   5
1EB
 100
AcDbEntity
   8
LEVEL001
 100
AcDbLine
   6
CONTINUOUS
  62
3
  10
 199.73358154297
  20
 67.886459350586
  30
0.0
  11
 210.69172668457
  21
 68.845176696777
  31
0.0
   0
LINE
   5
1EC
 100
AcDbEntity
   8
LEVEL001
 100
AcDbLine
   6
CONTINUOUS
  62
3
  10
 199.55928039551
  20
 69.878852844238
  30
0.0
  11
 210.51741027832
  21
 70.837570190430
  31
0.0
   0
LINE
   5
1ED
 100
AcDbEntity
   8
LEVEL001
 100
AcDbLine
   6
CONTINUOUS
  62
3
  10
 199.38496398926
  20
 71.871238708496
  30
0.0
  11
 210.34310913086
  21
 72.829956054688
  31
0.0
   0
LINE
   5
1EE
 100
AcDbEntity
   8
LEVEL001
 100
AcDbLine
   6
CONTINUOUS
  62
3
  10
 199.21064758301
  20
 73.863632202148
  30
0.0
  11
 210.16879272461
  21
 74.822341918945
  31
0.0
   0
LINE
   5
1EF
 100
AcDbEntity
   8
LEVEL001
 100
AcDbLine
   6
CONTINUOUS
  62
3
  10
 199.03634643555
  20
 75.856018066406
  30
0.0
  11
 209.99447631836
  21
 76.814735412598
  31
0.0
   0
LINE
   5
1F0
 100
AcDbEntity
   8
LEVEL001
 100
AcDbLine
   6
CONTINUOUS
  62
3
  10
 198.86203002930
  20
 77.848411560059
  30
0.0
  11
 209.82017517090
  21
 78.807121276855
  31
0.0
   0
LINE
   5
1F1
 100
AcDbEntity
   8
LEVEL001
 100
AcDbLine
   6
CONTINUOUS
  62
3
  10
 198.68771362305
  20
 79.840797424316
  30
0.0
  11
 209.64585876465
  21
 80.799514770508
  31
0.0
   0
LINE
   5
1F2
 100
AcDbEntity
   8
LEVEL001
 100
AcDbLine
   6
CONTINUOUS
  62
3
  10
 198.51339721680
  20
 81.833183288574
  30
0.0
  11
 209.47154235840
  21
 82.791900634766
  31
0.0
   0
LINE
   5
1F3
 100
AcDbEntity
   8
LEVEL001
 100
AcDbLine
   6
CONTINUOUS
  62
7
  10
 172.60311889648
  20
 62.462051391602
  30
0.0
  11
 171.89903259277
  21
 70.509681701660
  31
0.0
   0
LINE
   5
1F4
 100
AcDbEntity
   8
LEVEL001
 100
AcDbLine
   6
CONTINUOUS
  62
7
  10
 171.89903259277
  20
 70.509681701660
  30
0.0
  11
 175.86138916016
  21
 71.114677429199
  31
0.0
   0
LINE
   5
1F5
 100
AcDbEntity
   8
LEVEL001
 100
AcDbLine
   6
CONTINUOUS
  62
7
  10
 175.86138916016
  20
 71.114677429199
  30
0.0
  11
 177.20553588867
  21
 72.772544860840
  31
0.0
   0
LINE
   5
1F6
 100
AcDbEntity
   8
LEVEL001
 100
AcDbLine
   6
CONTINUOUS
  62
7
  10
 177.20553588867
  20
 72.772544860840
  30
0.0
  11
 185.68960571289
  21
 73.514808654785
  31
0.0
   0
LINE
   5
1F7
 100
AcDbEntity
   8
LEVEL001
 100
AcDbLine
   6
CONTINUOUS
  62
7
  10
 185.68960571289
  20
 73.514808654785
  30
0.0
  11
 186.70600891113
  21
 61.897293090820
  31
0.0
   0
LINE
   5
1F8
 100
AcDbEntity
   8
LEVEL001
 100
AcDbLine
   6
CONTINUOUS
  62
7
  10
 186.70600891113
  20
 61.897293090820
  30
0.0
  11
 178.22193908691
  21
 61.155029296875
  31
0.0
   0
LINE
   5
1F9
 100
AcDbEntity
   8
LEVEL001
 100
AcDbLine
   6
CONTINUOUS
  62
7
  10
 178.22193908691
  20
 61.155029296875
  30
0.0
  11
 176.61032104492
  21
 62.554298400879
  31
0.0
   0
LINE
   5
1FA
 100
AcDbEntity
   8
LEVEL001
 100
AcDbLine
   6
CONTINUOUS
  62
7
  10
 176.61032104492
  20
 62.554298400879
  30
0.0
  11
 172.60311889648
  21
 62.462051391602
  31
0.0
   0
LINE
   5
1FB
 100
AcDbEntity
   8
LEVEL001
 100
AcDbLine
   6
CONTINUOUS
  62
7
  10
 200.95376586914
  20
 53.939735412598
  30
0.0
  11
 198.33909606934
  21
 83.825576782227
  31
0.0
   0
LINE
   5
1FC
 100
AcDbEntity
   8
LEVEL001
 100
AcDbLine
   6
CONTINUOUS
  62
7
  10
 198.33909606934
  20
 83.825576782227
  30
0.0
  11
 209.29722595215
  21
 84.784294128418
  31
0.0
   0
LINE
   5
1FD
 100
AcDbEntity
   8
LEVEL001
 100
AcDbLine
   6
CONTINUOUS
  62
7
  10
 209.29722595215
  20
 84.784294128418
  30
0.0
  11
 211.91191101074
  21
 54.898452758789
  31
0.0
   0
LINE
   5
1FE
 100
AcDbEntity
   8
LEVEL001
 100
AcDbLine
   6
CONTINUOUS
  62
7
  10
 211.91191101074
  20
 54.898452758789
  30
0.0
  11
 200.95376586914
  21
 53.939735412598
  31
0.0
   0
LINE
   5
1FF
 100
AcDbEntity
   8
LEVEL001
 100
AcDbLine
   6
DASHDOT
  62
1
  10
 236.00753784180
  20
 72.063850402832
  30
0.0
  11
 138.44340515137
  21
 63.528068542480
  31
0.0
   0
LEADER
   5
200
 100
AcDbEntity
   8
LEVEL003
   6
CONTINUOUS
  62
3
 100
AcDbLeader
   3
GMM005
  73
0
  74
1
  75
0
  40
 4.0000000000000
  41
0.0
  76
2
  10
 110.00000000000
  20
 22.200012207031
  30
0.0
  10
 110.00000000000
  20
 17.200012207031
  30
0.0
  77
3
   0
TEXT
   5
201
 100
AcDbEntity
   8
LEVEL003
  62
3
 100
AcDbText
  10
 107.92745971680
  20
 12.497001647949
  30
0.0
  40
 4.0000000000000
   1
Ａ
   7
STANDARD
 100
AcDbText
   0
DIMENSION
   5
202
 100
AcDbEntity
   8
LEVEL003
   6
CONTINUOUS
  62
3
 100
AcDbDimension
   2
*D6
  10
 205.00000000000
  20
 230.00000000000
  30
0.0
  11
 205.00000000000
  21
 235.00000000000
  31
0.0
  70
128
   1
\A1;10
   3
GMM006
 100
AcDbAlignedDimension
  13
 140.00000000000
  23
 240.00000000000
  33
0.0
  14
 141.35961914063
  24
 230.00000000000
  34
0.0
  50
 270.00000000000
 100
AcDbRotatedDimension
   0
DIMENSION
   5
204
 100
AcDbEntity
   8
LEVEL003
   6
CONTINUOUS
  62
3
 100
AcDbDimension
   2
*D7
  10
 215.00000000000
  20
 227.00000000000
  30
0.0
  11
 215.00000000000
  21
 233.50000000000
  31
0.0
  70
128
   1
\A1;13
   3
GMM006
 100
AcDbAlignedDimension
  13
 140.00000000000
  23
 240.00000000000
  33
0.0
  14
 162.50000000000
  24
 227.00000000000
  34
0.0
  50
 270.00000000000
 100
AcDbRotatedDimension
   0
DIMENSION
   5
206
 100
AcDbEntity
   8
LEVEL003
   6
CONTINUOUS
  62
3
 100
AcDbDimension
   2
*D8
  10
 215.00000000000
  20
 187.00000000000
  30
0.0
  11
 215.00000000000
  21
 207.00000000000
  31
0.0
  70
128
   1
\A1;40
   3
GMM006
 100
AcDbAlignedDimension
  13
 162.50000000000
  23
 227.00000000000
  33
0.0
  14
 168.00000000000
  24
 187.00000000000
  34
0.0
  50
 270.00000000000
 100
AcDbRotatedDimension
   0
DIMENSION
   5
208
 100
AcDbEntity
   8
LEVEL003
   6
CONTINUOUS
  62
3
 100
AcDbDimension
   2
*D9
  10
 245.00000000000
  20
 47.000000000000
  30
0.0
  11
 245.00000000000
  21
 56.490486145020
  31
0.0
  70
128
   1
\A1;19
   3
GMM007
 100
AcDbAlignedDimension
  13
 166.27290344238
  23
 65.980972290039
  33
0.0
  14
 165.00000000000
  24
 47.000000000000
  34
0.0
  50
 270.00000000000
 100
AcDbRotatedDimension
   0
DIMENSION
   5
20A
 100
AcDbEntity
   8
LEVEL003
   6
CONTINUOUS
  62
3
 100
AcDbDimension
   2
*D10
  10
 255.00000000000
  20
 240.00000000000
  30
0.0
  11
 255.00000000000
  21
 143.50000000000
  31
0.0
  70
128
   1
\A1;193
   3
GMM007
 100
AcDbAlignedDimension
  13
 165.00000000000
  23
 47.000000000000
  33
0.0
  14
 140.00000000000
  24
 240.00000000000
  34
0.0
  50
 90.000000000000
 100
AcDbRotatedDimension
   0
ARC
   5
20C
 100
AcDbEntity
   8
LEVEL001
   6
CONTINUOUS
  62
7
 100
AcDbCircle
  10
 214.45251533411
  20
 83.227685569627
  30
0.0
  40
 1.5000000000000
 100
AcDbArc
  50
 4.9997895938682
  51
 95.000167798498
   0
LINE
   5
20D
 100
AcDbEntity
   8
LEVEL001
 100
AcDbLine
   6
CONTINUOUS
  62
7
  10
 209.34080505371
  20
 84.286193847656
  30
0.0
  11
 214.32177734375
  21
 84.721977233887
  31
0.0
   0
ARC
   5
20E
 100
AcDbEntity
   8
LEVEL001
   6
CONTINUOUS
  62
7
 100
AcDbCircle
  10
 216.71856850112
  20
 57.326620661199
  30
0.0
  40
 1.5000000000000
 100
AcDbArc
  50
 275.00007990625
  51
 5.0001931972058
   0
LINE
   5
20F
 100
AcDbEntity
   8
LEVEL001
 100
AcDbLine
   6
CONTINUOUS
  62
7
  10
 211.86833190918
  20
 55.396553039551
  30
0.0
  11
 216.84930419922
  21
 55.832328796387
  31
0.0
   0
LINE
   5
210
 100
AcDbEntity
   8
LEVEL001
 100
AcDbLine
   6
CONTINUOUS
  62
7
  10
 215.94680786133
  20
 83.358413696289
  30
0.0
  11
 218.21286010742
  21
 57.457359313965
  31
0.0
   0
ARC
   5
211
 100
AcDbEntity
   8
LEVEL001
   6
DASHDOT
  62
1
 100
AcDbCircle
  10
 224.91255816295
  20
 84.142819929665
  30
0.0
  40
 1.0000000000000
 100
AcDbArc
  50
 5.0002758596766
  51
 94.999625272644
   0
LINE
   5
212
 100
AcDbEntity
   8
LEVEL001
 100
AcDbLine
   6
DASHDOT
  62
1
  10
 216.85585021973
  20
 84.441764831543
  30
0.0
  11
 224.82540893555
  21
 85.139015197754
  31
0.0
   0
ARC
   5
213
 100
AcDbEntity
   8
LEVEL001
   6
DASHDOT
  62
1
 100
AcDbCircle
  10
 227.17862528264
  20
 58.241762320604
  30
0.0
  40
 1.0000000000000
 100
AcDbArc
  50
 274.99980229364
  51
 5.0000226423406
   0
LINE
   5
214
 100
AcDbEntity
   8
LEVEL001
 100
AcDbLine
   6
DASHDOT
  62
1
  10
 219.29621887207
  20
 56.548316955566
  30
0.0
  11
 227.26577758789
  21
 57.245567321777
  31
0.0
   0
LINE
   5
215
 100
AcDbEntity
   8
LEVEL001
 100
AcDbLine
   6
DASHDOT
  62
1
  10
 225.90875244141
  20
 84.229980468750
  30
0.0
  11
 228.17481994629
  21
 58.328918457031
  31
0.0
   0
ARC
   5
216
 100
AcDbEntity
   8
LEVEL001
   6
DASHDOT
  62
1
 100
AcDbCircle
  10
 219.20905516420
  20
 57.544510956768
  30
0.0
  40
 1.0000000000000
 100
AcDbArc
  50
 184.99976419324
  51
 275.00045811136
   0
ARC
   5
217
 100
AcDbEntity
   8
LEVEL001
   6
DASHDOT
  62
1
 100
AcDbCircle
  10
 216.94300252498
  20
 83.445569832712
  30
0.0
  40
 1.0000000000000
 100
AcDbArc
  50
 94.999802293637
  51
 185.00002264207
   0
ARC
   5
218
 100
AcDbEntity
   8
LEVEL001
   6
DASHDOT
  62
1
 100
AcDbCircle
  10
 228.55481304131
  20
 76.932826586240
  30
0.0
  40
 2.0000000000000
 100
AcDbArc
  50
 185.00002002797
  51
 275.00004169121
   0
CIRCLE
   5
219
 100
AcDbEntity
   8
LEVEL001
 100
AcDbCircle
   6
DASHDOT
  62
1
  10
 230.03036499023
  20
 71.540916442871
  30
0.0
  40
 1.5000000000000
   0
ARC
   5
21A
 100
AcDbEntity
   8
LEVEL001
   6
DASHDOT
  62
1
 100
AcDbCircle
  10
 229.51353789303
  20
 65.974690489778
  30
0.0
  40
 2.0000000000000
 100
AcDbArc
  50
 95.000237762297
  51
 185.00006074099
   0
LINE
   5
21B
 100
AcDbEntity
   8
LEVEL001
 100
AcDbLine
   6
DASHDOT
  62
1
  10
 229.33921813965
  20
 67.967079162598
  30
0.0
  11
 229.83731079102
  21
 68.010658264160
  31
0.0
   0
LINE
   5
21C
 100
AcDbEntity
   8
LEVEL001
 100
AcDbLine
   6
DASHDOT
  62
1
  10
 228.72912597656
  20
 74.940437316895
  30
0.0
  11
 229.22721862793
  21
 74.984016418457
  31
0.0
   0
ARC
   5
21D
 100
AcDbEntity
   8
LEVEL001
   6
DASHDOT
  62
1
 100
AcDbCircle
  10
 229.53623715472
  20
 71.497684886588
  30
0.0
  40
 3.5000000000000
 100
AcDbArc
  50
 274.93474115644
  51
 95.065297621864
   0
DIMENSION
   5
21E
 100
AcDbEntity
   8
LEVEL003
   6
CONTINUOUS
  62
3
 100
AcDbDimension
   2
*D11
  10
 244.80366707677
  20
 72.832624921520
  30
0.0
  11
 245.10190722332
  21
 66.352109686236
  31
0.0
  70
133
   1
\A1;5%%d
  53
0.0
   3
GMM008
 100
AcDb3PointAngularDimension
  13
 245.10278320313
  23
 65.980972290039
  33
0.0
  14
 236.00753784180
  24
 72.063850402832
  34
0.0
  15
 166.48011779785
  25
 65.980972290039
  35
0.0
   0
TEXT
   5
220
 100
AcDbEntity
   8
LEVEL003
  62
3
 100
AcDbText
  10
 30.000000000000
  20
 35.000000000000
  30
0.0
  40
 4.0000000000000
   1
４－Ｍ１０
   7
STANDARD
 100
AcDbText
   0
TEXT
   5
221
 100
AcDbEntity
   8
LEVEL003
  62
3
 100
AcDbText
  10
 30.000000000000
  20
 29.666666666667
  30
0.0
  40
 4.0000000000000
   1
タップ　１５
   7
STANDARD
 100
AcDbText
   0
LEADER
   5
222
 100
AcDbEntity
   8
LEVEL003
   6
CONTINUOUS
  62
3
 100
AcDbLeader
   3
GMM009
  73
0
  74
1
  75
0
  40
 4.0000000000000
  41
0.0
  76
3
  10
 64.000000000000
  20
 47.000000000000
  30
0.0
  10
 55.000000000000
  20
 35.000000000000
  30
0.0
  10
 30.000000000000
  20
 35.000000000000
  30
0.0
  77
3
   0
LINE
   5
223
 100
AcDbEntity
   8
LEVEL001
 100
AcDbLine
   6
DASHDOT
  62
1
  10
 110.00000000000
  20
 100.00000000000
  30
0.0
  11
 110.00000000000
  21
 42.500000000000
  31
0.0
   0
LEADER
   5
224
 100
AcDbEntity
   8
LEVEL003
   6
CONTINUOUS
  62
3
 100
AcDbLeader
   3
GMM005
  73
0
  74
1
  75
0
  40
 4.0000000000000
  41
0.0
  76
2
  10
 148.00000000000
  20
 47.000000000000
  30
0.0
  10
 180.00000000000
  20
 35.000000000000
  30
0.0
  77
3
   0
LEADER
   5
225
 100
AcDbEntity
   8
LEVEL003
   6
CONTINUOUS
  62
3
 100
AcDbLeader
   3
GMM004
  73
0
  74
1
  75
0
  40
 4.0000000000000
  41
0.0
  76
3
  10
 170.84822082520
  20
 57.879455566406
  30
0.0
  10
 180.00000000000
  20
 35.000000000000
  30
0.0
  10
 215.00000000000
  20
 35.000000000000
  30
0.0
  77
3
   0
TEXT
   5
226
 100
AcDbEntity
   8
LEVEL003
  62
3
 100
AcDbText
  10
 180.00000000000
  20
 35.000000000000
  30
0.0
  40
 4.0000000000000
   1
２－ＮＰＴ３／８
   7
STANDARD
 100
AcDbText
   0
LINE
   5
227
 100
AcDbEntity
   8
LEVEL001
 100
AcDbLine
   6
DOT
  62
3
  10
 139.95390319824
  20
 56.116394042969
  30
0.0
  11
 140.83750915527
  21
 57.000000000000
  31
0.0
   0
LINE
   5
228
 100
AcDbEntity
   8
LEVEL001
 100
AcDbLine
   6
DOT
  62
3
  10
 140.83750915527
  20
 57.000000000000
  30
0.0
  11
 155.16247558594
  21
 57.000000000000
  31
0.0
   0
LINE
   5
229
 100
AcDbEntity
   8
LEVEL001
 100
AcDbLine
   6
DOT
  62
3
  10
 139.66900634766
  20
 47.000000000000
  30
0.0
  11
 140.55261230469
  21
 47.883605957031
  31
0.0
   0
LINE
   5
22A
 100
AcDbEntity
   8
LEVEL001
 100
AcDbLine
   6
DOT
  62
3
  10
 140.58023071289
  20
 47.000000000000
  30
0.0
  11
 139.69662475586
  21
 47.883605957031
  31
0.0
   0
LINE
   5
22B
 100
AcDbEntity
   8
LEVEL001
 100
AcDbLine
   6
DOT
  62
3
  10
 140.13773057090
  20
 61.998048487611
  30
0.0
  11
 139.66900634766
  21
 47.000000000000
  31
0.0
   0
LINE
   5
22C
 100
AcDbEntity
   8
LEVEL001
 100
AcDbLine
   6
DOT
  62
3
  10
 156.33099365234
  20
 47.000000000000
  30
0.0
  11
 155.44738769531
  21
 47.883605957031
  31
0.0
   0
LINE
   5
22D
 100
AcDbEntity
   8
LEVEL001
 100
AcDbLine
   6
DOT
  62
3
  10
 155.41978454590
  20
 47.000000000000
  30
0.0
  11
 156.30339050293
  21
 47.883605957031
  31
0.0
   0
LINE
   5
22E
 100
AcDbEntity
   8
LEVEL001
 100
AcDbLine
   6
DOT
  62
3
  10
 156.04611206055
  20
 56.116363525391
  30
0.0
  11
 155.16247558594
  21
 57.000000000000
  31
0.0
   0
LINE
   5
22F
 100
AcDbEntity
   8
LEVEL001
 100
AcDbLine
   6
DOT
  62
3
  10
 156.04609680176
  20
 56.116394042969
  30
0.0
  11
 139.95390319824
  21
 56.116394042969
  31
0.0
   0
LINE
   5
230
 100
AcDbEntity
   8
LEVEL001
 100
AcDbLine
   6
DOT
  62
3
  10
 154.74416062461
  20
 64.998048402141
  30
0.0
  11
 141.10673997032
  21
 64.998048402141
  31
0.0
   0
LINE
   5
231
 100
AcDbEntity
   8
LEVEL001
 100
AcDbLine
   6
DOT
  62
3
  10
 141.10673997032
  20
 64.998048402141
  30
0.0
  11
 140.13773057090
  21
 61.998048487611
  31
0.0
   0
LINE
   5
232
 100
AcDbEntity
   8
LEVEL001
 100
AcDbLine
   6
DOT
  62
3
  10
 154.89326002968
  20
 64.998048402141
  30
0.0
  11
 155.86226942910
  21
 61.998048487611
  31
0.0
   0
LINE
   5
233
 100
AcDbEntity
   8
LEVEL001
 100
AcDbLine
   6
DOT
  62
3
  10
 144.00000000000
  20
 66.668478737021
  30
0.0
  11
 141.10673997032
  21
 64.998048402141
  31
0.0
   0
LINE
   5
234
 100
AcDbEntity
   8
LEVEL001
 100
AcDbLine
   6
DOT
  62
3
  10
 152.00000000000
  20
 66.668478737021
  30
0.0
  11
 154.89326002968
  21
 64.998048402141
  31
0.0
   0
LINE
   5
235
 100
AcDbEntity
   8
LEVEL001
 100
AcDbLine
   6
DOT
  62
3
  10
 144.00000000000
  20
 67.000000000000
  30
0.0
  11
 144.00000000000
  21
 66.668478737021
  31
0.0
   0
LINE
   5
236
 100
AcDbEntity
   8
LEVEL001
 100
AcDbLine
   6
DOT
  62
3
  10
 152.00000000000
  20
 67.230303992915
  30
0.0
  11
 152.00000000000
  21
 66.668478737021
  31
0.0
   0
LINE
   5
237
 100
AcDbEntity
   8
LEVEL001
 100
AcDbLine
   6
DOT
  62
3
  10
 144.00000000000
  20
 66.668478737021
  30
0.0
  11
 152.00000000000
  21
 66.668478737021
  31
0.0
   0
LINE
   5
238
 100
AcDbEntity
   8
LEVEL001
 100
AcDbLine
   6
DOT
  62
3
  10
 140.13773057090
  20
 62.000000000000
  30
0.0
  11
 155.86226942910
  21
 62.000000000000
  31
0.0
   0
LINE
   5
239
 100
AcDbEntity
   8
LEVEL001
 100
AcDbLine
   6
DOT
  62
3
  10
 156.33099365234
  20
 47.000000000000
  30
0.0
  11
 155.86222081164
  21
 61.999998480630
  31
0.0
   0
LINE
   5
23A
 100
AcDbEntity
   8
LEVEL001
 100
AcDbLine
   6
DOT
  62
3
  10
 141.10673723546
  20
 64.998048487611
  30
0.0
  11
 140.55261230469
  21
 47.883605957031
  31
0.0
   0
LINE
   5
23B
 100
AcDbEntity
   8
LEVEL001
 100
AcDbLine
   6
DOT
  62
3
  10
 140.55261230469
  20
 47.883605957031
  30
0.0
  11
 155.44738769531
  21
 47.883605957031
  31
0.0
   0
LINE
   5
23C
 100
AcDbEntity
   8
LEVEL001
 100
AcDbLine
   6
DOT
  62
3
  10
 155.44738769531
  20
 47.883605957031
  30
0.0
  11
 154.91249603118
  21
 64.998649579508
  31
0.0
   0
CIRCLE
   5
23D
 100
AcDbEntity
   8
LEVEL001
 100
AcDbCircle
   6
CONTINUOUS
  62
7
  10
 237.00000000000
  20
 265.00000000000
  30
0.0
  40
 19.949998855591
   0
LINE
   5
23E
 100
AcDbEntity
   8
LEVEL001
 100
AcDbLine
   6
CONTINUOUS
  62
7
  10
 167.00000000000
  20
 177.00000000000
  30
0.0
  11
 167.00000000000
  21
 49.000000000000
  31
0.0
   0
LINE
   5
23F
 100
AcDbEntity
   8
LEVEL001
 100
AcDbLine
   6
CONTINUOUS
  62
3
  10
 171.96440124512
  20
 74.164596557617
  30
0.0
  11
 167.00000000000
  21
 73.573507976701
  31
0.0
   0
LINE
   5
240
 100
AcDbEntity
   8
LEVEL001
 100
AcDbLine
   6
CONTINUOUS
  62
7
  10
 175.48252868652
  20
 75.445106506348
  30
0.0
  11
 167.00000000000
  21
 74.435126167869
  31
0.0
   0
LINE
   5
241
 100
AcDbEntity
   8
LEVEL001
 100
AcDbLine
   6
CONTINUOUS
  62
7
  10
 176.98919677734
  20
 58.223869323730
  30
0.0
  11
 167.00000000000
  21
 57.663636426462
  31
0.0
   0
LINE
   5
242
 100
AcDbEntity
   8
LEVEL001
 100
AcDbLine
   6
CONTINUOUS
  62
3
  10
 173.30213928223
  20
 58.874008178711
  30
0.0
  11
 167.00000000000
  21
 58.520553371589
  31
0.0
   0
LINE
   5
243
 100
AcDbEntity
   8
LEVEL001
 100
AcDbLine
   6
DASHDOT
  62
1
  10
 163.50000000000
  20
 222.00000000000
  30
0.0
  11
 168.00000000000
  21
 222.00000000000
  31
0.0
   0
LINE
   5
244
 100
AcDbEntity
   8
LEVEL001
 100
AcDbLine
   6
DASHDOT
  62
1
  10
 168.00000000000
  20
 222.00000000000
  30
0.0
  11
 168.00000000000
  21
 187.00000000000
  31
0.0
   0
LINE
   5
245
 100
AcDbEntity
   8
LEVEL001
 100
AcDbLine
   6
DASHDOT
  62
1
  10
 168.00000000000
  20
 187.00000000000
  30
0.0
  11
 165.00000000000
  21
 187.00000000000
  31
0.0
   0
DIMENSION
   5
246
 100
AcDbEntity
   8
LEVEL003
   6
CONTINUOUS
  62
3
 100
AcDbDimension
   2
*D15
  10
 115.00000000000
  20
 200.00000000000
  30
0.0
  11
 115.00000000000
  21
 215.00000000000
  31
0.0
  70
128
   1
\A1;30
   3
GMM010
 100
AcDbAlignedDimension
  13
 134.00000000000
  23
 230.00000000000
  33
0.0
  14
 133.00000000000
  24
 200.00000000000
  34
0.0
  50
 270.00000000000
 100
AcDbRotatedDimension
   0
ARC
   5
248
 100
AcDbEntity
   8
LEVEL001
   6
DOT
  62
3
 100
AcDbCircle
  10
 128.31981305798
  20
 205.99999999999
  30
0.0
  40
 1.0000000000000
 100
AcDbArc
  50
 191.31022934033
  51
 269.99976520101
   0
LINE
   5
249
 100
AcDbEntity
   8
LEVEL001
 100
AcDbLine
   6
DOT
  62
3
  10
 127.33923339844
  20
 205.80387878418
  30
0.0
  11
 126.50000000000
  21
 210.00000000000
  31
0.0
   0
LINE
   5
24A
 100
AcDbEntity
   8
LEVEL001
 100
AcDbLine
   6
DOT
  62
3
  10
 134.00000000000
  20
 205.75000000000
  30
0.0
  11
 134.00000000000
  21
 200.00000000000
  31
0.0
   0
LINE
   5
24B
 100
AcDbEntity
   8
LEVEL001
 100
AcDbLine
   6
DOT
  62
3
  10
 134.00000000000
  20
 200.00000000000
  30
0.0
  11
 133.25000000000
  21
 200.00000000000
  31
0.0
   0
LINE
   5
24C
 100
AcDbEntity
   8
LEVEL001
 100
AcDbLine
   6
DOT
  62
3
  10
 134.00000000000
  20
 200.00000000000
  30
0.0
  11
 133.00000000000
  21
 197.20095825195
  31
0.0
   0
LINE
   5
24D
 100
AcDbEntity
   8
LEVEL001
 100
AcDbLine
   6
DOT
  62
3
  10
 142.50000000000
  20
 98.000000000000
  30
0.0
  11
 142.50000000000
  21
 227.00000000000
  31
0.0
   0
LINE
   5
24E
 100
AcDbEntity
   8
LEVEL001
 100
AcDbLine
   6
DOT
  62
3
  10
 127.50000000000
  20
 158.29998779297
  30
0.0
  11
 126.50000000000
  21
 153.29998779297
  31
0.0
   0
LINE
   5
24F
 100
AcDbEntity
   8
LEVEL001
 100
AcDbLine
   6
DOT
  62
3
  10
 131.50000000000
  20
 158.29998779297
  30
0.0
  11
 132.50000000000
  21
 153.29998779297
  31
0.0
   0
LINE
   5
250
 100
AcDbEntity
   8
LEVEL001
 100
AcDbLine
   6
DOT
  62
3
  10
 133.25000000000
  20
 205.00000000000
  30
0.0
  11
 133.25000000000
  21
 200.00000000000
  31
0.0
   0
LINE
   5
251
 100
AcDbEntity
   8
LEVEL001
 100
AcDbLine
   6
DOT
  62
3
  10
 133.25000000000
  20
 200.00000000000
  30
0.0
  11
 133.00000000000
  21
 200.00000000000
  31
0.0
   0
LINE
   5
252
 100
AcDbEntity
   8
LEVEL001
 100
AcDbLine
   6
DOT
  62
3
  10
 128.31980895996
  20
 205.00000000000
  30
0.0
  11
 133.25000000000
  21
 205.00000000000
  31
0.0
   0
LINE
   5
253
 100
AcDbEntity
   8
LEVEL001
 100
AcDbLine
   6
DOT
  62
3
  10
 133.00000000000
  20
 158.29998779297
  30
0.0
  11
 133.00000000000
  21
 200.00000000000
  31
0.0
   0
LINE
   5
254
 100
AcDbEntity
   8
LEVEL001
 100
AcDbLine
   6
DOT
  62
3
  10
 131.50000000000
  20
 158.29998779297
  30
0.0
  11
 127.50000000000
  21
 158.29998779297
  31
0.0
   0
ARC
   5
255
 100
AcDbEntity
   8
LEVEL001
   6
DOT
  62
3
 100
AcDbCircle
  10
 134.00000000000
  20
 227.75000000000
  30
0.0
  40
 0.75000000000000
 100
AcDbArc
  50
 180.00000000000
  51
 270.00000000000
   0
ARC
   5
256
 100
AcDbEntity
   8
LEVEL001
   6
DOT
  62
3
 100
AcDbCircle
  10
 134.00000000000
  20
 229.25000000000
  30
0.0
  40
 0.75000000000000
 100
AcDbArc
  50
 90.000000000000
  51
 180.00000000000
   0
LINE
   5
257
 100
AcDbEntity
   8
LEVEL001
 100
AcDbLine
   6
DOT
  62
3
  10
 133.25000000000
  20
 227.75000000000
  30
0.0
  11
 133.25000000000
  21
 229.25000000000
  31
0.0
   0
ARC
   5
258
 100
AcDbEntity
   8
LEVEL001
   6
DOT
  62
3
 100
AcDbCircle
  10
 128.31981610970
  20
 239.00000000003
  30
0.0
  40
 1.0000000000000
 100
AcDbArc
  50
 90.000409649883
  51
 168.69066223838
   0
LINE
   5
259
 100
AcDbEntity
   8
LEVEL001
 100
AcDbLine
   6
DOT
  62
3
  10
 127.33923339844
  20
 239.19610595703
  30
0.0
  11
 126.50000000000
  21
 235.00000000000
  31
0.0
   0
LINE
   5
25A
 100
AcDbEntity
   8
LEVEL001
 100
AcDbLine
   6
DOT
  62
3
  10
 134.00000000000
  20
 230.00000000000
  30
0.0
  11
 134.00000000000
  21
 227.00000000000
  31
0.0
   0
LINE
   5
25B
 100
AcDbEntity
   8
LEVEL001
 100
AcDbLine
   6
DOT
  62
3
  10
 133.25000000000
  20
 205.00000000000
  30
0.0
  11
 134.00000000000
  21
 205.75000000000
  31
0.0
   0
LINE
   5
25C
 100
AcDbEntity
   8
LEVEL001
 100
AcDbLine
   6
DOT
  62
3
  10
 134.00000000000
  20
 205.75000000000
  30
0.0
  11
 134.00000000000
  21
 227.00000000000
  31
0.0
   0
LINE
   5
25D
 100
AcDbEntity
   8
LEVEL001
 100
AcDbLine
   6
DOT
  62
3
  10
 126.50000000000
  20
 235.00000000000
  30
0.0
  11
 126.50000000000
  21
 210.00000000000
  31
0.0
   0
LINE
   5
25E
 100
AcDbEntity
   8
LEVEL001
 100
AcDbLine
   6
DOT
  62
3
  10
 134.00000000000
  20
 230.00000000000
  30
0.0
  11
 133.25000000000
  21
 229.25000000000
  31
0.0
   0
LINE
   5
25F
 100
AcDbEntity
   8
LEVEL001
 100
AcDbLine
   6
DOT
  62
3
  10
 133.25000000000
  20
 229.25000000000
  30
0.0
  11
 133.25000000000
  21
 205.00000000000
  31
0.0
   0
LINE
   5
260
 100
AcDbEntity
   8
LEVEL001
 100
AcDbLine
   6
DOT
  62
3
  10
 155.00000000000
  20
 150.00000000000
  30
0.0
  11
 155.00000000000
  21
 72.000000000000
  31
0.0
   0
LINE
   5
261
 100
AcDbEntity
   8
LEVEL001
 100
AcDbLine
   6
DOT
  62
3
  10
 127.33923339844
  20
 52.103851318359
  30
0.0
  11
 126.50000000000
  21
 56.299987792969
  31
0.0
   0
LINE
   5
262
 100
AcDbEntity
   8
LEVEL001
 100
AcDbLine
   6
DOT
  62
3
  10
 126.50000000000
  20
 56.299987792969
  30
0.0
  11
 126.50000000000
  21
 153.29998779297
  31
0.0
   0
LINE
   5
263
 100
AcDbEntity
   8
LEVEL001
 100
AcDbLine
   6
DOT
  62
3
  10
 132.50000000000
  20
 153.29998779297
  30
0.0
  11
 132.50000000000
  21
 58.299987792969
  31
0.0
   0
LINE
   5
264
 100
AcDbEntity
   8
LEVEL001
 100
AcDbLine
   6
CONTINUOUS
  62
7
  10
 167.00000000000
  20
 177.00000000000
  30
0.0
  11
 110.00000000000
  21
 177.00000000000
  31
0.0
   0
LINE
   5
265
 100
AcDbEntity
   8
LEVEL001
 100
AcDbLine
   6
CONTINUOUS
  62
7
  10
 165.00000000000
  20
 182.00000000000
  30
0.0
  11
 110.00000000000
  21
 182.00000000000
  31
0.0
   0
LINE
   5
266
 100
AcDbEntity
   8
LEVEL001
 100
AcDbLine
   6
CONTINUOUS
  62
7
  10
 165.00000000000
  20
 183.75000000000
  30
0.0
  11
 110.00000000000
  21
 183.75000000000
  31
0.0
   0
LINE
   5
267
 100
AcDbEntity
   8
LEVEL001
 100
AcDbLine
   6
CONTINUOUS
  62
7
  10
 162.50000000000
  20
 227.00000000000
  30
0.0
  11
 110.00000000000
  21
 227.00000000000
  31
0.0
   0
LINE
   5
268
 100
AcDbEntity
   8
LEVEL001
 100
AcDbLine
   6
CONTINUOUS
  62
7
  10
 163.50000000000
  20
 226.00000000000
  30
0.0
  11
 110.00000000000
  21
 226.00000000000
  31
0.0
   0
LINE
   5
269
 100
AcDbEntity
   8
LEVEL001
 100
AcDbLine
   6
CONTINUOUS
  62
7
  10
 110.00000000000
  20
 230.00000000000
  30
0.0
  11
 141.35961914063
  21
 230.00000000000
  31
0.0
   0
LINE
   5
26A
 100
AcDbEntity
   8
LEVEL001
 100
AcDbLine
   6
CONTINUOUS
  62
7
  10
 141.00000000000
  20
 239.00000000000
  30
0.0
  11
 110.00000000000
  21
 239.00000000000
  31
0.0
   0
LINE
   5
26B
 100
AcDbEntity
   8
LEVEL001
 100
AcDbLine
   6
CONTINUOUS
  62
3
  10
 164.00000000000
  20
 221.50000000000
  30
0.0
  11
 164.00000000000
  21
 187.00000000000
  31
0.0
   0
LINE
   5
26C
 100
AcDbEntity
   8
LEVEL001
 100
AcDbLine
   6
CONTINUOUS
  62
3
  10
 110.00000000000
  20
 187.00000000000
  30
0.0
  11
 165.00000000000
  21
 187.00000000000
  31
0.0
   0
LINE
   5
26D
 100
AcDbEntity
   8
LEVEL001
 100
AcDbLine
   6
CONTINUOUS
  62
3
  10
 56.000000000000
  20
 187.00000000000
  30
0.0
  11
 55.000000000000
  21
 183.26794433594
  31
0.0
   0
LINE
   5
26E
 100
AcDbEntity
   8
LEVEL001
 100
AcDbLine
   6
CONTINUOUS
  62
7
  10
 56.500000000000
  20
 222.00000000000
  30
0.0
  11
 55.000000000000
  21
 220.50000000000
  31
0.0
   0
LINE
   5
26F
 100
AcDbEntity
   8
LEVEL001
 100
AcDbLine
   6
CONTINUOUS
  62
7
  10
 55.000000000000
  20
 220.50000000000
  30
0.0
  11
 55.000000000000
  21
 182.00000000000
  31
0.0
   0
LINE
   5
270
 100
AcDbEntity
   8
LEVEL001
 100
AcDbLine
   6
DASHDOT
  62
1
  10
 56.500000000000
  20
 222.00000000000
  30
0.0
  11
 52.000000000000
  21
 222.00000000000
  31
0.0
   0
LINE
   5
271
 100
AcDbEntity
   8
LEVEL001
 100
AcDbLine
   6
DASHDOT
  62
1
  10
 52.000000000000
  20
 222.00000000000
  30
0.0
  11
 52.000000000000
  21
 187.00000000000
  31
0.0
   0
LINE
   5
272
 100
AcDbEntity
   8
LEVEL001
 100
AcDbLine
   6
DASHDOT
  62
1
  10
 52.000000000000
  20
 187.00000000000
  30
0.0
  11
 55.000000000000
  21
 187.00000000000
  31
0.0
   0
LINE
   5
273
 100
AcDbEntity
   8
LEVEL001
 100
AcDbLine
   6
CONTINUOUS
  62
3
  10
 56.000000000000
  20
 221.50000000000
  30
0.0
  11
 56.000000000000
  21
 187.00000000000
  31
0.0
   0
LINE
   5
274
 100
AcDbEntity
   8
LEVEL001
 100
AcDbLine
   6
CONTINUOUS
  62
3
  10
 110.00000000000
  20
 187.00000000000
  30
0.0
  11
 55.000000000000
  21
 187.00000000000
  31
0.0
   0
LINE
   5
275
 100
AcDbEntity
   8
LEVEL001
 100
AcDbLine
   6
CONTINUOUS
  62
7
  10
 163.50000000000
  20
 222.00000000000
  30
0.0
  11
 110.00000000000
  21
 222.00000000000
  31
0.0
   0
LINE
   5
276
 100
AcDbEntity
   8
LEVEL001
 100
AcDbLine
   6
CONTINUOUS
  62
7
  10
 56.500000000000
  20
 222.00000000000
  30
0.0
  11
 110.00000000000
  21
 222.00000000000
  31
0.0
   0
LINE
   5
277
 100
AcDbEntity
   8
LEVEL001
 100
AcDbLine
   6
DOT
  62
3
  10
 77.500000000000
  20
 98.000000000000
  30
0.0
  11
 77.500000000000
  21
 227.00000000000
  31
0.0
   0
LINE
   5
278
 100
AcDbEntity
   8
LEVEL001
 100
AcDbLine
   6
DOT
  62
3
  10
 92.500000000000
  20
 158.29998779297
  30
0.0
  11
 93.500000000000
  21
 153.29998779297
  31
0.0
   0
LINE
   5
279
 100
AcDbEntity
   8
LEVEL001
 100
AcDbLine
   6
DOT
  62
3
  10
 88.500000000000
  20
 158.29998779297
  30
0.0
  11
 87.500000000000
  21
 153.29998779297
  31
0.0
   0
LINE
   5
27A
 100
AcDbEntity
   8
LEVEL001
 100
AcDbLine
   6
DOT
  62
3
  10
 87.000000000000
  20
 158.29998779297
  30
0.0
  11
 87.000000000000
  21
 200.00000000000
  31
0.0
   0
LINE
   5
27B
 100
AcDbEntity
   8
LEVEL001
 100
AcDbLine
   6
DOT
  62
3
  10
 88.500000000000
  20
 158.29998779297
  30
0.0
  11
 92.500000000000
  21
 158.29998779297
  31
0.0
   0
LINE
   5
27C
 100
AcDbEntity
   8
LEVEL001
 100
AcDbLine
   6
DOT
  62
3
  10
 65.000000000000
  20
 150.00000000000
  30
0.0
  11
 65.000000000000
  21
 72.000000000000
  31
0.0
   0
LINE
   5
27D
 100
AcDbEntity
   8
LEVEL001
 100
AcDbLine
   6
DOT
  62
3
  10
 93.500000000000
  20
 56.299987792969
  30
0.0
  11
 93.500000000000
  21
 153.29998779297
  31
0.0
   0
LINE
   5
27E
 100
AcDbEntity
   8
LEVEL001
 100
AcDbLine
   6
DOT
  62
3
  10
 87.500000000000
  20
 153.29998779297
  30
0.0
  11
 87.500000000000
  21
 58.299987792969
  31
0.0
   0
LINE
   5
27F
 100
AcDbEntity
   8
LEVEL001
 100
AcDbLine
   6
DOT
  62
3
  10
 92.660766601563
  20
 52.103851318359
  30
0.0
  11
 93.500000000000
  21
 56.299987792969
  31
0.0
   0
ARC
   5
280
 100
AcDbEntity
   8
LEVEL001
   6
DOT
  62
3
 100
AcDbCircle
  10
 91.680186942020
  20
 205.99999999999
  30
0.0
  40
 1.0000000000000
 100
AcDbArc
  50
 270.00023479920
  51
 348.68977065973
   0
LINE
   5
281
 100
AcDbEntity
   8
LEVEL001
 100
AcDbLine
   6
DOT
  62
3
  10
 92.660766601563
  20
 205.80387878418
  30
0.0
  11
 93.500000000000
  21
 210.00000000000
  31
0.0
   0
LINE
   5
282
 100
AcDbEntity
   8
LEVEL001
 100
AcDbLine
   6
DOT
  62
3
  10
 86.000000000000
  20
 205.75000000000
  30
0.0
  11
 86.000000000000
  21
 200.00000000000
  31
0.0
   0
LINE
   5
283
 100
AcDbEntity
   8
LEVEL001
 100
AcDbLine
   6
DOT
  62
3
  10
 86.000000000000
  20
 200.00000000000
  30
0.0
  11
 86.750000000000
  21
 200.00000000000
  31
0.0
   0
LINE
   5
284
 100
AcDbEntity
   8
LEVEL001
 100
AcDbLine
   6
DOT
  62
3
  10
 86.750000000000
  20
 205.00000000000
  30
0.0
  11
 86.750000000000
  21
 200.00000000000
  31
0.0
   0
LINE
   5
285
 100
AcDbEntity
   8
LEVEL001
 100
AcDbLine
   6
DOT
  62
3
  10
 91.680191040039
  20
 205.00000000000
  30
0.0
  11
 86.750000000000
  21
 205.00000000000
  31
0.0
   0
LINE
   5
286
 100
AcDbEntity
   8
LEVEL001
 100
AcDbLine
   6
DOT
  62
3
  10
 86.750000000000
  20
 205.00000000000
  30
0.0
  11
 86.000000000000
  21
 205.75000000000
  31
0.0
   0
LINE
   5
287
 100
AcDbEntity
   8
LEVEL001
 100
AcDbLine
   6
DOT
  62
3
  10
 86.000000000000
  20
 205.75000000000
  30
0.0
  11
 86.000000000000
  21
 227.00000000000
  31
0.0
   0
LINE
   5
288
 100
AcDbEntity
   8
LEVEL001
 100
AcDbLine
   6
DOT
  62
3
  10
 93.500000000000
  20
 235.00000000000
  30
0.0
  11
 93.500000000000
  21
 210.00000000000
  31
0.0
   0
LINE
   5
289
 100
AcDbEntity
   8
LEVEL001
 100
AcDbLine
   6
DOT
  62
3
  10
 86.000000000000
  20
 230.00000000000
  30
0.0
  11
 86.750000000000
  21
 229.25000000000
  31
0.0
   0
LINE
   5
28A
 100
AcDbEntity
   8
LEVEL001
 100
AcDbLine
   6
DOT
  62
3
  10
 86.750000000000
  20
 229.25000000000
  30
0.0
  11
 86.750000000000
  21
 205.00000000000
  31
0.0
   0
LINE
   5
28B
 100
AcDbEntity
   8
LEVEL001
 100
AcDbLine
   6
DOT
  62
3
  10
 86.000000000000
  20
 200.00000000000
  30
0.0
  11
 87.000000000000
  21
 197.20095825195
  31
0.0
   0
LINE
   5
28C
 100
AcDbEntity
   8
LEVEL001
 100
AcDbLine
   6
DOT
  62
3
  10
 86.750000000000
  20
 200.00000000000
  30
0.0
  11
 87.000000000000
  21
 200.00000000000
  31
0.0
   0
ARC
   5
28D
 100
AcDbEntity
   8
LEVEL001
   6
DOT
  62
3
 100
AcDbCircle
  10
 86.000000000000
  20
 227.75000000000
  30
0.0
  40
 0.75000000000000
 100
AcDbArc
  50
 270.00000000000
  51
0.0
   0
ARC
   5
28E
 100
AcDbEntity
   8
LEVEL001
   6
DOT
  62
3
 100
AcDbCircle
  10
 86.000000000002
  20
 229.25000000000
  30
0.0
  40
 0.75000000000000
 100
AcDbArc
  50
0.0
  51
 90.000000000124
   0
LINE
   5
28F
 100
AcDbEntity
   8
LEVEL001
 100
AcDbLine
   6
DOT
  62
3
  10
 86.750000000000
  20
 227.75000000000
  30
0.0
  11
 86.750000000000
  21
 229.25000000000
  31
0.0
   0
LINE
   5
290
 100
AcDbEntity
   8
LEVEL001
 100
AcDbLine
   6
DOT
  62
3
  10
 86.000000000000
  20
 230.00000000000
  30
0.0
  11
 86.000000000000
  21
 227.00000000000
  31
0.0
   0
LINE
   5
291
 100
AcDbEntity
   8
LEVEL001
 100
AcDbLine
   6
DOT
  62
3
  10
 92.660766601563
  20
 239.19610595703
  30
0.0
  11
 93.500000000000
  21
 235.00000000000
  31
0.0
   0
ARC
   5
292
 100
AcDbEntity
   8
LEVEL001
   6
DOT
  62
3
 100
AcDbCircle
  10
 91.680183890303
  20
 239.00000000003
  30
0.0
  40
 1.0000000000000
 100
AcDbArc
  50
 11.309337761708
  51
 89.999590350292
   0
LINE
   5
293
 100
AcDbEntity
   8
LEVEL001
 100
AcDbLine
   6
CONTINUOUS
  62
7
  10
 167.00000000000
  20
 49.000000000000
  30
0.0
  11
 110.00000000000
  21
 49.000000000000
  31
0.0
   0
DIMENSION
   5
294
 100
AcDbEntity
   8
LEVEL003
   6
CONTINUOUS
  62
3
 100
AcDbDimension
   2
*D16
  10
 126.50000000000
  20
 35.000000000000
  30
0.0
  11
 110.00000000000
  21
 35.000000000000
  31
0.0
  70
0
   1
\A1;%%c33
   3
GMM011
 100
AcDbAlignedDimension
  13
 93.500000000000
  23
 56.299987792969
  33
0.0
  14
 126.50000000000
  24
 56.299987792969
  34
0.0
 100
AcDbRotatedDimension
   0
DIMENSION
   5
296
 100
AcDbEntity
   8
LEVEL003
   6
CONTINUOUS
  62
3
 100
AcDbDimension
   2
*D17
  10
 155.00000000000
  20
 110.00000000000
  30
0.0
  11
 110.00000000000
  21
 110.00000000000
  31
0.0
  70
0
   1
\A1;%%c90
   3
GMM012
 100
AcDbAlignedDimension
  13
 65.000000000000
  23
 110.00000000000
  33
0.0
  14
 155.00000000000
  24
 110.00000000000
  34
0.0
 100
AcDbRotatedDimension
   0
DIMENSION
   5
298
 100
AcDbEntity
   8
LEVEL003
   6
CONTINUOUS
  62
3
 100
AcDbDimension
   2
*D18
  10
 77.500000000000
  20
 120.00000000000
  30
0.0
  11
 110.00000000000
  21
 120.00000000000
  31
0.0
  70
0
   1
\A1;%%c65
   3
GMM012
 100
AcDbAlignedDimension
  13
 142.50000000000
  23
 120.00000000000
  33
0.0
  14
 77.500000000000
  24
 120.00000000000
  34
0.0
  50
 180.00000000000
 100
AcDbRotatedDimension
   0
DIMENSION
   5
29A
 100
AcDbEntity
   8
LEVEL003
   6
CONTINUOUS
  62
3
 100
AcDbDimension
   2
*D19
  10
 132.50000000000
  20
 130.00000000000
  30
0.0
  11
 110.00000000000
  21
 130.00000000000
  31
0.0
  70
0
   1
\A1;%%c45
   3
GMM012
 100
AcDbAlignedDimension
  13
 87.500000000000
  23
 130.00000000000
  33
0.0
  14
 132.50000000000
  24
 130.00000000000
  34
0.0
 100
AcDbRotatedDimension
   0
LINE
   5
29C
 100
AcDbEntity
   8
LEVEL003
 100
AcDbLine
   6
CONTINUOUS
  62
3
  10
 64.000000000000
  20
 43.000000000000
  30
0.0
  11
 64.000000000000
  21
 23.000000000000
  31
0.0
   0
LINE
   5
29D
 100
AcDbEntity
   8
LEVEL003
 100
AcDbLine
   6
CONTINUOUS
  62
3
  10
 64.000000000000
  20
 25.000000000000
  30
0.0
  11
 110.00000000000
  21
 25.000000000000
  31
0.0
   0
LINE
   5
29E
 100
AcDbEntity
   8
LEVEL003
 100
AcDbLine
   6
CONTINUOUS
  62
3
  10
 67.000000000000
  20
 24.500000000000
  30
0.0
  11
 64.000000000000
  21
 25.000000000000
  31
0.0
   0
LINE
   5
29F
 100
AcDbEntity
   8
LEVEL003
 100
AcDbLine
   6
CONTINUOUS
  62
3
  10
 64.000000000000
  20
 25.000000000000
  30
0.0
  11
 67.000000000000
  21
 25.500000000000
  31
0.0
   0
LINE
   5
2A0
 100
AcDbEntity
   8
LEVEL003
 100
AcDbLine
   6
CONTINUOUS
  62
3
  10
 64.000000000000
  20
 25.000000000000
  30
0.0
  11
 67.000000000000
  21
 25.000000000000
  31
0.0
   0
MTEXT
   5
2A1
 100
AcDbEntity
   8
LEVEL003
  62
3
 100
AcDbMText
  10
 110.00000000000
  20
 25.800000000000
  30
0.0
  40
 4.0000000000000
  41
0.0
  71
8
  72
1
   1
%%c\Ftxt.shx;92
   7
GMM002
   0
DIMENSION
   5
2A2
 100
AcDbEntity
   8
LEVEL003
   6
CONTINUOUS
  62
3
 100
AcDbDimension
   2
*D20
  10
 126.50000000000
  20
 250.00000000000
  30
0.0
  11
 110.00000000000
  21
 250.00000000000
  31
0.0
  70
0
   1
\A1;%%c33
   3
GMM011
 100
AcDbAlignedDimension
  13
 93.500000000000
  23
 235.00000000000
  33
0.0
  14
 126.50000000000
  24
 235.00000000000
  34
0.0
 100
AcDbRotatedDimension
   0
LEADER
   5
2A4
 100
AcDbEntity
   8
LEVEL003
   6
CONTINUOUS
  62
3
 100
AcDbLeader
   3
GMM013
  73
0
  74
1
  75
0
  40
 4.0000000000000
  41
0.0
  76
3
  10
 134.00000000000
  20
 215.77190447522
  30
0.0
  10
 160.00000000000
  20
 260.00000000000
  30
0.0
  10
 185.00000000000
  20
 260.00000000000
  30
0.0
  77
3
   0
TEXT
   5
2A5
 100
AcDbEntity
   8
LEVEL003
  62
3
 100
AcDbText
  10
 160.00000000000
  20
 260.00000000000
  30
0.0
  40
 4.0000000000000
   1
Ｍ４８×１.５
   7
STANDARD
 100
AcDbText
   0
TEXT
   5
2A6
 100
AcDbEntity
   8
LEVEL003
  62
3
 100
AcDbText
  10
 195.00000000000
  20
 280.00000000000
  30
0.0
  40
 4.0000000000000
   1
４－Ｍ１０
   7
STANDARD
 100
AcDbText
   0
LEADER
   5
2A7
 100
AcDbEntity
   8
LEVEL003
   6
CONTINUOUS
  62
3
 100
AcDbLeader
   3
GMM013
  73
0
  74
1
  75
0
  40
 4.0000000000000
  41
0.0
  76
3
  10
 223.94396283641
  20
 276.90223996859
  30
0.0
  10
 215.00000000000
  20
 280.00000000000
  30
0.0
  10
 195.00000000000
  20
 280.00000000000
  30
0.0
  77
3
   0
TEXT
   5
2A8
 100
AcDbEntity
   8
LEVEL003
  62
7
 100
AcDbText
  10
 299.19100000000
  20
 22.881658208956
  30
0.0
  40
 10.000000000000
   1
ＯＳＡＫＡ ＪＡＣＫ
   7
STANDARD
 100
AcDbText
   0
TEXT
   5
2A9
 100
AcDbEntity
   8
LEVEL003
  62
7
 100
AcDbText
  10
 302.10200000000
  20
 39.775058208956
  30
0.0
  40
 6.0000000000000
   1
Model : ＥＣ３０Ｓ６
   7
STANDARD
 100
AcDbText
   0
CIRCLE
   5
2AA
 100
AcDbEntity
   8
LEVEL003
 100
AcDbCircle
   6
CONTINUOUS
  62
7
  10
 281.02422563607
  20
 29.900447783152
  30
0.0
  40
 3.0000000000000
   0
LINE
   5
2AB
 100
AcDbEntity
   8
LEVEL003
 100
AcDbLine
   6
CONTINUOUS
  62
7
  10
 286.91222563607
  20
 32.900447783152
  30
0.0
  11
 283.10322563607
  21
 26.300447783152
  31
0.0
   0
LINE
   5
2AC
 100
AcDbEntity
   8
LEVEL003
 100
AcDbLine
   6
CONTINUOUS
  62
7
  10
 283.10322563607
  20
 26.300447783152
  30
0.0
  11
 275.48222563607
  21
 26.300447783152
  31
0.0
   0
LINE
   5
2AD
 100
AcDbEntity
   8
LEVEL003
 100
AcDbLine
   6
CONTINUOUS
  62
7
  10
 274.61522563607
  20
 24.800447783152
  30
0.0
  11
 288.23622563607
  21
 24.800447783152
  31
0.0
   0
LINE
   5
2AE
 100
AcDbEntity
   8
LEVEL003
 100
AcDbLine
   6
CONTINUOUS
  62
7
  10
 288.23622563607
  20
 24.800447783152
  30
0.0
  11
 292.91222563607
  21
 32.900447783152
  31
0.0
   0
LINE
   5
2AF
 100
AcDbEntity
   8
LEVEL003
 100
AcDbLine
   6
CONTINUOUS
  62
7
  10
 292.91222563607
  20
 32.900447783152
  30
0.0
  11
 286.91222563607
  21
 32.900447783152
  31
0.0
   0
LINE
   5
2B0
 100
AcDbEntity
   8
LEVEL003
 100
AcDbLine
   6
CONTINUOUS
  62
7
  10
 275.48222563607
  20
 26.300447783152
  30
0.0
  11
 274.61522563607
  21
 24.800447783152
  31
0.0
   0
ENDSEC
  0
SECTION
  2
OBJECTS
  0
DICTIONARY
  5
C
100
AcDbDictionary
  3
ACAD_GROUP
350
D
  3
ACAD_MLINESTYLE
350
1B
  0
DICTIONARY
  5
D
102
{ACAD_REACTORS
330
C
102
}
100
AcDbDictionary
  0
DICTIONARY
  5
1B
102
{ACAD_REACTORS
330
C
102
}
100
AcDbDictionary
  3
STANDARD
350
1C
  0
MLINESTYLE
  5
1C
102
{ACAD_REACTORS
330
1B
102
}
100
AcDbMlineStyle
  2
STANDARD
 70
     0
  3

 62
   256
 51
90.0
 52
90.0
 71
     2
 49
0.5
 62
   256
  6
BYLAYER
 49
-0.5
 62
   256
  6
BYLAYER
  0
ENDSEC
   0
EOF
