   0
SECTION
   2
HEADER
   9
$ACADVER
   1
AC1014
   9
$LIMMIN
  10
0.0
  20
0.0
   9
$LIMMAX
  10
 630.00000000000
  20
 446.00000000000
   9
$EXTMIN
  10
0.0
  20
0.0
  30
0.0
   9
$EXTMAX
  10
 630.00000000000
  20
 446.00000000000
  30
0.0
   9
$LTSCALE
  40
 12.600000000000
   9
$HANDSEED
   5
2AC
   0
ENDSEC
   0
SECTION
   2
TABLES
  0
TABLE
  2
VPORT
  5
8
100
AcDbSymbolTable
 70
     1
  0
VPORT
  5
2AB
100
AcDbSymbolTableRecord
100
AcDbViewportTableRecord
  2
*ACTIVE
 70
     0
 10
0.0
 20
0.0
 11
1.0
 21
1.0
  12
 315.00000000000
  22
 223.00000000000
 13
0.0
 23
0.0
 14
1.0
 24
1.0
 15
0.0
 25
0.0
 16
0.0
 26
0.0
 36
1.0
 17
0.0
 27
0.0
 37
0.0
  40
 630.00000000000
  41
 1.4787878787879
 42
50.0
 43
0.0
 44
0.0
 50
0.0
 51
0.0
 71
     0
 72
   100
 73
     1
 74
     1
 75
     0
 76
     0
 77
     0
 78
     0
  0
ENDTAB
  0
TABLE
  2
LTYPE
  5
5
100
AcDbSymbolTable
 70
    25
  0
LTYPE
  5
12
100
AcDbSymbolTableRecord
100
AcDbLinetypeTableRecord
  2
BYBLOCK
 70
     0
  3

 72
    65
 73
     0
 40
0.0
  0
LTYPE
  5
13
100
AcDbSymbolTableRecord
100
AcDbLinetypeTableRecord
  2
BYLAYER
 70
     0
  3

 72
    65
 73
     0
 40
0.0
  0
LTYPE
  5
14
100
AcDbSymbolTableRecord
100
AcDbLinetypeTableRecord
  2
CONTINUOUS
 70
     0
  3
Solid line
 72
    65
 73
     0
 40
0.0
  0
LTYPE
  5
20
100
AcDbSymbolTableRecord
100
AcDbLinetypeTableRecord
  2
BORDER
 70
     0
  3
__ __ . __ __ . __ __ . __ __ . __ __ . __ __ .
 72
    65
 73
     6
 40
1.75
 49
0.5
 74
     0
 49
-0.25
 74
     0
 49
0.5
 74
     0
 49
-0.25
 74
     0
 49
0.0
 74
     0
 49
-0.25
 74
     0
  0
LTYPE
  5
21
100
AcDbSymbolTableRecord
100
AcDbLinetypeTableRecord
  2
BORDER2
 70
     0
  3
__.__.__.__.__.__.__.__.__.__.__.__.__.__.__.__
 72
    65
 73
     6
 40
0.875
 49
0.25
 74
     0
 49
-0.125
 74
     0
 49
0.25
 74
     0
 49
-0.125
 74
     0
 49
0.0
 74
     0
 49
-0.125
 74
     0
  0
LTYPE
  5
22
100
AcDbSymbolTableRecord
100
AcDbLinetypeTableRecord
  2
BORDERX2
 70
     0
  3
____  ____  .  ____  ____  .  ____  ____  .  __
 72
    65
 73
     6
 40
3.5
 49
1.0
 74
     0
 49
-0.5
 74
     0
 49
1.0
 74
     0
 49
-0.5
 74
     0
 49
0.0
 74
     0
 49
-0.5
 74
     0
  0
LTYPE
  5
23
100
AcDbSymbolTableRecord
100
AcDbLinetypeTableRecord
  2
CENTER
 70
     0
  3
____ _ ____ _ ____ _ ____ _ ____ _ ____ _ ____ 
 72
    65
 73
     4
 40
2.0
 49
1.25
 74
     0
 49
-0.25
 74
     0
 49
0.25
 74
     0
 49
-0.25
 74
     0
  0
LTYPE
  5
24
100
AcDbSymbolTableRecord
100
AcDbLinetypeTableRecord
  2
CENTER2
 70
     0
  3
___ _ ___ _ ___ _ ___ _ ___ _ ___ _ ___ _ ___ _
 72
    65
 73
     4
 40
1.125
 49
0.75
 74
     0
 49
-0.125
 74
     0
 49
0.125
 74
     0
 49
-0.125
 74
     0
  0
LTYPE
  5
25
100
AcDbSymbolTableRecord
100
AcDbLinetypeTableRecord
  2
CENTERX2
 70
     0
  3
________  __  ________  __  ________  __  _____
 72
    65
 73
     4
 40
4.0
 49
2.5
 74
     0
 49
-0.5
 74
     0
 49
0.5
 74
     0
 49
-0.5
 74
     0
  0
LTYPE
  5
26
100
AcDbSymbolTableRecord
100
AcDbLinetypeTableRecord
  2
DASHDOT
 70
     0
  3
__ . __ . __ . __ . __ . __ . __ . __ . __ . __
 72
    65
 73
     4
 40
1.0
 49
0.5
 74
     0
 49
-0.25
 74
     0
 49
0.0
 74
     0
 49
-0.25
 74
     0
  0
LTYPE
  5
27
100
AcDbSymbolTableRecord
100
AcDbLinetypeTableRecord
  2
DASHDOT2
 70
     0
  3
_._._._._._._._._._._._._._._._._._._._._._._._
 72
    65
 73
     4
 40
0.5
 49
0.25
 74
     0
 49
-0.125
 74
     0
 49
0.0
 74
     0
 49
-0.125
 74
     0
  0
LTYPE
  5
28
100
AcDbSymbolTableRecord
100
AcDbLinetypeTableRecord
  2
DASHDOTX2
 70
     0
  3
____  .  ____  .  ____  .  ____  .  ____  .  __
 72
    65
 73
     4
 40
2.0
 49
1.0
 74
     0
 49
-0.5
 74
     0
 49
0.0
 74
     0
 49
-0.5
 74
     0
  0
LTYPE
  5
29
100
AcDbSymbolTableRecord
100
AcDbLinetypeTableRecord
  2
DASHED
 70
     0
  3
__ __ __ __ __ __ __ __ __ __ __ __ __ __ __ __
 72
    65
 73
     2
 40
0.75
 49
0.5
 74
     0
 49
-0.25
 74
     0
  0
LTYPE
  5
2A
100
AcDbSymbolTableRecord
100
AcDbLinetypeTableRecord
  2
DASHED2
 70
     0
  3
_ _ _ _ _ _ _ _ _ _ _ _ _ _ _ _ _ _ _ _ _ _ _ _
 72
    65
 73
     2
 40
0.375
 49
0.25
 74
     0
 49
-0.125
 74
     0
  0
LTYPE
  5
2B
100
AcDbSymbolTableRecord
100
AcDbLinetypeTableRecord
  2
DASHEDX2
 70
     0
  3
____  ____  ____  ____  ____  ____  ____  ____ 
 72
    65
 73
     2
 40
1.5
 49
1.0
 74
     0
 49
-0.5
 74
     0
  0
LTYPE
  5
2C
100
AcDbSymbolTableRecord
100
AcDbLinetypeTableRecord
  2
DIVIDE
 70
     0
  3
____ . . ____ . . ____ . . ____ . . ____ . . __
 72
    65
 73
     6
 40
1.25
 49
0.5
 74
     0
 49
-0.25
 74
     0
 49
0.0
 74
     0
 49
-0.25
 74
     0
 49
0.0
 74
     0
 49
-0.25
 74
     0
  0
LTYPE
  5
2D
100
AcDbSymbolTableRecord
100
AcDbLinetypeTableRecord
  2
DIVIDE2
 70
     0
  3
__..__..__..__..__..__..__..__..__..__..__..__.
 72
    65
 73
     6
 40
0.625
 49
0.25
 74
     0
 49
-0.125
 74
     0
 49
0.0
 74
     0
 49
-0.125
 74
     0
 49
0.0
 74
     0
 49
-0.125
 74
     0
  0
LTYPE
  5
2E
100
AcDbSymbolTableRecord
100
AcDbLinetypeTableRecord
  2
DIVIDEX2
 70
     0
  3
________  .  .  ________  .  .  ________  .  . 
 72
    65
 73
     6
 40
2.5
 49
1.0
 74
     0
 49
-0.5
 74
     0
 49
0.0
 74
     0
 49
-0.5
 74
     0
 49
0.0
 74
     0
 49
-0.5
 74
     0
  0
LTYPE
  5
2F
100
AcDbSymbolTableRecord
100
AcDbLinetypeTableRecord
  2
DOT
 70
     0
  3
. . . . . . . . . . . . . . . . . . . . . . . .
 72
    65
 73
     2
 40
0.25
 49
0.0
 74
     0
 49
-0.25
 74
     0
  0
LTYPE
  5
30
100
AcDbSymbolTableRecord
100
AcDbLinetypeTableRecord
  2
DOT2
 70
     0
  3
...............................................
 72
    65
 73
     2
 40
0.125
 49
0.0
 74
     0
 49
-0.125
 74
     0
  0
LTYPE
  5
31
100
AcDbSymbolTableRecord
100
AcDbLinetypeTableRecord
  2
DOTX2
 70
     0
  3
.  .  .  .  .  .  .  .  .  .  .  .  .  .  .  . 
 72
    65
 73
     2
 40
0.5
 49
0.0
 74
     0
 49
-0.5
 74
     0
  0
LTYPE
  5
32
100
AcDbSymbolTableRecord
100
AcDbLinetypeTableRecord
  2
HIDDEN
 70
     0
  3
__ __ __ __ __ __ __ __ __ __ __ __ __ __ __ __
 72
    65
 73
     2
 40
0.375
 49
0.25
 74
     0
 49
-0.125
 74
     0
  0
LTYPE
  5
33
100
AcDbSymbolTableRecord
100
AcDbLinetypeTableRecord
  2
HIDDEN2
 70
     0
  3
_ _ _ _ _ _ _ _ _ _ _ _ _ _ _ _ _ _ _ _ _ _ _ _
 72
    65
 73
     2
 40
0.1875
 49
0.125
 74
     0
 49
-0.0625
 74
     0
  0
LTYPE
  5
34
100
AcDbSymbolTableRecord
100
AcDbLinetypeTableRecord
  2
HIDDENX2
 70
     0
  3
____ ____ ____ ____ ____ ____ ____ ____ ____ __
 72
    65
 73
     2
 40
0.75
 49
0.5
 74
     0
 49
-0.25
 74
     0
  0
LTYPE
  5
35
100
AcDbSymbolTableRecord
100
AcDbLinetypeTableRecord
  2
PHANTOM
 70
     0
  3
______  __  __  ______  __  __  ______  __  __ 
 72
    65
 73
     6
 40
2.5
 49
1.25
 74
     0
 49
-0.25
 74
     0
 49
0.25
 74
     0
 49
-0.25
 74
     0
 49
0.25
 74
     0
 49
-0.25
 74
     0
  0
LTYPE
  5
36
100
AcDbSymbolTableRecord
100
AcDbLinetypeTableRecord
  2
PHANTOM2
 70
     0
  3
___ _ _ ___ _ _ ___ _ _ ___ _ _ ___ _ _ ___ _ _
 72
    65
 73
     6
 40
1.25
 49
0.625
 74
     0
 49
-0.125
 74
     0
 49
0.125
 74
     0
 49
-0.125
 74
     0
 49
0.125
 74
     0
 49
-0.125
 74
     0
  0
LTYPE
  5
37
100
AcDbSymbolTableRecord
100
AcDbLinetypeTableRecord
  2
PHANTOMX2
 70
     0
  3
____________    ____    ____    ____________   
 72
    65
 73
     6
 40
5.0
 49
2.5
 74
     0
 49
-0.5
 74
     0
 49
0.5
 74
     0
 49
-0.5
 74
     0
 49
0.5
 74
     0
 49
-0.5
 74
     0
  0
ENDTAB
   0
TABLE
   2
LAYER
   5
2
 100
AcDbSymbolTable
  70
6
   0
LAYER
   5
E
 100
AcDbSymbolTableRecord
 100
AcDbLayerTableRecord
   2
0
  70
0
  62
7
   6
CONTINUOUS
   0
LAYER
   5
39
 100
AcDbSymbolTableRecord
 100
AcDbLayerTableRecord
   2
LEVEL001
  70
0
  62
7
   6
CONTINUOUS
   0
LAYER
   5
3A
 100
AcDbSymbolTableRecord
 100
AcDbLayerTableRecord
   2
LEVEL003
  70
0
  62
7
   6
CONTINUOUS
   0
LAYER
   5
3B
 100
AcDbSymbolTableRecord
 100
AcDbLayerTableRecord
   2
LEVEL020
  70
0
  62
7
   6
CONTINUOUS
   0
LAYER
   5
3C
 100
AcDbSymbolTableRecord
 100
AcDbLayerTableRecord
   2
LEVEL050
  70
0
  62
7
   6
CONTINUOUS
   0
LAYER
   5
3D
 100
AcDbSymbolTableRecord
 100
AcDbLayerTableRecord
   2
LEVEL110
  70
0
  62
7
   6
CONTINUOUS
   0
ENDTAB
  0
TABLE
  2
STYLE
  5
3
100
AcDbSymbolTable
  70
4
  0
STYLE
  5
F
100
AcDbSymbolTableRecord
100
AcDbTextStyleTableRecord
  2
STANDARD
 70
     0
 40
0.0
 41
1.0
 50
0.0
 71
     0
 42
0.2
  3
TXT
  4
BIGFONT
  0
STYLE
  5
38
100
AcDbSymbolTableRecord
100
AcDbTextStyleTableRecord
  2
STANDARD1
 70
     4
 40
0.0
 41
1.0
 50
0.0
 71
     0
 42
0.2
  3
TXT
  4
BIGFONT
   0
STYLE
   5
3E
 100
AcDbSymbolTableRecord
 100
AcDbTextStyleTableRecord
   2
GMM001
  70
0
  40
0.0
  41
 1.0000000000000
  50
0.0
  71
     0
  42
1.0
   3
txt.shx
   4
bigfont.shx
   0
STYLE
   5
3F
 100
AcDbSymbolTableRecord
 100
AcDbTextStyleTableRecord
   2
GMM002
  70
0
  40
0.0
  41
 1.0000000000000
  50
0.0
  71
     0
  42
1.0
   3

   4

1001
ACAD
1000
ＭＳ ゴシック
1071
32817
   0
ENDTAB
  0
TABLE
  2
VIEW
  5
6
100
AcDbSymbolTable
 70
     0
  0
ENDTAB
  0
TABLE
  2
UCS
  5
7
100
AcDbSymbolTable
 70
     0
  0
ENDTAB
  0
TABLE
  2
APPID
  5
9
100
AcDbSymbolTable
 70
     1
  0
APPID
  5
10
100
AcDbSymbolTableRecord
100
AcDbRegAppTableRecord
  2
ACAD
 70
     0
  0
ENDTAB
   0
TABLE
   2
DIMSTYLE
   5
A
 100
AcDbSymbolTable
  70
14
  0
DIMSTYLE
105
1D
100
AcDbSymbolTableRecord
100
AcDbDimStyleTableRecord
  2
STANDARD
 70
     0
  3

  4

  5

  6

  7

 40
1.0
 41
0.18
 42
0.0625
 43
0.38
 44
0.18
 45
0.0
 46
0.0
 47
0.0
 48
0.0
140
0.18
141
0.09
142
0.0
143
25.4
144
1.0
145
0.0
146
1.0
147
0.09
 71
     0
 72
     0
 73
     1
 74
     1
 75
     0
 76
     0
 77
     0
 78
     0
170
     0
171
     2
172
     0
173
     0
174
     0
175
     0
176
     0
177
     0
178
     0
270
     2
271
     4
272
     4
273
     2
274
     2
340
F
275
     0
280
     0
281
     0
282
     0
283
     1
284
     0
285
     0
286
     0
287
     3
288
     0
   0
DIMSTYLE
 105
40
 100
AcDbSymbolTableRecord
 100
AcDbDimStyleTableRecord
   2
GMM001
  70
0
   3

   4

   5

   6
_OPEN
   7
_OPEN
  40
 1.0000000000000
  41
 4.5000000000000
  42
 1.5000000000000
  43
 0.10000000000000E-5
  44
 3.0000000000000
  45
0.0
  46
0.0
  47
0.0
  48
0.0
 140
 6.0000000000000
 141
 1.5000000000000
 142
0.0
 143
 0.39400000000000E-1
 144
 1.0000000000000
 145
0.0
 146
 0.62500000000000
 147
 1.1999816536909
  71
0
  72
0
  73
0
  74
0
  75
0
  76
0
  77
3
  78
0
 170
0
 171
2
 172
1
 173
1
 174
0
 175
0
 176
3
 177
3
 178
3
 270
2
 271
0
 272
0
 273
2
 274
2
 340
3E
 275
1
 280
0
 281
0
 282
0
 283
1
 284
0
 285
0
 286
0
 287
3
 288
1
   0
DIMSTYLE
 105
41
 100
AcDbSymbolTableRecord
 100
AcDbDimStyleTableRecord
   2
GMM002
  70
0
   3

   4

   5

   6
_OPEN
   7
_OPEN
  40
 1.0000000000000
  41
 4.5000000000000
  42
 1.5000000000000
  43
 0.10000000000000E-5
  44
 3.0000000000000
  45
0.0
  46
0.0
  47
0.0
  48
0.0
 140
 6.0000000000000
 141
 1.5000000000000
 142
0.0
 143
 0.39400000000000E-1
 144
 1.0000000000000
 145
0.0
 146
 0.62500000000000
 147
 1.1999988198281
  71
0
  72
0
  73
0
  74
0
  75
0
  76
0
  77
3
  78
0
 170
0
 171
2
 172
1
 173
1
 174
0
 175
0
 176
3
 177
3
 178
3
 270
2
 271
0
 272
0
 273
2
 274
2
 340
3E
 275
1
 280
0
 281
0
 282
0
 283
1
 284
0
 285
0
 286
0
 287
3
 288
1
   0
DIMSTYLE
 105
42
 100
AcDbSymbolTableRecord
 100
AcDbDimStyleTableRecord
   2
GMM003
  70
0
   3

   4

   5

   6
_OPEN
   7
_OPEN
  40
 1.0000000000000
  41
 4.5000000000000
  42
 1.5000000000000
  43
 0.10000000000000E-5
  44
 3.0000000000000
  45
0.0
  46
0.0
  47
0.0
  48
0.0
 140
 6.0000000000000
 141
 1.5000000000000
 142
0.0
 143
 0.39400000000000E-1
 144
 1.0000000000000
 145
0.0
 146
 0.62500000000000
 147
0.0
  71
0
  72
0
  73
0
  74
0
  75
0
  76
0
  77
0
  78
0
 170
0
 171
2
 172
1
 173
1
 174
0
 175
0
 176
3
 177
3
 178
7
 270
2
 271
0
 272
0
 273
2
 274
2
 340
F
 275
1
 280
0
 281
0
 282
0
 283
1
 284
0
 285
0
 286
0
 287
3
 288
1
   0
DIMSTYLE
 105
43
 100
AcDbSymbolTableRecord
 100
AcDbDimStyleTableRecord
   2
GMM004
  70
0
   3

   4

   5

   6
_OPEN
   7
_OPEN
  40
 1.0000000000000
  41
 4.5000000000000
  42
 1.5000000000000
  43
 0.10000000000000E-5
  44
 3.0000000000000
  45
0.0
  46
0.0
  47
0.0
  48
0.0
 140
 6.0000000000000
 141
 1.5000000000000
 142
0.0
 143
 0.39400000000000E-1
 144
 1.0000000000000
 145
0.0
 146
 0.62500000000000
 147
 1.2000045418738
  71
0
  72
0
  73
0
  74
0
  75
0
  76
0
  77
3
  78
0
 170
0
 171
2
 172
1
 173
1
 174
0
 175
0
 176
3
 177
3
 178
3
 270
2
 271
0
 272
0
 273
2
 274
2
 340
3E
 275
1
 280
0
 281
0
 282
0
 283
1
 284
0
 285
0
 286
0
 287
3
 288
1
   0
DIMSTYLE
 105
44
 100
AcDbSymbolTableRecord
 100
AcDbDimStyleTableRecord
   2
GMM005
  70
0
   3

   4

   5

   6
_OPEN
   7
_OPEN
  40
 1.0000000000000
  41
 4.5000000000000
  42
 1.5000000000000
  43
 0.10000000000000E-5
  44
 3.0000000000000
  45
0.0
  46
0.0
  47
0.0
  48
0.0
 140
 6.0000000000000
 141
 1.5000000000000
 142
0.0
 143
 0.39400000000000E-1
 144
 1.0000000000000
 145
0.0
 146
 0.62500000000000
 147
0.0
  71
0
  72
0
  73
0
  74
0
  75
0
  76
0
  77
1
  78
0
 170
0
 171
2
 172
1
 173
1
 174
0
 175
0
 176
3
 177
3
 178
7
 270
2
 271
0
 272
0
 273
2
 274
2
 340
F
 275
1
 280
0
 281
0
 282
0
 283
1
 284
0
 285
0
 286
0
 287
3
 288
1
   0
DIMSTYLE
 105
45
 100
AcDbSymbolTableRecord
 100
AcDbDimStyleTableRecord
   2
GMM006
  70
0
   3

   4

   5

   6
_OPEN
   7
_OPEN
  40
 1.0000000000000
  41
 4.5000000000000
  42
 1.5000000000000
  43
 0.10000000000000E-5
  44
 3.0000000000000
  45
0.0
  46
0.0
  47
0.0
  48
0.0
 140
 6.0000000000000
 141
 1.5000000000000
 142
0.0
 143
 0.39400000000000E-1
 144
 1.0000000000000
 145
0.0
 146
 0.62500000000000
 147
 1.2000045418738
  71
0
  72
0
  73
0
  74
0
  75
0
  76
0
  77
3
  78
0
 170
0
 171
2
 172
1
 173
1
 174
0
 175
0
 176
3
 177
3
 178
3
 270
2
 271
0
 272
0
 273
2
 274
2
 340
3E
 275
1
 280
0
 281
0
 282
0
 283
1
 284
0
 285
0
 286
0
 287
3
 288
1
   0
DIMSTYLE
 105
46
 100
AcDbSymbolTableRecord
 100
AcDbDimStyleTableRecord
   2
GMM007
  70
0
   3

   4

   5

   6
_OPEN
   7
_OPEN
  40
 1.0000000000000
  41
 4.5000000000000
  42
 1.5000000000000
  43
 0.10000000000000E-5
  44
 3.0000000000000
  45
0.0
  46
0.0
  47
0.0
  48
0.0
 140
 6.0000000000000
 141
 1.5000000000000
 142
0.0
 143
 0.39400000000000E-1
 144
 1.0000000000000
 145
0.0
 146
 0.62500000000000
 147
0.0
  71
0
  72
0
  73
0
  74
0
  75
0
  76
0
  77
1
  78
0
 170
0
 171
2
 172
1
 173
1
 174
0
 175
0
 176
3
 177
3
 178
7
 270
2
 271
0
 272
0
 273
2
 274
2
 340
F
 275
1
 280
0
 281
0
 282
0
 283
1
 284
0
 285
0
 286
0
 287
3
 288
1
   0
DIMSTYLE
 105
47
 100
AcDbSymbolTableRecord
 100
AcDbDimStyleTableRecord
   2
GMM008
  70
0
   3

   4

   5

   6
_OPEN
   7
_OPEN
  40
 1.0000000000000
  41
 4.5000000000000
  42
 1.5000000000000
  43
 0.10000000000000E-5
  44
 3.0000000000000
  45
0.0
  46
0.0
  47
0.0
  48
0.0
 140
 6.0000000000000
 141
 1.5000000000000
 142
0.0
 143
 0.39400000000000E-1
 144
 1.0000000000000
 145
0.0
 146
 0.62500000000000
 147
 1.2000045418738
  71
0
  72
0
  73
0
  74
0
  75
0
  76
0
  77
3
  78
0
 170
0
 171
2
 172
1
 173
1
 174
0
 175
0
 176
3
 177
3
 178
3
 270
2
 271
0
 272
0
 273
2
 274
2
 340
3E
 275
1
 280
0
 281
0
 282
0
 283
1
 284
0
 285
0
 286
0
 287
3
 288
1
   0
DIMSTYLE
 105
48
 100
AcDbSymbolTableRecord
 100
AcDbDimStyleTableRecord
   2
GMM009
  70
0
   3

   4

   5

   6
_OPEN
   7
_OPEN
  40
 1.0000000000000
  41
 4.5000000000000
  42
 1.5000000000000
  43
 12.000000000000
  44
 3.0000000000000
  45
0.0
  46
0.0
  47
0.0
  48
0.0
 140
 6.0000000000000
 141
 1.5000000000000
 142
0.0
 143
 0.39400000000000E-1
 144
 1.0000000000000
 145
0.0
 146
 0.62500000000000
 147
 1.2000000000000
  71
0
  72
0
  73
0
  74
0
  75
0
  76
0
  77
3
  78
8
 170
0
 171
2
 172
1
 173
1
 174
0
 175
0
 176
3
 177
3
 178
3
 270
2
 271
2
 272
0
 273
2
 274
2
 340
3E
 275
0
 280
0
 281
0
 282
0
 283
1
 284
0
 285
0
 286
0
 287
3
 288
0
   0
DIMSTYLE
 105
49
 100
AcDbSymbolTableRecord
 100
AcDbDimStyleTableRecord
   2
GMM010
  70
0
   3

   4

   5

   6
_OPEN
   7
_OPEN
  40
 1.0000000000000
  41
 4.5000000000000
  42
 1.5000000000000
  43
 12.000000000000
  44
 3.0000000000000
  45
0.0
  46
0.0
  47
0.0
  48
0.0
 140
 6.0000000000000
 141
 1.5000000000000
 142
0.0
 143
 0.39400000000000E-1
 144
 1.0000000000000
 145
0.0
 146
 0.62500000000000
 147
0.0
  71
0
  72
0
  73
0
  74
0
  75
0
  76
0
  77
1
  78
8
 170
0
 171
2
 172
1
 173
1
 174
0
 175
0
 176
3
 177
3
 178
7
 270
2
 271
2
 272
0
 273
2
 274
2
 340
F
 275
0
 280
0
 281
0
 282
0
 283
1
 284
0
 285
0
 286
0
 287
3
 288
1
   0
DIMSTYLE
 105
4A
 100
AcDbSymbolTableRecord
 100
AcDbDimStyleTableRecord
   2
GMM011
  70
0
   3

   4

   5

   6
_OPEN
   7
_OPEN
  40
 1.0000000000000
  41
 4.5000000000000
  42
 1.5000000000000
  43
 0.10000000000000E-5
  44
 3.0000000000000
  45
0.0
  46
0.0
  47
0.0
  48
0.0
 140
 6.0000000000000
 141
 1.5000000000000
 142
0.0
 143
 0.39400000000000E-1
 144
 1.0000000000000
 145
0.0
 146
 0.62500000000000
 147
 1.2000045418738
  71
0
  72
0
  73
0
  74
0
  75
1
  76
1
  77
3
  78
0
 170
0
 171
2
 172
1
 173
1
 174
0
 175
0
 176
3
 177
3
 178
3
 270
2
 271
0
 272
0
 273
2
 274
2
 340
3E
 275
1
 280
0
 281
0
 282
0
 283
1
 284
0
 285
0
 286
0
 287
3
 288
1
   0
DIMSTYLE
 105
4B
 100
AcDbSymbolTableRecord
 100
AcDbDimStyleTableRecord
   2
GMM012
  70
0
   3

   4

   5

   6
_OPEN
   7
_OPEN
  40
 1.0000000000000
  41
 4.5000000000000
  42
 1.5000000000000
  43
 12.000000000000
  44
 3.0000000000000
  45
0.0
  46
0.0
  47
0.0
  48
0.0
 140
 6.0000000000000
 141
 1.5000000000000
 142
0.0
 143
 0.39400000000000E-1
 144
 1.0000000000000
 145
0.0
 146
 0.62500000000000
 147
 1.2000000000000
  71
0
  72
0
  73
0
  74
0
  75
1
  76
1
  77
3
  78
8
 170
0
 171
2
 172
1
 173
1
 174
0
 175
0
 176
3
 177
3
 178
3
 270
2
 271
2
 272
0
 273
2
 274
2
 340
3E
 275
0
 280
0
 281
0
 282
0
 283
1
 284
0
 285
0
 286
0
 287
3
 288
0
   0
ENDTAB
  0
TABLE
  2
BLOCK_RECORD
  5
1
100
AcDbSymbolTable
 70
     0
  0
BLOCK_RECORD
  5
18
100
AcDbSymbolTableRecord
100
AcDbBlockTableRecord
  2
*MODEL_SPACE
  0
BLOCK_RECORD
  5
15
100
AcDbSymbolTableRecord
100
AcDbBlockTableRecord
  2
*PAPER_SPACE
   0
BLOCK_RECORD
   5
4C
 100
AcDbSymbolTableRecord
 100
AcDbBlockTableRecord
   2
*D1
   0
BLOCK_RECORD
   5
4D
 100
AcDbSymbolTableRecord
 100
AcDbBlockTableRecord
   2
*D2
   0
BLOCK_RECORD
   5
4E
 100
AcDbSymbolTableRecord
 100
AcDbBlockTableRecord
   2
*D4
   0
BLOCK_RECORD
   5
4F
 100
AcDbSymbolTableRecord
 100
AcDbBlockTableRecord
   2
*D5
   0
BLOCK_RECORD
   5
50
 100
AcDbSymbolTableRecord
 100
AcDbBlockTableRecord
   2
*D6
   0
BLOCK_RECORD
   5
51
 100
AcDbSymbolTableRecord
 100
AcDbBlockTableRecord
   2
*D7
   0
BLOCK_RECORD
   5
52
 100
AcDbSymbolTableRecord
 100
AcDbBlockTableRecord
   2
*D9
   0
BLOCK_RECORD
   5
53
 100
AcDbSymbolTableRecord
 100
AcDbBlockTableRecord
   2
*D10
   0
BLOCK_RECORD
   5
54
 100
AcDbSymbolTableRecord
 100
AcDbBlockTableRecord
   2
*D14
   0
BLOCK_RECORD
   5
55
 100
AcDbSymbolTableRecord
 100
AcDbBlockTableRecord
   2
*D15
   0
BLOCK_RECORD
   5
56
 100
AcDbSymbolTableRecord
 100
AcDbBlockTableRecord
   2
*D16
   0
BLOCK_RECORD
   5
57
 100
AcDbSymbolTableRecord
 100
AcDbBlockTableRecord
   2
*D18
   0
BLOCK_RECORD
   5
58
 100
AcDbSymbolTableRecord
 100
AcDbBlockTableRecord
   2
*D19
   0
BLOCK_RECORD
   5
59
 100
AcDbSymbolTableRecord
 100
AcDbBlockTableRecord
   2
*D20
   0
BLOCK_RECORD
   5
5A
 100
AcDbSymbolTableRecord
 100
AcDbBlockTableRecord
   2
*D21
   0
BLOCK_RECORD
   5
5B
 100
AcDbSymbolTableRecord
 100
AcDbBlockTableRecord
   2
_ARCHTICK
   0
BLOCK_RECORD
   5
5C
 100
AcDbSymbolTableRecord
 100
AcDbBlockTableRecord
   2
_BOXBLANK
   0
BLOCK_RECORD
   5
5D
 100
AcDbSymbolTableRecord
 100
AcDbBlockTableRecord
   2
_BOXFILLED
   0
BLOCK_RECORD
   5
5E
 100
AcDbSymbolTableRecord
 100
AcDbBlockTableRecord
   2
_CLOSED
   0
BLOCK_RECORD
   5
5F
 100
AcDbSymbolTableRecord
 100
AcDbBlockTableRecord
   2
_CLOSEDBLANK
   0
BLOCK_RECORD
   5
60
 100
AcDbSymbolTableRecord
 100
AcDbBlockTableRecord
   2
_DATUMBLANK
   0
BLOCK_RECORD
   5
61
 100
AcDbSymbolTableRecord
 100
AcDbBlockTableRecord
   2
_DATUMFILLED
   0
BLOCK_RECORD
   5
62
 100
AcDbSymbolTableRecord
 100
AcDbBlockTableRecord
   2
_DOT
   0
BLOCK_RECORD
   5
63
 100
AcDbSymbolTableRecord
 100
AcDbBlockTableRecord
   2
_DOTBLANK
   0
BLOCK_RECORD
   5
64
 100
AcDbSymbolTableRecord
 100
AcDbBlockTableRecord
   2
_DOTSMALL
   0
BLOCK_RECORD
   5
65
 100
AcDbSymbolTableRecord
 100
AcDbBlockTableRecord
   2
_INTEGRAL
   0
BLOCK_RECORD
   5
66
 100
AcDbSymbolTableRecord
 100
AcDbBlockTableRecord
   2
_NONE
   0
BLOCK_RECORD
   5
67
 100
AcDbSymbolTableRecord
 100
AcDbBlockTableRecord
   2
_OBLIQUE
   0
BLOCK_RECORD
   5
68
 100
AcDbSymbolTableRecord
 100
AcDbBlockTableRecord
   2
_OPEN
   0
BLOCK_RECORD
   5
69
 100
AcDbSymbolTableRecord
 100
AcDbBlockTableRecord
   2
_OPEN30
   0
BLOCK_RECORD
   5
6A
 100
AcDbSymbolTableRecord
 100
AcDbBlockTableRecord
   2
_OPEN90
   0
BLOCK_RECORD
   5
6B
 100
AcDbSymbolTableRecord
 100
AcDbBlockTableRecord
   2
_ORIGIN
   0
ENDTAB
   0
ENDSEC
  0
SECTION
  2
BLOCKS
  0
BLOCK
  5
19
100
AcDbEntity
  8
0
100
AcDbBlockBegin
  2
*MODEL_SPACE
 70
     0
 10
0.0
 20
0.0
 30
0.0
  3
*MODEL_SPACE
  1

  0
ENDBLK
  5
1A
100
AcDbEntity
  8
0
100
AcDbBlockEnd
  0
BLOCK
  5
16
100
AcDbEntity
 67
     1
  8
0
100
AcDbBlockBegin
  2
*PAPER_SPACE
 70
     0
 10
0.0
 20
0.0
 30
0.0
  3
*PAPER_SPACE
  1

  0
ENDBLK
  5
17
100
AcDbEntity
 67
     1
  8
0
100
AcDbBlockEnd
   0
BLOCK
   5
6C
 100
AcDbEntity
   8
0
 100
AcDbBlockBegin
   2
_ARCHTICK
  70
0
  10
0.0
  20
0.0
  30
0.0
   3
_ARCHTICK
   0
POLYLINE
   5
6D
 100
AcDbEntity
   8
0
   6
BYBLOCK
  62
0
 100
AcDb2dPolyline
  66
1
  10
0.0
  20
0.0
  30
0.0
  70
1
  40
 0.15000000000000
  41
 0.15000000000000
   0
VERTEX
   5
6E
 100
AcDbEntity
   8
0
   6
BYBLOCK
  62
0
 100
AcDbVertex
 100
AcDb2dVertex
  10
-0.50000000000000
  20
-0.50000000000000
  30
0.0
  40
 0.15000000000000
  41
 0.15000000000000
   0
VERTEX
   5
6F
 100
AcDbEntity
   8
0
   6
BYBLOCK
  62
0
 100
AcDbVertex
 100
AcDb2dVertex
  10
 0.50000000000000
  20
 0.50000000000000
  30
0.0
  40
 0.15000000000000
  41
 0.15000000000000
   0
SEQEND
   5
70
 100
AcDbEntity
   8
0
   6
BYBLOCK
  62
0
   0
ENDBLK
   5
71
 100
AcDbEntity
   8
0
 100
AcDbBlockEnd
   0
BLOCK
   5
72
 100
AcDbEntity
   8
0
 100
AcDbBlockBegin
   2
_OBLIQUE
  70
0
  10
0.0
  20
0.0
  30
0.0
   3
_OBLIQUE
   0
LINE
   5
73
 100
AcDbEntity
   8
0
 100
AcDbLine
   6
BYBLOCK
  62
0
  10
-0.50000000000000
  20
-0.50000000000000
  30
0.0
  11
 0.50000000000000
  21
 0.50000000000000
  31
0.0
   0
ENDBLK
   5
74
 100
AcDbEntity
   8
0
 100
AcDbBlockEnd
   0
BLOCK
   5
75
 100
AcDbEntity
   8
0
 100
AcDbBlockBegin
   2
_BOXBLANK
  70
0
  10
0.0
  20
0.0
  30
0.0
   3
_BOXBLANK
   0
LINE
   5
76
 100
AcDbEntity
   8
0
 100
AcDbLine
   6
BYBLOCK
  62
0
  10
-0.50000000000000
  20
-0.50000000000000
  30
0.0
  11
 0.50000000000000
  21
-0.50000000000000
  31
0.0
   0
LINE
   5
77
 100
AcDbEntity
   8
0
 100
AcDbLine
   6
BYBLOCK
  62
0
  10
 0.50000000000000
  20
-0.50000000000000
  30
0.0
  11
 0.50000000000000
  21
 0.50000000000000
  31
0.0
   0
LINE
   5
78
 100
AcDbEntity
   8
0
 100
AcDbLine
   6
BYBLOCK
  62
0
  10
 0.50000000000000
  20
 0.50000000000000
  30
0.0
  11
-0.50000000000000
  21
 0.50000000000000
  31
0.0
   0
LINE
   5
79
 100
AcDbEntity
   8
0
 100
AcDbLine
   6
BYBLOCK
  62
0
  10
-0.50000000000000
  20
 0.50000000000000
  30
0.0
  11
-0.50000000000000
  21
-0.50000000000000
  31
0.0
   0
LINE
   5
7A
 100
AcDbEntity
   8
0
 100
AcDbLine
   6
BYBLOCK
  62
0
  10
-0.50000000000000
  20
0.0
  30
0.0
  11
-1.0000000000000
  21
0.0
  31
0.0
   0
ENDBLK
   5
7B
 100
AcDbEntity
   8
0
 100
AcDbBlockEnd
   0
BLOCK
   5
7C
 100
AcDbEntity
   8
0
 100
AcDbBlockBegin
   2
_BOXFILLED
  70
0
  10
0.0
  20
0.0
  30
0.0
   3
_BOXFILLED
   0
SOLID
   5
7D
 100
AcDbEntity
   8
0
 100
AcDbTrace
   6
BYBLOCK
  62
0
  10
-0.50000000000000
  20
 0.50000000000000
  30
0.0
  11
 0.50000000000000
  21
 0.50000000000000
  31
0.0
  12
-0.50000000000000
  22
-0.50000000000000
  32
0.0
  13
 0.50000000000000
  23
-0.50000000000000
  33
0.0
   0
LINE
   5
7E
 100
AcDbEntity
   8
0
 100
AcDbLine
   6
BYBLOCK
  62
0
  10
-0.50000000000000
  20
0.0
  30
0.0
  11
-1.0000000000000
  21
0.0
  31
0.0
   0
ENDBLK
   5
7F
 100
AcDbEntity
   8
0
 100
AcDbBlockEnd
   0
BLOCK
   5
80
 100
AcDbEntity
   8
0
 100
AcDbBlockBegin
   2
_CLOSED
  70
0
  10
0.0
  20
0.0
  30
0.0
   3
_CLOSED
   0
LINE
   5
81
 100
AcDbEntity
   8
0
 100
AcDbLine
   6
BYBLOCK
  62
0
  10
-1.0000000000000
  20
 0.16666666666667
  30
0.0
  11
0.0
  21
0.0
  31
0.0
   0
LINE
   5
82
 100
AcDbEntity
   8
0
 100
AcDbLine
   6
BYBLOCK
  62
0
  10
0.0
  20
0.0
  30
0.0
  11
-1.0000000000000
  21
-0.16666666666667
  31
0.0
   0
LINE
   5
83
 100
AcDbEntity
   8
0
 100
AcDbLine
   6
BYBLOCK
  62
0
  10
-1.0000000000000
  20
 0.16666666666667
  30
0.0
  11
-1.0000000000000
  21
-0.16666666666667
  31
0.0
   0
LINE
   5
84
 100
AcDbEntity
   8
0
 100
AcDbLine
   6
BYBLOCK
  62
0
  10
0.0
  20
0.0
  30
0.0
  11
-1.0000000000000
  21
0.0
  31
0.0
   0
ENDBLK
   5
85
 100
AcDbEntity
   8
0
 100
AcDbBlockEnd
   0
BLOCK
   5
86
 100
AcDbEntity
   8
0
 100
AcDbBlockBegin
   2
_OPEN
  70
0
  10
0.0
  20
0.0
  30
0.0
   3
_OPEN
   0
LINE
   5
87
 100
AcDbEntity
   8
0
 100
AcDbLine
   6
BYBLOCK
  62
0
  10
-1.0000000000000
  20
 0.16666666666667
  30
0.0
  11
0.0
  21
0.0
  31
0.0
   0
LINE
   5
88
 100
AcDbEntity
   8
0
 100
AcDbLine
   6
BYBLOCK
  62
0
  10
0.0
  20
0.0
  30
0.0
  11
-1.0000000000000
  21
-0.16666666666667
  31
0.0
   0
LINE
   5
89
 100
AcDbEntity
   8
0
 100
AcDbLine
   6
BYBLOCK
  62
0
  10
0.0
  20
0.0
  30
0.0
  11
-1.0000000000000
  21
0.0
  31
0.0
   0
ENDBLK
   5
8A
 100
AcDbEntity
   8
0
 100
AcDbBlockEnd
   0
BLOCK
   5
8B
 100
AcDbEntity
   8
0
 100
AcDbBlockBegin
   2
_OPEN30
  70
0
  10
0.0
  20
0.0
  30
0.0
   3
_OPEN30
   0
LINE
   5
8C
 100
AcDbEntity
   8
0
 100
AcDbLine
   6
BYBLOCK
  62
0
  10
-1.0000000000000
  20
 0.26794919243110
  30
0.0
  11
0.0
  21
0.0
  31
0.0
   0
LINE
   5
8D
 100
AcDbEntity
   8
0
 100
AcDbLine
   6
BYBLOCK
  62
0
  10
0.0
  20
0.0
  30
0.0
  11
-1.0000000000000
  21
-0.26794919243110
  31
0.0
   0
LINE
   5
8E
 100
AcDbEntity
   8
0
 100
AcDbLine
   6
BYBLOCK
  62
0
  10
0.0
  20
0.0
  30
0.0
  11
-1.0000000000000
  21
0.0
  31
0.0
   0
ENDBLK
   5
8F
 100
AcDbEntity
   8
0
 100
AcDbBlockEnd
   0
BLOCK
   5
90
 100
AcDbEntity
   8
0
 100
AcDbBlockBegin
   2
_OPEN90
  70
0
  10
0.0
  20
0.0
  30
0.0
   3
_OPEN90
   0
LINE
   5
91
 100
AcDbEntity
   8
0
 100
AcDbLine
   6
BYBLOCK
  62
0
  10
-0.50000000000000
  20
 0.50000000000000
  30
0.0
  11
0.0
  21
0.0
  31
0.0
   0
LINE
   5
92
 100
AcDbEntity
   8
0
 100
AcDbLine
   6
BYBLOCK
  62
0
  10
0.0
  20
0.0
  30
0.0
  11
-0.50000000000000
  21
-0.50000000000000
  31
0.0
   0
LINE
   5
93
 100
AcDbEntity
   8
0
 100
AcDbLine
   6
BYBLOCK
  62
0
  10
0.0
  20
0.0
  30
0.0
  11
-1.0000000000000
  21
0.0
  31
0.0
   0
ENDBLK
   5
94
 100
AcDbEntity
   8
0
 100
AcDbBlockEnd
   0
BLOCK
   5
95
 100
AcDbEntity
   8
0
 100
AcDbBlockBegin
   2
_CLOSEDBLANK
  70
0
  10
0.0
  20
0.0
  30
0.0
   3
_CLOSEDBLANK
   0
LINE
   5
96
 100
AcDbEntity
   8
0
 100
AcDbLine
   6
BYBLOCK
  62
0
  10
-1.0000000000000
  20
 0.16666666666667
  30
0.0
  11
0.0
  21
0.0
  31
0.0
   0
LINE
   5
97
 100
AcDbEntity
   8
0
 100
AcDbLine
   6
BYBLOCK
  62
0
  10
0.0
  20
0.0
  30
0.0
  11
-1.0000000000000
  21
-0.16666666666667
  31
0.0
   0
LINE
   5
98
 100
AcDbEntity
   8
0
 100
AcDbLine
   6
BYBLOCK
  62
0
  10
-1.0000000000000
  20
 0.16666666666667
  30
0.0
  11
-1.0000000000000
  21
-0.16666666666667
  31
0.0
   0
ENDBLK
   5
99
 100
AcDbEntity
   8
0
 100
AcDbBlockEnd
   0
BLOCK
   5
9A
 100
AcDbEntity
   8
0
 100
AcDbBlockBegin
   2
_DOT
  70
0
  10
0.0
  20
0.0
  30
0.0
   3
_DOT
   0
POLYLINE
   5
9B
 100
AcDbEntity
   8
0
   6
BYBLOCK
  62
0
 100
AcDb2dPolyline
  66
1
  10
0.0
  20
0.0
  30
0.0
  70
1
  40
 0.50000000000000
  41
 0.50000000000000
   0
VERTEX
   5
9C
 100
AcDbEntity
   8
0
   6
BYBLOCK
  62
0
 100
AcDbVertex
 100
AcDb2dVertex
  10
-0.25000000000000
  20
0.0
  30
0.0
  42
 1.0000000000000
  40
 0.50000000000000
  41
 0.50000000000000
   0
VERTEX
   5
9D
 100
AcDbEntity
   8
0
   6
BYBLOCK
  62
0
 100
AcDbVertex
 100
AcDb2dVertex
  10
 0.25000000000000
  20
0.0
  30
0.0
  42
 1.0000000000000
  40
 0.50000000000000
  41
 0.50000000000000
   0
SEQEND
   5
9E
 100
AcDbEntity
   8
0
   6
BYBLOCK
  62
0
   0
LINE
   5
9F
 100
AcDbEntity
   8
0
 100
AcDbLine
   6
BYBLOCK
  62
0
  10
-0.50000000000000
  20
0.0
  30
0.0
  11
-1.0000000000000
  21
0.0
  31
0.0
   0
ENDBLK
   5
A0
 100
AcDbEntity
   8
0
 100
AcDbBlockEnd
   0
BLOCK
   5
A1
 100
AcDbEntity
   8
0
 100
AcDbBlockBegin
   2
_DOTSMALL
  70
0
  10
0.0
  20
0.0
  30
0.0
   3
_DOTSMALL
   0
POLYLINE
   5
A2
 100
AcDbEntity
   8
0
   6
BYBLOCK
  62
0
 100
AcDb2dPolyline
  66
1
  10
0.0
  20
0.0
  30
0.0
  70
1
  40
 0.50000000000000
  41
 0.50000000000000
   0
VERTEX
   5
A3
 100
AcDbEntity
   8
0
   6
BYBLOCK
  62
0
 100
AcDbVertex
 100
AcDb2dVertex
  10
-0.62500000000000E-1
  20
0.0
  30
0.0
  42
 1.0000000000000
  40
 0.50000000000000
  41
 0.50000000000000
   0
VERTEX
   5
A4
 100
AcDbEntity
   8
0
   6
BYBLOCK
  62
0
 100
AcDbVertex
 100
AcDb2dVertex
  10
 0.62500000000000E-1
  20
0.0
  30
0.0
  42
 1.0000000000000
  40
 0.50000000000000
  41
 0.50000000000000
   0
SEQEND
   5
A5
 100
AcDbEntity
   8
0
   6
BYBLOCK
  62
0
   0
ENDBLK
   5
A6
 100
AcDbEntity
   8
0
 100
AcDbBlockEnd
   0
BLOCK
   5
A7
 100
AcDbEntity
   8
0
 100
AcDbBlockBegin
   2
_DATUMBLANK
  70
0
  10
0.0
  20
0.0
  30
0.0
   3
_DATUMBLANK
   0
LINE
   5
A8
 100
AcDbEntity
   8
0
 100
AcDbLine
   6
BYBLOCK
  62
0
  10
0.0
  20
 0.57735027000000
  30
0.0
  11
-1.0000000000000
  21
0.0
  31
0.0
   0
LINE
   5
A9
 100
AcDbEntity
   8
0
 100
AcDbLine
   6
BYBLOCK
  62
0
  10
-1.0000000000000
  20
0.0
  30
0.0
  11
0.0
  21
-0.57735027000000
  31
0.0
   0
LINE
   5
AA
 100
AcDbEntity
   8
0
 100
AcDbLine
   6
BYBLOCK
  62
0
  10
0.0
  20
-0.57735027000000
  30
0.0
  11
0.0
  21
 0.57735027000000
  31
0.0
   0
ENDBLK
   5
AB
 100
AcDbEntity
   8
0
 100
AcDbBlockEnd
   0
BLOCK
   5
AC
 100
AcDbEntity
   8
0
 100
AcDbBlockBegin
   2
_DATUMFILLED
  70
0
  10
0.0
  20
0.0
  30
0.0
   3
_DATUMFILLED
   0
SOLID
   5
AD
 100
AcDbEntity
   8
0
 100
AcDbTrace
   6
BYBLOCK
  62
0
  10
0.0
  20
 0.57735027000000
  30
0.0
  11
-1.0000000000000
  21
0.0
  31
0.0
  12
0.0
  22
-0.57735027000000
  32
0.0
  13
0.0
  23
-0.57735027000000
  33
0.0
   0
ENDBLK
   5
AE
 100
AcDbEntity
   8
0
 100
AcDbBlockEnd
   0
BLOCK
   5
AF
 100
AcDbEntity
   8
0
 100
AcDbBlockBegin
   2
_ORIGIN
  70
0
  10
0.0
  20
0.0
  30
0.0
   3
_ORIGIN
   0
CIRCLE
   5
B0
 100
AcDbEntity
   8
0
 100
AcDbCircle
   6
BYBLOCK
  62
0
  10
0.0
  20
0.0
  30
0.0
  40
 0.50000000000000
   0
LINE
   5
B1
 100
AcDbEntity
   8
0
 100
AcDbLine
   6
BYBLOCK
  62
0
  10
0.0
  20
0.0
  30
0.0
  11
-1.0000000000000
  21
0.0
  31
0.0
   0
ENDBLK
   5
B2
 100
AcDbEntity
   8
0
 100
AcDbBlockEnd
   0
BLOCK
   5
B3
 100
AcDbEntity
   8
0
 100
AcDbBlockBegin
   2
_NONE
  70
0
  10
0.0
  20
0.0
  30
0.0
   3
_NONE
   0
CIRCLE
   5
B4
 100
AcDbEntity
   8
0
 100
AcDbCircle
   6
BYBLOCK
  62
0
  10
0.0
  20
0.0
  30
0.0
  40
 0.25000000000000
   0
ENDBLK
   5
B5
 100
AcDbEntity
   8
0
 100
AcDbBlockEnd
   0
BLOCK
   5
B6
 100
AcDbEntity
   8
0
 100
AcDbBlockBegin
   2
_DOTBLANK
  70
0
  10
0.0
  20
0.0
  30
0.0
   3
_DOTBLANK
   0
CIRCLE
   5
B7
 100
AcDbEntity
   8
0
 100
AcDbCircle
   6
BYBLOCK
  62
0
  10
0.0
  20
0.0
  30
0.0
  40
 0.50000000000000
   0
LINE
   5
B8
 100
AcDbEntity
   8
0
 100
AcDbLine
   6
BYBLOCK
  62
0
  10
-0.50000000000000
  20
0.0
  30
0.0
  11
-1.0000000000000
  21
0.0
  31
0.0
   0
ENDBLK
   5
B9
 100
AcDbEntity
   8
0
 100
AcDbBlockEnd
   0
BLOCK
   5
BA
 100
AcDbEntity
   8
0
 100
AcDbBlockBegin
   2
_INTEGRAL
  70
0
  10
0.0
  20
0.0
  30
0.0
   3
_INTEGRAL
   0
ARC
   5
BB
 100
AcDbEntity
   8
0
   6
BYBLOCK
  62
0
 100
AcDbCircle
  10
 0.44488800000000
  20
-0.91335000000000E-1
  30
0.0
  40
 0.45416700000000
 100
AcDbArc
  50
 102.00000000000
  51
 168.00000000000
   0
ARC
   5
BC
 100
AcDbEntity
   8
0
   6
BYBLOCK
  62
0
 100
AcDbCircle
  10
-0.44488800000000
  20
 0.91335000000000E-1
  30
0.0
  40
 0.45416700000000
 100
AcDbArc
  50
 282.00000000000
  51
 348.00000000000
   0
ENDBLK
   5
BD
 100
AcDbEntity
   8
0
 100
AcDbBlockEnd
   0
BLOCK
   5
BE
 100
AcDbEntity
   8
0
 100
AcDbBlockBegin
   2
*D1
  70
65
  10
0.0
  20
0.0
  30
0.0
   3
*D1
   0
LINE
   5
BF
 100
AcDbEntity
   8
LEVEL003
 100
AcDbLine
   6
CONTINUOUS
  62
3
  10
 199.99998752773
  20
 327.99999834597
  30
0.0
  11
 199.99998752773
  21
 355.49998994172
  31
0.0
   0
LINE
   5
C0
 100
AcDbEntity
   8
LEVEL003
 100
AcDbLine
   6
CONTINUOUS
  62
3
  10
 114.99998243153
  20
 327.99999834597
  30
0.0
  11
 114.99998243153
  21
 355.49998994172
  31
0.0
   0
LINE
   5
C1
 100
AcDbEntity
   8
LEVEL003
 100
AcDbLine
   6
CONTINUOUS
  62
3
  10
 199.99998752773
  20
 352.49998994172
  30
0.0
  11
 167.73748735753
  21
 352.49998994172
  31
0.0
   0
LINE
   5
C2
 100
AcDbEntity
   8
LEVEL003
 100
AcDbLine
   6
CONTINUOUS
  62
3
  10
 114.99998243153
  20
 352.49998994172
  30
0.0
  11
 147.26248735753
  21
 352.49998994172
  31
0.0
   0
INSERT
   5
C3
 100
AcDbEntity
   8
LEVEL003
   6
CONTINUOUS
  62
3
 100
AcDbBlockReference
   2
_OPEN
  10
 199.99998752773
  20
 352.49998994172
  30
0.0
  41
 4.5000000000000
  42
 4.5000000000000
  43
 4.5000000000000
  50
0.0
   0
INSERT
   5
C4
 100
AcDbEntity
   8
LEVEL003
   6
CONTINUOUS
  62
3
 100
AcDbBlockReference
   2
_OPEN
  10
 114.99998243153
  20
 352.49998994172
  30
0.0
  41
 4.5000000000000
  42
 4.5000000000000
  43
 4.5000000000000
  50
 180.00000000000
   0
MTEXT
   5
C5
 100
AcDbEntity
   8
LEVEL003
  62
3
 100
AcDbMText
  10
 157.49998735753
  20
 353.69997159541
  30
0.0
  40
 6.0000000000000
  41
0.0
  71
8
  72
1
   1
\A1;%%c85
   7
GMM001
   0
ENDBLK
   5
C6
 100
AcDbEntity
   8
0
 100
AcDbBlockEnd
   0
BLOCK
   5
C7
 100
AcDbEntity
   8
0
 100
AcDbBlockBegin
   2
*D2
  70
65
  10
0.0
  20
0.0
  30
0.0
   3
*D2
   0
LINE
   5
C8
 100
AcDbEntity
   8
LEVEL003
 100
AcDbLine
   6
CONTINUOUS
  62
3
  10
 155.99999642372
  20
 240.49998565018
  30
0.0
  11
 49.499999552965
  21
 240.49998565018
  31
0.0
   0
LINE
   5
C9
 100
AcDbEntity
   8
LEVEL003
 100
AcDbLine
   6
CONTINUOUS
  62
3
  10
 82.999990969897
  20
 85.499997898936
  30
0.0
  11
 49.499999552965
  21
 85.499997898936
  31
0.0
   0
LINE
   5
CA
 100
AcDbEntity
   8
LEVEL003
 100
AcDbLine
   6
CONTINUOUS
  62
3
  10
 52.499999552965
  20
 240.49998565018
  30
0.0
  11
 52.499999552965
  21
 171.07185533047
  31
0.0
   0
LINE
   5
CB
 100
AcDbEntity
   8
LEVEL003
 100
AcDbLine
   6
CONTINUOUS
  62
3
  10
 52.499999552965
  20
 85.499997898936
  30
0.0
  11
 52.499999552965
  21
 154.92810533047
  31
0.0
   0
INSERT
   5
CC
 100
AcDbEntity
   8
LEVEL003
   6
CONTINUOUS
  62
3
 100
AcDbBlockReference
   2
_OPEN
  10
 52.499999552965
  20
 240.49998565018
  30
0.0
  41
 4.5000000000000
  42
 4.5000000000000
  43
 4.5000000000000
  50
 90.000000000000
   0
INSERT
   5
CD
 100
AcDbEntity
   8
LEVEL003
   6
CONTINUOUS
  62
3
 100
AcDbBlockReference
   2
_OPEN
  10
 52.499999552965
  20
 85.499997898936
  30
0.0
  41
 4.5000000000000
  42
 4.5000000000000
  43
 4.5000000000000
  50
 270.00000000000
   0
MTEXT
   5
CE
 100
AcDbEntity
   8
LEVEL003
  62
3
 100
AcDbMText
  10
 51.300000733137
  20
 162.99998033047
  30
0.0
  40
 6.0000000000000
  41
0.0
  71
8
  72
1
   1
\A1;155
   7
GMM001
  11
0.0
  21
 1.0000000000000
  31
0.0
   0
ENDBLK
   5
CF
 100
AcDbEntity
   8
0
 100
AcDbBlockEnd
   0
BLOCK
   5
D0
 100
AcDbEntity
   8
0
 100
AcDbBlockBegin
   2
*D4
  70
65
  10
0.0
  20
0.0
  30
0.0
   3
*D4
   0
LINE
   5
D1
 100
AcDbEntity
   8
LEVEL003
 100
AcDbLine
   6
CONTINUOUS
  62
3
  10
 230.99999427795
  20
 312.49998350442
  30
0.0
  11
 272.99999307096
  21
 312.49998350442
  31
0.0
   0
LINE
   5
D2
 100
AcDbEntity
   8
LEVEL003
 100
AcDbLine
   6
CONTINUOUS
  62
3
  10
 236.99999409914
  20
 307.49999128282
  30
0.0
  11
 272.99999307096
  21
 307.49999128282
  31
0.0
   0
LINE
   5
D3
 100
AcDbEntity
   8
LEVEL003
 100
AcDbLine
   6
CONTINUOUS
  62
3
  10
 269.99999307096
  20
 318.12498350442
  30
0.0
  11
 269.99999307096
  21
 302.69062327922
  31
0.0
   0
LINE
   5
D4
 100
AcDbEntity
   8
LEVEL003
 100
AcDbLine
   6
CONTINUOUS
  62
3
  10
 269.99999307096
  20
 296.65312327922
  30
0.0
  11
 269.99999307096
  21
 296.65312327922
  31
0.0
   0
INSERT
   5
D5
 100
AcDbEntity
   8
LEVEL003
   6
CONTINUOUS
  62
3
 100
AcDbBlockReference
   2
_OPEN
  10
 269.99999307096
  20
 312.49998350442
  30
0.0
  41
 4.5000000000000
  42
 4.5000000000000
  43
 4.5000000000000
  50
 270.00000000000
   0
INSERT
   5
D6
 100
AcDbEntity
   8
LEVEL003
   6
CONTINUOUS
  62
3
 100
AcDbBlockReference
   2
_OPEN
  10
 269.99999307096
  20
 307.49999128282
  30
0.0
  41
 4.5000000000000
  42
 4.5000000000000
  43
 4.5000000000000
  50
 90.000000000000
   0
MTEXT
   5
D7
 100
AcDbEntity
   8
LEVEL003
  62
3
 100
AcDbMText
  10
 268.79998852909
  20
 302.69062327922
  30
0.0
  40
 6.0000000000000
  41
0.0
  71
9
  72
1
   1
\A1;5
   7
GMM001
  11
0.0
  21
 1.0000000000000
  31
0.0
   0
ENDBLK
   5
D8
 100
AcDbEntity
   8
0
 100
AcDbBlockEnd
   0
BLOCK
   5
D9
 100
AcDbEntity
   8
0
 100
AcDbBlockBegin
   2
*D5
  70
65
  10
0.0
  20
0.0
  30
0.0
   3
*D5
   0
LINE
   5
DA
 100
AcDbEntity
   8
LEVEL003
 100
AcDbLine
   6
CONTINUOUS
  62
3
  10
 200.50000281632
  20
 327.49998305738
  30
0.0
  11
 287.99999262393
  21
 327.49998305738
  31
0.0
   0
LINE
   5
DB
 100
AcDbEntity
   8
LEVEL003
 100
AcDbLine
   6
CONTINUOUS
  62
3
  10
 202.85961425723
  20
 315.49998341501
  30
0.0
  11
 287.99999262393
  21
 315.49998341501
  31
0.0
   0
LINE
   5
DC
 100
AcDbEntity
   8
LEVEL003
 100
AcDbLine
   6
CONTINUOUS
  62
3
  10
 284.99999262393
  20
 327.49998305738
  30
0.0
  11
 284.99999262393
  21
 326.55310823619
  31
0.0
   0
LINE
   5
DD
 100
AcDbEntity
   8
LEVEL003
 100
AcDbLine
   6
CONTINUOUS
  62
3
  10
 284.99999262393
  20
 315.49998341501
  30
0.0
  11
 284.99999262393
  21
 316.44685823619
  31
0.0
   0
INSERT
   5
DE
 100
AcDbEntity
   8
LEVEL003
   6
CONTINUOUS
  62
3
 100
AcDbBlockReference
   2
_OPEN
  10
 284.99999262393
  20
 327.49998305738
  30
0.0
  41
 4.5000000000000
  42
 4.5000000000000
  43
 4.5000000000000
  50
 90.000000000000
   0
INSERT
   5
DF
 100
AcDbEntity
   8
LEVEL003
   6
CONTINUOUS
  62
3
 100
AcDbBlockReference
   2
_OPEN
  10
 284.99999262393
  20
 315.49998341501
  30
0.0
  41
 4.5000000000000
  42
 4.5000000000000
  43
 4.5000000000000
  50
 270.00000000000
   0
MTEXT
   5
E0
 100
AcDbEntity
   8
LEVEL003
  62
3
 100
AcDbMText
  10
 283.79998808206
  20
 321.49998323619
  30
0.0
  40
 6.0000000000000
  41
0.0
  71
8
  72
1
   1
\A1;12
   7
GMM001
  11
0.0
  21
 1.0000000000000
  31
0.0
   0
ENDBLK
   5
E1
 100
AcDbEntity
   8
0
 100
AcDbBlockEnd
   0
BLOCK
   5
E2
 100
AcDbEntity
   8
0
 100
AcDbBlockBegin
   2
*D6
  70
65
  10
0.0
  20
0.0
  30
0.0
   3
*D6
   0
LINE
   5
E3
 100
AcDbEntity
   8
LEVEL003
 100
AcDbLine
   6
CONTINUOUS
  62
3
  10
 200.50000281632
  20
 327.49998305738
  30
0.0
  11
 302.99999217689
  21
 327.49998305738
  31
0.0
   0
LINE
   5
E4
 100
AcDbEntity
   8
LEVEL003
 100
AcDbLine
   6
CONTINUOUS
  62
3
  10
 230.99999427795
  20
 312.49998350442
  30
0.0
  11
 302.99999217689
  21
 312.49998350442
  31
0.0
   0
LINE
   5
E5
 100
AcDbEntity
   8
LEVEL003
 100
AcDbLine
   6
CONTINUOUS
  62
3
  10
 299.99999217689
  20
 327.49998305738
  30
0.0
  11
 299.99999217689
  21
 325.05310828090
  31
0.0
   0
LINE
   5
E6
 100
AcDbEntity
   8
LEVEL003
 100
AcDbLine
   6
CONTINUOUS
  62
3
  10
 299.99999217689
  20
 312.49998350442
  30
0.0
  11
 299.99999217689
  21
 314.94685828090
  31
0.0
   0
INSERT
   5
E7
 100
AcDbEntity
   8
LEVEL003
   6
CONTINUOUS
  62
3
 100
AcDbBlockReference
   2
_OPEN
  10
 299.99999217689
  20
 327.49998305738
  30
0.0
  41
 4.5000000000000
  42
 4.5000000000000
  43
 4.5000000000000
  50
 90.000000000000
   0
INSERT
   5
E8
 100
AcDbEntity
   8
LEVEL003
   6
CONTINUOUS
  62
3
 100
AcDbBlockReference
   2
_OPEN
  10
 299.99999217689
  20
 312.49998350442
  30
0.0
  41
 4.5000000000000
  42
 4.5000000000000
  43
 4.5000000000000
  50
 270.00000000000
   0
MTEXT
   5
E9
 100
AcDbEntity
   8
LEVEL003
  62
3
 100
AcDbMText
  10
 298.79998763502
  20
 319.99998328090
  30
0.0
  40
 6.0000000000000
  41
0.0
  71
8
  72
1
   1
\A1;15
   7
GMM001
  11
0.0
  21
 1.0000000000000
  31
0.0
   0
ENDBLK
   5
EA
 100
AcDbEntity
   8
0
 100
AcDbBlockEnd
   0
BLOCK
   5
EB
 100
AcDbEntity
   8
0
 100
AcDbBlockBegin
   2
*D7
  70
65
  10
0.0
  20
0.0
  30
0.0
   3
*D7
   0
LINE
   5
EC
 100
AcDbEntity
   8
LEVEL003
 100
AcDbLine
   6
CONTINUOUS
  62
3
  10
 230.99999427795
  20
 312.49998350442
  30
0.0
  11
 302.99999217689
  21
 312.49998350442
  31
0.0
   0
LINE
   5
ED
 100
AcDbEntity
   8
LEVEL003
 100
AcDbLine
   6
CONTINUOUS
  62
3
  10
 236.99999409914
  20
 262.49999262393
  30
0.0
  11
 302.99999217689
  21
 262.49999262393
  31
0.0
   0
LINE
   5
EE
 100
AcDbEntity
   8
LEVEL003
 100
AcDbLine
   6
CONTINUOUS
  62
3
  10
 299.99999217689
  20
 312.49998350442
  30
0.0
  11
 299.99999217689
  21
 293.01247662008
  31
0.0
   0
LINE
   5
EF
 100
AcDbEntity
   8
LEVEL003
 100
AcDbLine
   6
CONTINUOUS
  62
3
  10
 299.99999217689
  20
 262.49999262393
  30
0.0
  11
 299.99999217689
  21
 281.98747662008
  31
0.0
   0
INSERT
   5
F0
 100
AcDbEntity
   8
LEVEL003
   6
CONTINUOUS
  62
3
 100
AcDbBlockReference
   2
_OPEN
  10
 299.99999217689
  20
 312.49998350442
  30
0.0
  41
 4.5000000000000
  42
 4.5000000000000
  43
 4.5000000000000
  50
 90.000000000000
   0
INSERT
   5
F1
 100
AcDbEntity
   8
LEVEL003
   6
CONTINUOUS
  62
3
 100
AcDbBlockReference
   2
_OPEN
  10
 299.99999217689
  20
 262.49999262393
  30
0.0
  41
 4.5000000000000
  42
 4.5000000000000
  43
 4.5000000000000
  50
 270.00000000000
   0
MTEXT
   5
F2
 100
AcDbEntity
   8
LEVEL003
  62
3
 100
AcDbMText
  10
 298.79998763502
  20
 287.49997662008
  30
0.0
  40
 6.0000000000000
  41
0.0
  71
8
  72
1
   1
\A1;50
   7
GMM001
  11
0.0
  21
 1.0000000000000
  31
0.0
   0
ENDBLK
   5
F3
 100
AcDbEntity
   8
0
 100
AcDbBlockEnd
   0
BLOCK
   5
F4
 100
AcDbEntity
   8
0
 100
AcDbBlockBegin
   2
*D9
  70
65
  10
0.0
  20
0.0
  30
0.0
   3
*D9
   0
LINE
   5
F5
 100
AcDbEntity
   8
LEVEL003
 100
AcDbLine
   6
CONTINUOUS
  62
3
  10
 303.99999973178
  20
 117.49998931587
  30
0.0
  11
 317.99999172986
  21
 117.49998931587
  31
0.0
   0
LINE
   5
F6
 100
AcDbEntity
   8
LEVEL003
 100
AcDbLine
   6
CONTINUOUS
  62
3
  10
 232.00000187755
  20
 85.499997898936
  30
0.0
  11
 317.99999172986
  21
 85.499997898936
  31
0.0
   0
LINE
   5
F7
 100
AcDbEntity
   8
LEVEL003
 100
AcDbLine
   6
CONTINUOUS
  62
3
  10
 314.99999172986
  20
 117.49998931587
  30
0.0
  11
 314.99999172986
  21
 107.53749360740
  31
0.0
   0
LINE
   5
F8
 100
AcDbEntity
   8
LEVEL003
 100
AcDbLine
   6
CONTINUOUS
  62
3
  10
 314.99999172986
  20
 85.499997898936
  30
0.0
  11
 314.99999172986
  21
 95.462493607400
  31
0.0
   0
INSERT
   5
F9
 100
AcDbEntity
   8
LEVEL003
   6
CONTINUOUS
  62
3
 100
AcDbBlockReference
   2
_OPEN
  10
 314.99999172986
  20
 117.49998931587
  30
0.0
  41
 4.5000000000000
  42
 4.5000000000000
  43
 4.5000000000000
  50
 90.000000000000
   0
INSERT
   5
FA
 100
AcDbEntity
   8
LEVEL003
   6
CONTINUOUS
  62
3
 100
AcDbBlockReference
   2
_OPEN
  10
 314.99999172986
  20
 85.499997898936
  30
0.0
  41
 4.5000000000000
  42
 4.5000000000000
  43
 4.5000000000000
  50
 270.00000000000
   0
MTEXT
   5
FB
 100
AcDbEntity
   8
LEVEL003
  62
3
 100
AcDbMText
  10
 313.79998718799
  20
 101.49999360740
  30
0.0
  40
 6.0000000000000
  41
0.0
  71
8
  72
1
   1
\A1;32
   7
GMM001
  11
0.0
  21
 1.0000000000000
  31
0.0
   0
ENDBLK
   5
FC
 100
AcDbEntity
   8
0
 100
AcDbBlockEnd
   0
BLOCK
   5
FD
 100
AcDbEntity
   8
0
 100
AcDbBlockBegin
   2
*D10
  70
65
  10
0.0
  20
0.0
  30
0.0
   3
*D10
   0
LINE
   5
FE
 100
AcDbEntity
   8
LEVEL003
 100
AcDbLine
   6
CONTINUOUS
  62
3
  10
 200.50000281632
  20
 327.49998305738
  30
0.0
  11
 332.99999128282
  21
 327.49998305738
  31
0.0
   0
LINE
   5
FF
 100
AcDbEntity
   8
LEVEL003
 100
AcDbLine
   6
CONTINUOUS
  62
3
  10
 232.00000187755
  20
 85.499997898936
  30
0.0
  11
 332.99999128282
  21
 85.499997898936
  31
0.0
   0
LINE
   5
100
 100
AcDbEntity
   8
LEVEL003
 100
AcDbLine
   6
CONTINUOUS
  62
3
  10
 329.99999128282
  20
 327.49998305738
  30
0.0
  11
 329.99999128282
  21
 215.55622903407
  31
0.0
   0
LINE
   5
101
 100
AcDbEntity
   8
LEVEL003
 100
AcDbLine
   6
CONTINUOUS
  62
3
  10
 329.99999128282
  20
 85.499997898936
  30
0.0
  11
 329.99999128282
  21
 197.44372903407
  31
0.0
   0
INSERT
   5
102
 100
AcDbEntity
   8
LEVEL003
   6
CONTINUOUS
  62
3
 100
AcDbBlockReference
   2
_OPEN
  10
 329.99999128282
  20
 327.49998305738
  30
0.0
  41
 4.5000000000000
  42
 4.5000000000000
  43
 4.5000000000000
  50
 90.000000000000
   0
INSERT
   5
103
 100
AcDbEntity
   8
LEVEL003
   6
CONTINUOUS
  62
3
 100
AcDbBlockReference
   2
_OPEN
  10
 329.99999128282
  20
 85.499997898936
  30
0.0
  41
 4.5000000000000
  42
 4.5000000000000
  43
 4.5000000000000
  50
 270.00000000000
   0
MTEXT
   5
104
 100
AcDbEntity
   8
LEVEL003
  62
3
 100
AcDbMText
  10
 328.79998674095
  20
 206.49997903407
  30
0.0
  40
 6.0000000000000
  41
0.0
  71
8
  72
1
   1
\A1;242
   7
GMM001
  11
0.0
  21
 1.0000000000000
  31
0.0
   0
ENDBLK
   5
105
 100
AcDbEntity
   8
0
 100
AcDbBlockEnd
   0
BLOCK
   5
106
 100
AcDbEntity
   8
0
 100
AcDbBlockBegin
   2
*D14
  70
65
  10
0.0
  20
0.0
  30
0.0
   3
*D14
   0
LINE
   5
107
 100
AcDbEntity
   8
LEVEL003
 100
AcDbLine
   6
CONTINUOUS
  62
3
  10
 188.50000308454
  20
 315.49998341501
  30
0.0
  11
 169.50000000000
  21
 315.49998341501
  31
0.0
   0
LINE
   5
108
 100
AcDbEntity
   8
LEVEL003
 100
AcDbLine
   6
CONTINUOUS
  62
3
  10
 187.00000312924
  20
 280.49999208748
  30
0.0
  11
 169.50000000000
  21
 280.49999208748
  31
0.0
   0
LINE
   5
109
 100
AcDbEntity
   8
LEVEL003
 100
AcDbLine
   6
CONTINUOUS
  62
3
  10
 172.50000000000
  20
 315.49998341501
  30
0.0
  11
 172.50000000000
  21
 304.03747630715
  31
0.0
   0
LINE
   5
10A
 100
AcDbEntity
   8
LEVEL003
 100
AcDbLine
   6
CONTINUOUS
  62
3
  10
 172.50000000000
  20
 280.49999208748
  30
0.0
  11
 172.50000000000
  21
 291.96247630715
  31
0.0
   0
INSERT
   5
10B
 100
AcDbEntity
   8
LEVEL003
   6
CONTINUOUS
  62
3
 100
AcDbBlockReference
   2
_OPEN
  10
 172.50000000000
  20
 315.49998341501
  30
0.0
  41
 4.5000000000000
  42
 4.5000000000000
  43
 4.5000000000000
  50
 90.000000000000
   0
INSERT
   5
10C
 100
AcDbEntity
   8
LEVEL003
   6
CONTINUOUS
  62
3
 100
AcDbBlockReference
   2
_OPEN
  10
 172.50000000000
  20
 280.49999208748
  30
0.0
  41
 4.5000000000000
  42
 4.5000000000000
  43
 4.5000000000000
  50
 270.00000000000
   0
MTEXT
   5
10D
 100
AcDbEntity
   8
LEVEL003
  62
3
 100
AcDbMText
  10
 171.29999545813
  20
 297.99997630715
  30
0.0
  40
 6.0000000000000
  41
0.0
  71
8
  72
1
   1
\A1;35
   7
GMM001
  11
0.0
  21
 1.0000000000000
  31
0.0
   0
ENDBLK
   5
10E
 100
AcDbEntity
   8
0
 100
AcDbBlockEnd
   0
BLOCK
   5
10F
 100
AcDbEntity
   8
0
 100
AcDbBlockBegin
   2
*D15
  70
65
  10
0.0
  20
0.0
  30
0.0
   3
*D15
   0
LINE
   5
110
 100
AcDbEntity
   8
LEVEL003
 100
AcDbLine
   6
CONTINUOUS
  62
3
  10
 136.50000420213
  20
 89.999997720122
  30
0.0
  11
 136.50000420213
  21
 64.500000000000
  31
0.0
   0
LINE
   5
111
 100
AcDbEntity
   8
LEVEL003
 100
AcDbLine
   6
CONTINUOUS
  62
3
  10
 178.49999579787
  20
 89.999997720122
  30
0.0
  11
 178.49999579787
  21
 64.500000000000
  31
0.0
   0
LINE
   5
112
 100
AcDbEntity
   8
LEVEL003
 100
AcDbLine
   6
CONTINUOUS
  62
3
  10
 136.50000420213
  20
 67.500000000000
  30
0.0
  11
 147.26250000000
  21
 67.500000000000
  31
0.0
   0
LINE
   5
113
 100
AcDbEntity
   8
LEVEL003
 100
AcDbLine
   6
CONTINUOUS
  62
3
  10
 178.49999579787
  20
 67.500000000000
  30
0.0
  11
 167.73750000000
  21
 67.500000000000
  31
0.0
   0
INSERT
   5
114
 100
AcDbEntity
   8
LEVEL003
   6
CONTINUOUS
  62
3
 100
AcDbBlockReference
   2
_OPEN
  10
 136.50000420213
  20
 67.500000000000
  30
0.0
  41
 4.5000000000000
  42
 4.5000000000000
  43
 4.5000000000000
  50
 180.00000000000
   0
INSERT
   5
115
 100
AcDbEntity
   8
LEVEL003
   6
CONTINUOUS
  62
3
 100
AcDbBlockReference
   2
_OPEN
  10
 178.49999579787
  20
 67.500000000000
  30
0.0
  41
 4.5000000000000
  42
 4.5000000000000
  43
 4.5000000000000
  50
0.0
   0
MTEXT
   5
116
 100
AcDbEntity
   8
LEVEL003
  62
3
 100
AcDbMText
  10
 157.50000000000
  20
 68.700000000000
  30
0.0
  40
 6.0000000000000
  41
0.0
  71
8
  72
1
   1
\A1;%%c42
   7
GMM001
   0
ENDBLK
   5
117
 100
AcDbEntity
   8
0
 100
AcDbBlockEnd
   0
BLOCK
   5
118
 100
AcDbEntity
   8
0
 100
AcDbBlockBegin
   2
*D16
  70
65
  10
0.0
  20
0.0
  30
0.0
   3
*D16
   0
LINE
   5
119
 100
AcDbEntity
   8
LEVEL003
 100
AcDbLine
   6
CONTINUOUS
  62
3
  10
 136.50000420213
  20
 323.99999083579
  30
0.0
  11
 136.50000420213
  21
 340.50000000000
  31
0.0
   0
LINE
   5
11A
 100
AcDbEntity
   8
LEVEL003
 100
AcDbLine
   6
CONTINUOUS
  62
3
  10
 178.49999579787
  20
 323.99999083579
  30
0.0
  11
 178.49999579787
  21
 340.50000000000
  31
0.0
   0
LINE
   5
11B
 100
AcDbEntity
   8
LEVEL003
 100
AcDbLine
   6
CONTINUOUS
  62
3
  10
 136.50000420213
  20
 337.50000000000
  30
0.0
  11
 147.26250000000
  21
 337.50000000000
  31
0.0
   0
LINE
   5
11C
 100
AcDbEntity
   8
LEVEL003
 100
AcDbLine
   6
CONTINUOUS
  62
3
  10
 178.49999579787
  20
 337.50000000000
  30
0.0
  11
 167.73750000000
  21
 337.50000000000
  31
0.0
   0
INSERT
   5
11D
 100
AcDbEntity
   8
LEVEL003
   6
CONTINUOUS
  62
3
 100
AcDbBlockReference
   2
_OPEN
  10
 136.50000420213
  20
 337.50000000000
  30
0.0
  41
 4.5000000000000
  42
 4.5000000000000
  43
 4.5000000000000
  50
 180.00000000000
   0
INSERT
   5
11E
 100
AcDbEntity
   8
LEVEL003
   6
CONTINUOUS
  62
3
 100
AcDbBlockReference
   2
_OPEN
  10
 178.49999579787
  20
 337.50000000000
  30
0.0
  41
 4.5000000000000
  42
 4.5000000000000
  43
 4.5000000000000
  50
0.0
   0
MTEXT
   5
11F
 100
AcDbEntity
   8
LEVEL003
  62
3
 100
AcDbMText
  10
 157.50000000000
  20
 338.70000000000
  30
0.0
  40
 6.0000000000000
  41
0.0
  71
8
  72
1
   1
\A1;%%c42
   7
GMM001
   0
ENDBLK
   5
120
 100
AcDbEntity
   8
0
 100
AcDbBlockEnd
   0
BLOCK
   5
121
 100
AcDbEntity
   8
0
 100
AcDbBlockBegin
   2
*D18
  70
65
  10
0.0
  20
0.0
  30
0.0
   3
*D18
   0
LINE
   5
122
 100
AcDbEntity
   8
LEVEL003
 100
AcDbLine
   6
CONTINUOUS
  62
3
  10
 232.50000000000
  20
 135.00000000001
  30
0.0
  11
 169.24687734008
  21
 135.00000000001
  31
0.0
   0
LINE
   5
123
 100
AcDbEntity
   8
LEVEL003
 100
AcDbLine
   6
CONTINUOUS
  62
3
  10
 82.500004470349
  20
 135.00000000001
  30
0.0
  11
 145.75312734008
  21
 135.00000000001
  31
0.0
   0
INSERT
   5
124
 100
AcDbEntity
   8
LEVEL003
   6
CONTINUOUS
  62
3
 100
AcDbBlockReference
   2
_OPEN
  10
 232.50000000000
  20
 135.00000000001
  30
0.0
  41
 4.5000000000000
  42
 4.5000000000000
  43
 4.5000000000000
  50
0.0
   0
INSERT
   5
125
 100
AcDbEntity
   8
LEVEL003
   6
CONTINUOUS
  62
3
 100
AcDbBlockReference
   2
_OPEN
  10
 82.500004470349
  20
 135.00000000001
  30
0.0
  41
 4.5000000000000
  42
 4.5000000000000
  43
 4.5000000000000
  50
 180.00000000000
   0
MTEXT
   5
126
 100
AcDbEntity
   8
LEVEL003
  62
3
 100
AcDbMText
  10
 157.50000234008
  20
 136.20000454188
  30
0.0
  40
 6.0000000000000
  41
0.0
  71
8
  72
1
   1
\A1;%%c150
   7
GMM001
   0
ENDBLK
   5
127
 100
AcDbEntity
   8
0
 100
AcDbBlockEnd
   0
BLOCK
   5
128
 100
AcDbEntity
   8
0
 100
AcDbBlockBegin
   2
*D19
  70
65
  10
0.0
  20
0.0
  30
0.0
   3
*D19
   0
LINE
   5
129
 100
AcDbEntity
   8
LEVEL003
 100
AcDbLine
   6
CONTINUOUS
  62
3
  10
 98.739995561838
  20
 150.00000000000
  30
0.0
  11
 139.19062500000
  21
 150.00000000000
  31
0.0
   0
LINE
   5
12A
 100
AcDbEntity
   8
LEVEL003
 100
AcDbLine
   6
CONTINUOUS
  62
3
  10
 216.26000443816
  20
 150.00000000000
  30
0.0
  11
 175.80937500000
  21
 150.00000000000
  31
0.0
   0
INSERT
   5
12B
 100
AcDbEntity
   8
LEVEL003
   6
CONTINUOUS
  62
3
 100
AcDbBlockReference
   2
_OPEN
  10
 98.739995561838
  20
 150.00000000000
  30
0.0
  41
 4.5000000000000
  42
 4.5000000000000
  43
 4.5000000000000
  50
 180.00000000000
   0
INSERT
   5
12C
 100
AcDbEntity
   8
LEVEL003
   6
CONTINUOUS
  62
3
 100
AcDbBlockReference
   2
_OPEN
  10
 216.26000443816
  20
 150.00000000000
  30
0.0
  41
 4.5000000000000
  42
 4.5000000000000
  43
 4.5000000000000
  50
0.0
   0
MTEXT
   5
12D
 100
AcDbEntity
   8
LEVEL003
  62
3
 100
AcDbMText
  10
 157.50000000000
  20
 151.20000000000
  30
0.0
  40
 6.0000000000000
  41
0.0
  71
8
  72
1
   1
\A1;%%c117.52
   7
GMM001
   0
ENDBLK
   5
12E
 100
AcDbEntity
   8
0
 100
AcDbBlockEnd
   0
BLOCK
   5
12F
 100
AcDbEntity
   8
0
 100
AcDbBlockBegin
   2
*D20
  70
65
  10
0.0
  20
0.0
  30
0.0
   3
*D20
   0
LINE
   5
130
 100
AcDbEntity
   8
LEVEL003
 100
AcDbLine
   6
CONTINUOUS
  62
3
  10
 202.49999508262
  20
 165.00000000000
  30
0.0
  11
 167.21250000000
  21
 165.00000000000
  31
0.0
   0
LINE
   5
131
 100
AcDbEntity
   8
LEVEL003
 100
AcDbLine
   6
CONTINUOUS
  62
3
  10
 112.50000491738
  20
 165.00000000000
  30
0.0
  11
 147.78750000000
  21
 165.00000000000
  31
0.0
   0
INSERT
   5
132
 100
AcDbEntity
   8
LEVEL003
   6
CONTINUOUS
  62
3
 100
AcDbBlockReference
   2
_OPEN
  10
 202.49999508262
  20
 165.00000000000
  30
0.0
  41
 4.5000000000000
  42
 4.5000000000000
  43
 4.5000000000000
  50
0.0
   0
INSERT
   5
133
 100
AcDbEntity
   8
LEVEL003
   6
CONTINUOUS
  62
3
 100
AcDbBlockReference
   2
_OPEN
  10
 112.50000491738
  20
 165.00000000000
  30
0.0
  41
 4.5000000000000
  42
 4.5000000000000
  43
 4.5000000000000
  50
 180.00000000000
   0
MTEXT
   5
134
 100
AcDbEntity
   8
LEVEL003
  62
3
 100
AcDbMText
  10
 157.50000000000
  20
 166.20000000000
  30
0.0
  40
 6.0000000000000
  41
0.0
  71
8
  72
1
   1
\A1;%%c90
   7
GMM001
   0
ENDBLK
   5
135
 100
AcDbEntity
   8
0
 100
AcDbBlockEnd
   0
BLOCK
   5
136
 100
AcDbEntity
   8
0
 100
AcDbBlockBegin
   2
*D21
  70
65
  10
0.0
  20
0.0
  30
0.0
   3
*D21
   0
LINE
   5
137
 100
AcDbEntity
   8
LEVEL003
 100
AcDbLine
   6
CONTINUOUS
  62
3
  10
 127.50000447035
  20
 180.00000000000
  30
0.0
  11
 147.78750000000
  21
 180.00000000000
  31
0.0
   0
LINE
   5
138
 100
AcDbEntity
   8
LEVEL003
 100
AcDbLine
   6
CONTINUOUS
  62
3
  10
 187.49999552965
  20
 180.00000000000
  30
0.0
  11
 167.21250000000
  21
 180.00000000000
  31
0.0
   0
INSERT
   5
139
 100
AcDbEntity
   8
LEVEL003
   6
CONTINUOUS
  62
3
 100
AcDbBlockReference
   2
_OPEN
  10
 127.50000447035
  20
 180.00000000000
  30
0.0
  41
 4.5000000000000
  42
 4.5000000000000
  43
 4.5000000000000
  50
 180.00000000000
   0
INSERT
   5
13A
 100
AcDbEntity
   8
LEVEL003
   6
CONTINUOUS
  62
3
 100
AcDbBlockReference
   2
_OPEN
  10
 187.49999552965
  20
 180.00000000000
  30
0.0
  41
 4.5000000000000
  42
 4.5000000000000
  43
 4.5000000000000
  50
0.0
   0
MTEXT
   5
13B
 100
AcDbEntity
   8
LEVEL003
  62
3
 100
AcDbMText
  10
 157.50000000000
  20
 181.20000000000
  30
0.0
  40
 6.0000000000000
  41
0.0
  71
8
  72
1
   1
\A1;%%c60
   7
GMM001
   0
ENDBLK
   5
13C
 100
AcDbEntity
   8
0
 100
AcDbBlockEnd
   0
ENDSEC
   0
SECTION
   2
ENTITIES
   0
LINE
   5
13D
 100
AcDbEntity
   8
LEVEL001
 100
AcDbLine
   6
CONTINUOUS
  62
7
  10
 199.99998752773
  20
 326.49999834597
  30
0.0
  11
 199.00000281632
  21
 327.49998305738
  31
0.0
   0
LINE
   5
13E
 100
AcDbEntity
   8
LEVEL001
 100
AcDbLine
   6
CONTINUOUS
  62
7
  10
 199.99998752773
  20
 315.49998341501
  30
0.0
  11
 199.99998752773
  21
 326.49999834597
  31
0.0
   0
LINE
   5
13F
 100
AcDbEntity
   8
LEVEL001
 100
AcDbLine
   6
CONTINUOUS
  62
7
  10
 199.00000281632
  20
 327.49998305738
  30
0.0
  11
 157.49999642372
  21
 327.49998305738
  31
0.0
   0
ARC
   5
140
 100
AcDbEntity
   8
LEVEL001
   6
CONTINUOUS
  62
7
 100
AcDbCircle
  10
 201.35961834649
  20
 314.99998341502
  30
0.0
  40
 0.50000000000000
 100
AcDbArc
  50
 14.039115296108
  51
 90.000468593993
   0
LINE
   5
141
 100
AcDbEntity
   8
LEVEL001
 100
AcDbLine
   6
CONTINUOUS
  62
7
  10
 201.84468351767
  20
 315.12127554055
  30
0.0
  11
 202.49999508262
  21
 312.49998350442
  31
0.0
   0
LINE
   5
142
 100
AcDbEntity
   8
LEVEL001
 100
AcDbLine
   6
CONTINUOUS
  62
3
  10
 230.99999423325
  20
 262.49999262393
  30
0.0
  11
 232.49999418855
  21
 256.90190929467
  31
0.0
   0
LINE
   5
143
 100
AcDbEntity
   8
LEVEL001
 100
AcDbLine
   6
CONTINUOUS
  62
7
  10
 230.50000187755
  20
 307.49999128282
  30
0.0
  11
 232.49999418855
  21
 305.49999897182
  31
0.0
   0
LINE
   5
144
 100
AcDbEntity
   8
LEVEL001
 100
AcDbLine
   6
CONTINUOUS
  62
7
  10
 232.49999418855
  20
 305.49999897182
  30
0.0
  11
 232.49999418855
  21
 256.90190929467
  31
0.0
   0
LINE
   5
145
 100
AcDbEntity
   8
LEVEL001
 100
AcDbLine
   6
CONTINUOUS
  62
7
  10
 230.50000187755
  20
 311.49999879301
  30
0.0
  11
 229.49999427795
  21
 312.49998350442
  31
0.0
   0
LINE
   5
146
 100
AcDbEntity
   8
LEVEL001
 100
AcDbLine
   6
CONTINUOUS
  62
7
  10
 230.50000187755
  20
 311.49999879301
  30
0.0
  11
 230.50000187755
  21
 307.49999128282
  31
0.0
   0
LINE
   5
147
 100
AcDbEntity
   8
LEVEL001
 100
AcDbLine
   6
CONTINUOUS
  62
7
  10
 232.49999418855
  20
 87.499990209937
  30
0.0
  11
 230.50000187755
  21
 85.499997898936
  31
0.0
   0
LINE
   5
148
 100
AcDbEntity
   8
LEVEL001
 100
AcDbLine
   6
CONTINUOUS
  62
7
  10
 230.50000187755
  20
 85.499997898936
  30
0.0
  11
 157.49999642372
  21
 85.499997898936
  31
0.0
   0
ARC
   5
149
 100
AcDbEntity
   8
LEVEL001
   6
CONTINUOUS
  62
7
 100
AcDbCircle
  10
 157.49999642372
  20
 240.49999709427
  30
0.0
  40
 12.500003442168
 100
AcDbArc
  50
 90.000000000000
  51
 270.00000000000
   0
ARC
   5
14A
 100
AcDbEntity
   8
LEVEL001
   6
CONTINUOUS
  62
7
 100
AcDbCircle
  10
 157.49006137100
  20
 240.49999709427
  30
0.0
  40
 11.500000134110
 100
AcDbArc
  50
 89.950501160483
  51
 270.04949883951
   0
LINE
   5
14B
 100
AcDbEntity
   8
LEVEL001
 100
AcDbLine
   6
CONTINUOUS
  62
7
  10
 82.499998658896
  20
 87.499990209937
  30
0.0
  11
 84.499990969897
  21
 85.499997898936
  31
0.0
   0
LINE
   5
14C
 100
AcDbEntity
   8
LEVEL001
 100
AcDbLine
   6
CONTINUOUS
  62
7
  10
 82.499998658896
  20
 256.90190929467
  30
0.0
  11
 82.499998658896
  21
 87.499990209937
  31
0.0
   0
LINE
   5
14D
 100
AcDbEntity
   8
LEVEL001
 100
AcDbLine
   6
CONTINUOUS
  62
7
  10
 84.499990969897
  20
 85.499997898936
  30
0.0
  11
 157.49999642372
  21
 85.499997898936
  31
0.0
   0
LINE
   5
14E
 100
AcDbEntity
   8
LEVEL001
 100
AcDbLine
   6
CONTINUOUS
  62
7
  10
 84.499990969897
  20
 311.49999879301
  30
0.0
  11
 85.499998569489
  21
 312.49998350442
  31
0.0
   0
LINE
   5
14F
 100
AcDbEntity
   8
LEVEL001
 100
AcDbLine
   6
CONTINUOUS
  62
7
  10
 84.499990969897
  20
 311.49999879301
  30
0.0
  11
 84.499990969897
  21
 307.49999128282
  31
0.0
   0
LINE
   5
150
 100
AcDbEntity
   8
LEVEL001
 100
AcDbLine
   6
CONTINUOUS
  62
7
  10
 114.99998243153
  20
 326.49999834597
  30
0.0
  11
 115.99999003112
  21
 327.49998305738
  31
0.0
   0
LINE
   5
151
 100
AcDbEntity
   8
LEVEL001
 100
AcDbLine
   6
CONTINUOUS
  62
7
  10
 114.99998243153
  20
 315.49998341501
  30
0.0
  11
 114.99998243153
  21
 326.49999834597
  31
0.0
   0
LINE
   5
152
 100
AcDbEntity
   8
LEVEL001
 100
AcDbLine
   6
CONTINUOUS
  62
7
  10
 115.99999003112
  20
 327.49998305738
  30
0.0
  11
 157.49999642372
  21
 327.49998305738
  31
0.0
   0
ARC
   5
153
 100
AcDbEntity
   8
LEVEL001
   6
CONTINUOUS
  62
7
 100
AcDbCircle
  10
 113.64037450094
  20
 314.99998341502
  30
0.0
  40
 0.50000000000000
 100
AcDbArc
  50
 89.999531403815
  51
 165.96088470366
   0
LINE
   5
154
 100
AcDbEntity
   8
LEVEL001
 100
AcDbLine
   6
CONTINUOUS
  62
7
  10
 113.15530932977
  20
 315.12127554055
  30
0.0
  11
 112.49999776483
  21
 312.49998350442
  31
0.0
   0
LINE
   5
155
 100
AcDbEntity
   8
LEVEL001
 100
AcDbLine
   6
CONTINUOUS
  62
7
  10
 85.499998569489
  20
 312.49998350442
  30
0.0
  11
 157.49999642372
  21
 312.49998350442
  31
0.0
   0
LINE
   5
156
 100
AcDbEntity
   8
LEVEL001
 100
AcDbLine
   6
CONTINUOUS
  62
7
  10
 157.49999642372
  20
 315.49998341501
  30
0.0
  11
 113.64037859021
  21
 315.49998341501
  31
0.0
   0
LINE
   5
157
 100
AcDbEntity
   8
LEVEL001
 100
AcDbLine
   6
CONTINUOUS
  62
7
  10
 114.99998243153
  20
 326.49999834597
  30
0.0
  11
 157.49999642372
  21
 326.49999834597
  31
0.0
   0
LINE
   5
158
 100
AcDbEntity
   8
LEVEL001
 100
AcDbLine
   6
CONTINUOUS
  62
7
  10
 82.499998658896
  20
 256.90190929467
  30
0.0
  11
 157.49999642372
  21
 256.90190929467
  31
0.0
   0
LINE
   5
159
 100
AcDbEntity
   8
LEVEL001
 100
AcDbLine
   6
CONTINUOUS
  62
7
  10
 82.499998658896
  20
 87.499990209937
  30
0.0
  11
 157.49999642372
  21
 87.499990209937
  31
0.0
   0
LINE
   5
15A
 100
AcDbEntity
   8
LEVEL001
 100
AcDbLine
   6
CONTINUOUS
  62
7
  10
 84.499990969897
  20
 311.49999879301
  30
0.0
  11
 157.49999642372
  21
 311.49999879301
  31
0.0
   0
LINE
   5
15B
 100
AcDbEntity
   8
LEVEL001
 100
AcDbLine
   6
DASHDOT
  62
1
  10
 97.499998211861
  20
 82.499997988343
  30
0.0
  11
 97.499998211861
  21
 114.72445381509
  31
0.0
   0
LINE
   5
15C
 100
AcDbEntity
   8
LEVEL001
 100
AcDbLine
   6
DOT
  62
7
  10
 103.49999803305
  20
 85.499997898936
  30
0.0
  11
 102.62498280034
  21
 86.374990243465
  31
0.0
   0
LINE
   5
15D
 100
AcDbEntity
   8
LEVEL001
 100
AcDbLine
   6
DOT
  62
7
  10
 102.62498280034
  20
 86.374990243465
  30
0.0
  11
 102.62498280034
  21
 108.76552683814
  31
0.0
   0
LINE
   5
15E
 100
AcDbEntity
   8
LEVEL001
 100
AcDbLine
   6
DOT
  62
7
  10
 102.62498280034
  20
 108.76552683814
  30
0.0
  11
 97.499998211861
  21
 111.72445390450
  31
0.0
   0
LINE
   5
15F
 100
AcDbEntity
   8
LEVEL001
 100
AcDbLine
   6
DOT
  62
7
  10
 97.499998211861
  20
 111.72445390450
  30
0.0
  11
 92.374990735203
  21
 108.76552683814
  31
0.0
   0
LINE
   5
160
 100
AcDbEntity
   8
LEVEL001
 100
AcDbLine
   6
DOT
  62
7
  10
 92.374990735203
  20
 108.76552683814
  30
0.0
  11
 92.374990735203
  21
 86.374990243465
  31
0.0
   0
LINE
   5
161
 100
AcDbEntity
   8
LEVEL001
 100
AcDbLine
   6
DOT
  62
7
  10
 92.374990735203
  20
 86.374990243465
  30
0.0
  11
 91.499998390675
  21
 85.499997898936
  31
0.0
   0
LINE
   5
162
 100
AcDbEntity
   8
LEVEL001
 100
AcDbLine
   6
DOT
  62
3
  10
 103.49999803305
  20
 85.499997898936
  30
0.0
  11
 103.49999803305
  21
 105.49998967350
  31
0.0
   0
LINE
   5
163
 100
AcDbEntity
   8
LEVEL001
 100
AcDbLine
   6
DOT
  62
3
  10
 103.49999803305
  20
 105.49998967350
  30
0.0
  11
 102.62498280034
  21
 108.76552683814
  31
0.0
   0
LINE
   5
164
 100
AcDbEntity
   8
LEVEL001
 100
AcDbLine
   6
DOT
  62
7
  10
 102.62498280034
  20
 108.76552683814
  30
0.0
  11
 92.374990735203
  21
 108.76552683814
  31
0.0
   0
LINE
   5
165
 100
AcDbEntity
   8
LEVEL001
 100
AcDbLine
   6
DOT
  62
7
  10
 102.62498280034
  20
 86.374990243465
  30
0.0
  11
 92.374990735203
  21
 86.374990243465
  31
0.0
   0
LINE
   5
166
 100
AcDbEntity
   8
LEVEL001
 100
AcDbLine
   6
DOT
  62
3
  10
 92.374990735203
  20
 108.76552683814
  30
0.0
  11
 91.499998390675
  21
 105.49998967350
  31
0.0
   0
LINE
   5
167
 100
AcDbEntity
   8
LEVEL001
 100
AcDbLine
   6
DOT
  62
3
  10
 91.499998390675
  20
 105.49998967350
  30
0.0
  11
 91.499998390675
  21
 85.499997898936
  31
0.0
   0
LINE
   5
168
 100
AcDbEntity
   8
LEVEL001
 100
AcDbLine
   6
DOT
  62
3
  10
 103.49999803305
  20
 105.49998967350
  30
0.0
  11
 91.499998390675
  21
 105.49998967350
  31
0.0
   0
DIMENSION
   5
169
 100
AcDbEntity
   8
LEVEL003
   6
CONTINUOUS
  62
3
 100
AcDbDimension
   2
*D1
  10
 114.99998243153
  20
 352.49998994172
  30
0.0
  11
 157.49998735753
  21
 352.49998994172
  31
0.0
  70
128
   1
\A1;%%c85
   3
GMM001
 100
AcDbAlignedDimension
  13
 199.99998752773
  23
 326.49999834597
  33
0.0
  14
 114.99998243153
  24
 326.49999834597
  34
0.0
  50
 180.00000000000
 100
AcDbRotatedDimension
   0
DIMENSION
   5
16B
 100
AcDbEntity
   8
LEVEL003
   6
CONTINUOUS
  62
3
 100
AcDbDimension
   2
*D2
  10
 52.499999552965
  20
 85.499997898936
  30
0.0
  11
 52.499999552965
  21
 162.99998033047
  31
0.0
  70
128
   1
\A1;155
   3
GMM002
 100
AcDbAlignedDimension
  13
 157.49999642372
  23
 240.49998565018
  33
0.0
  14
 84.499990969897
  24
 85.499997898936
  34
0.0
  50
 270.00000000000
 100
AcDbRotatedDimension
   0
LEADER
   5
16D
 100
AcDbEntity
   8
LEVEL003
   6
CONTINUOUS
  62
3
 100
AcDbLeader
   3
GMM003
  73
0
  74
1
  75
0
  40
 6.0000000000000
  41
0.0
  76
2
  10
 157.49999642372
  20
 37.499999329448
  30
0.0
  10
 157.49999642372
  20
 29.999999552965
  30
0.0
  77
3
   0
TEXT
   5
16E
 100
AcDbEntity
   8
LEVEL003
  62
3
 100
AcDbText
  10
 154.35145220603
  20
 22.849673990915
  30
0.0
  40
 5.9999998211861
   1
Ａ
   7
STANDARD
 100
AcDbText
   0
DIMENSION
   5
16F
 100
AcDbEntity
   8
LEVEL003
   6
CONTINUOUS
  62
3
 100
AcDbDimension
   2
*D4
  10
 269.99999307096
  20
 307.49999128282
  30
0.0
  11
 269.99999307096
  21
 302.69062327922
  31
0.0
  70
128
   1
\A1;5
   3
GMM004
 100
AcDbAlignedDimension
  13
 229.49999427795
  23
 312.49998350442
  33
0.0
  14
 235.49999409914
  24
 307.49999128282
  34
0.0
  50
 270.00000000000
 100
AcDbRotatedDimension
   0
DIMENSION
   5
171
 100
AcDbEntity
   8
LEVEL003
   6
CONTINUOUS
  62
3
 100
AcDbDimension
   2
*D5
  10
 284.99999262393
  20
 315.49998341501
  30
0.0
  11
 284.99999262393
  21
 321.49998323619
  31
0.0
  70
128
   1
\A1;12
   3
GMM004
 100
AcDbAlignedDimension
  13
 199.00000281632
  23
 327.49998305738
  33
0.0
  14
 201.35961425723
  24
 315.49998341501
  34
0.0
  50
 270.00000000000
 100
AcDbRotatedDimension
   0
DIMENSION
   5
173
 100
AcDbEntity
   8
LEVEL003
   6
CONTINUOUS
  62
3
 100
AcDbDimension
   2
*D6
  10
 299.99999217689
  20
 312.49998350442
  30
0.0
  11
 299.99999217689
  21
 319.99998328090
  31
0.0
  70
128
   1
\A1;15
   3
GMM004
 100
AcDbAlignedDimension
  13
 199.00000281632
  23
 327.49998305738
  33
0.0
  14
 229.49999427795
  24
 312.49998350442
  34
0.0
  50
 270.00000000000
 100
AcDbRotatedDimension
   0
DIMENSION
   5
175
 100
AcDbEntity
   8
LEVEL003
   6
CONTINUOUS
  62
3
 100
AcDbDimension
   2
*D7
  10
 299.99999217689
  20
 262.49999262393
  30
0.0
  11
 299.99999217689
  21
 287.49997662008
  31
0.0
  70
128
   1
\A1;50
   3
GMM004
 100
AcDbAlignedDimension
  13
 229.49999427795
  23
 312.49998350442
  33
0.0
  14
 235.49999409914
  24
 262.49999262393
  34
0.0
  50
 270.00000000000
 100
AcDbRotatedDimension
   0
TEXT
   5
177
 100
AcDbEntity
   8
LEVEL003
  62
3
 100
AcDbText
  10
 254.99999351800
  20
 59.999998658896
  30
0.0
  40
 5.9999998211861
   1
２－ＮＰＴ３／８
   7
STANDARD
 100
AcDbText
   0
LEADER
   5
178
 100
AcDbEntity
   8
LEVEL003
   6
CONTINUOUS
  62
3
 100
AcDbLeader
   3
GMM005
  73
0
  74
1
  75
0
  40
 6.0000000000000
  41
0.0
  76
3
  10
 236.60977342398
  20
 109.04056268810
  30
0.0
  10
 254.99999351800
  20
 59.999998658896
  30
0.0
  10
 307.49999195337
  20
 59.999998658896
  30
0.0
  77
3
   0
LINE
   5
179
 100
AcDbEntity
   8
LEVEL003
 100
AcDbLine
   6
CONTINUOUS
  62
3
  10
 356.24999050051
  20
 332.34374054242
  30
0.0
  11
 393.74998938292
  21
 332.34374054242
  31
0.0
   0
TEXT
   5
17A
 100
AcDbEntity
   8
LEVEL003
  62
3
 100
AcDbText
  10
 359.24999041110
  20
 332.34374054242
  30
0.0
  40
 6.0000005364418
   1
Ａ　矢　視
   7
STANDARD
 100
AcDbText
   0
CIRCLE
   5
17B
 100
AcDbEntity
   8
LEVEL001
 100
AcDbCircle
   6
CONTINUOUS
  62
7
  10
 322.49999150634
  20
 382.49998904765
  30
0.0
  40
 38.544000430584
   0
CIRCLE
   5
17C
 100
AcDbEntity
   8
LEVEL001
 100
AcDbCircle
   6
CONTINUOUS
  62
7
  10
 322.49999150634
  20
 382.49998904765
  30
0.0
  40
 15.840000157356
   0
CIRCLE
   5
17D
 100
AcDbEntity
   8
LEVEL001
 100
AcDbCircle
   6
CONTINUOUS
  62
7
  10
 322.49999150634
  20
 382.49998904765
  30
0.0
  40
 15.312001248836
   0
CIRCLE
   5
17E
 100
AcDbEntity
   8
LEVEL001
 100
AcDbCircle
   6
CONTINUOUS
  62
7
  10
 322.49999150634
  20
 382.49998904765
  30
0.0
  40
 11.088001397610
   0
CIRCLE
   5
17F
 100
AcDbEntity
   8
LEVEL001
 100
AcDbCircle
   6
CONTINUOUS
  62
7
  10
 322.49999150634
  20
 382.49998904765
  30
0.0
  40
 11.616000306129
   0
CIRCLE
   5
180
 100
AcDbEntity
   8
LEVEL001
 100
AcDbCircle
   6
CONTINUOUS
  62
7
  10
 300.09882335070
  20
 360.09886666838
  30
0.0
  40
 2.7059999493957
   0
CIRCLE
   5
181
 100
AcDbEntity
   8
LEVEL001
 100
AcDbCircle
   6
CONTINUOUS
  62
3
  10
 300.09882335070
  20
 360.09886666838
  30
0.0
  40
 3.1680002460480
   0
LINE
   5
182
 100
AcDbEntity
   8
LEVEL001
 100
AcDbLine
   6
DASHDOT
  62
1
  10
 303.45903748396
  20
 363.45903502527
  30
0.0
  11
 296.73865499381
  21
 356.73869831149
  31
0.0
   0
ARC
   5
183
 100
AcDbEntity
   8
LEVEL001
   6
DASHDOT
  62
1
 100
AcDbCircle
  10
 322.49995217544
  20
 382.49999549311
  30
0.0
  40
 31.680000314713
 100
AcDbArc
  50
 210.63846641407
  51
 239.36153358593
   0
CIRCLE
   5
184
 100
AcDbEntity
   8
LEVEL001
 100
AcDbCircle
   6
CONTINUOUS
  62
7
  10
 344.90118255016
  20
 360.09886666838
  30
0.0
  40
 2.7059999493957
   0
CIRCLE
   5
185
 100
AcDbEntity
   8
LEVEL001
 100
AcDbCircle
   6
CONTINUOUS
  62
3
  10
 344.90118255016
  20
 360.09886666838
  30
0.0
  40
 3.1680002460480
   0
LINE
   5
186
 100
AcDbEntity
   8
LEVEL001
 100
AcDbLine
   6
DASHDOT
  62
1
  10
 341.54094552872
  20
 363.45903502527
  30
0.0
  11
 348.26135090705
  21
 356.73869831149
  31
0.0
   0
ARC
   5
187
 100
AcDbEntity
   8
LEVEL001
   6
DASHDOT
  62
1
 100
AcDbCircle
  10
 322.49994795329
  20
 382.49993284348
  30
0.0
  40
 31.680000314713
 100
AcDbArc
  50
 300.63868874955
  51
 329.36166527667
   0
CIRCLE
   5
188
 100
AcDbEntity
   8
LEVEL001
 100
AcDbCircle
   6
CONTINUOUS
  62
7
  10
 344.90113677379
  20
 404.90120297965
  30
0.0
  40
 2.7059999493957
   0
CIRCLE
   5
189
 100
AcDbEntity
   8
LEVEL001
 100
AcDbCircle
   6
CONTINUOUS
  62
3
  10
 344.90113677379
  20
 404.90120297965
  30
0.0
  40
 3.1680002460480
   0
LINE
   5
18A
 100
AcDbEntity
   8
LEVEL001
 100
AcDbLine
   6
DASHDOT
  62
1
  10
 341.54094552872
  20
 401.54098884639
  30
0.0
  11
 348.26135090705
  21
 408.26132556017
  31
0.0
   0
ARC
   5
18B
 100
AcDbEntity
   8
LEVEL001
   6
DASHDOT
  62
1
 100
AcDbCircle
  10
 322.50001060271
  20
 382.50003103220
  30
0.0
  40
 31.680000314713
 100
AcDbArc
  50
 30.638557058945
  51
 59.361442941058
   0
CIRCLE
   5
18C
 100
AcDbEntity
   8
LEVEL001
 100
AcDbCircle
   6
CONTINUOUS
  62
7
  10
 300.09882335070
  20
 404.90115720328
  30
0.0
  40
 2.7059999493957
   0
CIRCLE
   5
18D
 100
AcDbEntity
   8
LEVEL001
 100
AcDbCircle
   6
CONTINUOUS
  62
3
  10
 300.09882335070
  20
 404.90115720328
  30
0.0
  40
 3.1680002460480
   0
LINE
   5
18E
 100
AcDbEntity
   8
LEVEL001
 100
AcDbLine
   6
DASHDOT
  62
1
  10
 303.45896881941
  20
 401.54098884639
  30
0.0
  11
 296.73865499381
  21
 408.26132556017
  31
0.0
   0
ARC
   5
18F
 100
AcDbEntity
   8
LEVEL001
   6
DASHDOT
  62
1
 100
AcDbCircle
  10
 322.49988952581
  20
 382.49996838278
  30
0.0
  40
 31.680000314713
 100
AcDbArc
  50
 120.63833472333
  51
 149.36131125045
   0
CIRCLE
   5
190
 100
AcDbEntity
   8
LEVEL001
 100
AcDbCircle
   6
CONTINUOUS
  62
7
  10
 322.49999150634
  20
 356.10000356734
  30
0.0
  40
 3.9468003527284
   0
CIRCLE
   5
191
 100
AcDbEntity
   8
LEVEL001
 100
AcDbCircle
   6
CONTINUOUS
  62
3
  10
 322.49999150634
  20
 356.10000356734
  30
0.0
  40
 4.3987679362664
   0
ARC
   5
192
 100
AcDbEntity
   8
LEVEL001
   6
DASHDOT
  62
1
 100
AcDbCircle
  10
 322.49998006225
  20
 382.50000504632
  30
0.0
  40
 26.400002646446
 100
AcDbArc
  50
 248.04839096772
  51
 291.95160903228
   0
LINE
   5
193
 100
AcDbEntity
   8
LEVEL001
 100
AcDbLine
   6
DASHDOT
  62
1
  10
 322.49999150634
  20
 426.06000056684
  30
0.0
  11
 322.49999150634
  21
 338.94002330482
  31
0.0
   0
CIRCLE
   5
194
 100
AcDbEntity
   8
LEVEL001
 100
AcDbCircle
   6
CONTINUOUS
  62
7
  10
 322.49999150634
  20
 382.49998904765
  30
0.0
  40
 39.600001108646
   0
LINE
   5
195
 100
AcDbEntity
   8
LEVEL001
 100
AcDbLine
   6
CONTINUOUS
  62
3
  10
 369.46690905193
  20
 389.34355573822
  30
0.0
  11
 366.60364314605
  21
 388.57634384703
  31
0.0
   0
LINE
   5
196
 100
AcDbEntity
   8
LEVEL001
 100
AcDbLine
   6
CONTINUOUS
  62
3
  10
 369.46690905193
  20
 375.65642235707
  30
0.0
  11
 366.60364314605
  21
 376.42363424827
  31
0.0
   0
LINE
   5
197
 100
AcDbEntity
   8
LEVEL001
 100
AcDbLine
   6
CONTINUOUS
  62
7
  10
 369.46690905193
  20
 389.34355573822
  30
0.0
  11
 370.64150771077
  21
 390.02173259790
  31
0.0
   0
LINE
   5
198
 100
AcDbEntity
   8
LEVEL001
 100
AcDbLine
   6
CONTINUOUS
  62
7
  10
 382.92685432950
  20
 390.02173259790
  30
0.0
  11
 370.64150771077
  21
 390.02173259790
  31
0.0
   0
LINE
   5
199
 100
AcDbEntity
   8
LEVEL001
 100
AcDbLine
   6
CONTINUOUS
  62
7
  10
 369.46690905193
  20
 375.65642235707
  30
0.0
  11
 370.64150771077
  21
 374.97824549740
  31
0.0
   0
LINE
   5
19A
 100
AcDbEntity
   8
LEVEL001
 100
AcDbLine
   6
CONTINUOUS
  62
7
  10
 382.92685432950
  20
 374.97824549740
  30
0.0
  11
 370.64150771077
  21
 374.97824549740
  31
0.0
   0
ARC
   5
19B
 100
AcDbEntity
   8
LEVEL001
   6
CONTINUOUS
  62
7
 100
AcDbCircle
  10
 384.11449496092
  20
 392.79287785924
  30
0.0
  40
 1.1876406315672
 100
AcDbArc
  50
 90.000897157747
  51
 179.99910284240
   0
LINE
   5
19C
 100
AcDbEntity
   8
LEVEL001
 100
AcDbLine
   6
CONTINUOUS
  62
7
  10
 384.11447636442
  20
 393.98051849066
  30
0.0
  11
 388.07330803355
  21
 393.98051849066
  31
0.0
   0
ARC
   5
19D
 100
AcDbEntity
   8
LEVEL001
   6
CONTINUOUS
  62
7
 100
AcDbCircle
  10
 384.11449496092
  20
 372.20710023606
  30
0.0
  40
 1.1876406315672
 100
AcDbArc
  50
 180.00089715787
  51
 269.99910284218
   0
LINE
   5
19E
 100
AcDbEntity
   8
LEVEL001
 100
AcDbLine
   6
CONTINUOUS
  62
7
  10
 382.92685432950
  20
 372.20708163956
  30
0.0
  11
 382.92685432950
  21
 392.79289645574
  31
0.0
   0
LINE
   5
19F
 100
AcDbEntity
   8
LEVEL001
 100
AcDbLine
   6
CONTINUOUS
  62
7
  10
 384.11447636442
  20
 371.01945960464
  30
0.0
  11
 388.07330803355
  21
 371.01945960464
  31
0.0
   0
ARC
   5
1A0
 100
AcDbEntity
   8
LEVEL001
   6
CONTINUOUS
  62
7
 100
AcDbCircle
  10
 400.74144091496
  20
 392.79287785923
  30
0.0
  40
 1.1876406315672
 100
AcDbArc
  50
 0.89715795860933E-3
  51
 89.999102841682
   0
LINE
   5
1A1
 100
AcDbEntity
   8
LEVEL001
 100
AcDbLine
   6
CONTINUOUS
  62
7
  10
 396.78267361871
  20
 393.98051849066
  30
0.0
  11
 400.74145951148
  21
 393.98051849066
  31
0.0
   0
ARC
   5
1A2
 100
AcDbEntity
   8
LEVEL001
   6
CONTINUOUS
  62
7
 100
AcDbCircle
  10
 400.74144091497
  20
 372.20710023605
  30
0.0
  40
 1.1876406315672
 100
AcDbArc
  50
 270.00089715787
  51
 0.23309700941208E-9
   0
LINE
   5
1A3
 100
AcDbEntity
   8
LEVEL001
 100
AcDbLine
   6
CONTINUOUS
  62
7
  10
 396.78267361871
  20
 371.01945960464
  30
0.0
  11
 400.74145951148
  21
 371.01945960464
  31
0.0
   0
LINE
   5
1A4
 100
AcDbEntity
   8
LEVEL001
 100
AcDbLine
   6
CONTINUOUS
  62
7
  10
 401.92908154639
  20
 392.79289645574
  30
0.0
  11
 401.92908154639
  21
 372.20708163956
  31
0.0
   0
ARC
   5
1A5
 100
AcDbEntity
   8
LEVEL001
   6
DASHDOT
  62
1
 100
AcDbCircle
  10
 409.05493865751
  20
 392.79288402827
  30
0.0
  40
 0.79176045084714
 100
AcDbArc
  50
 0.89931456707899E-3
  51
 89.999100684014
   0
LINE
   5
1A6
 100
AcDbEntity
   8
LEVEL001
 100
AcDbLine
   6
DASHDOT
  62
1
  10
 402.72087534604
  20
 393.58464447902
  30
0.0
  11
 409.05495108500
  21
 393.58464447902
  31
0.0
   0
ARC
   5
1A7
 100
AcDbEntity
   8
LEVEL001
   6
DASHDOT
  62
1
 100
AcDbCircle
  10
 409.05493865753
  20
 372.20709406704
  30
0.0
  40
 0.79176045084714
 100
AcDbArc
  50
 270.00089931445
  51
0.0
   0
LINE
   5
1A8
 100
AcDbEntity
   8
LEVEL001
 100
AcDbLine
   6
DASHDOT
  62
1
  10
 402.72087534604
  20
 371.41533361628
  30
0.0
  11
 409.05495108500
  21
 371.41533361628
  31
0.0
   0
LINE
   5
1A9
 100
AcDbEntity
   8
LEVEL001
 100
AcDbLine
   6
DASHDOT
  62
1
  10
 409.84669910828
  20
 392.79289645574
  30
0.0
  11
 409.84669910828
  21
 372.20708163956
  31
0.0
   0
CIRCLE
   5
1AA
 100
AcDbEntity
   8
LEVEL001
 100
AcDbCircle
   6
DASHDOT
  62
1
  10
 412.22198895448
  20
 382.49998904765
  30
0.0
  40
 1.1876406315672
   0
ARC
   5
1AB
 100
AcDbEntity
   8
LEVEL001
   6
DASHDOT
  62
1
 100
AcDbCircle
  10
 402.72084199714
  20
 372.20709406642
  30
0.0
  40
 0.79176045084714
 100
AcDbArc
  50
 180.00089927024
  51
 270.00241329446
   0
ARC
   5
1AC
 100
AcDbEntity
   8
LEVEL001
   6
DASHDOT
  62
1
 100
AcDbCircle
  10
 402.72084199715
  20
 392.79288402887
  30
0.0
  40
 0.79176045084714
 100
AcDbArc
  50
 89.997586706086
  51
 179.99910072940
   0
ARC
   5
1AD
 100
AcDbEntity
   8
LEVEL001
   6
DASHDOT
  62
1
 100
AcDbCircle
  10
 411.43022000977
  20
 386.85467380705
  30
0.0
  40
 1.5835209016943
 100
AcDbArc
  50
 180.00089931650
  51
 270.00075699031
   0
ARC
   5
1AE
 100
AcDbEntity
   8
LEVEL001
   6
DASHDOT
  62
1
 100
AcDbCircle
  10
 411.43022000978
  20
 378.14530428825
  30
0.0
  40
 1.5835209016943
 100
AcDbArc
  50
 89.999243010090
  51
 179.99910068328
   0
LINE
   5
1AF
 100
AcDbEntity
   8
LEVEL001
 100
AcDbLine
   6
DASHDOT
  62
1
  10
 411.43024093121
  20
 385.27115290549
  30
0.0
  11
 411.82611494285
  21
 385.27115290549
  31
0.0
   0
LINE
   5
1B0
 100
AcDbEntity
   8
LEVEL001
 100
AcDbLine
   6
DASHDOT
  62
1
  10
 411.43024093121
  20
 379.72882518980
  30
0.0
  11
 411.82611494285
  21
 379.72882518980
  31
0.0
   0
ARC
   5
1B1
 100
AcDbEntity
   8
LEVEL001
   6
DASHDOT
  62
1
 100
AcDbCircle
  10
 411.82611494285
  20
 382.49998904765
  30
0.0
  40
 2.7711638578426
 100
AcDbArc
  50
 270.00000000000
  51
 90.000000000000
   0
LINE
   5
1B2
 100
AcDbEntity
   8
LEVEL001
 100
AcDbLine
   6
CONTINUOUS
  62
7
  10
 370.64150771077
  20
 374.97824549740
  30
0.0
  11
 370.64150771077
  21
 377.88325944891
  31
0.0
   0
LINE
   5
1B3
 100
AcDbEntity
   8
LEVEL001
 100
AcDbLine
   6
CONTINUOUS
  62
7
  10
 370.64150771077
  20
 387.11671864639
  30
0.0
  11
 370.64150771077
  21
 390.02173259790
  31
0.0
   0
LINE
   5
1B4
 100
AcDbEntity
   8
LEVEL001
 100
AcDbLine
   6
CONTINUOUS
  62
7
  10
 366.29987118245
  20
 379.30191480214
  30
0.0
  11
 377.38452661382
  21
 387.11671864639
  31
0.0
   0
LINE
   5
1B5
 100
AcDbEntity
   8
LEVEL001
 100
AcDbLine
   6
CONTINUOUS
  62
7
  10
 366.29987118245
  20
 385.69806329316
  30
0.0
  11
 377.38452661382
  21
 377.88325944891
  31
0.0
   0
LINE
   5
1B6
 100
AcDbEntity
   8
LEVEL001
 100
AcDbLine
   6
CONTINUOUS
  62
3
  10
 366.60364314605
  20
 388.57634384703
  30
0.0
  11
 366.60364314605
  21
 385.69806329316
  31
0.0
   0
LINE
   5
1B7
 100
AcDbEntity
   8
LEVEL001
 100
AcDbLine
   6
CONTINUOUS
  62
3
  10
 366.60364314605
  20
 379.30191480214
  30
0.0
  11
 366.60364314605
  21
 376.42363424827
  31
0.0
   0
LINE
   5
1B8
 100
AcDbEntity
   8
LEVEL001
 100
AcDbLine
   6
CONTINUOUS
  62
7
  10
 369.46690905193
  20
 389.34355573822
  30
0.0
  11
 369.46690905193
  21
 385.90181389744
  31
0.0
   0
LINE
   5
1B9
 100
AcDbEntity
   8
LEVEL001
 100
AcDbLine
   6
CONTINUOUS
  62
7
  10
 369.46690905193
  20
 379.09816419786
  30
0.0
  11
 369.46690905193
  21
 375.65642235707
  31
0.0
   0
LINE
   5
1BA
 100
AcDbEntity
   8
LEVEL001
 100
AcDbLine
   6
CONTINUOUS
  62
3
  10
 388.07330803355
  20
 372.20708163956
  30
0.0
  11
 396.78267361871
  21
 372.20708163956
  31
0.0
   0
LINE
   5
1BB
 100
AcDbEntity
   8
LEVEL001
 100
AcDbLine
   6
CONTINUOUS
  62
3
  10
 388.07330803355
  20
 373.79062346248
  30
0.0
  11
 396.78267361871
  21
 373.79062346248
  31
0.0
   0
LINE
   5
1BC
 100
AcDbEntity
   8
LEVEL001
 100
AcDbLine
   6
CONTINUOUS
  62
3
  10
 388.07330803355
  20
 375.37416528540
  30
0.0
  11
 396.78267361871
  21
 375.37416528540
  31
0.0
   0
LINE
   5
1BD
 100
AcDbEntity
   8
LEVEL001
 100
AcDbLine
   6
CONTINUOUS
  62
3
  10
 388.07330803355
  20
 376.95766133196
  30
0.0
  11
 396.78267361871
  21
 376.95766133196
  31
0.0
   0
LINE
   5
1BE
 100
AcDbEntity
   8
LEVEL001
 100
AcDbLine
   6
CONTINUOUS
  62
3
  10
 388.07330803355
  20
 378.54120315489
  30
0.0
  11
 396.78267361871
  21
 378.54120315489
  31
0.0
   0
LINE
   5
1BF
 100
AcDbEntity
   8
LEVEL001
 100
AcDbLine
   6
CONTINUOUS
  62
3
  10
 388.07330803355
  20
 380.12469920144
  30
0.0
  11
 396.78267361871
  21
 380.12469920144
  31
0.0
   0
LINE
   5
1C0
 100
AcDbEntity
   8
LEVEL001
 100
AcDbLine
   6
CONTINUOUS
  62
3
  10
 388.07330803355
  20
 381.70824102437
  30
0.0
  11
 396.78267361871
  21
 381.70824102437
  31
0.0
   0
LINE
   5
1C1
 100
AcDbEntity
   8
LEVEL001
 100
AcDbLine
   6
CONTINUOUS
  62
3
  10
 388.07330803355
  20
 383.29173707093
  30
0.0
  11
 396.78267361871
  21
 383.29173707093
  31
0.0
   0
LINE
   5
1C2
 100
AcDbEntity
   8
LEVEL001
 100
AcDbLine
   6
CONTINUOUS
  62
3
  10
 388.07330803355
  20
 384.87527889385
  30
0.0
  11
 396.78267361871
  21
 384.87527889385
  31
0.0
   0
LINE
   5
1C3
 100
AcDbEntity
   8
LEVEL001
 100
AcDbLine
   6
CONTINUOUS
  62
3
  10
 388.07330803355
  20
 386.45877494041
  30
0.0
  11
 396.78267361871
  21
 386.45877494041
  31
0.0
   0
LINE
   5
1C4
 100
AcDbEntity
   8
LEVEL001
 100
AcDbLine
   6
CONTINUOUS
  62
3
  10
 388.07330803355
  20
 388.04231676333
  30
0.0
  11
 396.78267361871
  21
 388.04231676333
  31
0.0
   0
LINE
   5
1C5
 100
AcDbEntity
   8
LEVEL001
 100
AcDbLine
   6
CONTINUOUS
  62
3
  10
 388.07330803355
  20
 389.62581280989
  30
0.0
  11
 396.78267361871
  21
 389.62581280989
  31
0.0
   0
LINE
   5
1C6
 100
AcDbEntity
   8
LEVEL001
 100
AcDbLine
   6
CONTINUOUS
  62
3
  10
 388.07330803355
  20
 391.20935463281
  30
0.0
  11
 396.78267361871
  21
 391.20935463281
  31
0.0
   0
LINE
   5
1C7
 100
AcDbEntity
   8
LEVEL001
 100
AcDbLine
   6
CONTINUOUS
  62
3
  10
 388.07330803355
  20
 392.79289645574
  30
0.0
  11
 396.78267361871
  21
 392.79289645574
  31
0.0
   0
LINE
   5
1C8
 100
AcDbEntity
   8
LEVEL001
 100
AcDbLine
   6
CONTINUOUS
  62
7
  10
 369.46690905193
  20
 389.34355573822
  30
0.0
  11
 361.54931437822
  21
 389.09613448095
  31
0.0
   0
LINE
   5
1C9
 100
AcDbEntity
   8
LEVEL001
 100
AcDbLine
   6
CONTINUOUS
  62
3
  10
 366.60364314605
  20
 388.57634384703
  30
0.0
  11
 361.54931437822
  21
 388.41836960857
  31
0.0
   0
LINE
   5
1CA
 100
AcDbEntity
   8
LEVEL001
 100
AcDbLine
   6
CONTINUOUS
  62
3
  10
 366.60364314605
  20
 376.42363424827
  30
0.0
  11
 361.54931437822
  21
 376.58156271036
  31
0.0
   0
LINE
   5
1CB
 100
AcDbEntity
   8
LEVEL001
 100
AcDbLine
   6
CONTINUOUS
  62
7
  10
 369.46690905193
  20
 375.65642235707
  30
0.0
  11
 361.54931437822
  21
 375.90384361434
  31
0.0
   0
LINE
   5
1CC
 100
AcDbEntity
   8
LEVEL001
 100
AcDbLine
   6
CONTINUOUS
  62
7
  10
 366.29987118245
  20
 379.30191480214
  30
0.0
  11
 366.29987118245
  21
 385.69806329316
  31
0.0
   0
LINE
   5
1CD
 100
AcDbEntity
   8
LEVEL001
 100
AcDbLine
   6
CONTINUOUS
  62
7
  10
 366.29987118245
  20
 385.69806329316
  30
0.0
  11
 369.46690905193
  21
 385.90181389744
  31
0.0
   0
LINE
   5
1CE
 100
AcDbEntity
   8
LEVEL001
 100
AcDbLine
   6
CONTINUOUS
  62
7
  10
 369.46690905193
  20
 385.90181389744
  30
0.0
  11
 370.64150771077
  21
 387.11671864639
  31
0.0
   0
LINE
   5
1CF
 100
AcDbEntity
   8
LEVEL001
 100
AcDbLine
   6
CONTINUOUS
  62
7
  10
 370.64150771077
  20
 387.11671864639
  30
0.0
  11
 377.38452661382
  21
 387.11671864639
  31
0.0
   0
LINE
   5
1D0
 100
AcDbEntity
   8
LEVEL001
 100
AcDbLine
   6
CONTINUOUS
  62
7
  10
 377.38452661382
  20
 387.11671864639
  30
0.0
  11
 377.38452661382
  21
 377.88325944891
  31
0.0
   0
LINE
   5
1D1
 100
AcDbEntity
   8
LEVEL001
 100
AcDbLine
   6
CONTINUOUS
  62
7
  10
 377.38452661382
  20
 377.88325944891
  30
0.0
  11
 370.64150771077
  21
 377.88325944891
  31
0.0
   0
LINE
   5
1D2
 100
AcDbEntity
   8
LEVEL001
 100
AcDbLine
   6
CONTINUOUS
  62
7
  10
 370.64150771077
  20
 377.88325944891
  30
0.0
  11
 369.46690905193
  21
 379.09816419786
  31
0.0
   0
LINE
   5
1D3
 100
AcDbEntity
   8
LEVEL001
 100
AcDbLine
   6
CONTINUOUS
  62
7
  10
 369.46690905193
  20
 379.09816419786
  30
0.0
  11
 366.29987118245
  21
 379.30191480214
  31
0.0
   0
LINE
   5
1D4
 100
AcDbEntity
   8
LEVEL001
 100
AcDbLine
   6
CONTINUOUS
  62
7
  10
 388.07330803355
  20
 370.62358559300
  30
0.0
  11
 388.07330803355
  21
 394.37639250230
  31
0.0
   0
LINE
   5
1D5
 100
AcDbEntity
   8
LEVEL001
 100
AcDbLine
   6
CONTINUOUS
  62
7
  10
 388.07330803355
  20
 394.37639250230
  30
0.0
  11
 396.78267361871
  21
 394.37639250230
  31
0.0
   0
LINE
   5
1D6
 100
AcDbEntity
   8
LEVEL001
 100
AcDbLine
   6
CONTINUOUS
  62
7
  10
 396.78267361871
  20
 394.37639250230
  30
0.0
  11
 396.78267361871
  21
 370.62358559300
  31
0.0
   0
LINE
   5
1D7
 100
AcDbEntity
   8
LEVEL001
 100
AcDbLine
   6
CONTINUOUS
  62
7
  10
 396.78267361871
  20
 370.62358559300
  30
0.0
  11
 388.07330803355
  21
 370.62358559300
  31
0.0
   0
LINE
   5
1D8
 100
AcDbEntity
   8
LEVEL001
 100
AcDbLine
   6
DASHDOT
  62
1
  10
 419.99998860061
  20
 382.49998904765
  30
0.0
  11
 278.93997998715
  21
 382.49998904765
  31
0.0
   0
DIMENSION
   5
1D9
 100
AcDbEntity
   8
LEVEL003
   6
CONTINUOUS
  62
3
 100
AcDbDimension
   2
*D9
  10
 314.99999172986
  20
 85.499997898936
  30
0.0
  11
 314.99999172986
  21
 101.49999360740
  31
0.0
  70
128
   1
\A1;32
   3
GMM006
 100
AcDbAlignedDimension
  13
 302.49999973178
  23
 117.49998931587
  33
0.0
  14
 230.50000187755
  24
 85.499997898936
  34
0.0
  50
 270.00000000000
 100
AcDbRotatedDimension
   0
DIMENSION
   5
1DB
 100
AcDbEntity
   8
LEVEL003
   6
CONTINUOUS
  62
3
 100
AcDbDimension
   2
*D10
  10
 329.99999128282
  20
 85.499997898936
  30
0.0
  11
 329.99999128282
  21
 206.49997903407
  31
0.0
  70
128
   1
\A1;242
   3
GMM004
 100
AcDbAlignedDimension
  13
 199.00000281632
  23
 327.49998305738
  33
0.0
  14
 230.50000187755
  24
 85.499997898936
  34
0.0
  50
 270.00000000000
 100
AcDbRotatedDimension
   0
TEXT
   5
1DD
 100
AcDbEntity
   8
LEVEL003
  62
3
 100
AcDbText
  10
 44.999999776483
  20
 67.499998435378
  30
0.0
  40
 5.9999998211861
   1
４－Ｍ１２
   7
STANDARD
 100
AcDbText
   0
TEXT
   5
1DE
 100
AcDbEntity
   8
LEVEL003
  62
3
 100
AcDbText
  10
 44.999999776483
  20
 59.499998673797
  30
0.0
  40
 5.9999998211861
   1
タップ　２０
   7
STANDARD
 100
AcDbText
   0
LEADER
   5
1DF
 100
AcDbEntity
   8
LEVEL003
   6
CONTINUOUS
  62
3
 100
AcDbLeader
   3
GMM007
  73
0
  74
1
  75
0
  40
 6.0000000000000
  41
0.0
  76
3
  10
 97.499998211861
  20
 85.499997898936
  30
0.0
  10
 82.499998658896
  20
 67.499998435378
  30
0.0
  10
 44.999999776483
  20
 67.499998435378
  30
0.0
  77
3
   0
LEADER
   5
1E0
 100
AcDbEntity
   8
LEVEL003
   6
CONTINUOUS
  62
3
 100
AcDbLeader
   3
GMM003
  73
0
  74
1
  75
0
  40
 6.0000000000000
  41
0.0
  76
2
  10
 207.49998730421
  20
 85.499997898936
  30
0.0
  10
 254.99999351800
  20
 59.999998658896
  30
0.0
  77
3
   0
TEXT
   5
1E1
 100
AcDbEntity
   8
LEVEL003
  62
3
 100
AcDbText
  10
 254.99999351800
  20
 337.49999038875
  30
0.0
  40
 5.9999998211861
   1
Ｍ１５０×３
   7
STANDARD
 100
AcDbText
   0
LEADER
   5
1E2
 100
AcDbEntity
   8
LEVEL003
   6
CONTINUOUS
  62
3
 100
AcDbLeader
   3
GMM005
  73
0
  74
1
  75
0
  40
 6.0000000000000
  41
0.0
  76
3
  10
 232.55769529767
  20
 297.61852185075
  30
0.0
  10
 254.99999351800
  20
 337.49999038875
  30
0.0
  10
 292.49999240041
  20
 337.49999038875
  30
0.0
  77
3
   0
LINE
   5
1E3
 100
AcDbEntity
   8
LEVEL001
 100
AcDbLine
   6
DOT
  62
3
  10
 179.33923680069
  20
 87.303861370568
  30
0.0
  11
 178.49999579787
  21
 91.499997720122
  31
0.0
   0
LINE
   5
1E4
 100
AcDbEntity
   8
LEVEL001
 100
AcDbLine
   6
DOT
  62
3
  10
 202.49999508262
  20
 312.49998350442
  30
0.0
  11
 202.49999508262
  21
 161.50000326335
  31
0.0
   0
LINE
   5
1E5
 100
AcDbEntity
   8
LEVEL001
 100
AcDbLine
   6
DOT
  62
3
  10
 216.26000443816
  20
 222.49998618662
  30
0.0
  11
 216.26000443816
  21
 125.49999289215
  31
0.0
   0
LINE
   5
1E6
 100
AcDbEntity
   8
LEVEL001
 100
AcDbLine
   6
DOT
  62
3
  10
 186.49998793006
  20
 235.49999342859
  30
0.0
  11
 187.49999552965
  21
 230.50000120699
  31
0.0
   0
LINE
   5
1E7
 100
AcDbEntity
   8
LEVEL001
 100
AcDbLine
   6
DOT
  62
3
  10
 179.50000339746
  20
 235.49999342859
  30
0.0
  11
 178.49999579787
  21
 230.50000120699
  31
0.0
   0
LINE
   5
1E8
 100
AcDbEntity
   8
LEVEL001
 100
AcDbLine
   6
DOT
  62
3
  10
 178.49999579787
  20
 91.499997720122
  30
0.0
  11
 178.49999579787
  21
 230.50000120699
  31
0.0
   0
LINE
   5
1E9
 100
AcDbEntity
   8
LEVEL001
 100
AcDbLine
   6
DOT
  62
3
  10
 187.49999552965
  20
 230.50000120699
  30
0.0
  11
 187.49999552965
  21
 103.49999736249
  31
0.0
   0
LINE
   5
1EA
 100
AcDbEntity
   8
LEVEL001
 100
AcDbLine
   6
DOT
  62
3
  10
 188.99999548495
  20
 292.49999172986
  30
0.0
  11
 190.00000308454
  21
 293.49999932945
  31
0.0
   0
LINE
   5
1EB
 100
AcDbEntity
   8
LEVEL001
 100
AcDbLine
   6
DOT
  62
3
  10
 190.00000308454
  20
 293.49999932945
  30
0.0
  11
 190.00000308454
  21
 312.49998350442
  31
0.0
   0
ARC
   5
1EC
 100
AcDbEntity
   8
LEVEL001
   6
DOT
  62
3
 100
AcDbCircle
  10
 189.99999548491
  20
 313.49998350439
  30
0.0
  40
 1.0000000000000
 100
AcDbArc
  50
 179.99956457380
  51
 270.00043542644
   0
ARC
   5
1ED
 100
AcDbEntity
   8
LEVEL001
   6
DOT
  62
3
 100
AcDbCircle
  10
 189.99999548483
  20
 314.49998341503
  30
0.0
  40
 1.0000000000000
 100
AcDbArc
  50
 89.999564568757
  51
 179.99912402961
   0
LINE
   5
1EE
 100
AcDbEntity
   8
LEVEL001
 100
AcDbLine
   6
DOT
  62
3
  10
 188.99999548495
  20
 313.49999110401
  30
0.0
  11
 188.99999548495
  21
 314.49999870360
  31
0.0
   0
ARC
   5
1EF
 100
AcDbEntity
   8
LEVEL001
   6
DOT
  62
3
 100
AcDbCircle
  10
 180.31979356726
  20
 326.49998305739
  30
0.0
  40
 1.0000000000000
 100
AcDbArc
  50
 90.000236199026
  51
 168.68976925983
   0
LINE
   5
1F0
 100
AcDbEntity
   8
LEVEL001
 100
AcDbLine
   6
DOT
  62
3
  10
 179.33921391251
  20
 326.69610429716
  30
0.0
  11
 178.49999579787
  21
 322.49999083579
  31
0.0
   0
LINE
   5
1F1
 100
AcDbEntity
   8
LEVEL001
 100
AcDbLine
   6
DOT
  62
3
  10
 178.49999579787
  20
 322.49999083579
  30
0.0
  11
 178.49999579787
  21
 297.49998395145
  31
0.0
   0
ARC
   5
1F2
 100
AcDbEntity
   8
LEVEL001
   6
DOT
  62
3
 100
AcDbCircle
  10
 180.31979814475
  20
 293.49999172982
  30
0.0
  40
 1.0000000000000
 100
AcDbArc
  50
 191.30889337351
  51
 269.99950153061
   0
LINE
   5
1F3
 100
AcDbEntity
   8
LEVEL001
 100
AcDbLine
   6
DOT
  62
3
  10
 179.33921391251
  20
 293.30389337826
  30
0.0
  11
 178.49999579787
  21
 297.49998395145
  31
0.0
   0
LINE
   5
1F4
 100
AcDbEntity
   8
LEVEL001
 100
AcDbLine
   6
DOT
  62
3
  10
 190.00000308454
  20
 315.49998341501
  30
0.0
  11
 190.00000308454
  21
 312.49998350442
  31
0.0
   0
LINE
   5
1F5
 100
AcDbEntity
   8
LEVEL001
 100
AcDbLine
   6
DOT
  62
3
  10
 190.00000308454
  20
 293.49999932945
  30
0.0
  11
 190.00000308454
  21
 280.49999208748
  31
0.0
   0
LINE
   5
1F6
 100
AcDbEntity
   8
LEVEL001
 100
AcDbLine
   6
DOT
  62
3
  10
 190.00000308454
  20
 280.49999208748
  30
0.0
  11
 188.99999548495
  21
 280.49999208748
  31
0.0
   0
LINE
   5
1F7
 100
AcDbEntity
   8
LEVEL001
 100
AcDbLine
   6
DOT
  62
3
  10
 190.00000308454
  20
 280.49999208748
  30
0.0
  11
 188.50000312924
  21
 276.76793653465
  31
0.0
   0
LINE
   5
1F8
 100
AcDbEntity
   8
LEVEL001
 100
AcDbLine
   6
DOT
  62
3
  10
 190.00000308454
  20
 315.49998341501
  30
0.0
  11
 188.99999548495
  21
 314.49999870360
  31
0.0
   0
LINE
   5
1F9
 100
AcDbEntity
   8
LEVEL001
 100
AcDbLine
   6
DOT
  62
3
  10
 188.99999548495
  20
 314.49999870360
  30
0.0
  11
 188.99999548495
  21
 292.49999172986
  31
0.0
   0
LINE
   5
1FA
 100
AcDbEntity
   8
LEVEL001
 100
AcDbLine
   6
DOT
  62
3
  10
 188.99999548495
  20
 292.49999172986
  30
0.0
  11
 188.99999548495
  21
 280.49999208748
  31
0.0
   0
LINE
   5
1FB
 100
AcDbEntity
   8
LEVEL001
 100
AcDbLine
   6
DOT
  62
3
  10
 188.99999548495
  20
 280.49999208748
  30
0.0
  11
 188.50000312924
  21
 280.49999208748
  31
0.0
   0
LINE
   5
1FC
 100
AcDbEntity
   8
LEVEL001
 100
AcDbLine
   6
DOT
  62
3
  10
 180.31978944481
  20
 292.49999172986
  30
0.0
  11
 188.99999548495
  21
 292.49999172986
  31
0.0
   0
LINE
   5
1FD
 100
AcDbEntity
   8
LEVEL001
 100
AcDbLine
   6
DASHDOT
  62
1
  10
 232.49999418855
  20
 262.49999262393
  30
0.0
  11
 235.49999409914
  21
 262.49999262393
  31
0.0
   0
LINE
   5
1FE
 100
AcDbEntity
   8
LEVEL001
 100
AcDbLine
   6
DASHDOT
  62
1
  10
 235.49999409914
  20
 262.49999262393
  30
0.0
  11
 235.49999409914
  21
 307.49999128282
  31
0.0
   0
LINE
   5
1FF
 100
AcDbEntity
   8
LEVEL001
 100
AcDbLine
   6
DASHDOT
  62
1
  10
 235.49999409914
  20
 307.49999128282
  30
0.0
  11
 230.50000187755
  21
 307.49999128282
  31
0.0
   0
LINE
   5
200
 100
AcDbEntity
   8
LEVEL001
 100
AcDbLine
   6
DOT
  62
3
  10
 179.50000339746
  20
 235.49999342859
  30
0.0
  11
 186.49998793006
  21
 235.49999342859
  31
0.0
   0
LINE
   5
201
 100
AcDbEntity
   8
LEVEL001
 100
AcDbLine
   6
CONTINUOUS
  62
7
  10
 232.49999418855
  20
 256.90190929467
  30
0.0
  11
 232.49999418855
  21
 87.499990209937
  31
0.0
   0
ARC
   5
202
 100
AcDbEntity
   8
LEVEL001
   6
DASHDOT
  62
1
 100
AcDbCircle
  10
 293.00113700340
  20
 131.22384929003
  30
0.0
  40
 1.0556806011295
 100
AcDbArc
  50
 0.89931463136286E-3
  51
 89.999100685796
   0
LINE
   5
203
 100
AcDbEntity
   8
LEVEL001
 100
AcDbLine
   6
DASHDOT
  62
1
  10
 284.55571925474
  20
 132.27952989103
  30
0.0
  11
 293.00115357336
  21
 132.27952989103
  31
0.0
   0
ARC
   5
204
 100
AcDbEntity
   8
LEVEL001
   6
DASHDOT
  62
1
 100
AcDbCircle
  10
 293.00113700340
  20
 103.77612934171
  30
0.0
  40
 1.0556806011295
 100
AcDbArc
  50
 270.00089931445
  51
 0.13882983126244E-9
   0
LINE
   5
205
 100
AcDbEntity
   8
LEVEL001
 100
AcDbLine
   6
DASHDOT
  62
1
  10
 284.55571925474
  20
 102.72044874071
  30
0.0
  11
 293.00115357336
  21
 102.72044874071
  31
0.0
   0
LINE
   5
206
 100
AcDbEntity
   8
LEVEL001
 100
AcDbLine
   6
DASHDOT
  62
1
  10
 294.05681760440
  20
 131.22386585999
  30
0.0
  11
 294.05681760440
  21
 103.77611277175
  31
0.0
   0
CIRCLE
   5
207
 100
AcDbEntity
   8
LEVEL001
 100
AcDbCircle
   6
DASHDOT
  62
1
  10
 297.22387073267
  20
 117.49998931587
  30
0.0
  40
 1.5835208420896
   0
ARC
   5
208
 100
AcDbEntity
   8
LEVEL001
   6
DASHDOT
  62
1
 100
AcDbCircle
  10
 296.16817880640
  20
 123.30623566173
  30
0.0
  40
 2.1113612022590
 100
AcDbArc
  50
 180.00089931650
  51
 270.00075698985
   0
ARC
   5
209
 100
AcDbEntity
   8
LEVEL001
   6
DASHDOT
  62
1
 100
AcDbCircle
  10
 296.16817880640
  20
 111.69374297000
  30
0.0
  40
 2.1113612022590
 100
AcDbArc
  50
 89.999243010045
  51
 179.99910068366
   0
LINE
   5
20A
 100
AcDbEntity
   8
LEVEL001
 100
AcDbLine
   6
DASHDOT
  62
1
  10
 296.16820670163
  20
 121.19487445966
  30
0.0
  11
 296.69603871715
  21
 121.19487445966
  31
0.0
   0
LINE
   5
20B
 100
AcDbEntity
   8
LEVEL001
 100
AcDbLine
   6
DASHDOT
  62
1
  10
 296.16820670163
  20
 113.80510417208
  30
0.0
  11
 296.69603871715
  21
 113.80510417208
  31
0.0
   0
ARC
   5
20C
 100
AcDbEntity
   8
LEVEL001
   6
DASHDOT
  62
1
 100
AcDbCircle
  10
 296.69603871715
  20
 117.49998931587
  30
0.0
  40
 3.6948851437901
 100
AcDbArc
  50
 270.00000000000
  51
 90.000000000000
   0
LINE
   5
20D
 100
AcDbEntity
   8
LEVEL001
 100
AcDbLine
   6
CONTINUOUS
  62
3
  10
 242.49999418855
  20
 126.14349822700
  30
0.0
  11
 238.88366118073
  21
 125.17450408638
  31
0.0
   0
LINE
   5
20E
 100
AcDbEntity
   8
LEVEL001
 100
AcDbLine
   6
CONTINUOUS
  62
3
  10
 242.49999418855
  20
 108.85648040473
  30
0.0
  11
 238.88363066316
  21
 109.82548980415
  31
0.0
   0
LINE
   5
20F
 100
AcDbEntity
   8
LEVEL001
 100
AcDbLine
   6
CONTINUOUS
  62
7
  10
 242.49999418855
  20
 126.14349822700
  30
0.0
  11
 243.98351469636
  21
 127.00001983345
  31
0.0
   0
LINE
   5
210
 100
AcDbEntity
   8
LEVEL001
 100
AcDbLine
   6
CONTINUOUS
  62
7
  10
 259.49999418855
  20
 126.99998931587
  30
0.0
  11
 243.98351469636
  21
 126.99998931587
  31
0.0
   0
LINE
   5
211
 100
AcDbEntity
   8
LEVEL001
 100
AcDbLine
   6
CONTINUOUS
  62
7
  10
 242.49999418855
  20
 108.85648040473
  30
0.0
  11
 243.98351469636
  21
 107.99998931587
  31
0.0
   0
LINE
   5
212
 100
AcDbEntity
   8
LEVEL001
 100
AcDbLine
   6
CONTINUOUS
  62
7
  10
 259.49999418855
  20
 107.99998931587
  30
0.0
  11
 243.98351469636
  21
 107.99998931587
  31
0.0
   0
ARC
   5
213
 100
AcDbEntity
   8
LEVEL001
   6
CONTINUOUS
  62
7
 100
AcDbCircle
  10
 260.99999418855
  20
 130.49998931587
  30
0.0
  40
 1.5000000000000
 100
AcDbArc
  50
 89.999999999983
  51
 180.00000000001
   0
LINE
   5
214
 100
AcDbEntity
   8
LEVEL001
 100
AcDbLine
   6
CONTINUOUS
  62
7
  10
 260.99999418855
  20
 131.99998931587
  30
0.0
  11
 265.99999418855
  21
 131.99998931587
  31
0.0
   0
ARC
   5
215
 100
AcDbEntity
   8
LEVEL001
   6
CONTINUOUS
  62
7
 100
AcDbCircle
  10
 281.99999418855
  20
 130.49998931587
  30
0.0
  40
 1.5000000000000
 100
AcDbArc
  50
 0.43425173250928E-11
  51
 90.000000000096
   0
LINE
   5
216
 100
AcDbEntity
   8
LEVEL001
 100
AcDbLine
   6
CONTINUOUS
  62
7
  10
 276.99999418855
  20
 131.99998931587
  30
0.0
  11
 281.99999418855
  21
 131.99998931587
  31
0.0
   0
ARC
   5
217
 100
AcDbEntity
   8
LEVEL001
   6
CONTINUOUS
  62
7
 100
AcDbCircle
  10
 260.99999418855
  20
 104.49998931587
  30
0.0
  40
 1.5000000000000
 100
AcDbArc
  50
 180.00000000000
  51
 270.00000000010
   0
LINE
   5
218
 100
AcDbEntity
   8
LEVEL001
 100
AcDbLine
   6
CONTINUOUS
  62
7
  10
 259.49999418855
  20
 104.49998931587
  30
0.0
  11
 259.49999418855
  21
 130.49998931587
  31
0.0
   0
LINE
   5
219
 100
AcDbEntity
   8
LEVEL001
 100
AcDbLine
   6
CONTINUOUS
  62
7
  10
 260.99999418855
  20
 102.99998931587
  30
0.0
  11
 265.99999418855
  21
 102.99998931587
  31
0.0
   0
ARC
   5
21A
 100
AcDbEntity
   8
LEVEL001
   6
CONTINUOUS
  62
7
 100
AcDbCircle
  10
 281.99999418855
  20
 104.49998931587
  30
0.0
  40
 1.5000000000000
 100
AcDbArc
  50
 270.00000000000
  51
0.0
   0
LINE
   5
21B
 100
AcDbEntity
   8
LEVEL001
 100
AcDbLine
   6
CONTINUOUS
  62
7
  10
 276.99999418855
  20
 102.99998931587
  30
0.0
  11
 281.99999418855
  21
 102.99998931587
  31
0.0
   0
LINE
   5
21C
 100
AcDbEntity
   8
LEVEL001
 100
AcDbLine
   6
CONTINUOUS
  62
7
  10
 283.49999418855
  20
 130.49998931587
  30
0.0
  11
 283.49999418855
  21
 104.49998931587
  31
0.0
   0
LINE
   5
21D
 100
AcDbEntity
   8
LEVEL001
 100
AcDbLine
   6
CONTINUOUS
  62
7
  10
 243.98351469636
  20
 107.99998931587
  30
0.0
  11
 243.98351469636
  21
 111.66904143989
  31
0.0
   0
LINE
   5
21E
 100
AcDbEntity
   8
LEVEL001
 100
AcDbLine
   6
CONTINUOUS
  62
7
  10
 243.98351469636
  20
 123.33093719184
  30
0.0
  11
 243.98351469636
  21
 127.00000457466
  31
0.0
   0
LINE
   5
21F
 100
AcDbEntity
   8
LEVEL001
 100
AcDbLine
   6
CONTINUOUS
  62
7
  10
 238.49999418855
  20
 113.46080474556
  30
0.0
  11
 252.49999418855
  21
 123.33093719184
  31
0.0
   0
LINE
   5
220
 100
AcDbEntity
   8
LEVEL001
 100
AcDbLine
   6
CONTINUOUS
  62
7
  10
 238.49999418855
  20
 121.53917388618
  30
0.0
  11
 252.49999418855
  21
 111.66904143989
  31
0.0
   0
LINE
   5
221
 100
AcDbEntity
   8
LEVEL001
 100
AcDbLine
   6
CONTINUOUS
  62
3
  10
 238.88366118073
  20
 125.17448882759
  30
0.0
  11
 238.88366118073
  21
 121.53917388618
  31
0.0
   0
LINE
   5
222
 100
AcDbEntity
   8
LEVEL001
 100
AcDbLine
   6
CONTINUOUS
  62
3
  10
 238.88363066316
  20
 113.46080474556
  30
0.0
  11
 238.88363066316
  21
 109.82548980415
  31
0.0
   0
LINE
   5
223
 100
AcDbEntity
   8
LEVEL001
 100
AcDbLine
   6
CONTINUOUS
  62
7
  10
 242.49999418855
  20
 126.14349822700
  30
0.0
  11
 242.49999418855
  21
 121.79652862251
  31
0.0
   0
LINE
   5
224
 100
AcDbEntity
   8
LEVEL001
 100
AcDbLine
   6
CONTINUOUS
  62
7
  10
 242.49999418855
  20
 113.20345000923
  30
0.0
  11
 242.49999418855
  21
 108.85648040473
  31
0.0
   0
LINE
   5
225
 100
AcDbEntity
   8
LEVEL001
 100
AcDbLine
   6
CONTINUOUS
  62
3
  10
 265.99999418855
  20
 104.49998931587
  30
0.0
  11
 276.99999418855
  21
 104.49998931587
  31
0.0
   0
LINE
   5
226
 100
AcDbEntity
   8
LEVEL001
 100
AcDbLine
   6
CONTINUOUS
  62
3
  10
 265.99999418855
  20
 106.49998931587
  30
0.0
  11
 276.99999418855
  21
 106.49998931587
  31
0.0
   0
LINE
   5
227
 100
AcDbEntity
   8
LEVEL001
 100
AcDbLine
   6
CONTINUOUS
  62
3
  10
 265.99999418855
  20
 108.49998931587
  30
0.0
  11
 276.99999418855
  21
 108.49998931587
  31
0.0
   0
LINE
   5
228
 100
AcDbEntity
   8
LEVEL001
 100
AcDbLine
   6
CONTINUOUS
  62
3
  10
 265.99999418855
  20
 110.49998931587
  30
0.0
  11
 276.99999418855
  21
 110.49998931587
  31
0.0
   0
LINE
   5
229
 100
AcDbEntity
   8
LEVEL001
 100
AcDbLine
   6
CONTINUOUS
  62
3
  10
 265.99999418855
  20
 112.49998931587
  30
0.0
  11
 276.99999418855
  21
 112.49998931587
  31
0.0
   0
LINE
   5
22A
 100
AcDbEntity
   8
LEVEL001
 100
AcDbLine
   6
CONTINUOUS
  62
3
  10
 265.99999418855
  20
 114.49998931587
  30
0.0
  11
 276.99999418855
  21
 114.49998931587
  31
0.0
   0
LINE
   5
22B
 100
AcDbEntity
   8
LEVEL001
 100
AcDbLine
   6
CONTINUOUS
  62
3
  10
 265.99999418855
  20
 116.49998931587
  30
0.0
  11
 276.99999418855
  21
 116.49998931587
  31
0.0
   0
LINE
   5
22C
 100
AcDbEntity
   8
LEVEL001
 100
AcDbLine
   6
CONTINUOUS
  62
3
  10
 265.99999418855
  20
 118.49998931587
  30
0.0
  11
 276.99999418855
  21
 118.49998931587
  31
0.0
   0
LINE
   5
22D
 100
AcDbEntity
   8
LEVEL001
 100
AcDbLine
   6
CONTINUOUS
  62
3
  10
 265.99999418855
  20
 120.49998931587
  30
0.0
  11
 276.99999418855
  21
 120.49998931587
  31
0.0
   0
LINE
   5
22E
 100
AcDbEntity
   8
LEVEL001
 100
AcDbLine
   6
CONTINUOUS
  62
3
  10
 265.99999418855
  20
 122.49998931587
  30
0.0
  11
 276.99999418855
  21
 122.49998931587
  31
0.0
   0
LINE
   5
22F
 100
AcDbEntity
   8
LEVEL001
 100
AcDbLine
   6
CONTINUOUS
  62
3
  10
 265.99999418855
  20
 124.49998931587
  30
0.0
  11
 276.99999418855
  21
 124.49998931587
  31
0.0
   0
LINE
   5
230
 100
AcDbEntity
   8
LEVEL001
 100
AcDbLine
   6
CONTINUOUS
  62
3
  10
 265.99999418855
  20
 126.49998931587
  30
0.0
  11
 276.99999418855
  21
 126.49998931587
  31
0.0
   0
LINE
   5
231
 100
AcDbEntity
   8
LEVEL001
 100
AcDbLine
   6
CONTINUOUS
  62
3
  10
 265.99999418855
  20
 128.49998931587
  30
0.0
  11
 276.99999418855
  21
 128.49998931587
  31
0.0
   0
LINE
   5
232
 100
AcDbEntity
   8
LEVEL001
 100
AcDbLine
   6
CONTINUOUS
  62
3
  10
 265.99999418855
  20
 130.49998931587
  30
0.0
  11
 276.99999418855
  21
 130.49998931587
  31
0.0
   0
LINE
   5
233
 100
AcDbEntity
   8
LEVEL001
 100
AcDbLine
   6
CONTINUOUS
  62
7
  10
 242.49999418855
  20
 126.14349822700
  30
0.0
  11
 232.49999418855
  21
 125.83098296821
  31
0.0
   0
LINE
   5
234
 100
AcDbEntity
   8
LEVEL001
 100
AcDbLine
   6
CONTINUOUS
  62
3
  10
 238.88366118073
  20
 125.17448882759
  30
0.0
  11
 232.49999418855
  21
 124.97499541938
  31
0.0
   0
LINE
   5
235
 100
AcDbEntity
   8
LEVEL001
 100
AcDbLine
   6
CONTINUOUS
  62
3
  10
 238.88363066316
  20
 109.82548980415
  30
0.0
  11
 232.49999418855
  21
 110.02498321235
  31
0.0
   0
LINE
   5
236
 100
AcDbEntity
   8
LEVEL001
 100
AcDbLine
   6
CONTINUOUS
  62
7
  10
 242.49999418855
  20
 108.85648040473
  30
0.0
  11
 232.49999418855
  21
 109.16899566352
  31
0.0
   0
LINE
   5
237
 100
AcDbEntity
   8
LEVEL001
 100
AcDbLine
   6
CONTINUOUS
  62
7
  10
 238.49999418855
  20
 113.46080474556
  30
0.0
  11
 238.49999418855
  21
 121.53917388618
  31
0.0
   0
LINE
   5
238
 100
AcDbEntity
   8
LEVEL001
 100
AcDbLine
   6
CONTINUOUS
  62
7
  10
 238.49999418855
  20
 121.53917388618
  30
0.0
  11
 242.49999418855
  21
 121.79652862251
  31
0.0
   0
LINE
   5
239
 100
AcDbEntity
   8
LEVEL001
 100
AcDbLine
   6
CONTINUOUS
  62
7
  10
 242.49999418855
  20
 121.79652862251
  30
0.0
  11
 243.98351469636
  21
 123.33093719184
  31
0.0
   0
LINE
   5
23A
 100
AcDbEntity
   8
LEVEL001
 100
AcDbLine
   6
CONTINUOUS
  62
7
  10
 243.98351469636
  20
 123.33093719184
  30
0.0
  11
 252.49999418855
  21
 123.33093719184
  31
0.0
   0
LINE
   5
23B
 100
AcDbEntity
   8
LEVEL001
 100
AcDbLine
   6
CONTINUOUS
  62
7
  10
 252.49999418855
  20
 123.33093719184
  30
0.0
  11
 252.49999418855
  21
 111.66904143989
  31
0.0
   0
LINE
   5
23C
 100
AcDbEntity
   8
LEVEL001
 100
AcDbLine
   6
CONTINUOUS
  62
7
  10
 252.49999418855
  20
 111.66904143989
  30
0.0
  11
 243.98351469636
  21
 111.66904143989
  31
0.0
   0
LINE
   5
23D
 100
AcDbEntity
   8
LEVEL001
 100
AcDbLine
   6
CONTINUOUS
  62
7
  10
 243.98351469636
  20
 111.66904143989
  30
0.0
  11
 242.49999418855
  21
 113.20345000923
  31
0.0
   0
LINE
   5
23E
 100
AcDbEntity
   8
LEVEL001
 100
AcDbLine
   6
CONTINUOUS
  62
7
  10
 242.49999418855
  20
 113.20345000923
  30
0.0
  11
 238.49999418855
  21
 113.46080474556
  31
0.0
   0
LINE
   5
23F
 100
AcDbEntity
   8
LEVEL001
 100
AcDbLine
   6
CONTINUOUS
  62
7
  10
 265.99999418855
  20
 102.49998931587
  30
0.0
  11
 265.99999418855
  21
 132.49998931587
  31
0.0
   0
LINE
   5
240
 100
AcDbEntity
   8
LEVEL001
 100
AcDbLine
   6
CONTINUOUS
  62
7
  10
 265.99999418855
  20
 132.49998931587
  30
0.0
  11
 276.99999418855
  21
 132.49998931587
  31
0.0
   0
LINE
   5
241
 100
AcDbEntity
   8
LEVEL001
 100
AcDbLine
   6
CONTINUOUS
  62
7
  10
 276.99999418855
  20
 132.49998931587
  30
0.0
  11
 276.99999418855
  21
 102.49998931587
  31
0.0
   0
LINE
   5
242
 100
AcDbEntity
   8
LEVEL001
 100
AcDbLine
   6
CONTINUOUS
  62
7
  10
 276.99999418855
  20
 102.49998931587
  30
0.0
  11
 265.99999418855
  21
 102.49998931587
  31
0.0
   0
LINE
   5
243
 100
AcDbEntity
   8
LEVEL001
 100
AcDbLine
   6
DASHDOT
  62
1
  10
 302.49999973178
  20
 117.49998931587
  30
0.0
  11
 222.49999418855
  21
 117.49998931587
  31
0.0
   0
LINE
   5
244
 100
AcDbEntity
   8
LEVEL001
 100
AcDbLine
   6
DASHDOT
  62
1
  10
 207.49998730421
  20
 82.499997988343
  30
0.0
  11
 207.49998730421
  21
 122.49999298155
  31
0.0
   0
LINE
   5
245
 100
AcDbEntity
   8
LEVEL001
 100
AcDbLine
   6
DOT
  62
3
  10
 199.16900915894
  20
 85.499997898936
  30
0.0
  11
 200.05260746024
  21
 86.383596200240
  31
0.0
   0
LINE
   5
246
 100
AcDbEntity
   8
LEVEL001
 100
AcDbLine
   6
DOT
  62
3
  10
 199.19899267855
  20
 86.383596200240
  30
0.0
  11
 215.80098192987
  21
 86.383596200240
  31
0.0
   0
LINE
   5
247
 100
AcDbEntity
   8
LEVEL001
 100
AcDbLine
   6
DOT
  62
3
  10
 199.19899267855
  20
 86.383596200240
  30
0.0
  11
 199.16900915894
  21
 85.499997898936
  31
0.0
   0
LINE
   5
248
 100
AcDbEntity
   8
LEVEL001
 100
AcDbLine
   6
DOT
  62
3
  10
 199.19899267855
  20
 86.383596200240
  30
0.0
  11
 199.47852605645
  21
 94.616052162169
  31
0.0
   0
LINE
   5
249
 100
AcDbEntity
   8
LEVEL001
 100
AcDbLine
   6
DOT
  62
3
  10
 200.05258457206
  20
 86.383596200240
  30
0.0
  11
 200.02353946794
  21
 85.499997898936
  31
0.0
   0
LINE
   5
24A
 100
AcDbEntity
   8
LEVEL001
 100
AcDbLine
   6
DOT
  62
3
  10
 200.02353946794
  20
 85.499997898936
  30
0.0
  11
 199.19899267855
  21
 86.383596200240
  31
0.0
   0
LINE
   5
24B
 100
AcDbEntity
   8
LEVEL001
 100
AcDbLine
   6
DOT
  62
3
  10
 215.83098833767
  20
 85.499997898936
  30
0.0
  11
 214.94739003636
  21
 86.383596200240
  31
0.0
   0
LINE
   5
24C
 100
AcDbEntity
   8
LEVEL001
 100
AcDbLine
   6
DOT
  62
3
  10
 215.53117602971
  20
 94.616384040821
  30
0.0
  11
 214.64757772840
  21
 95.499993786216
  31
0.0
   0
LINE
   5
24D
 100
AcDbEntity
   8
LEVEL001
 100
AcDbLine
   6
DOT
  62
3
  10
 214.64757772840
  20
 95.499993786216
  30
0.0
  11
 200.35241976820
  21
 95.499993786216
  31
0.0
   0
LINE
   5
24E
 100
AcDbEntity
   8
LEVEL001
 100
AcDbLine
   6
DOT
  62
3
  10
 215.53117602971
  20
 94.616384040821
  30
0.0
  11
 199.46879857872
  21
 94.616384040821
  31
0.0
   0
LINE
   5
24F
 100
AcDbEntity
   8
LEVEL001
 100
AcDbLine
   6
DOT
  62
3
  10
 215.83098833767
  20
 85.499997898936
  30
0.0
  11
 215.80098192987
  21
 86.383596200240
  31
0.0
   0
LINE
   5
250
 100
AcDbEntity
   8
LEVEL001
 100
AcDbLine
   6
DOT
  62
3
  10
 215.52144855197
  20
 94.616063606260
  30
0.0
  11
 215.28771442808
  21
 101.49999360740
  31
0.0
   0
LINE
   5
251
 100
AcDbEntity
   8
LEVEL001
 100
AcDbLine
   6
DOT
  62
3
  10
 215.28771442808
  20
 101.49999360740
  30
0.0
  11
 214.31869742815
  21
 105.49998967350
  31
0.0
   0
LINE
   5
252
 100
AcDbEntity
   8
LEVEL001
 100
AcDbLine
   6
DOT
  62
3
  10
 215.52144855197
  20
 94.616063606260
  30
0.0
  11
 215.80098192987
  21
 86.383596200240
  31
0.0
   0
LINE
   5
253
 100
AcDbEntity
   8
LEVEL001
 100
AcDbLine
   6
DOT
  62
3
  10
 214.97643514048
  20
 85.499997898936
  30
0.0
  11
 214.94739003636
  21
 86.383596200240
  31
0.0
   0
LINE
   5
254
 100
AcDbEntity
   8
LEVEL001
 100
AcDbLine
   6
DOT
  62
3
  10
 214.97643514048
  20
 85.499997898936
  30
0.0
  11
 215.80098192987
  21
 86.383596200240
  31
0.0
   0
LINE
   5
255
 100
AcDbEntity
   8
LEVEL001
 100
AcDbLine
   6
DOT
  62
3
  10
 199.46879857872
  20
 94.616384040821
  30
0.0
  11
 200.35241976820
  21
 95.499993786216
  31
0.0
   0
LINE
   5
256
 100
AcDbEntity
   8
LEVEL001
 100
AcDbLine
   6
DOT
  62
3
  10
 200.68127718028
  20
 105.49998967350
  30
0.0
  11
 199.71228306853
  21
 101.49999360740
  31
0.0
   0
LINE
   5
257
 100
AcDbEntity
   8
LEVEL001
 100
AcDbLine
   6
DOT
  62
3
  10
 199.71228306853
  20
 101.49999360740
  30
0.0
  11
 199.47852605645
  21
 94.616052162169
  31
0.0
   0
ARC
   5
258
 100
AcDbEntity
   8
LEVEL001
   6
DASHDOT
  62
1
 100
AcDbCircle
  10
 157.49999914885
  20
 208.49998565019
  30
0.0
  40
 32.000000000000
 100
AcDbArc
  50
 90.000004879331
  51
 270.00000487933
   0
ARC
   5
259
 100
AcDbEntity
   8
LEVEL001
   6
CONTINUOUS
  62
7
 100
AcDbCircle
  10
 157.49998005820
  20
 208.49999610939
  30
0.0
  40
 27.500000134110
 100
AcDbArc
  50
 112.67186898745
  51
 270.00005440862
   0
ARC
   5
25A
 100
AcDbEntity
   8
LEVEL001
   6
CONTINUOUS
  62
7
 100
AcDbCircle
  10
 157.49998312247
  20
 208.49999595538
  30
0.0
  40
 36.499999865890
 100
AcDbArc
  50
 109.64717112335
  51
 270.00002223015
   0
LINE
   5
25B
 100
AcDbEntity
   8
LEVEL001
 100
AcDbLine
   6
CONTINUOUS
  62
7
  10
 232.50000134110
  20
 87.499990209937
  30
0.0
  11
 157.50000357628
  21
 87.499990209937
  31
0.0
   0
LINE
   5
25C
 100
AcDbEntity
   8
LEVEL001
 100
AcDbLine
   6
DOT
  62
3
  10
 135.66076319931
  20
 87.303861370568
  30
0.0
  11
 136.50000420213
  21
 91.499997720122
  31
0.0
   0
LINE
   5
25D
 100
AcDbEntity
   8
LEVEL001
 100
AcDbLine
   6
DOT
  62
3
  10
 136.50000420213
  20
 91.499997720122
  30
0.0
  11
 136.50000420213
  21
 230.50000120699
  31
0.0
   0
LINE
   5
25E
 100
AcDbEntity
   8
LEVEL001
 100
AcDbLine
   6
DOT
  62
3
  10
 127.50000447035
  20
 230.50000120699
  30
0.0
  11
 127.50000447035
  21
 103.49999736249
  31
0.0
   0
LINE
   5
25F
 100
AcDbEntity
   8
LEVEL001
 100
AcDbLine
   6
DOT
  62
3
  10
 112.50000491738
  20
 312.49998350442
  30
0.0
  11
 112.50000491738
  21
 161.50000326335
  31
0.0
   0
LINE
   5
260
 100
AcDbEntity
   8
LEVEL001
 100
AcDbLine
   6
DOT
  62
3
  10
 128.50001206994
  20
 235.49999342859
  30
0.0
  11
 127.50000447035
  21
 230.50000120699
  31
0.0
   0
LINE
   5
261
 100
AcDbEntity
   8
LEVEL001
 100
AcDbLine
   6
DOT
  62
3
  10
 135.49999660254
  20
 235.49999342859
  30
0.0
  11
 136.50000420213
  21
 230.50000120699
  31
0.0
   0
LINE
   5
262
 100
AcDbEntity
   8
LEVEL001
 100
AcDbLine
   6
DOT
  62
3
  10
 135.49999660254
  20
 235.49999342859
  30
0.0
  11
 128.50001206994
  21
 235.49999342859
  31
0.0
   0
LINE
   5
263
 100
AcDbEntity
   8
LEVEL001
 100
AcDbLine
   6
DOT
  62
3
  10
 98.739995561838
  20
 222.49998618662
  30
0.0
  11
 98.739995561838
  21
 125.49999289215
  31
0.0
   0
LINE
   5
264
 100
AcDbEntity
   8
LEVEL001
 100
AcDbLine
   6
CONTINUOUS
  62
3
  10
 84.000005766749
  20
 262.49999262393
  30
0.0
  11
 82.500005811453
  21
 256.90190929467
  31
0.0
   0
LINE
   5
265
 100
AcDbEntity
   8
LEVEL001
 100
AcDbLine
   6
CONTINUOUS
  62
7
  10
 84.499998122454
  20
 307.49999128282
  30
0.0
  11
 82.500005811453
  21
 305.49999897182
  31
0.0
   0
LINE
   5
266
 100
AcDbEntity
   8
LEVEL001
 100
AcDbLine
   6
CONTINUOUS
  62
7
  10
 82.500005811453
  20
 305.49999897182
  30
0.0
  11
 82.500005811453
  21
 256.90190929467
  31
0.0
   0
LINE
   5
267
 100
AcDbEntity
   8
LEVEL001
 100
AcDbLine
   6
DASHDOT
  62
1
  10
 82.500005811453
  20
 262.49999262393
  30
0.0
  11
 79.500005900860
  21
 262.49999262393
  31
0.0
   0
LINE
   5
268
 100
AcDbEntity
   8
LEVEL001
 100
AcDbLine
   6
DASHDOT
  62
1
  10
 79.500005900860
  20
 262.49999262393
  30
0.0
  11
 79.500005900860
  21
 307.49999128282
  31
0.0
   0
LINE
   5
269
 100
AcDbEntity
   8
LEVEL001
 100
AcDbLine
   6
DASHDOT
  62
1
  10
 79.500005900860
  20
 307.49999128282
  30
0.0
  11
 84.499998122454
  21
 307.49999128282
  31
0.0
   0
LINE
   5
26A
 100
AcDbEntity
   8
LEVEL001
 100
AcDbLine
   6
DOT
  62
3
  10
 126.00000451505
  20
 292.49999172986
  30
0.0
  11
 124.99999691546
  21
 293.49999932945
  31
0.0
   0
LINE
   5
26B
 100
AcDbEntity
   8
LEVEL001
 100
AcDbLine
   6
DOT
  62
3
  10
 124.99999691546
  20
 293.49999932945
  30
0.0
  11
 124.99999691546
  21
 312.49998350442
  31
0.0
   0
ARC
   5
26C
 100
AcDbEntity
   8
LEVEL001
   6
DOT
  62
3
 100
AcDbCircle
  10
 134.68020185525
  20
 293.49999172982
  30
0.0
  40
 1.0000000000000
 100
AcDbArc
  50
 270.00049846975
  51
 348.69110662656
   0
LINE
   5
26D
 100
AcDbEntity
   8
LEVEL001
 100
AcDbLine
   6
DOT
  62
3
  10
 124.99999691546
  20
 293.49999932945
  30
0.0
  11
 124.99999691546
  21
 280.49999208748
  31
0.0
   0
LINE
   5
26E
 100
AcDbEntity
   8
LEVEL001
 100
AcDbLine
   6
DOT
  62
3
  10
 124.99999691546
  20
 280.49999208748
  30
0.0
  11
 126.00000451505
  21
 280.49999208748
  31
0.0
   0
LINE
   5
26F
 100
AcDbEntity
   8
LEVEL001
 100
AcDbLine
   6
DOT
  62
3
  10
 124.99999691546
  20
 280.49999208748
  30
0.0
  11
 126.49999687076
  21
 276.76793653465
  31
0.0
   0
LINE
   5
270
 100
AcDbEntity
   8
LEVEL001
 100
AcDbLine
   6
DOT
  62
3
  10
 124.99999691546
  20
 315.49998341501
  30
0.0
  11
 126.00000451505
  21
 314.49999870360
  31
0.0
   0
LINE
   5
271
 100
AcDbEntity
   8
LEVEL001
 100
AcDbLine
   6
DOT
  62
3
  10
 126.00000451505
  20
 314.49999870360
  30
0.0
  11
 126.00000451505
  21
 292.49999172986
  31
0.0
   0
LINE
   5
272
 100
AcDbEntity
   8
LEVEL001
 100
AcDbLine
   6
DOT
  62
3
  10
 126.00000451505
  20
 292.49999172986
  30
0.0
  11
 126.00000451505
  21
 280.49999208748
  31
0.0
   0
LINE
   5
273
 100
AcDbEntity
   8
LEVEL001
 100
AcDbLine
   6
DOT
  62
3
  10
 126.00000451505
  20
 280.49999208748
  30
0.0
  11
 126.49999687076
  21
 280.49999208748
  31
0.0
   0
LINE
   5
274
 100
AcDbEntity
   8
LEVEL001
 100
AcDbLine
   6
DOT
  62
3
  10
 134.68021055519
  20
 292.49999172986
  30
0.0
  11
 126.00000451505
  21
 292.49999172986
  31
0.0
   0
LINE
   5
275
 100
AcDbEntity
   8
LEVEL001
 100
AcDbLine
   6
DOT
  62
3
  10
 136.50000420213
  20
 322.49999083579
  30
0.0
  11
 136.50000420213
  21
 297.49998395145
  31
0.0
   0
LINE
   5
276
 100
AcDbEntity
   8
LEVEL001
 100
AcDbLine
   6
DOT
  62
3
  10
 135.66078608749
  20
 293.30389337826
  30
0.0
  11
 136.50000420213
  21
 297.49998395145
  31
0.0
   0
LINE
   5
277
 100
AcDbEntity
   8
LEVEL001
 100
AcDbLine
   6
DOT
  62
3
  10
 135.66078608749
  20
 326.69610429716
  30
0.0
  11
 136.50000420213
  21
 322.49999083579
  31
0.0
   0
LINE
   5
278
 100
AcDbEntity
   8
LEVEL001
 100
AcDbLine
   6
CONTINUOUS
  62
7
  10
 229.50000143051
  20
 312.49998350442
  30
0.0
  11
 157.50000357628
  21
 312.49998350442
  31
0.0
   0
LINE
   5
279
 100
AcDbEntity
   8
LEVEL001
 100
AcDbLine
   6
CONTINUOUS
  62
7
  10
 157.50000357628
  20
 315.49998341501
  30
0.0
  11
 201.35962140979
  21
 315.49998341501
  31
0.0
   0
LINE
   5
27A
 100
AcDbEntity
   8
LEVEL001
 100
AcDbLine
   6
CONTINUOUS
  62
7
  10
 230.50000903010
  20
 311.49999879301
  30
0.0
  11
 157.50000357628
  21
 311.49999879301
  31
0.0
   0
LINE
   5
27B
 100
AcDbEntity
   8
LEVEL001
 100
AcDbLine
   6
CONTINUOUS
  62
7
  10
 200.00001756847
  20
 326.49999834597
  30
0.0
  11
 157.50000357628
  21
 326.49999834597
  31
0.0
   0
LINE
   5
27C
 100
AcDbEntity
   8
LEVEL001
 100
AcDbLine
   6
CONTINUOUS
  62
7
  10
 232.50000134110
  20
 256.90190929467
  30
0.0
  11
 157.50000357628
  21
 256.90190929467
  31
0.0
   0
LINE
   5
27D
 100
AcDbEntity
   8
LEVEL001
 100
AcDbLine
   6
DOT
  62
3
  10
 188.50000312924
  20
 235.49999342859
  30
0.0
  11
 188.50000312924
  21
 280.49999208748
  31
0.0
   0
LINE
   5
27E
 100
AcDbEntity
   8
LEVEL001
 100
AcDbLine
   6
DOT
  62
3
  10
 126.49999687076
  20
 235.49999342859
  30
0.0
  11
 126.49999687076
  21
 280.49999208748
  31
0.0
   0
LINE
   5
27F
 100
AcDbEntity
   8
LEVEL001
 100
AcDbLine
   6
CONTINUOUS
  62
3
  10
 230.99999423325
  20
 306.99999892712
  30
0.0
  11
 230.99999423325
  21
 262.49999262393
  31
0.0
   0
LINE
   5
280
 100
AcDbEntity
   8
LEVEL001
 100
AcDbLine
   6
CONTINUOUS
  62
3
  10
 157.49999642372
  20
 262.49999262393
  30
0.0
  11
 232.49999418855
  21
 262.49999262393
  31
0.0
   0
LINE
   5
281
 100
AcDbEntity
   8
LEVEL001
 100
AcDbLine
   6
CONTINUOUS
  62
3
  10
 84.000005766749
  20
 306.99999892712
  30
0.0
  11
 84.000005766749
  21
 262.49999262393
  31
0.0
   0
LINE
   5
282
 100
AcDbEntity
   8
LEVEL001
 100
AcDbLine
   6
CONTINUOUS
  62
3
  10
 157.49999642372
  20
 262.49999262393
  30
0.0
  11
 82.500005811453
  21
 262.49999262393
  31
0.0
   0
DIMENSION
   5
283
 100
AcDbEntity
   8
LEVEL003
   6
CONTINUOUS
  62
3
 100
AcDbDimension
   2
*D14
  10
 172.50000000000
  20
 280.49999208748
  30
0.0
  11
 172.50000000000
  21
 297.99997630715
  31
0.0
  70
128
   1
\A1;35
   3
GMM008
 100
AcDbAlignedDimension
  13
 190.00000308454
  23
 315.49998341501
  33
0.0
  14
 188.50000312924
  24
 280.49999208748
  34
0.0
  50
 270.00000000000
 100
AcDbRotatedDimension
   0
TEXT
   5
285
 100
AcDbEntity
   8
LEVEL003
  62
3
 100
AcDbText
  10
 224.99999351800
  20
 352.49999038875
  30
0.0
  40
 5.9999998211861
   1
Ｍ６５×２
   7
STANDARD
 100
AcDbText
   0
DIMENSION
   5
286
 100
AcDbEntity
   8
LEVEL003
   6
CONTINUOUS
  62
3
 100
AcDbDimension
   2
*D15
  10
 178.49999579787
  20
 67.500000000000
  30
0.0
  11
 157.50000000000
  21
 67.500000000000
  31
0.0
  70
0
   1
\A1;%%c42
   3
GMM009
 100
AcDbAlignedDimension
  13
 136.50000420213
  23
 91.499997720122
  33
0.0
  14
 178.49999579787
  24
 91.499997720122
  34
0.0
 100
AcDbRotatedDimension
   0
DIMENSION
   5
288
 100
AcDbEntity
   8
LEVEL003
   6
CONTINUOUS
  62
3
 100
AcDbDimension
   2
*D16
  10
 178.49999579787
  20
 337.50000000000
  30
0.0
  11
 157.50000000000
  21
 337.50000000000
  31
0.0
  70
0
   1
\A1;%%c42
   3
GMM009
 100
AcDbAlignedDimension
  13
 136.50000420213
  23
 322.49999083579
  33
0.0
  14
 178.49999579787
  24
 322.49999083579
  34
0.0
 100
AcDbRotatedDimension
   0
LEADER
   5
28A
 100
AcDbEntity
   8
LEVEL003
   6
CONTINUOUS
  62
3
 100
AcDbLeader
   3
GMM010
  73
0
  74
1
  75
0
  40
 6.0000000000000
  41
0.0
  76
3
  10
 190.00000308454
  20
 300.00000000000
  30
0.0
  10
 224.99999351800
  20
 352.49999038875
  30
0.0
  10
 262.49999240041
  20
 352.49999038875
  30
0.0
  77
3
   0
LINE
   5
28B
 100
AcDbEntity
   8
LEVEL001
 100
AcDbLine
   6
DOT
  62
3
  10
 200.68127718028
  20
 105.49998967350
  30
0.0
  11
 200.05258457206
  21
 86.383596200240
  31
0.0
   0
LINE
   5
28C
 100
AcDbEntity
   8
LEVEL001
 100
AcDbLine
   6
DOT
  62
3
  10
 214.94739003636
  20
 86.383596200240
  30
0.0
  11
 214.31869742815
  21
 105.49998967350
  31
0.0
   0
LINE
   5
28D
 100
AcDbEntity
   8
LEVEL003
 100
AcDbLine
   6
CONTINUOUS
  62
3
  10
 97.499998211861
  20
 80.999997988343
  30
0.0
  11
 97.499998211861
  21
 49.500000000000
  31
0.0
   0
LINE
   5
28E
 100
AcDbEntity
   8
LEVEL003
 100
AcDbLine
   6
CONTINUOUS
  62
3
  10
 97.499998211861
  20
 52.500000000000
  30
0.0
  11
 157.50000000000
  21
 52.500000000000
  31
0.0
   0
LINE
   5
28F
 100
AcDbEntity
   8
LEVEL003
 100
AcDbLine
   6
CONTINUOUS
  62
3
  10
 101.99999821186
  20
 51.750000000000
  30
0.0
  11
 97.499998211861
  21
 52.500000000000
  31
0.0
   0
LINE
   5
290
 100
AcDbEntity
   8
LEVEL003
 100
AcDbLine
   6
CONTINUOUS
  62
3
  10
 97.499998211861
  20
 52.500000000000
  30
0.0
  11
 101.99999821186
  21
 53.250000000000
  31
0.0
   0
LINE
   5
291
 100
AcDbEntity
   8
LEVEL003
 100
AcDbLine
   6
CONTINUOUS
  62
3
  10
 97.499998211861
  20
 52.500000000000
  30
0.0
  11
 101.99999821186
  21
 52.500000000000
  31
0.0
   0
MTEXT
   5
292
 100
AcDbEntity
   8
LEVEL003
  62
3
 100
AcDbMText
  10
 162.00000000000
  20
 53.700000000000
  30
0.0
  40
 6.0000000000000
  41
0.0
  71
8
  72
1
   1
%%c\Ftxt.shx;120
   7
GMM002
   0
DIMENSION
   5
293
 100
AcDbEntity
   8
LEVEL003
   6
CONTINUOUS
  62
3
 100
AcDbDimension
   2
*D18
  10
 82.500004470349
  20
 135.00000000001
  30
0.0
  11
 157.50000234008
  21
 135.00000000001
  31
0.0
  70
128
   1
\A1;%%c150
   3
GMM011
 100
AcDbAlignedDimension
  13
 232.50000000000
  23
 135.00000000000
  33
0.0
  14
 82.500004470349
  24
 134.99998688658
  34
0.0
  50
 180.00000000000
 100
AcDbRotatedDimension
   0
DIMENSION
   5
295
 100
AcDbEntity
   8
LEVEL003
   6
CONTINUOUS
  62
3
 100
AcDbDimension
   2
*D19
  10
 216.26000443816
  20
 150.00000000000
  30
0.0
  11
 157.50000000000
  21
 150.00000000000
  31
0.0
  70
0
   1
\A1;%%c117.52
   3
GMM012
 100
AcDbAlignedDimension
  13
 98.739995561838
  23
 150.00000000000
  33
0.0
  14
 216.26000443816
  24
 150.00000000000
  34
0.0
 100
AcDbRotatedDimension
   0
DIMENSION
   5
297
 100
AcDbEntity
   8
LEVEL003
   6
CONTINUOUS
  62
3
 100
AcDbDimension
   2
*D20
  10
 112.50000491738
  20
 165.00000000000
  30
0.0
  11
 157.50000000000
  21
 165.00000000000
  31
0.0
  70
0
   1
\A1;%%c90
   3
GMM012
 100
AcDbAlignedDimension
  13
 202.49999508262
  23
 165.00000000000
  33
0.0
  14
 112.50000491738
  24
 165.00000000000
  34
0.0
  50
 180.00000000000
 100
AcDbRotatedDimension
   0
DIMENSION
   5
299
 100
AcDbEntity
   8
LEVEL003
   6
CONTINUOUS
  62
3
 100
AcDbDimension
   2
*D21
  10
 187.49999552965
  20
 180.00000000000
  30
0.0
  11
 157.50000000000
  21
 180.00000000000
  31
0.0
  70
0
   1
\A1;%%c60
   3
GMM012
 100
AcDbAlignedDimension
  13
 127.50000447035
  23
 180.00000000000
  33
0.0
  14
 187.49999552965
  24
 180.00000000000
  34
0.0
 100
AcDbRotatedDimension
   0
LINE
   5
29B
 100
AcDbEntity
   8
LEVEL001
 100
AcDbLine
   6
DASHDOT
  62
1
  10
 157.49999642372
  20
 332.49999816716
  30
0.0
  11
 157.49999642372
  21
 187.50000000000
  31
0.0
   0
LINE
   5
29C
 100
AcDbEntity
   8
LEVEL001
 100
AcDbLine
   6
DASHDOT
  62
1
  10
 157.49999642372
  20
 135.00000000000
  30
0.0
  11
 157.49999642372
  21
 82.499997988343
  31
0.0
   0
ARC
   5
29D
 100
AcDbEntity
   8
LEVEL001
   6
CONTINUOUS
  62
7
 100
AcDbCircle
  10
 157.50000357628
  20
 240.49999709427
  30
0.0
  40
 12.500003442168
 100
AcDbArc
  50
 270.00000000000
  51
 90.000000000000
   0
ARC
   5
29E
 100
AcDbEntity
   8
LEVEL001
   6
CONTINUOUS
  62
7
 100
AcDbCircle
  10
 157.50993863051
  20
 240.49999709427
  30
0.0
  40
 11.500000134110
 100
AcDbArc
  50
 269.95050115294
  51
 90.049498847055
   0
ARC
   5
29F
 100
AcDbEntity
   8
LEVEL001
   6
DASHDOT
  62
1
 100
AcDbCircle
  10
 157.50000085115
  20
 208.49998565019
  30
0.0
  40
 32.000000000000
 100
AcDbArc
  50
 269.99999512067
  51
 89.999995120669
   0
ARC
   5
2A0
 100
AcDbEntity
   8
LEVEL001
   6
CONTINUOUS
  62
7
 100
AcDbCircle
  10
 157.50001994180
  20
 208.49999610939
  30
0.0
  40
 27.500000134110
 100
AcDbArc
  50
 269.99994559138
  51
 67.328131012548
   0
ARC
   5
2A1
 100
AcDbEntity
   8
LEVEL001
   6
CONTINUOUS
  62
7
 100
AcDbCircle
  10
 157.50001687753
  20
 208.49999595538
  30
0.0
  40
 36.499999865890
 100
AcDbArc
  50
 269.99997776985
  51
 70.352828876648
   0
TEXT
   5
2A2
 100
AcDbEntity
   8
LEVEL003
  62
7
 100
AcDbText
  10
 449.62881094527
  20
 43.463747761195
  30
0.0
  40
 10.000000000000
   1
ＯＳＡＫＡ ＪＡＣＫ
   7
STANDARD
 100
AcDbText
   0
TEXT
   5
2A3
 100
AcDbEntity
   8
LEVEL003
  62
7
 100
AcDbText
  10
 452.53981094527
  20
 60.357147761195
  30
0.0
  40
 6.0000000000000
   1
Model : ＥＣ５０Ｓ７
   7
STANDARD
 100
AcDbText
   0
CIRCLE
   5
2A4
 100
AcDbEntity
   8
LEVEL003
 100
AcDbCircle
   6
CONTINUOUS
  62
7
  10
 431.39510048083
  20
 50.600948430301
  30
0.0
  40
 3.0000000000000
   0
LINE
   5
2A5
 100
AcDbEntity
   8
LEVEL003
 100
AcDbLine
   6
CONTINUOUS
  62
7
  10
 437.28310048083
  20
 53.600948430301
  30
0.0
  11
 433.47410048083
  21
 47.000948430301
  31
0.0
   0
LINE
   5
2A6
 100
AcDbEntity
   8
LEVEL003
 100
AcDbLine
   6
CONTINUOUS
  62
7
  10
 433.47410048083
  20
 47.000948430301
  30
0.0
  11
 425.85310048083
  21
 47.000948430301
  31
0.0
   0
LINE
   5
2A7
 100
AcDbEntity
   8
LEVEL003
 100
AcDbLine
   6
CONTINUOUS
  62
7
  10
 424.98610048083
  20
 45.500948430301
  30
0.0
  11
 438.60710048083
  21
 45.500948430301
  31
0.0
   0
LINE
   5
2A8
 100
AcDbEntity
   8
LEVEL003
 100
AcDbLine
   6
CONTINUOUS
  62
7
  10
 438.60710048083
  20
 45.500948430301
  30
0.0
  11
 443.28310048083
  21
 53.600948430301
  31
0.0
   0
LINE
   5
2A9
 100
AcDbEntity
   8
LEVEL003
 100
AcDbLine
   6
CONTINUOUS
  62
7
  10
 443.28310048083
  20
 53.600948430301
  30
0.0
  11
 437.28310048083
  21
 53.600948430301
  31
0.0
   0
LINE
   5
2AA
 100
AcDbEntity
   8
LEVEL003
 100
AcDbLine
   6
CONTINUOUS
  62
7
  10
 425.85310048083
  20
 47.000948430301
  30
0.0
  11
 424.98610048083
  21
 45.500948430301
  31
0.0
   0
ENDSEC
  0
SECTION
  2
OBJECTS
  0
DICTIONARY
  5
C
100
AcDbDictionary
  3
ACAD_GROUP
350
D
  3
ACAD_MLINESTYLE
350
1B
  0
DICTIONARY
  5
D
102
{ACAD_REACTORS
330
C
102
}
100
AcDbDictionary
  0
DICTIONARY
  5
1B
102
{ACAD_REACTORS
330
C
102
}
100
AcDbDictionary
  3
STANDARD
350
1C
  0
MLINESTYLE
  5
1C
102
{ACAD_REACTORS
330
1B
102
}
100
AcDbMlineStyle
  2
STANDARD
 70
     0
  3

 62
   256
 51
90.0
 52
90.0
 71
     2
 49
0.5
 62
   256
  6
BYLAYER
 49
-0.5
 62
   256
  6
BYLAYER
  0
ENDSEC
   0
EOF
