   0
SECTION
   2
HEADER
   9
$ACADVER
   1
AC1014
   9
$LIMMIN
  10
0.0
  20
0.0
   9
$LIMMAX
  10
 630.00000000000
  20
 446.00000000000
   9
$EXTMIN
  10
0.0
  20
0.0
  30
0.0
   9
$EXTMAX
  10
 630.00000000000
  20
 446.00000000000
  30
0.0
   9
$LTSCALE
  40
 12.600000000000
   9
$HANDSEED
   5
2BA
   0
ENDSEC
   0
SECTION
   2
TABLES
  0
TABLE
  2
VPORT
  5
8
100
AcDbSymbolTable
 70
     1
  0
VPORT
  5
2B9
100
AcDbSymbolTableRecord
100
AcDbViewportTableRecord
  2
*ACTIVE
 70
     0
 10
0.0
 20
0.0
 11
1.0
 21
1.0
  12
 315.00000000000
  22
 223.00000000000
 13
0.0
 23
0.0
 14
1.0
 24
1.0
 15
0.0
 25
0.0
 16
0.0
 26
0.0
 36
1.0
 17
0.0
 27
0.0
 37
0.0
  40
 630.00000000000
  41
 1.4787878787879
 42
50.0
 43
0.0
 44
0.0
 50
0.0
 51
0.0
 71
     0
 72
   100
 73
     1
 74
     1
 75
     0
 76
     0
 77
     0
 78
     0
  0
ENDTAB
  0
TABLE
  2
LTYPE
  5
5
100
AcDbSymbolTable
 70
    25
  0
LTYPE
  5
12
100
AcDbSymbolTableRecord
100
AcDbLinetypeTableRecord
  2
BYBLOCK
 70
     0
  3

 72
    65
 73
     0
 40
0.0
  0
LTYPE
  5
13
100
AcDbSymbolTableRecord
100
AcDbLinetypeTableRecord
  2
BYLAYER
 70
     0
  3

 72
    65
 73
     0
 40
0.0
  0
LTYPE
  5
14
100
AcDbSymbolTableRecord
100
AcDbLinetypeTableRecord
  2
CONTINUOUS
 70
     0
  3
Solid line
 72
    65
 73
     0
 40
0.0
  0
LTYPE
  5
20
100
AcDbSymbolTableRecord
100
AcDbLinetypeTableRecord
  2
BORDER
 70
     0
  3
__ __ . __ __ . __ __ . __ __ . __ __ . __ __ .
 72
    65
 73
     6
 40
1.75
 49
0.5
 74
     0
 49
-0.25
 74
     0
 49
0.5
 74
     0
 49
-0.25
 74
     0
 49
0.0
 74
     0
 49
-0.25
 74
     0
  0
LTYPE
  5
21
100
AcDbSymbolTableRecord
100
AcDbLinetypeTableRecord
  2
BORDER2
 70
     0
  3
__.__.__.__.__.__.__.__.__.__.__.__.__.__.__.__
 72
    65
 73
     6
 40
0.875
 49
0.25
 74
     0
 49
-0.125
 74
     0
 49
0.25
 74
     0
 49
-0.125
 74
     0
 49
0.0
 74
     0
 49
-0.125
 74
     0
  0
LTYPE
  5
22
100
AcDbSymbolTableRecord
100
AcDbLinetypeTableRecord
  2
BORDERX2
 70
     0
  3
____  ____  .  ____  ____  .  ____  ____  .  __
 72
    65
 73
     6
 40
3.5
 49
1.0
 74
     0
 49
-0.5
 74
     0
 49
1.0
 74
     0
 49
-0.5
 74
     0
 49
0.0
 74
     0
 49
-0.5
 74
     0
  0
LTYPE
  5
23
100
AcDbSymbolTableRecord
100
AcDbLinetypeTableRecord
  2
CENTER
 70
     0
  3
____ _ ____ _ ____ _ ____ _ ____ _ ____ _ ____ 
 72
    65
 73
     4
 40
2.0
 49
1.25
 74
     0
 49
-0.25
 74
     0
 49
0.25
 74
     0
 49
-0.25
 74
     0
  0
LTYPE
  5
24
100
AcDbSymbolTableRecord
100
AcDbLinetypeTableRecord
  2
CENTER2
 70
     0
  3
___ _ ___ _ ___ _ ___ _ ___ _ ___ _ ___ _ ___ _
 72
    65
 73
     4
 40
1.125
 49
0.75
 74
     0
 49
-0.125
 74
     0
 49
0.125
 74
     0
 49
-0.125
 74
     0
  0
LTYPE
  5
25
100
AcDbSymbolTableRecord
100
AcDbLinetypeTableRecord
  2
CENTERX2
 70
     0
  3
________  __  ________  __  ________  __  _____
 72
    65
 73
     4
 40
4.0
 49
2.5
 74
     0
 49
-0.5
 74
     0
 49
0.5
 74
     0
 49
-0.5
 74
     0
  0
LTYPE
  5
26
100
AcDbSymbolTableRecord
100
AcDbLinetypeTableRecord
  2
DASHDOT
 70
     0
  3
__ . __ . __ . __ . __ . __ . __ . __ . __ . __
 72
    65
 73
     4
 40
1.0
 49
0.5
 74
     0
 49
-0.25
 74
     0
 49
0.0
 74
     0
 49
-0.25
 74
     0
  0
LTYPE
  5
27
100
AcDbSymbolTableRecord
100
AcDbLinetypeTableRecord
  2
DASHDOT2
 70
     0
  3
_._._._._._._._._._._._._._._._._._._._._._._._
 72
    65
 73
     4
 40
0.5
 49
0.25
 74
     0
 49
-0.125
 74
     0
 49
0.0
 74
     0
 49
-0.125
 74
     0
  0
LTYPE
  5
28
100
AcDbSymbolTableRecord
100
AcDbLinetypeTableRecord
  2
DASHDOTX2
 70
     0
  3
____  .  ____  .  ____  .  ____  .  ____  .  __
 72
    65
 73
     4
 40
2.0
 49
1.0
 74
     0
 49
-0.5
 74
     0
 49
0.0
 74
     0
 49
-0.5
 74
     0
  0
LTYPE
  5
29
100
AcDbSymbolTableRecord
100
AcDbLinetypeTableRecord
  2
DASHED
 70
     0
  3
__ __ __ __ __ __ __ __ __ __ __ __ __ __ __ __
 72
    65
 73
     2
 40
0.75
 49
0.5
 74
     0
 49
-0.25
 74
     0
  0
LTYPE
  5
2A
100
AcDbSymbolTableRecord
100
AcDbLinetypeTableRecord
  2
DASHED2
 70
     0
  3
_ _ _ _ _ _ _ _ _ _ _ _ _ _ _ _ _ _ _ _ _ _ _ _
 72
    65
 73
     2
 40
0.375
 49
0.25
 74
     0
 49
-0.125
 74
     0
  0
LTYPE
  5
2B
100
AcDbSymbolTableRecord
100
AcDbLinetypeTableRecord
  2
DASHEDX2
 70
     0
  3
____  ____  ____  ____  ____  ____  ____  ____ 
 72
    65
 73
     2
 40
1.5
 49
1.0
 74
     0
 49
-0.5
 74
     0
  0
LTYPE
  5
2C
100
AcDbSymbolTableRecord
100
AcDbLinetypeTableRecord
  2
DIVIDE
 70
     0
  3
____ . . ____ . . ____ . . ____ . . ____ . . __
 72
    65
 73
     6
 40
1.25
 49
0.5
 74
     0
 49
-0.25
 74
     0
 49
0.0
 74
     0
 49
-0.25
 74
     0
 49
0.0
 74
     0
 49
-0.25
 74
     0
  0
LTYPE
  5
2D
100
AcDbSymbolTableRecord
100
AcDbLinetypeTableRecord
  2
DIVIDE2
 70
     0
  3
__..__..__..__..__..__..__..__..__..__..__..__.
 72
    65
 73
     6
 40
0.625
 49
0.25
 74
     0
 49
-0.125
 74
     0
 49
0.0
 74
     0
 49
-0.125
 74
     0
 49
0.0
 74
     0
 49
-0.125
 74
     0
  0
LTYPE
  5
2E
100
AcDbSymbolTableRecord
100
AcDbLinetypeTableRecord
  2
DIVIDEX2
 70
     0
  3
________  .  .  ________  .  .  ________  .  . 
 72
    65
 73
     6
 40
2.5
 49
1.0
 74
     0
 49
-0.5
 74
     0
 49
0.0
 74
     0
 49
-0.5
 74
     0
 49
0.0
 74
     0
 49
-0.5
 74
     0
  0
LTYPE
  5
2F
100
AcDbSymbolTableRecord
100
AcDbLinetypeTableRecord
  2
DOT
 70
     0
  3
. . . . . . . . . . . . . . . . . . . . . . . .
 72
    65
 73
     2
 40
0.25
 49
0.0
 74
     0
 49
-0.25
 74
     0
  0
LTYPE
  5
30
100
AcDbSymbolTableRecord
100
AcDbLinetypeTableRecord
  2
DOT2
 70
     0
  3
...............................................
 72
    65
 73
     2
 40
0.125
 49
0.0
 74
     0
 49
-0.125
 74
     0
  0
LTYPE
  5
31
100
AcDbSymbolTableRecord
100
AcDbLinetypeTableRecord
  2
DOTX2
 70
     0
  3
.  .  .  .  .  .  .  .  .  .  .  .  .  .  .  . 
 72
    65
 73
     2
 40
0.5
 49
0.0
 74
     0
 49
-0.5
 74
     0
  0
LTYPE
  5
32
100
AcDbSymbolTableRecord
100
AcDbLinetypeTableRecord
  2
HIDDEN
 70
     0
  3
__ __ __ __ __ __ __ __ __ __ __ __ __ __ __ __
 72
    65
 73
     2
 40
0.375
 49
0.25
 74
     0
 49
-0.125
 74
     0
  0
LTYPE
  5
33
100
AcDbSymbolTableRecord
100
AcDbLinetypeTableRecord
  2
HIDDEN2
 70
     0
  3
_ _ _ _ _ _ _ _ _ _ _ _ _ _ _ _ _ _ _ _ _ _ _ _
 72
    65
 73
     2
 40
0.1875
 49
0.125
 74
     0
 49
-0.0625
 74
     0
  0
LTYPE
  5
34
100
AcDbSymbolTableRecord
100
AcDbLinetypeTableRecord
  2
HIDDENX2
 70
     0
  3
____ ____ ____ ____ ____ ____ ____ ____ ____ __
 72
    65
 73
     2
 40
0.75
 49
0.5
 74
     0
 49
-0.25
 74
     0
  0
LTYPE
  5
35
100
AcDbSymbolTableRecord
100
AcDbLinetypeTableRecord
  2
PHANTOM
 70
     0
  3
______  __  __  ______  __  __  ______  __  __ 
 72
    65
 73
     6
 40
2.5
 49
1.25
 74
     0
 49
-0.25
 74
     0
 49
0.25
 74
     0
 49
-0.25
 74
     0
 49
0.25
 74
     0
 49
-0.25
 74
     0
  0
LTYPE
  5
36
100
AcDbSymbolTableRecord
100
AcDbLinetypeTableRecord
  2
PHANTOM2
 70
     0
  3
___ _ _ ___ _ _ ___ _ _ ___ _ _ ___ _ _ ___ _ _
 72
    65
 73
     6
 40
1.25
 49
0.625
 74
     0
 49
-0.125
 74
     0
 49
0.125
 74
     0
 49
-0.125
 74
     0
 49
0.125
 74
     0
 49
-0.125
 74
     0
  0
LTYPE
  5
37
100
AcDbSymbolTableRecord
100
AcDbLinetypeTableRecord
  2
PHANTOMX2
 70
     0
  3
____________    ____    ____    ____________   
 72
    65
 73
     6
 40
5.0
 49
2.5
 74
     0
 49
-0.5
 74
     0
 49
0.5
 74
     0
 49
-0.5
 74
     0
 49
0.5
 74
     0
 49
-0.5
 74
     0
  0
ENDTAB
   0
TABLE
   2
LAYER
   5
2
 100
AcDbSymbolTable
  70
6
   0
LAYER
   5
E
 100
AcDbSymbolTableRecord
 100
AcDbLayerTableRecord
   2
0
  70
0
  62
7
   6
CONTINUOUS
   0
LAYER
   5
39
 100
AcDbSymbolTableRecord
 100
AcDbLayerTableRecord
   2
LEVEL001
  70
0
  62
7
   6
CONTINUOUS
   0
LAYER
   5
3A
 100
AcDbSymbolTableRecord
 100
AcDbLayerTableRecord
   2
LEVEL003
  70
0
  62
7
   6
CONTINUOUS
   0
LAYER
   5
3B
 100
AcDbSymbolTableRecord
 100
AcDbLayerTableRecord
   2
LEVEL020
  70
0
  62
7
   6
CONTINUOUS
   0
LAYER
   5
3C
 100
AcDbSymbolTableRecord
 100
AcDbLayerTableRecord
   2
LEVEL050
  70
0
  62
7
   6
CONTINUOUS
   0
LAYER
   5
3D
 100
AcDbSymbolTableRecord
 100
AcDbLayerTableRecord
   2
LEVEL110
  70
0
  62
7
   6
CONTINUOUS
   0
ENDTAB
  0
TABLE
  2
STYLE
  5
3
100
AcDbSymbolTable
  70
4
  0
STYLE
  5
F
100
AcDbSymbolTableRecord
100
AcDbTextStyleTableRecord
  2
STANDARD
 70
     0
 40
0.0
 41
1.0
 50
0.0
 71
     0
 42
0.2
  3
TXT
  4
BIGFONT
  0
STYLE
  5
38
100
AcDbSymbolTableRecord
100
AcDbTextStyleTableRecord
  2
STANDARD1
 70
     4
 40
0.0
 41
1.0
 50
0.0
 71
     0
 42
0.2
  3
TXT
  4
BIGFONT
   0
STYLE
   5
3E
 100
AcDbSymbolTableRecord
 100
AcDbTextStyleTableRecord
   2
GMM001
  70
0
  40
0.0
  41
 1.0000000000000
  50
0.0
  71
     0
  42
1.0
   3
txt.shx
   4
bigfont.shx
   0
STYLE
   5
3F
 100
AcDbSymbolTableRecord
 100
AcDbTextStyleTableRecord
   2
GMM002
  70
0
  40
0.0
  41
 1.0000000000000
  50
0.0
  71
     0
  42
1.0
   3

   4

1001
ACAD
1000
ＭＳ ゴシック
1071
32817
   0
ENDTAB
  0
TABLE
  2
VIEW
  5
6
100
AcDbSymbolTable
 70
     0
  0
ENDTAB
  0
TABLE
  2
UCS
  5
7
100
AcDbSymbolTable
 70
     0
  0
ENDTAB
  0
TABLE
  2
APPID
  5
9
100
AcDbSymbolTable
 70
     1
  0
APPID
  5
10
100
AcDbSymbolTableRecord
100
AcDbRegAppTableRecord
  2
ACAD
 70
     0
  0
ENDTAB
   0
TABLE
   2
DIMSTYLE
   5
A
 100
AcDbSymbolTable
  70
12
  0
DIMSTYLE
105
1D
100
AcDbSymbolTableRecord
100
AcDbDimStyleTableRecord
  2
STANDARD
 70
     0
  3

  4

  5

  6

  7

 40
1.0
 41
0.18
 42
0.0625
 43
0.38
 44
0.18
 45
0.0
 46
0.0
 47
0.0
 48
0.0
140
0.18
141
0.09
142
0.0
143
25.4
144
1.0
145
0.0
146
1.0
147
0.09
 71
     0
 72
     0
 73
     1
 74
     1
 75
     0
 76
     0
 77
     0
 78
     0
170
     0
171
     2
172
     0
173
     0
174
     0
175
     0
176
     0
177
     0
178
     0
270
     2
271
     4
272
     4
273
     2
274
     2
340
F
275
     0
280
     0
281
     0
282
     0
283
     1
284
     0
285
     0
286
     0
287
     3
288
     0
   0
DIMSTYLE
 105
40
 100
AcDbSymbolTableRecord
 100
AcDbDimStyleTableRecord
   2
GMM001
  70
0
   3

   4

   5

   6
_OPEN
   7
_OPEN
  40
 1.0000000000000
  41
 4.5000000000000
  42
 1.5000000000000
  43
 0.10000000000000E-5
  44
 3.0000000000000
  45
0.0
  46
0.0
  47
0.0
  48
0.0
 140
 6.0000000000000
 141
 1.5000000000000
 142
0.0
 143
 0.39400000000000E-1
 144
 1.0000000000000
 145
0.0
 146
 0.62500000000000
 147
0.0
  71
0
  72
0
  73
0
  74
0
  75
0
  76
0
  77
1
  78
0
 170
0
 171
2
 172
1
 173
1
 174
0
 175
0
 176
3
 177
3
 178
7
 270
2
 271
0
 272
0
 273
2
 274
2
 340
F
 275
1
 280
0
 281
0
 282
0
 283
1
 284
0
 285
0
 286
0
 287
3
 288
1
   0
DIMSTYLE
 105
41
 100
AcDbSymbolTableRecord
 100
AcDbDimStyleTableRecord
   2
GMM002
  70
0
   3

   4

   5

   6
_OPEN
   7
_OPEN
  40
 1.0000000000000
  41
 4.5000000000000
  42
 1.5000000000000
  43
 0.10000000000000E-5
  44
 3.0000000000000
  45
0.0
  46
0.0
  47
0.0
  48
0.0
 140
 6.0000000000000
 141
 1.5000000000000
 142
0.0
 143
 0.39400000000000E-1
 144
 1.0000000000000
 145
0.0
 146
 0.62500000000000
 147
0.0
  71
0
  72
0
  73
0
  74
0
  75
0
  76
0
  77
0
  78
0
 170
0
 171
2
 172
1
 173
1
 174
0
 175
0
 176
3
 177
3
 178
7
 270
2
 271
0
 272
0
 273
2
 274
2
 340
F
 275
1
 280
0
 281
0
 282
0
 283
1
 284
0
 285
0
 286
0
 287
3
 288
1
   0
DIMSTYLE
 105
42
 100
AcDbSymbolTableRecord
 100
AcDbDimStyleTableRecord
   2
GMM003
  70
0
   3

   4

   5

   6
_OPEN
   7
_OPEN
  40
 1.0000000000000
  41
 4.5000000000000
  42
 1.5000000000000
  43
 0.10000000000000E-5
  44
 3.0000000000000
  45
0.0
  46
0.0
  47
0.0
  48
0.0
 140
 6.0000000000000
 141
 1.5000000000000
 142
0.0
 143
 0.39400000000000E-1
 144
 1.0000000000000
 145
0.0
 146
 0.62500000000000
 147
 1.1999816536909
  71
0
  72
0
  73
0
  74
0
  75
0
  76
0
  77
3
  78
0
 170
0
 171
2
 172
1
 173
1
 174
0
 175
0
 176
3
 177
3
 178
3
 270
2
 271
0
 272
0
 273
2
 274
2
 340
3E
 275
1
 280
0
 281
0
 282
0
 283
1
 284
0
 285
0
 286
0
 287
3
 288
1
   0
DIMSTYLE
 105
43
 100
AcDbSymbolTableRecord
 100
AcDbDimStyleTableRecord
   2
GMM004
  70
0
   3

   4

   5

   6
_OPEN
   7
_OPEN
  40
 1.0000000000000
  41
 4.5000000000000
  42
 1.5000000000000
  43
 0.10000000000000E-5
  44
 3.0000000000000
  45
0.0
  46
0.0
  47
0.0
  48
0.0
 140
 6.0000000000000
 141
 1.5000000000000
 142
0.0
 143
 0.39400000000000E-1
 144
 1.0000000000000
 145
0.0
 146
 0.62500000000000
 147
 1.1999816536909
  71
0
  72
0
  73
0
  74
0
  75
1
  76
0
  77
3
  78
0
 170
0
 171
2
 172
1
 173
1
 174
0
 175
0
 176
3
 177
3
 178
3
 270
2
 271
0
 272
0
 273
2
 274
2
 340
3E
 275
1
 280
0
 281
0
 282
0
 283
1
 284
0
 285
0
 286
0
 287
3
 288
1
   0
DIMSTYLE
 105
44
 100
AcDbSymbolTableRecord
 100
AcDbDimStyleTableRecord
   2
GMM005
  70
0
   3

   4

   5

   6
_OPEN
   7
_OPEN
  40
 1.0000000000000
  41
 4.5000000000000
  42
 1.5000000000000
  43
 0.10000000000000E-5
  44
 3.0000000000000
  45
0.0
  46
0.0
  47
0.0
  48
0.0
 140
 6.0000000000000
 141
 1.5000000000000
 142
0.0
 143
 0.39400000000000E-1
 144
 1.0000000000000
 145
0.0
 146
 0.62500000000000
 147
 1.1999816536909
  71
0
  72
0
  73
0
  74
0
  75
0
  76
0
  77
3
  78
0
 170
0
 171
2
 172
1
 173
1
 174
0
 175
0
 176
3
 177
3
 178
3
 270
2
 271
0
 272
0
 273
2
 274
2
 340
3E
 275
1
 280
0
 281
0
 282
0
 283
1
 284
0
 285
0
 286
0
 287
3
 288
1
   0
DIMSTYLE
 105
45
 100
AcDbSymbolTableRecord
 100
AcDbDimStyleTableRecord
   2
GMM006
  70
0
   3

   4

   5

   6
_OPEN
   7
_OPEN
  40
 1.0000000000000
  41
 4.5000000000000
  42
 1.5000000000000
  43
 0.10000000000000E-5
  44
 3.0000000000000
  45
0.0
  46
0.0
  47
0.0
  48
0.0
 140
 6.0000000000000
 141
 1.5000000000000
 142
0.0
 143
 0.39400000000000E-1
 144
 1.0000000000000
 145
0.0
 146
 0.62500000000000
 147
 1.2000045418738
  71
0
  72
0
  73
0
  74
0
  75
0
  76
0
  77
3
  78
0
 170
0
 171
2
 172
1
 173
1
 174
0
 175
0
 176
3
 177
3
 178
3
 270
2
 271
0
 272
0
 273
2
 274
2
 340
3E
 275
1
 280
0
 281
0
 282
0
 283
1
 284
0
 285
0
 286
0
 287
3
 288
1
   0
DIMSTYLE
 105
46
 100
AcDbSymbolTableRecord
 100
AcDbDimStyleTableRecord
   2
GMM007
  70
0
   3

   4

   5

   6
_OPEN
   7
_OPEN
  40
 1.0000000000000
  41
 4.5000000000000
  42
 1.5000000000000
  43
 12.000000000000
  44
 3.0000000000000
  45
0.0
  46
0.0
  47
0.0
  48
0.0
 140
 6.0000000000000
 141
 1.5000000000000
 142
0.0
 143
 0.39400000000000E-1
 144
 1.0000000000000
 145
0.0
 146
 0.62500000000000
 147
0.0
  71
0
  72
0
  73
0
  74
0
  75
0
  76
0
  77
1
  78
8
 170
0
 171
2
 172
1
 173
1
 174
0
 175
0
 176
3
 177
3
 178
7
 270
2
 271
2
 272
0
 273
2
 274
2
 340
F
 275
0
 280
0
 281
0
 282
0
 283
1
 284
0
 285
0
 286
0
 287
3
 288
1
   0
DIMSTYLE
 105
47
 100
AcDbSymbolTableRecord
 100
AcDbDimStyleTableRecord
   2
GMM008
  70
0
   3

   4

   5

   6
_OPEN
   7
_OPEN
  40
 1.0000000000000
  41
 4.5000000000000
  42
 1.5000000000000
  43
 0.10000000000000E-5
  44
 3.0000000000000
  45
0.0
  46
0.0
  47
0.0
  48
0.0
 140
 6.0000000000000
 141
 1.5000000000000
 142
0.0
 143
 0.39400000000000E-1
 144
 1.0000000000000
 145
0.0
 146
 0.62500000000000
 147
 1.2000045418738
  71
0
  72
0
  73
0
  74
0
  75
1
  76
1
  77
3
  78
0
 170
0
 171
2
 172
1
 173
1
 174
0
 175
0
 176
3
 177
3
 178
3
 270
2
 271
0
 272
0
 273
2
 274
2
 340
3E
 275
1
 280
0
 281
0
 282
0
 283
1
 284
0
 285
0
 286
0
 287
3
 288
1
   0
DIMSTYLE
 105
48
 100
AcDbSymbolTableRecord
 100
AcDbDimStyleTableRecord
   2
GMM009
  70
0
   3

   4

   5

   6
_OPEN
   7
_OPEN
  40
 1.0000000000000
  41
 4.5000000000000
  42
 1.5000000000000
  43
 12.000000000000
  44
 3.0000000000000
  45
0.0
  46
0.0
  47
0.0
  48
0.0
 140
 6.0000000000000
 141
 1.5000000000000
 142
0.0
 143
 0.39400000000000E-1
 144
 1.0000000000000
 145
0.0
 146
 0.62500000000000
 147
 1.2000000000000
  71
0
  72
0
  73
0
  74
0
  75
1
  76
1
  77
3
  78
8
 170
0
 171
2
 172
1
 173
1
 174
0
 175
0
 176
3
 177
3
 178
3
 270
2
 271
2
 272
0
 273
2
 274
2
 340
3E
 275
0
 280
0
 281
0
 282
0
 283
1
 284
0
 285
0
 286
0
 287
3
 288
0
   0
DIMSTYLE
 105
49
 100
AcDbSymbolTableRecord
 100
AcDbDimStyleTableRecord
   2
GMM010
  70
0
   3

   4

   5

   6
_OPEN
   7
_OPEN
  40
 1.0000000000000
  41
 4.5000000000000
  42
 1.5000000000000
  43
 12.000000000000
  44
 3.0000000000000
  45
0.0
  46
0.0
  47
0.0
  48
0.0
 140
 6.0000000000000
 141
 1.5000000000000
 142
0.0
 143
 0.39400000000000E-1
 144
 1.0000000000000
 145
0.0
 146
 0.62500000000000
 147
 1.2000000000000
  71
0
  72
0
  73
0
  74
0
  75
0
  76
0
  77
3
  78
8
 170
0
 171
2
 172
1
 173
1
 174
0
 175
0
 176
3
 177
3
 178
3
 270
2
 271
2
 272
0
 273
2
 274
2
 340
3E
 275
0
 280
0
 281
0
 282
0
 283
1
 284
0
 285
0
 286
0
 287
3
 288
0
   0
ENDTAB
  0
TABLE
  2
BLOCK_RECORD
  5
1
100
AcDbSymbolTable
 70
     0
  0
BLOCK_RECORD
  5
18
100
AcDbSymbolTableRecord
100
AcDbBlockTableRecord
  2
*MODEL_SPACE
  0
BLOCK_RECORD
  5
15
100
AcDbSymbolTableRecord
100
AcDbBlockTableRecord
  2
*PAPER_SPACE
   0
BLOCK_RECORD
   5
4A
 100
AcDbSymbolTableRecord
 100
AcDbBlockTableRecord
   2
*D6
   0
BLOCK_RECORD
   5
4B
 100
AcDbSymbolTableRecord
 100
AcDbBlockTableRecord
   2
*D7
   0
BLOCK_RECORD
   5
4C
 100
AcDbSymbolTableRecord
 100
AcDbBlockTableRecord
   2
*D8
   0
BLOCK_RECORD
   5
4D
 100
AcDbSymbolTableRecord
 100
AcDbBlockTableRecord
   2
*D9
   0
BLOCK_RECORD
   5
4E
 100
AcDbSymbolTableRecord
 100
AcDbBlockTableRecord
   2
*D10
   0
BLOCK_RECORD
   5
4F
 100
AcDbSymbolTableRecord
 100
AcDbBlockTableRecord
   2
*D11
   0
BLOCK_RECORD
   5
50
 100
AcDbSymbolTableRecord
 100
AcDbBlockTableRecord
   2
*D12
   0
BLOCK_RECORD
   5
51
 100
AcDbSymbolTableRecord
 100
AcDbBlockTableRecord
   2
*D13
   0
BLOCK_RECORD
   5
52
 100
AcDbSymbolTableRecord
 100
AcDbBlockTableRecord
   2
*D14
   0
BLOCK_RECORD
   5
53
 100
AcDbSymbolTableRecord
 100
AcDbBlockTableRecord
   2
*D16
   0
BLOCK_RECORD
   5
54
 100
AcDbSymbolTableRecord
 100
AcDbBlockTableRecord
   2
*D17
   0
BLOCK_RECORD
   5
55
 100
AcDbSymbolTableRecord
 100
AcDbBlockTableRecord
   2
*D18
   0
BLOCK_RECORD
   5
56
 100
AcDbSymbolTableRecord
 100
AcDbBlockTableRecord
   2
*D19
   0
BLOCK_RECORD
   5
57
 100
AcDbSymbolTableRecord
 100
AcDbBlockTableRecord
   2
*D20
   0
BLOCK_RECORD
   5
58
 100
AcDbSymbolTableRecord
 100
AcDbBlockTableRecord
   2
*D21
   0
BLOCK_RECORD
   5
59
 100
AcDbSymbolTableRecord
 100
AcDbBlockTableRecord
   2
_ARCHTICK
   0
BLOCK_RECORD
   5
5A
 100
AcDbSymbolTableRecord
 100
AcDbBlockTableRecord
   2
_BOXBLANK
   0
BLOCK_RECORD
   5
5B
 100
AcDbSymbolTableRecord
 100
AcDbBlockTableRecord
   2
_BOXFILLED
   0
BLOCK_RECORD
   5
5C
 100
AcDbSymbolTableRecord
 100
AcDbBlockTableRecord
   2
_CLOSED
   0
BLOCK_RECORD
   5
5D
 100
AcDbSymbolTableRecord
 100
AcDbBlockTableRecord
   2
_CLOSEDBLANK
   0
BLOCK_RECORD
   5
5E
 100
AcDbSymbolTableRecord
 100
AcDbBlockTableRecord
   2
_DATUMBLANK
   0
BLOCK_RECORD
   5
5F
 100
AcDbSymbolTableRecord
 100
AcDbBlockTableRecord
   2
_DATUMFILLED
   0
BLOCK_RECORD
   5
60
 100
AcDbSymbolTableRecord
 100
AcDbBlockTableRecord
   2
_DOT
   0
BLOCK_RECORD
   5
61
 100
AcDbSymbolTableRecord
 100
AcDbBlockTableRecord
   2
_DOTBLANK
   0
BLOCK_RECORD
   5
62
 100
AcDbSymbolTableRecord
 100
AcDbBlockTableRecord
   2
_DOTSMALL
   0
BLOCK_RECORD
   5
63
 100
AcDbSymbolTableRecord
 100
AcDbBlockTableRecord
   2
_INTEGRAL
   0
BLOCK_RECORD
   5
64
 100
AcDbSymbolTableRecord
 100
AcDbBlockTableRecord
   2
_NONE
   0
BLOCK_RECORD
   5
65
 100
AcDbSymbolTableRecord
 100
AcDbBlockTableRecord
   2
_OBLIQUE
   0
BLOCK_RECORD
   5
66
 100
AcDbSymbolTableRecord
 100
AcDbBlockTableRecord
   2
_OPEN
   0
BLOCK_RECORD
   5
67
 100
AcDbSymbolTableRecord
 100
AcDbBlockTableRecord
   2
_OPEN30
   0
BLOCK_RECORD
   5
68
 100
AcDbSymbolTableRecord
 100
AcDbBlockTableRecord
   2
_OPEN90
   0
BLOCK_RECORD
   5
69
 100
AcDbSymbolTableRecord
 100
AcDbBlockTableRecord
   2
_ORIGIN
   0
ENDTAB
   0
ENDSEC
  0
SECTION
  2
BLOCKS
  0
BLOCK
  5
19
100
AcDbEntity
  8
0
100
AcDbBlockBegin
  2
*MODEL_SPACE
 70
     0
 10
0.0
 20
0.0
 30
0.0
  3
*MODEL_SPACE
  1

  0
ENDBLK
  5
1A
100
AcDbEntity
  8
0
100
AcDbBlockEnd
  0
BLOCK
  5
16
100
AcDbEntity
 67
     1
  8
0
100
AcDbBlockBegin
  2
*PAPER_SPACE
 70
     0
 10
0.0
 20
0.0
 30
0.0
  3
*PAPER_SPACE
  1

  0
ENDBLK
  5
17
100
AcDbEntity
 67
     1
  8
0
100
AcDbBlockEnd
   0
BLOCK
   5
6A
 100
AcDbEntity
   8
0
 100
AcDbBlockBegin
   2
_ARCHTICK
  70
0
  10
0.0
  20
0.0
  30
0.0
   3
_ARCHTICK
   0
POLYLINE
   5
6B
 100
AcDbEntity
   8
0
   6
BYBLOCK
  62
0
 100
AcDb2dPolyline
  66
1
  10
0.0
  20
0.0
  30
0.0
  70
1
  40
 0.15000000000000
  41
 0.15000000000000
   0
VERTEX
   5
6C
 100
AcDbEntity
   8
0
   6
BYBLOCK
  62
0
 100
AcDbVertex
 100
AcDb2dVertex
  10
-0.50000000000000
  20
-0.50000000000000
  30
0.0
  40
 0.15000000000000
  41
 0.15000000000000
   0
VERTEX
   5
6D
 100
AcDbEntity
   8
0
   6
BYBLOCK
  62
0
 100
AcDbVertex
 100
AcDb2dVertex
  10
 0.50000000000000
  20
 0.50000000000000
  30
0.0
  40
 0.15000000000000
  41
 0.15000000000000
   0
SEQEND
   5
6E
 100
AcDbEntity
   8
0
   6
BYBLOCK
  62
0
   0
ENDBLK
   5
6F
 100
AcDbEntity
   8
0
 100
AcDbBlockEnd
   0
BLOCK
   5
70
 100
AcDbEntity
   8
0
 100
AcDbBlockBegin
   2
_OBLIQUE
  70
0
  10
0.0
  20
0.0
  30
0.0
   3
_OBLIQUE
   0
LINE
   5
71
 100
AcDbEntity
   8
0
 100
AcDbLine
   6
BYBLOCK
  62
0
  10
-0.50000000000000
  20
-0.50000000000000
  30
0.0
  11
 0.50000000000000
  21
 0.50000000000000
  31
0.0
   0
ENDBLK
   5
72
 100
AcDbEntity
   8
0
 100
AcDbBlockEnd
   0
BLOCK
   5
73
 100
AcDbEntity
   8
0
 100
AcDbBlockBegin
   2
_BOXBLANK
  70
0
  10
0.0
  20
0.0
  30
0.0
   3
_BOXBLANK
   0
LINE
   5
74
 100
AcDbEntity
   8
0
 100
AcDbLine
   6
BYBLOCK
  62
0
  10
-0.50000000000000
  20
-0.50000000000000
  30
0.0
  11
 0.50000000000000
  21
-0.50000000000000
  31
0.0
   0
LINE
   5
75
 100
AcDbEntity
   8
0
 100
AcDbLine
   6
BYBLOCK
  62
0
  10
 0.50000000000000
  20
-0.50000000000000
  30
0.0
  11
 0.50000000000000
  21
 0.50000000000000
  31
0.0
   0
LINE
   5
76
 100
AcDbEntity
   8
0
 100
AcDbLine
   6
BYBLOCK
  62
0
  10
 0.50000000000000
  20
 0.50000000000000
  30
0.0
  11
-0.50000000000000
  21
 0.50000000000000
  31
0.0
   0
LINE
   5
77
 100
AcDbEntity
   8
0
 100
AcDbLine
   6
BYBLOCK
  62
0
  10
-0.50000000000000
  20
 0.50000000000000
  30
0.0
  11
-0.50000000000000
  21
-0.50000000000000
  31
0.0
   0
LINE
   5
78
 100
AcDbEntity
   8
0
 100
AcDbLine
   6
BYBLOCK
  62
0
  10
-0.50000000000000
  20
0.0
  30
0.0
  11
-1.0000000000000
  21
0.0
  31
0.0
   0
ENDBLK
   5
79
 100
AcDbEntity
   8
0
 100
AcDbBlockEnd
   0
BLOCK
   5
7A
 100
AcDbEntity
   8
0
 100
AcDbBlockBegin
   2
_BOXFILLED
  70
0
  10
0.0
  20
0.0
  30
0.0
   3
_BOXFILLED
   0
SOLID
   5
7B
 100
AcDbEntity
   8
0
 100
AcDbTrace
   6
BYBLOCK
  62
0
  10
-0.50000000000000
  20
 0.50000000000000
  30
0.0
  11
 0.50000000000000
  21
 0.50000000000000
  31
0.0
  12
-0.50000000000000
  22
-0.50000000000000
  32
0.0
  13
 0.50000000000000
  23
-0.50000000000000
  33
0.0
   0
LINE
   5
7C
 100
AcDbEntity
   8
0
 100
AcDbLine
   6
BYBLOCK
  62
0
  10
-0.50000000000000
  20
0.0
  30
0.0
  11
-1.0000000000000
  21
0.0
  31
0.0
   0
ENDBLK
   5
7D
 100
AcDbEntity
   8
0
 100
AcDbBlockEnd
   0
BLOCK
   5
7E
 100
AcDbEntity
   8
0
 100
AcDbBlockBegin
   2
_CLOSED
  70
0
  10
0.0
  20
0.0
  30
0.0
   3
_CLOSED
   0
LINE
   5
7F
 100
AcDbEntity
   8
0
 100
AcDbLine
   6
BYBLOCK
  62
0
  10
-1.0000000000000
  20
 0.16666666666667
  30
0.0
  11
0.0
  21
0.0
  31
0.0
   0
LINE
   5
80
 100
AcDbEntity
   8
0
 100
AcDbLine
   6
BYBLOCK
  62
0
  10
0.0
  20
0.0
  30
0.0
  11
-1.0000000000000
  21
-0.16666666666667
  31
0.0
   0
LINE
   5
81
 100
AcDbEntity
   8
0
 100
AcDbLine
   6
BYBLOCK
  62
0
  10
-1.0000000000000
  20
 0.16666666666667
  30
0.0
  11
-1.0000000000000
  21
-0.16666666666667
  31
0.0
   0
LINE
   5
82
 100
AcDbEntity
   8
0
 100
AcDbLine
   6
BYBLOCK
  62
0
  10
0.0
  20
0.0
  30
0.0
  11
-1.0000000000000
  21
0.0
  31
0.0
   0
ENDBLK
   5
83
 100
AcDbEntity
   8
0
 100
AcDbBlockEnd
   0
BLOCK
   5
84
 100
AcDbEntity
   8
0
 100
AcDbBlockBegin
   2
_OPEN
  70
0
  10
0.0
  20
0.0
  30
0.0
   3
_OPEN
   0
LINE
   5
85
 100
AcDbEntity
   8
0
 100
AcDbLine
   6
BYBLOCK
  62
0
  10
-1.0000000000000
  20
 0.16666666666667
  30
0.0
  11
0.0
  21
0.0
  31
0.0
   0
LINE
   5
86
 100
AcDbEntity
   8
0
 100
AcDbLine
   6
BYBLOCK
  62
0
  10
0.0
  20
0.0
  30
0.0
  11
-1.0000000000000
  21
-0.16666666666667
  31
0.0
   0
LINE
   5
87
 100
AcDbEntity
   8
0
 100
AcDbLine
   6
BYBLOCK
  62
0
  10
0.0
  20
0.0
  30
0.0
  11
-1.0000000000000
  21
0.0
  31
0.0
   0
ENDBLK
   5
88
 100
AcDbEntity
   8
0
 100
AcDbBlockEnd
   0
BLOCK
   5
89
 100
AcDbEntity
   8
0
 100
AcDbBlockBegin
   2
_OPEN30
  70
0
  10
0.0
  20
0.0
  30
0.0
   3
_OPEN30
   0
LINE
   5
8A
 100
AcDbEntity
   8
0
 100
AcDbLine
   6
BYBLOCK
  62
0
  10
-1.0000000000000
  20
 0.26794919243110
  30
0.0
  11
0.0
  21
0.0
  31
0.0
   0
LINE
   5
8B
 100
AcDbEntity
   8
0
 100
AcDbLine
   6
BYBLOCK
  62
0
  10
0.0
  20
0.0
  30
0.0
  11
-1.0000000000000
  21
-0.26794919243110
  31
0.0
   0
LINE
   5
8C
 100
AcDbEntity
   8
0
 100
AcDbLine
   6
BYBLOCK
  62
0
  10
0.0
  20
0.0
  30
0.0
  11
-1.0000000000000
  21
0.0
  31
0.0
   0
ENDBLK
   5
8D
 100
AcDbEntity
   8
0
 100
AcDbBlockEnd
   0
BLOCK
   5
8E
 100
AcDbEntity
   8
0
 100
AcDbBlockBegin
   2
_OPEN90
  70
0
  10
0.0
  20
0.0
  30
0.0
   3
_OPEN90
   0
LINE
   5
8F
 100
AcDbEntity
   8
0
 100
AcDbLine
   6
BYBLOCK
  62
0
  10
-0.50000000000000
  20
 0.50000000000000
  30
0.0
  11
0.0
  21
0.0
  31
0.0
   0
LINE
   5
90
 100
AcDbEntity
   8
0
 100
AcDbLine
   6
BYBLOCK
  62
0
  10
0.0
  20
0.0
  30
0.0
  11
-0.50000000000000
  21
-0.50000000000000
  31
0.0
   0
LINE
   5
91
 100
AcDbEntity
   8
0
 100
AcDbLine
   6
BYBLOCK
  62
0
  10
0.0
  20
0.0
  30
0.0
  11
-1.0000000000000
  21
0.0
  31
0.0
   0
ENDBLK
   5
92
 100
AcDbEntity
   8
0
 100
AcDbBlockEnd
   0
BLOCK
   5
93
 100
AcDbEntity
   8
0
 100
AcDbBlockBegin
   2
_CLOSEDBLANK
  70
0
  10
0.0
  20
0.0
  30
0.0
   3
_CLOSEDBLANK
   0
LINE
   5
94
 100
AcDbEntity
   8
0
 100
AcDbLine
   6
BYBLOCK
  62
0
  10
-1.0000000000000
  20
 0.16666666666667
  30
0.0
  11
0.0
  21
0.0
  31
0.0
   0
LINE
   5
95
 100
AcDbEntity
   8
0
 100
AcDbLine
   6
BYBLOCK
  62
0
  10
0.0
  20
0.0
  30
0.0
  11
-1.0000000000000
  21
-0.16666666666667
  31
0.0
   0
LINE
   5
96
 100
AcDbEntity
   8
0
 100
AcDbLine
   6
BYBLOCK
  62
0
  10
-1.0000000000000
  20
 0.16666666666667
  30
0.0
  11
-1.0000000000000
  21
-0.16666666666667
  31
0.0
   0
ENDBLK
   5
97
 100
AcDbEntity
   8
0
 100
AcDbBlockEnd
   0
BLOCK
   5
98
 100
AcDbEntity
   8
0
 100
AcDbBlockBegin
   2
_DOT
  70
0
  10
0.0
  20
0.0
  30
0.0
   3
_DOT
   0
POLYLINE
   5
99
 100
AcDbEntity
   8
0
   6
BYBLOCK
  62
0
 100
AcDb2dPolyline
  66
1
  10
0.0
  20
0.0
  30
0.0
  70
1
  40
 0.50000000000000
  41
 0.50000000000000
   0
VERTEX
   5
9A
 100
AcDbEntity
   8
0
   6
BYBLOCK
  62
0
 100
AcDbVertex
 100
AcDb2dVertex
  10
-0.25000000000000
  20
0.0
  30
0.0
  42
 1.0000000000000
  40
 0.50000000000000
  41
 0.50000000000000
   0
VERTEX
   5
9B
 100
AcDbEntity
   8
0
   6
BYBLOCK
  62
0
 100
AcDbVertex
 100
AcDb2dVertex
  10
 0.25000000000000
  20
0.0
  30
0.0
  42
 1.0000000000000
  40
 0.50000000000000
  41
 0.50000000000000
   0
SEQEND
   5
9C
 100
AcDbEntity
   8
0
   6
BYBLOCK
  62
0
   0
LINE
   5
9D
 100
AcDbEntity
   8
0
 100
AcDbLine
   6
BYBLOCK
  62
0
  10
-0.50000000000000
  20
0.0
  30
0.0
  11
-1.0000000000000
  21
0.0
  31
0.0
   0
ENDBLK
   5
9E
 100
AcDbEntity
   8
0
 100
AcDbBlockEnd
   0
BLOCK
   5
9F
 100
AcDbEntity
   8
0
 100
AcDbBlockBegin
   2
_DOTSMALL
  70
0
  10
0.0
  20
0.0
  30
0.0
   3
_DOTSMALL
   0
POLYLINE
   5
A0
 100
AcDbEntity
   8
0
   6
BYBLOCK
  62
0
 100
AcDb2dPolyline
  66
1
  10
0.0
  20
0.0
  30
0.0
  70
1
  40
 0.50000000000000
  41
 0.50000000000000
   0
VERTEX
   5
A1
 100
AcDbEntity
   8
0
   6
BYBLOCK
  62
0
 100
AcDbVertex
 100
AcDb2dVertex
  10
-0.62500000000000E-1
  20
0.0
  30
0.0
  42
 1.0000000000000
  40
 0.50000000000000
  41
 0.50000000000000
   0
VERTEX
   5
A2
 100
AcDbEntity
   8
0
   6
BYBLOCK
  62
0
 100
AcDbVertex
 100
AcDb2dVertex
  10
 0.62500000000000E-1
  20
0.0
  30
0.0
  42
 1.0000000000000
  40
 0.50000000000000
  41
 0.50000000000000
   0
SEQEND
   5
A3
 100
AcDbEntity
   8
0
   6
BYBLOCK
  62
0
   0
ENDBLK
   5
A4
 100
AcDbEntity
   8
0
 100
AcDbBlockEnd
   0
BLOCK
   5
A5
 100
AcDbEntity
   8
0
 100
AcDbBlockBegin
   2
_DATUMBLANK
  70
0
  10
0.0
  20
0.0
  30
0.0
   3
_DATUMBLANK
   0
LINE
   5
A6
 100
AcDbEntity
   8
0
 100
AcDbLine
   6
BYBLOCK
  62
0
  10
0.0
  20
 0.57735027000000
  30
0.0
  11
-1.0000000000000
  21
0.0
  31
0.0
   0
LINE
   5
A7
 100
AcDbEntity
   8
0
 100
AcDbLine
   6
BYBLOCK
  62
0
  10
-1.0000000000000
  20
0.0
  30
0.0
  11
0.0
  21
-0.57735027000000
  31
0.0
   0
LINE
   5
A8
 100
AcDbEntity
   8
0
 100
AcDbLine
   6
BYBLOCK
  62
0
  10
0.0
  20
-0.57735027000000
  30
0.0
  11
0.0
  21
 0.57735027000000
  31
0.0
   0
ENDBLK
   5
A9
 100
AcDbEntity
   8
0
 100
AcDbBlockEnd
   0
BLOCK
   5
AA
 100
AcDbEntity
   8
0
 100
AcDbBlockBegin
   2
_DATUMFILLED
  70
0
  10
0.0
  20
0.0
  30
0.0
   3
_DATUMFILLED
   0
SOLID
   5
AB
 100
AcDbEntity
   8
0
 100
AcDbTrace
   6
BYBLOCK
  62
0
  10
0.0
  20
 0.57735027000000
  30
0.0
  11
-1.0000000000000
  21
0.0
  31
0.0
  12
0.0
  22
-0.57735027000000
  32
0.0
  13
0.0
  23
-0.57735027000000
  33
0.0
   0
ENDBLK
   5
AC
 100
AcDbEntity
   8
0
 100
AcDbBlockEnd
   0
BLOCK
   5
AD
 100
AcDbEntity
   8
0
 100
AcDbBlockBegin
   2
_ORIGIN
  70
0
  10
0.0
  20
0.0
  30
0.0
   3
_ORIGIN
   0
CIRCLE
   5
AE
 100
AcDbEntity
   8
0
 100
AcDbCircle
   6
BYBLOCK
  62
0
  10
0.0
  20
0.0
  30
0.0
  40
 0.50000000000000
   0
LINE
   5
AF
 100
AcDbEntity
   8
0
 100
AcDbLine
   6
BYBLOCK
  62
0
  10
0.0
  20
0.0
  30
0.0
  11
-1.0000000000000
  21
0.0
  31
0.0
   0
ENDBLK
   5
B0
 100
AcDbEntity
   8
0
 100
AcDbBlockEnd
   0
BLOCK
   5
B1
 100
AcDbEntity
   8
0
 100
AcDbBlockBegin
   2
_NONE
  70
0
  10
0.0
  20
0.0
  30
0.0
   3
_NONE
   0
CIRCLE
   5
B2
 100
AcDbEntity
   8
0
 100
AcDbCircle
   6
BYBLOCK
  62
0
  10
0.0
  20
0.0
  30
0.0
  40
 0.25000000000000
   0
ENDBLK
   5
B3
 100
AcDbEntity
   8
0
 100
AcDbBlockEnd
   0
BLOCK
   5
B4
 100
AcDbEntity
   8
0
 100
AcDbBlockBegin
   2
_DOTBLANK
  70
0
  10
0.0
  20
0.0
  30
0.0
   3
_DOTBLANK
   0
CIRCLE
   5
B5
 100
AcDbEntity
   8
0
 100
AcDbCircle
   6
BYBLOCK
  62
0
  10
0.0
  20
0.0
  30
0.0
  40
 0.50000000000000
   0
LINE
   5
B6
 100
AcDbEntity
   8
0
 100
AcDbLine
   6
BYBLOCK
  62
0
  10
-0.50000000000000
  20
0.0
  30
0.0
  11
-1.0000000000000
  21
0.0
  31
0.0
   0
ENDBLK
   5
B7
 100
AcDbEntity
   8
0
 100
AcDbBlockEnd
   0
BLOCK
   5
B8
 100
AcDbEntity
   8
0
 100
AcDbBlockBegin
   2
_INTEGRAL
  70
0
  10
0.0
  20
0.0
  30
0.0
   3
_INTEGRAL
   0
ARC
   5
B9
 100
AcDbEntity
   8
0
   6
BYBLOCK
  62
0
 100
AcDbCircle
  10
 0.44488800000000
  20
-0.91335000000000E-1
  30
0.0
  40
 0.45416700000000
 100
AcDbArc
  50
 102.00000000000
  51
 168.00000000000
   0
ARC
   5
BA
 100
AcDbEntity
   8
0
   6
BYBLOCK
  62
0
 100
AcDbCircle
  10
-0.44488800000000
  20
 0.91335000000000E-1
  30
0.0
  40
 0.45416700000000
 100
AcDbArc
  50
 282.00000000000
  51
 348.00000000000
   0
ENDBLK
   5
BB
 100
AcDbEntity
   8
0
 100
AcDbBlockEnd
   0
BLOCK
   5
BC
 100
AcDbEntity
   8
0
 100
AcDbBlockBegin
   2
*D6
  70
65
  10
0.0
  20
0.0
  30
0.0
   3
*D6
   0
LINE
   5
BD
 100
AcDbEntity
   8
LEVEL003
 100
AcDbLine
   6
CONTINUOUS
  62
3
  10
 109.49999785423
  20
 383.00000433624
  30
0.0
  11
 109.49999785423
  21
 411.74998826534
  31
0.0
   0
LINE
   5
BE
 100
AcDbEntity
   8
LEVEL003
 100
AcDbLine
   6
CONTINUOUS
  62
3
  10
 205.49999499321
  20
 383.00000433624
  30
0.0
  11
 205.49999499321
  21
 411.74998826534
  31
0.0
   0
LINE
   5
BF
 100
AcDbEntity
   8
LEVEL003
 100
AcDbLine
   6
CONTINUOUS
  62
3
  10
 109.49999785423
  20
 408.74998826534
  30
0.0
  11
 147.26249642372
  21
 408.74998826534
  31
0.0
   0
LINE
   5
C0
 100
AcDbEntity
   8
LEVEL003
 100
AcDbLine
   6
CONTINUOUS
  62
3
  10
 205.49999499321
  20
 408.74998826534
  30
0.0
  11
 167.73749642372
  21
 408.74998826534
  31
0.0
   0
INSERT
   5
C1
 100
AcDbEntity
   8
LEVEL003
   6
CONTINUOUS
  62
3
 100
AcDbBlockReference
   2
_OPEN
  10
 109.49999785423
  20
 408.74998826534
  30
0.0
  41
 4.5000000000000
  42
 4.5000000000000
  43
 4.5000000000000
  50
 180.00000000000
   0
INSERT
   5
C2
 100
AcDbEntity
   8
LEVEL003
   6
CONTINUOUS
  62
3
 100
AcDbBlockReference
   2
_OPEN
  10
 205.49999499321
  20
 408.74998826534
  30
0.0
  41
 4.5000000000000
  42
 4.5000000000000
  43
 4.5000000000000
  50
0.0
   0
MTEXT
   5
C3
 100
AcDbEntity
   8
LEVEL003
  62
3
 100
AcDbMText
  10
 157.49999642372
  20
 409.94996991903
  30
0.0
  40
 6.0000000000000
  41
0.0
  71
8
  72
1
   1
\A1;%%c96
   7
GMM001
   0
ENDBLK
   5
C4
 100
AcDbEntity
   8
0
 100
AcDbBlockEnd
   0
BLOCK
   5
C5
 100
AcDbEntity
   8
0
 100
AcDbBlockBegin
   2
*D7
  70
65
  10
0.0
  20
0.0
  30
0.0
   3
*D7
   0
LINE
   5
C6
 100
AcDbEntity
   8
LEVEL003
 100
AcDbLine
   6
CONTINUOUS
  62
3
  10
 242.00000920892
  20
 362.50002016127
  30
0.0
  11
 280.49999284744
  21
 362.50002016127
  31
0.0
   0
LINE
   5
C7
 100
AcDbEntity
   8
LEVEL003
 100
AcDbLine
   6
CONTINUOUS
  62
3
  10
 277.49999284744
  20
 373.12498949468
  30
0.0
  11
 277.49999284744
  21
 355.39788102608
  31
0.0
   0
LINE
   5
C8
 100
AcDbEntity
   8
LEVEL003
 100
AcDbLine
   6
CONTINUOUS
  62
3
  10
 277.49999284744
  20
 349.36038102608
  30
0.0
  11
 277.49999284744
  21
 349.36038102608
  31
0.0
   0
INSERT
   5
C9
 100
AcDbEntity
   8
LEVEL003
   6
CONTINUOUS
  62
3
 100
AcDbBlockReference
   2
_OPEN
  10
 277.49999284744
  20
 367.49998949468
  30
0.0
  41
 4.5000000000000
  42
 4.5000000000000
  43
 4.5000000000000
  50
 270.00000000000
   0
INSERT
   5
CA
 100
AcDbEntity
   8
LEVEL003
   6
CONTINUOUS
  62
3
 100
AcDbBlockReference
   2
_OPEN
  10
 277.49999284744
  20
 362.50002016127
  30
0.0
  41
 4.5000000000000
  42
 4.5000000000000
  43
 4.5000000000000
  50
 90.000000000000
   0
MTEXT
   5
CB
 100
AcDbEntity
   8
LEVEL003
  62
3
 100
AcDbMText
  10
 276.30001119375
  20
 355.39788102608
  30
0.0
  40
 6.0000000000000
  41
0.0
  71
9
  72
1
   1
\A1;5
   7
GMM001
  11
0.0
  21
 1.0000000000000
  31
0.0
   0
ENDBLK
   5
CC
 100
AcDbEntity
   8
0
 100
AcDbBlockEnd
   0
BLOCK
   5
CD
 100
AcDbEntity
   8
0
 100
AcDbBlockBegin
   2
*D8
  70
65
  10
0.0
  20
0.0
  30
0.0
   3
*D8
   0
LINE
   5
CE
 100
AcDbEntity
   8
LEVEL003
 100
AcDbLine
   6
CONTINUOUS
  62
3
  10
 206.00001028180
  20
 382.49998904765
  30
0.0
  11
 295.49999240041
  21
 382.49998904765
  31
0.0
   0
LINE
   5
CF
 100
AcDbEntity
   8
LEVEL003
 100
AcDbLine
   6
CONTINUOUS
  62
3
  10
 207.85962936700
  20
 370.49998940527
  30
0.0
  11
 295.49999240041
  21
 370.49998940527
  31
0.0
   0
LINE
   5
D0
 100
AcDbEntity
   8
LEVEL003
 100
AcDbLine
   6
CONTINUOUS
  62
3
  10
 292.49999240041
  20
 382.49998904765
  30
0.0
  11
 292.49999240041
  21
 381.55311422646
  31
0.0
   0
LINE
   5
D1
 100
AcDbEntity
   8
LEVEL003
 100
AcDbLine
   6
CONTINUOUS
  62
3
  10
 292.49999240041
  20
 370.49998940527
  30
0.0
  11
 292.49999240041
  21
 371.44686422646
  31
0.0
   0
INSERT
   5
D2
 100
AcDbEntity
   8
LEVEL003
   6
CONTINUOUS
  62
3
 100
AcDbBlockReference
   2
_OPEN
  10
 292.49999240041
  20
 382.49998904765
  30
0.0
  41
 4.5000000000000
  42
 4.5000000000000
  43
 4.5000000000000
  50
 90.000000000000
   0
INSERT
   5
D3
 100
AcDbEntity
   8
LEVEL003
   6
CONTINUOUS
  62
3
 100
AcDbBlockReference
   2
_OPEN
  10
 292.49999240041
  20
 370.49998940527
  30
0.0
  41
 4.5000000000000
  42
 4.5000000000000
  43
 4.5000000000000
  50
 270.00000000000
   0
MTEXT
   5
D4
 100
AcDbEntity
   8
LEVEL003
  62
3
 100
AcDbMText
  10
 291.30001074672
  20
 376.49998922646
  30
0.0
  40
 6.0000000000000
  41
0.0
  71
8
  72
1
   1
\A1;12
   7
GMM001
  11
0.0
  21
 1.0000000000000
  31
0.0
   0
ENDBLK
   5
D5
 100
AcDbEntity
   8
0
 100
AcDbBlockEnd
   0
BLOCK
   5
D6
 100
AcDbEntity
   8
0
 100
AcDbBlockBegin
   2
*D9
  70
65
  10
0.0
  20
0.0
  30
0.0
   3
*D9
   0
LINE
   5
D7
 100
AcDbEntity
   8
LEVEL003
 100
AcDbLine
   6
CONTINUOUS
  62
3
  10
 206.00001028180
  20
 382.49998904765
  30
0.0
  11
 310.49999195337
  21
 382.49998904765
  31
0.0
   0
LINE
   5
D8
 100
AcDbEntity
   8
LEVEL003
 100
AcDbLine
   6
CONTINUOUS
  62
3
  10
 236.00000938773
  20
 367.49998949468
  30
0.0
  11
 310.49999195337
  21
 367.49998949468
  31
0.0
   0
LINE
   5
D9
 100
AcDbEntity
   8
LEVEL003
 100
AcDbLine
   6
CONTINUOUS
  62
3
  10
 307.49999195337
  20
 382.49998904765
  30
0.0
  11
 307.49999195337
  21
 380.05311427116
  31
0.0
   0
LINE
   5
DA
 100
AcDbEntity
   8
LEVEL003
 100
AcDbLine
   6
CONTINUOUS
  62
3
  10
 307.49999195337
  20
 367.49998949468
  30
0.0
  11
 307.49999195337
  21
 369.94686427116
  31
0.0
   0
INSERT
   5
DB
 100
AcDbEntity
   8
LEVEL003
   6
CONTINUOUS
  62
3
 100
AcDbBlockReference
   2
_OPEN
  10
 307.49999195337
  20
 382.49998904765
  30
0.0
  41
 4.5000000000000
  42
 4.5000000000000
  43
 4.5000000000000
  50
 90.000000000000
   0
INSERT
   5
DC
 100
AcDbEntity
   8
LEVEL003
   6
CONTINUOUS
  62
3
 100
AcDbBlockReference
   2
_OPEN
  10
 307.49999195337
  20
 367.49998949468
  30
0.0
  41
 4.5000000000000
  42
 4.5000000000000
  43
 4.5000000000000
  50
 270.00000000000
   0
MTEXT
   5
DD
 100
AcDbEntity
   8
LEVEL003
  62
3
 100
AcDbMText
  10
 306.30001029968
  20
 374.99998927116
  30
0.0
  40
 6.0000000000000
  41
0.0
  71
8
  72
1
   1
\A1;15
   7
GMM001
  11
0.0
  21
 1.0000000000000
  31
0.0
   0
ENDBLK
   5
DE
 100
AcDbEntity
   8
0
 100
AcDbBlockEnd
   0
BLOCK
   5
DF
 100
AcDbEntity
   8
0
 100
AcDbBlockBegin
   2
*D10
  70
65
  10
0.0
  20
0.0
  30
0.0
   3
*D10
   0
LINE
   5
E0
 100
AcDbEntity
   8
LEVEL003
 100
AcDbLine
   6
CONTINUOUS
  62
3
  10
 236.00000938773
  20
 367.49998949468
  30
0.0
  11
 310.49999195337
  21
 367.49998949468
  31
0.0
   0
LINE
   5
E1
 100
AcDbEntity
   8
LEVEL003
 100
AcDbLine
   6
CONTINUOUS
  62
3
  10
 242.00000920892
  20
 307.49999128282
  30
0.0
  11
 310.49999195337
  21
 307.49999128282
  31
0.0
   0
LINE
   5
E2
 100
AcDbEntity
   8
LEVEL003
 100
AcDbLine
   6
CONTINUOUS
  62
3
  10
 307.49999195337
  20
 367.49998949468
  30
0.0
  11
 307.49999195337
  21
 343.01249038875
  31
0.0
   0
LINE
   5
E3
 100
AcDbEntity
   8
LEVEL003
 100
AcDbLine
   6
CONTINUOUS
  62
3
  10
 307.49999195337
  20
 307.49999128282
  30
0.0
  11
 307.49999195337
  21
 331.98749038875
  31
0.0
   0
INSERT
   5
E4
 100
AcDbEntity
   8
LEVEL003
   6
CONTINUOUS
  62
3
 100
AcDbBlockReference
   2
_OPEN
  10
 307.49999195337
  20
 367.49998949468
  30
0.0
  41
 4.5000000000000
  42
 4.5000000000000
  43
 4.5000000000000
  50
 90.000000000000
   0
INSERT
   5
E5
 100
AcDbEntity
   8
LEVEL003
   6
CONTINUOUS
  62
3
 100
AcDbBlockReference
   2
_OPEN
  10
 307.49999195337
  20
 307.49999128282
  30
0.0
  41
 4.5000000000000
  42
 4.5000000000000
  43
 4.5000000000000
  50
 270.00000000000
   0
MTEXT
   5
E6
 100
AcDbEntity
   8
LEVEL003
  62
3
 100
AcDbMText
  10
 306.30001029968
  20
 337.49999038875
  30
0.0
  40
 6.0000000000000
  41
0.0
  71
8
  72
1
   1
\A1;60
   7
GMM001
  11
0.0
  21
 1.0000000000000
  31
0.0
   0
ENDBLK
   5
E7
 100
AcDbEntity
   8
0
 100
AcDbBlockEnd
   0
BLOCK
   5
E8
 100
AcDbEntity
   8
0
 100
AcDbBlockBegin
   2
*D11
  70
65
  10
0.0
  20
0.0
  30
0.0
   3
*D11
   0
LINE
   5
E9
 100
AcDbEntity
   8
LEVEL003
 100
AcDbLine
   6
CONTINUOUS
  62
3
  10
 310.50001479685
  20
 99.499966964127
  30
0.0
  11
 325.49999150634
  21
 99.499966964127
  31
0.0
   0
LINE
   5
EA
 100
AcDbEntity
   8
LEVEL003
 100
AcDbLine
   6
CONTINUOUS
  62
3
  10
 293.99999240041
  20
 77.499982878566
  30
0.0
  11
 325.49999150634
  21
 77.499982878566
  31
0.0
   0
LINE
   5
EB
 100
AcDbEntity
   8
LEVEL003
 100
AcDbLine
   6
CONTINUOUS
  62
3
  10
 322.49999150634
  20
 99.499966964127
  30
0.0
  11
 322.49999150634
  21
 94.537474921346
  31
0.0
   0
LINE
   5
EC
 100
AcDbEntity
   8
LEVEL003
 100
AcDbLine
   6
CONTINUOUS
  62
3
  10
 322.49999150634
  20
 77.499982878566
  30
0.0
  11
 322.49999150634
  21
 82.462474921346
  31
0.0
   0
INSERT
   5
ED
 100
AcDbEntity
   8
LEVEL003
   6
CONTINUOUS
  62
3
 100
AcDbBlockReference
   2
_OPEN
  10
 322.49999150634
  20
 99.499966964127
  30
0.0
  41
 4.5000000000000
  42
 4.5000000000000
  43
 4.5000000000000
  50
 90.000000000000
   0
INSERT
   5
EE
 100
AcDbEntity
   8
LEVEL003
   6
CONTINUOUS
  62
3
 100
AcDbBlockReference
   2
_OPEN
  10
 322.49999150634
  20
 77.499982878566
  30
0.0
  41
 4.5000000000000
  42
 4.5000000000000
  43
 4.5000000000000
  50
 270.00000000000
   0
MTEXT
   5
EF
 100
AcDbEntity
   8
LEVEL003
  62
3
 100
AcDbMText
  10
 321.30000985265
  20
 88.499974921346
  30
0.0
  40
 6.0000000000000
  41
0.0
  71
8
  72
1
   1
\A1;22
   7
GMM001
  11
0.0
  21
 1.0000000000000
  31
0.0
   0
ENDBLK
   5
F0
 100
AcDbEntity
   8
0
 100
AcDbBlockEnd
   0
BLOCK
   5
F1
 100
AcDbEntity
   8
0
 100
AcDbBlockBegin
   2
*D12
  70
65
  10
0.0
  20
0.0
  30
0.0
   3
*D12
   0
LINE
   5
F2
 100
AcDbEntity
   8
LEVEL003
 100
AcDbLine
   6
CONTINUOUS
  62
3
  10
 155.99999642372
  20
 277.49999217689
  30
0.0
  11
 49.500000000000
  21
 277.49999217689
  31
0.0
   0
LINE
   5
F3
 100
AcDbEntity
   8
LEVEL003
 100
AcDbLine
   6
CONTINUOUS
  62
3
  10
 76.499975904823
  20
 77.499982878566
  30
0.0
  11
 49.500000000000
  21
 77.499982878566
  31
0.0
   0
LINE
   5
F4
 100
AcDbEntity
   8
LEVEL003
 100
AcDbLine
   6
CONTINUOUS
  62
3
  10
 52.500000000000
  20
 277.49999217689
  30
0.0
  11
 52.500000000000
  21
 185.50623752773
  31
0.0
   0
LINE
   5
F5
 100
AcDbEntity
   8
LEVEL003
 100
AcDbLine
   6
CONTINUOUS
  62
3
  10
 52.500000000000
  20
 77.499982878566
  30
0.0
  11
 52.500000000000
  21
 169.49373752773
  31
0.0
   0
INSERT
   5
F6
 100
AcDbEntity
   8
LEVEL003
   6
CONTINUOUS
  62
3
 100
AcDbBlockReference
   2
_OPEN
  10
 52.500000000000
  20
 277.49999217689
  30
0.0
  41
 4.5000000000000
  42
 4.5000000000000
  43
 4.5000000000000
  50
 90.000000000000
   0
INSERT
   5
F7
 100
AcDbEntity
   8
LEVEL003
   6
CONTINUOUS
  62
3
 100
AcDbBlockReference
   2
_OPEN
  10
 52.500000000000
  20
 77.499982878566
  30
0.0
  41
 4.5000000000000
  42
 4.5000000000000
  43
 4.5000000000000
  50
 270.00000000000
   0
MTEXT
   5
F8
 100
AcDbEntity
   8
LEVEL003
  62
3
 100
AcDbMText
  10
 51.299995458126
  20
 177.49998752773
  30
0.0
  40
 6.0000000000000
  41
0.0
  71
8
  72
1
   1
\A1;200
   7
GMM001
  11
0.0
  21
 1.0000000000000
  31
0.0
   0
ENDBLK
   5
F9
 100
AcDbEntity
   8
0
 100
AcDbBlockEnd
   0
BLOCK
   5
FA
 100
AcDbEntity
   8
0
 100
AcDbBlockBegin
   2
*D13
  70
65
  10
0.0
  20
0.0
  30
0.0
   3
*D13
   0
LINE
   5
FB
 100
AcDbEntity
   8
LEVEL003
 100
AcDbLine
   6
CONTINUOUS
  62
3
  10
 206.00001028180
  20
 382.49998904765
  30
0.0
  11
 340.49999105930
  21
 382.49998904765
  31
0.0
   0
LINE
   5
FC
 100
AcDbEntity
   8
LEVEL003
 100
AcDbLine
   6
CONTINUOUS
  62
3
  10
 238.50003983080
  20
 77.499982878566
  30
0.0
  11
 340.49999105930
  21
 77.499982878566
  31
0.0
   0
LINE
   5
FD
 100
AcDbEntity
   8
LEVEL003
 100
AcDbLine
   6
CONTINUOUS
  62
3
  10
 337.49999105930
  20
 382.49998904765
  30
0.0
  11
 337.49999105930
  21
 239.05623596311
  31
0.0
   0
LINE
   5
FE
 100
AcDbEntity
   8
LEVEL003
 100
AcDbLine
   6
CONTINUOUS
  62
3
  10
 337.49999105930
  20
 77.499982878566
  30
0.0
  11
 337.49999105930
  21
 220.94373596311
  31
0.0
   0
INSERT
   5
FF
 100
AcDbEntity
   8
LEVEL003
   6
CONTINUOUS
  62
3
 100
AcDbBlockReference
   2
_OPEN
  10
 337.49999105930
  20
 382.49998904765
  30
0.0
  41
 4.5000000000000
  42
 4.5000000000000
  43
 4.5000000000000
  50
 90.000000000000
   0
INSERT
   5
100
 100
AcDbEntity
   8
LEVEL003
   6
CONTINUOUS
  62
3
 100
AcDbBlockReference
   2
_OPEN
  10
 337.49999105930
  20
 77.499982878566
  30
0.0
  41
 4.5000000000000
  42
 4.5000000000000
  43
 4.5000000000000
  50
 270.00000000000
   0
MTEXT
   5
101
 100
AcDbEntity
   8
LEVEL003
  62
3
 100
AcDbMText
  10
 336.30000940561
  20
 229.99998596311
  30
0.0
  40
 6.0000000000000
  41
0.0
  71
8
  72
1
   1
\A1;335
   7
GMM001
  11
0.0
  21
 1.0000000000000
  31
0.0
   0
ENDBLK
   5
102
 100
AcDbEntity
   8
0
 100
AcDbBlockEnd
   0
BLOCK
   5
103
 100
AcDbEntity
   8
0
 100
AcDbBlockBegin
   2
*D14
  70
65
  10
0.0
  20
0.0
  30
0.0
   3
*D14
   0
LINE
   5
104
 100
AcDbEntity
   8
LEVEL003
 100
AcDbLine
   6
CONTINUOUS
  62
3
  10
 194.99999526143
  20
 370.49998940527
  30
0.0
  11
 162.00000000000
  21
 370.49998940527
  31
0.0
   0
LINE
   5
105
 100
AcDbEntity
   8
LEVEL003
 100
AcDbLine
   6
CONTINUOUS
  62
3
  10
 194.00001055002
  20
 330.49998296797
  30
0.0
  11
 162.00000000000
  21
 330.49998296797
  31
0.0
   0
LINE
   5
106
 100
AcDbEntity
   8
LEVEL003
 100
AcDbLine
   6
CONTINUOUS
  62
3
  10
 165.00000000000
  20
 370.49998940527
  30
0.0
  11
 165.00000000000
  21
 359.01247465313
  31
0.0
   0
LINE
   5
107
 100
AcDbEntity
   8
LEVEL003
 100
AcDbLine
   6
CONTINUOUS
  62
3
  10
 165.00000000000
  20
 330.49998296797
  30
0.0
  11
 165.00000000000
  21
 347.98747465313
  31
0.0
   0
INSERT
   5
108
 100
AcDbEntity
   8
LEVEL003
   6
CONTINUOUS
  62
3
 100
AcDbBlockReference
   2
_OPEN
  10
 165.00000000000
  20
 370.49998940527
  30
0.0
  41
 4.5000000000000
  42
 4.5000000000000
  43
 4.5000000000000
  50
 90.000000000000
   0
INSERT
   5
109
 100
AcDbEntity
   8
LEVEL003
   6
CONTINUOUS
  62
3
 100
AcDbBlockReference
   2
_OPEN
  10
 165.00000000000
  20
 330.49998296797
  30
0.0
  41
 4.5000000000000
  42
 4.5000000000000
  43
 4.5000000000000
  50
 270.00000000000
   0
MTEXT
   5
10A
 100
AcDbEntity
   8
LEVEL003
  62
3
 100
AcDbMText
  10
 163.79999545813
  20
 353.49997465313
  30
0.0
  40
 6.0000000000000
  41
0.0
  71
8
  72
1
   1
\A1;40
   7
GMM001
  11
0.0
  21
 1.0000000000000
  31
0.0
   0
ENDBLK
   5
10B
 100
AcDbEntity
   8
0
 100
AcDbBlockEnd
   0
BLOCK
   5
10C
 100
AcDbEntity
   8
0
 100
AcDbBlockBegin
   2
*D16
  70
65
  10
0.0
  20
0.0
  30
0.0
   3
*D16
   0
LINE
   5
10D
 100
AcDbEntity
   8
LEVEL003
 100
AcDbLine
   6
CONTINUOUS
  62
3
  10
 239.00000925362
  20
 149.99999552966
  30
0.0
  11
 169.77187152863
  21
 149.99999552966
  31
0.0
   0
LINE
   5
10E
 100
AcDbEntity
   8
LEVEL003
 100
AcDbLine
   6
CONTINUOUS
  62
3
  10
 75.999983593823
  20
 149.99999552966
  30
0.0
  11
 145.22812152863
  21
 149.99999552966
  31
0.0
   0
INSERT
   5
10F
 100
AcDbEntity
   8
LEVEL003
   6
CONTINUOUS
  62
3
 100
AcDbBlockReference
   2
_OPEN
  10
 239.00000925362
  20
 149.99999552966
  30
0.0
  41
 4.5000000000000
  42
 4.5000000000000
  43
 4.5000000000000
  50
0.0
   0
INSERT
   5
110
 100
AcDbEntity
   8
LEVEL003
   6
CONTINUOUS
  62
3
 100
AcDbBlockReference
   2
_OPEN
  10
 75.999983593823
  20
 149.99999552966
  30
0.0
  41
 4.5000000000000
  42
 4.5000000000000
  43
 4.5000000000000
  50
 180.00000000000
   0
MTEXT
   5
111
 100
AcDbEntity
   8
LEVEL003
  62
3
 100
AcDbMText
  10
 157.49999652863
  20
 151.20000007153
  30
0.0
  40
 6.0000000000000
  41
0.0
  71
8
  72
1
   1
\A1;%%c163
   7
GMM001
   0
ENDBLK
   5
112
 100
AcDbEntity
   8
0
 100
AcDbBlockEnd
   0
BLOCK
   5
113
 100
AcDbEntity
   8
0
 100
AcDbBlockBegin
   2
*D17
  70
65
  10
0.0
  20
0.0
  30
0.0
   3
*D17
   0
LINE
   5
114
 100
AcDbEntity
   8
LEVEL003
 100
AcDbLine
   6
CONTINUOUS
  62
3
  10
 92.499990254641
  20
 165.00000000000
  30
0.0
  11
 145.75312500000
  21
 165.00000000000
  31
0.0
   0
LINE
   5
115
 100
AcDbEntity
   8
LEVEL003
 100
AcDbLine
   6
CONTINUOUS
  62
3
  10
 222.50000974536
  20
 165.00000000000
  30
0.0
  11
 169.24687500000
  21
 165.00000000000
  31
0.0
   0
INSERT
   5
116
 100
AcDbEntity
   8
LEVEL003
   6
CONTINUOUS
  62
3
 100
AcDbBlockReference
   2
_OPEN
  10
 92.499990254641
  20
 165.00000000000
  30
0.0
  41
 4.5000000000000
  42
 4.5000000000000
  43
 4.5000000000000
  50
 180.00000000000
   0
INSERT
   5
117
 100
AcDbEntity
   8
LEVEL003
   6
CONTINUOUS
  62
3
 100
AcDbBlockReference
   2
_OPEN
  10
 222.50000974536
  20
 165.00000000000
  30
0.0
  41
 4.5000000000000
  42
 4.5000000000000
  43
 4.5000000000000
  50
0.0
   0
MTEXT
   5
118
 100
AcDbEntity
   8
LEVEL003
  62
3
 100
AcDbMText
  10
 157.50000000000
  20
 166.20000000000
  30
0.0
  40
 6.0000000000000
  41
0.0
  71
8
  72
1
   1
\A1;%%c130
   7
GMM001
   0
ENDBLK
   5
119
 100
AcDbEntity
   8
0
 100
AcDbBlockEnd
   0
BLOCK
   5
11A
 100
AcDbEntity
   8
0
 100
AcDbBlockBegin
   2
*D18
  70
65
  10
0.0
  20
0.0
  30
0.0
   3
*D18
   0
LINE
   5
11B
 100
AcDbEntity
   8
LEVEL003
 100
AcDbLine
   6
CONTINUOUS
  62
3
  10
 107.49998980761
  20
 180.00000000000
  30
0.0
  11
 146.27812500000
  21
 180.00000000000
  31
0.0
   0
LINE
   5
11C
 100
AcDbEntity
   8
LEVEL003
 100
AcDbLine
   6
CONTINUOUS
  62
3
  10
 207.50001019239
  20
 180.00000000000
  30
0.0
  11
 168.72187500000
  21
 180.00000000000
  31
0.0
   0
INSERT
   5
11D
 100
AcDbEntity
   8
LEVEL003
   6
CONTINUOUS
  62
3
 100
AcDbBlockReference
   2
_OPEN
  10
 107.49998980761
  20
 180.00000000000
  30
0.0
  41
 4.5000000000000
  42
 4.5000000000000
  43
 4.5000000000000
  50
 180.00000000000
   0
INSERT
   5
11E
 100
AcDbEntity
   8
LEVEL003
   6
CONTINUOUS
  62
3
 100
AcDbBlockReference
   2
_OPEN
  10
 207.50001019239
  20
 180.00000000000
  30
0.0
  41
 4.5000000000000
  42
 4.5000000000000
  43
 4.5000000000000
  50
0.0
   0
MTEXT
   5
11F
 100
AcDbEntity
   8
LEVEL003
  62
3
 100
AcDbMText
  10
 157.50000000000
  20
 181.20000000000
  30
0.0
  40
 6.0000000000000
  41
0.0
  71
8
  72
1
   1
\A1;%%c100
   7
GMM001
   0
ENDBLK
   5
120
 100
AcDbEntity
   8
0
 100
AcDbBlockEnd
   0
BLOCK
   5
121
 100
AcDbEntity
   8
0
 100
AcDbBlockBegin
   2
*D19
  70
65
  10
0.0
  20
0.0
  30
0.0
   3
*D19
   0
LINE
   5
122
 100
AcDbEntity
   8
LEVEL003
 100
AcDbLine
   6
CONTINUOUS
  62
3
  10
 120.00000469387
  20
 195.00000000000
  30
0.0
  11
 147.26250000000
  21
 195.00000000000
  31
0.0
   0
LINE
   5
123
 100
AcDbEntity
   8
LEVEL003
 100
AcDbLine
   6
CONTINUOUS
  62
3
  10
 194.99999530613
  20
 195.00000000000
  30
0.0
  11
 167.73750000000
  21
 195.00000000000
  31
0.0
   0
INSERT
   5
124
 100
AcDbEntity
   8
LEVEL003
   6
CONTINUOUS
  62
3
 100
AcDbBlockReference
   2
_OPEN
  10
 120.00000469387
  20
 195.00000000000
  30
0.0
  41
 4.5000000000000
  42
 4.5000000000000
  43
 4.5000000000000
  50
 180.00000000000
   0
INSERT
   5
125
 100
AcDbEntity
   8
LEVEL003
   6
CONTINUOUS
  62
3
 100
AcDbBlockReference
   2
_OPEN
  10
 194.99999530613
  20
 195.00000000000
  30
0.0
  41
 4.5000000000000
  42
 4.5000000000000
  43
 4.5000000000000
  50
0.0
   0
MTEXT
   5
126
 100
AcDbEntity
   8
LEVEL003
  62
3
 100
AcDbMText
  10
 157.50000000000
  20
 196.20000000000
  30
0.0
  40
 6.0000000000000
  41
0.0
  71
8
  72
1
   1
\A1;%%c75
   7
GMM001
   0
ENDBLK
   5
127
 100
AcDbEntity
   8
0
 100
AcDbBlockEnd
   0
BLOCK
   5
128
 100
AcDbEntity
   8
0
 100
AcDbBlockBegin
   2
*D20
  70
65
  10
0.0
  20
0.0
  30
0.0
   3
*D20
   0
LINE
   5
129
 100
AcDbEntity
   8
LEVEL003
 100
AcDbLine
   6
CONTINUOUS
  62
3
  10
 130.00000058115
  20
 81.499967455865
  30
0.0
  11
 130.00000058115
  21
 49.500000000000
  31
0.0
   0
LINE
   5
12A
 100
AcDbEntity
   8
LEVEL003
 100
AcDbLine
   6
CONTINUOUS
  62
3
  10
 184.99999941885
  20
 81.499967455865
  30
0.0
  11
 184.99999941885
  21
 49.500000000000
  31
0.0
   0
LINE
   5
12B
 100
AcDbEntity
   8
LEVEL003
 100
AcDbLine
   6
CONTINUOUS
  62
3
  10
 130.00000058115
  20
 52.500000000000
  30
0.0
  11
 147.26250000000
  21
 52.500000000000
  31
0.0
   0
LINE
   5
12C
 100
AcDbEntity
   8
LEVEL003
 100
AcDbLine
   6
CONTINUOUS
  62
3
  10
 184.99999941885
  20
 52.500000000000
  30
0.0
  11
 167.73750000000
  21
 52.500000000000
  31
0.0
   0
INSERT
   5
12D
 100
AcDbEntity
   8
LEVEL003
   6
CONTINUOUS
  62
3
 100
AcDbBlockReference
   2
_OPEN
  10
 130.00000058115
  20
 52.500000000000
  30
0.0
  41
 4.5000000000000
  42
 4.5000000000000
  43
 4.5000000000000
  50
 180.00000000000
   0
INSERT
   5
12E
 100
AcDbEntity
   8
LEVEL003
   6
CONTINUOUS
  62
3
 100
AcDbBlockReference
   2
_OPEN
  10
 184.99999941885
  20
 52.500000000000
  30
0.0
  41
 4.5000000000000
  42
 4.5000000000000
  43
 4.5000000000000
  50
0.0
   0
MTEXT
   5
12F
 100
AcDbEntity
   8
LEVEL003
  62
3
 100
AcDbMText
  10
 157.50000000000
  20
 53.700000000000
  30
0.0
  40
 6.0000000000000
  41
0.0
  71
8
  72
1
   1
\A1;%%c55
   7
GMM001
   0
ENDBLK
   5
130
 100
AcDbEntity
   8
0
 100
AcDbBlockEnd
   0
BLOCK
   5
131
 100
AcDbEntity
   8
0
 100
AcDbBlockBegin
   2
*D21
  70
65
  10
0.0
  20
0.0
  30
0.0
   3
*D21
   0
LINE
   5
132
 100
AcDbEntity
   8
LEVEL003
 100
AcDbLine
   6
CONTINUOUS
  62
3
  10
 130.00000058115
  20
 379.00001971424
  30
0.0
  11
 130.00000058115
  21
 400.50000000000
  31
0.0
   0
LINE
   5
133
 100
AcDbEntity
   8
LEVEL003
 100
AcDbLine
   6
CONTINUOUS
  62
3
  10
 184.99999941885
  20
 379.00001971424
  30
0.0
  11
 184.99999941885
  21
 400.50000000000
  31
0.0
   0
LINE
   5
134
 100
AcDbEntity
   8
LEVEL003
 100
AcDbLine
   6
CONTINUOUS
  62
3
  10
 130.00000058115
  20
 397.50000000000
  30
0.0
  11
 147.26250000000
  21
 397.50000000000
  31
0.0
   0
LINE
   5
135
 100
AcDbEntity
   8
LEVEL003
 100
AcDbLine
   6
CONTINUOUS
  62
3
  10
 184.99999941885
  20
 397.50000000000
  30
0.0
  11
 167.73750000000
  21
 397.50000000000
  31
0.0
   0
INSERT
   5
136
 100
AcDbEntity
   8
LEVEL003
   6
CONTINUOUS
  62
3
 100
AcDbBlockReference
   2
_OPEN
  10
 130.00000058115
  20
 397.50000000000
  30
0.0
  41
 4.5000000000000
  42
 4.5000000000000
  43
 4.5000000000000
  50
 180.00000000000
   0
INSERT
   5
137
 100
AcDbEntity
   8
LEVEL003
   6
CONTINUOUS
  62
3
 100
AcDbBlockReference
   2
_OPEN
  10
 184.99999941885
  20
 397.50000000000
  30
0.0
  41
 4.5000000000000
  42
 4.5000000000000
  43
 4.5000000000000
  50
0.0
   0
MTEXT
   5
138
 100
AcDbEntity
   8
LEVEL003
  62
3
 100
AcDbMText
  10
 157.50000000000
  20
 398.70000000000
  30
0.0
  40
 6.0000000000000
  41
0.0
  71
8
  72
1
   1
\A1;%%c55
   7
GMM001
   0
ENDBLK
   5
139
 100
AcDbEntity
   8
0
 100
AcDbBlockEnd
   0
ENDSEC
   0
SECTION
   2
ENTITIES
   0
LINE
   5
13A
 100
AcDbEntity
   8
LEVEL001
 100
AcDbLine
   6
DASHDOT
  62
1
  10
 212.50002530217
  20
 74.499982967973
  30
0.0
  11
 212.50002530217
  21
 106.05317416629
  31
0.0
   0
ARC
   5
13B
 100
AcDbEntity
   8
LEVEL001
   6
CONTINUOUS
  62
7
 100
AcDbCircle
  10
 157.48534798864
  20
 277.49999217689
  30
0.0
  40
 12.500000581145
 100
AcDbArc
  50
 89.932856507219
  51
 270.06714349278
   0
ARC
   5
13C
 100
AcDbEntity
   8
LEVEL001
   6
CONTINUOUS
  62
7
 100
AcDbCircle
  10
 157.50006645005
  20
 245.50000934296
  30
0.0
  40
 36.499999865890
 100
AcDbArc
  50
 109.64731001267
  51
 269.99989007635
   0
ARC
   5
13D
 100
AcDbEntity
   8
LEVEL001
   6
CONTINUOUS
  62
7
 100
AcDbCircle
  10
 157.49999642372
  20
 277.49999217689
  30
0.0
  40
 11.500007286668
 100
AcDbArc
  50
 90.000000000000
  51
 270.00000000000
   0
LINE
   5
13E
 100
AcDbEntity
   8
LEVEL001
 100
AcDbLine
   6
CONTINUOUS
  62
7
  10
 75.999983593822
  20
 79.499998077750
  30
0.0
  11
 157.49999642372
  21
 79.499998077750
  31
0.0
   0
LINE
   5
13F
 100
AcDbEntity
   8
LEVEL001
 100
AcDbLine
   6
DASHDOT
  62
1
  10
 89.999998435378
  20
 74.499982967973
  30
0.0
  11
 89.999998435378
  21
 102.72445417272
  31
0.0
   0
LINE
   5
140
 100
AcDbEntity
   8
LEVEL001
 100
AcDbLine
   6
DOT
  62
7
  10
 83.999998614192
  20
 77.499982878566
  30
0.0
  11
 84.875002402812
  21
 78.374975223095
  31
0.0
   0
LINE
   5
141
 100
AcDbEntity
   8
LEVEL001
 100
AcDbLine
   6
DOT
  62
7
  10
 84.875002402812
  20
 78.374975223095
  30
0.0
  11
 84.875002402812
  21
 96.765527195766
  31
0.0
   0
LINE
   5
142
 100
AcDbEntity
   8
LEVEL001
 100
AcDbLine
   6
DOT
  62
7
  10
 84.875002402812
  20
 96.765527195766
  30
0.0
  11
 89.999998435378
  21
 99.724454262124
  31
0.0
   0
LINE
   5
143
 100
AcDbEntity
   8
LEVEL001
 100
AcDbLine
   6
DOT
  62
7
  10
 89.999998435378
  20
 99.724454262124
  30
0.0
  11
 95.124994467944
  21
 96.765527195766
  31
0.0
   0
LINE
   5
144
 100
AcDbEntity
   8
LEVEL001
 100
AcDbLine
   6
DOT
  62
7
  10
 95.124994467944
  20
 96.765527195766
  30
0.0
  11
 95.124994467944
  21
 78.374975223095
  31
0.0
   0
LINE
   5
145
 100
AcDbEntity
   8
LEVEL001
 100
AcDbLine
   6
DOT
  62
7
  10
 95.124994467944
  20
 78.374975223095
  30
0.0
  11
 95.999998256564
  21
 77.499982878566
  31
0.0
   0
LINE
   5
146
 100
AcDbEntity
   8
LEVEL001
 100
AcDbLine
   6
DOT
  62
7
  10
 84.875002402812
  20
 78.374975223095
  30
0.0
  11
 95.124994467944
  21
 78.374975223095
  31
0.0
   0
LINE
   5
147
 100
AcDbEntity
   8
LEVEL001
 100
AcDbLine
   6
DOT
  62
7
  10
 84.875002402812
  20
 96.765527195766
  30
0.0
  11
 95.124994467944
  21
 96.765527195766
  31
0.0
   0
LINE
   5
148
 100
AcDbEntity
   8
LEVEL001
 100
AcDbLine
   6
DOT
  62
3
  10
 83.999998614192
  20
 77.499982878566
  30
0.0
  11
 83.999998614192
  21
 93.499990031123
  31
0.0
   0
LINE
   5
149
 100
AcDbEntity
   8
LEVEL001
 100
AcDbLine
   6
DOT
  62
3
  10
 83.999998614192
  20
 93.499990031123
  30
0.0
  11
 84.875002402812
  21
 96.765527195766
  31
0.0
   0
LINE
   5
14A
 100
AcDbEntity
   8
LEVEL001
 100
AcDbLine
   6
DOT
  62
3
  10
 83.999998614192
  20
 93.499990031123
  30
0.0
  11
 95.999998256564
  21
 93.499990031123
  31
0.0
   0
LINE
   5
14B
 100
AcDbEntity
   8
LEVEL001
 100
AcDbLine
   6
DOT
  62
3
  10
 95.124994467944
  20
 96.765527195766
  30
0.0
  11
 95.999998256564
  21
 93.499990031123
  31
0.0
   0
LINE
   5
14C
 100
AcDbEntity
   8
LEVEL001
 100
AcDbLine
   6
DOT
  62
3
  10
 95.999998256564
  20
 93.499990031123
  30
0.0
  11
 95.999998256564
  21
 77.499982878566
  31
0.0
   0
ARC
   5
14D
 100
AcDbEntity
   8
LEVEL001
   6
CONTINUOUS
  62
7
 100
AcDbCircle
  10
 206.35964490020
  20
 369.99998940552
  30
0.0
  40
 0.50000000000000
 100
AcDbArc
  50
 14.033708241380
  51
 90.001779972213
   0
LINE
   5
14E
 100
AcDbEntity
   8
LEVEL001
 100
AcDbLine
   6
CONTINUOUS
  62
7
  10
 206.84472151563
  20
 370.12123575445
  30
0.0
  11
 207.50001019239
  21
 367.49998949468
  31
0.0
   0
LINE
   5
14F
 100
AcDbEntity
   8
LEVEL001
 100
AcDbLine
   6
CONTINUOUS
  62
3
  10
 236.00000934303
  20
 361.99995914102
  30
0.0
  11
 236.00000934303
  21
 307.49999128282
  31
0.0
   0
LINE
   5
150
 100
AcDbEntity
   8
LEVEL001
 100
AcDbLine
   6
CONTINUOUS
  62
3
  10
 236.00000934303
  20
 307.49999128282
  30
0.0
  11
 237.50000929832
  21
 307.49999128282
  31
0.0
   0
LINE
   5
151
 100
AcDbEntity
   8
LEVEL001
 100
AcDbLine
   6
CONTINUOUS
  62
7
  10
 235.49999409914
  20
 366.50000478327
  30
0.0
  11
 234.50000938773
  21
 367.49998949468
  31
0.0
   0
LINE
   5
152
 100
AcDbEntity
   8
LEVEL001
 100
AcDbLine
   6
CONTINUOUS
  62
7
  10
 235.49999409914
  20
 362.50002016127
  30
0.0
  11
 235.49999409914
  21
 366.50000478327
  31
0.0
   0
LINE
   5
153
 100
AcDbEntity
   8
LEVEL001
 100
AcDbLine
   6
CONTINUOUS
  62
3
  10
 236.00000934303
  20
 307.49999128282
  30
0.0
  11
 237.50000929832
  21
 304.90193075234
  31
0.0
   0
LINE
   5
154
 100
AcDbEntity
   8
LEVEL001
 100
AcDbLine
   6
CONTINUOUS
  62
7
  10
 235.49999409914
  20
 362.50002016127
  30
0.0
  11
 237.50000929832
  21
 360.49995918572
  31
0.0
   0
LINE
   5
155
 100
AcDbEntity
   8
LEVEL001
 100
AcDbLine
   6
CONTINUOUS
  62
7
  10
 237.50000929832
  20
 360.49995918572
  30
0.0
  11
 237.50000929832
  21
 302.49997617304
  31
0.0
   0
LINE
   5
156
 100
AcDbEntity
   8
LEVEL001
 100
AcDbLine
   6
CONTINUOUS
  62
7
  10
 239.00000925362
  20
 300.99997621775
  30
0.0
  11
 237.50000929832
  21
 302.49997617304
  31
0.0
   0
LINE
   5
157
 100
AcDbEntity
   8
LEVEL001
 100
AcDbLine
   6
CONTINUOUS
  62
7
  10
 79.499998748302
  20
 366.50000478327
  30
0.0
  11
 80.500006347894
  21
 367.49998949468
  31
0.0
   0
LINE
   5
158
 100
AcDbEntity
   8
LEVEL001
 100
AcDbLine
   6
CONTINUOUS
  62
7
  10
 79.499998748302
  20
 362.50002016127
  30
0.0
  11
 79.499998748302
  21
 366.50000478327
  31
0.0
   0
LINE
   5
159
 100
AcDbEntity
   8
LEVEL001
 100
AcDbLine
   6
CONTINUOUS
  62
7
  10
 75.999983593822
  20
 300.99997621775
  30
0.0
  11
 77.499983549119
  21
 302.49997617304
  31
0.0
   0
ARC
   5
15A
 100
AcDbEntity
   8
LEVEL001
   6
CONTINUOUS
  62
7
 100
AcDbCircle
  10
 108.64037083542
  20
 369.99998940534
  30
0.0
  40
 0.50000000000000
 100
AcDbArc
  50
 90.000842819576
  51
 165.96629173831
   0
LINE
   5
15B
 100
AcDbEntity
   8
LEVEL001
 100
AcDbLine
   6
CONTINUOUS
  62
7
  10
 108.15529421999
  20
 370.12123575445
  30
0.0
  11
 107.49998265505
  21
 367.49998949468
  31
0.0
   0
LINE
   5
15C
 100
AcDbEntity
   8
LEVEL001
 100
AcDbLine
   6
CONTINUOUS
  62
7
  10
 80.500006347894
  20
 367.49998949468
  30
0.0
  11
 157.49999642372
  21
 367.49998949468
  31
0.0
   0
LINE
   5
15D
 100
AcDbEntity
   8
LEVEL001
 100
AcDbLine
   6
CONTINUOUS
  62
7
  10
 157.49999642372
  20
 370.49998940527
  30
0.0
  11
 108.64036348044
  21
 370.49998940527
  31
0.0
   0
LINE
   5
15E
 100
AcDbEntity
   8
LEVEL001
 100
AcDbLine
   6
CONTINUOUS
  62
7
  10
 157.49999642372
  20
 381.50000433624
  30
0.0
  11
 109.49999785423
  21
 381.50000433624
  31
0.0
   0
LINE
   5
15F
 100
AcDbEntity
   8
LEVEL001
 100
AcDbLine
   6
CONTINUOUS
  62
7
  10
 79.499998748302
  20
 366.50000478327
  30
0.0
  11
 157.49999642372
  21
 366.50000478327
  31
0.0
   0
LINE
   5
160
 100
AcDbEntity
   8
LEVEL001
 100
AcDbLine
   6
CONTINUOUS
  62
7
  10
 77.499983549119
  20
 304.90193075234
  30
0.0
  11
 157.49999642372
  21
 304.90193075234
  31
0.0
   0
LINE
   5
161
 100
AcDbEntity
   8
LEVEL001
 100
AcDbLine
   6
CONTINUOUS
  62
7
  10
 157.49999642372
  20
 300.99997621775
  30
0.0
  11
 75.999983593822
  21
 300.99997621775
  31
0.0
   0
LINE
   5
162
 100
AcDbEntity
   8
LEVEL001
 100
AcDbLine
   6
CONTINUOUS
  62
7
  10
 77.499983549119
  20
 302.49997617304
  30
0.0
  11
 157.49999642372
  21
 302.49997617304
  31
0.0
   0
LINE
   5
163
 100
AcDbEntity
   8
LEVEL001
 100
AcDbLine
   6
CONTINUOUS
  62
7
  10
 239.00000925362
  20
 300.99997621775
  30
0.0
  11
 239.00000925362
  21
 299.55451880233
  31
0.0
   0
LINE
   5
164
 100
AcDbEntity
   8
LEVEL001
 100
AcDbLine
   6
CONTINUOUS
  62
7
  10
 75.999983593822
  20
 300.99997621775
  30
0.0
  11
 75.999983593822
  21
 291.01203095877
  31
0.0
   0
TEXT
   5
165
 100
AcDbEntity
   8
LEVEL003
  62
3
 100
AcDbText
  10
 262.15969179095
  20
 397.63150409962
  30
0.0
  40
 5.9999998211861
   1
Ｍ１６０×３
   7
STANDARD
 100
AcDbText
   0
LEADER
   5
166
 100
AcDbEntity
   8
LEVEL003
   6
CONTINUOUS
  62
3
 100
AcDbLeader
   3
GMM001
  73
0
  74
1
  75
0
  40
 6.0000000000000
  41
0.0
  76
3
  10
 237.50000929832
  20
 352.49998994172
  30
0.0
  10
 262.15969179095
  20
 397.63150409962
  30
0.0
  10
 299.99999217689
  20
 397.49998860061
  30
0.0
  77
3
   0
LEADER
   5
167
 100
AcDbEntity
   8
LEVEL003
   6
CONTINUOUS
  62
3
 100
AcDbLeader
   3
GMM002
  73
0
  74
1
  75
0
  40
 6.0000000000000
  41
0.0
  76
2
  10
 157.49999642372
  20
 37.499999329448
  30
0.0
  10
 157.49999642372
  20
 29.999999552965
  30
0.0
  77
3
   0
TEXT
   5
168
 100
AcDbEntity
   8
LEVEL003
  62
3
 100
AcDbText
  10
 154.20026431381
  20
 22.823095088509
  30
0.0
  40
 5.9999998211861
   1
Ａ
   7
STANDARD
 100
AcDbText
   0
LINE
   5
169
 100
AcDbEntity
   8
LEVEL001
 100
AcDbLine
   6
DASHDOT
  62
1
  10
 247.37671798835
  20
 297.21024244397
  30
0.0
  11
 67.623389300007
  21
 287.78976390392
  31
0.0
   0
LINE
   5
16A
 100
AcDbEntity
   8
LEVEL001
 100
AcDbLine
   6
DASHDOT
  62
1
  10
 247.49999374151
  20
 299.99999150634
  30
0.0
  11
 67.746665053169
  21
 290.57951296629
  31
0.0
   0
TEXT
   5
16B
 100
AcDbEntity
   8
LEVEL003
  62
3
 100
AcDbText
  10
 254.99999351800
  20
 52.499998882413
  30
0.0
  40
 5.9999998211861
   1
２－ＮＰＴ３／８
   7
STANDARD
 100
AcDbText
   0
LINE
   5
16C
 100
AcDbEntity
   8
LEVEL001
 100
AcDbLine
   6
CONTINUOUS
  62
3
  10
 249.00001658499
  20
 108.14347180297
  30
0.0
  11
 245.38368368495
  21
 107.17447769122
  31
0.0
   0
LINE
   5
16D
 100
AcDbEntity
   8
LEVEL001
 100
AcDbLine
   6
CONTINUOUS
  62
3
  10
 249.00001658499
  20
 90.856462125288
  30
0.0
  11
 245.38363790859
  21
 91.825467681126
  31
0.0
   0
LINE
   5
16E
 100
AcDbEntity
   8
LEVEL001
 100
AcDbLine
   6
CONTINUOUS
  62
7
  10
 249.00001658499
  20
 108.14347180297
  30
0.0
  11
 250.48353704859
  21
 108.99999338388
  31
0.0
   0
LINE
   5
16F
 100
AcDbEntity
   8
LEVEL001
 100
AcDbLine
   6
CONTINUOUS
  62
7
  10
 249.00001658499
  20
 90.856462125288
  30
0.0
  11
 250.48353704859
  21
 89.999963432552
  31
0.0
   0
ARC
   5
170
 100
AcDbEntity
   8
LEVEL001
   6
CONTINUOUS
  62
7
 100
AcDbCircle
  10
 267.50000840425
  20
 112.49996276200
  30
0.0
  40
 1.4999999552965
 100
AcDbArc
  50
 89.999999999839
  51
 180.00000000008
   0
LINE
   5
171
 100
AcDbEntity
   8
LEVEL001
 100
AcDbLine
   6
CONTINUOUS
  62
7
  10
 267.50000840425
  20
 113.99996271730
  30
0.0
  11
 272.50000062585
  21
 113.99996271730
  31
0.0
   0
ARC
   5
172
 100
AcDbEntity
   8
LEVEL001
   6
CONTINUOUS
  62
7
 100
AcDbCircle
  10
 267.50000840425
  20
 86.499971166254
  30
0.0
  40
 1.4999999552965
 100
AcDbArc
  50
 180.00000000000
  51
 270.00000000008
   0
LINE
   5
173
 100
AcDbEntity
   8
LEVEL001
 100
AcDbLine
   6
CONTINUOUS
  62
7
  10
 266.00000844896
  20
 86.499971166254
  30
0.0
  11
 266.00000844896
  21
 112.49996276200
  31
0.0
   0
LINE
   5
174
 100
AcDbEntity
   8
LEVEL001
 100
AcDbLine
   6
CONTINUOUS
  62
7
  10
 267.50000840425
  20
 84.999971210957
  30
0.0
  11
 272.50000062585
  21
 84.999971210957
  31
0.0
   0
ARC
   5
175
 100
AcDbEntity
   8
LEVEL001
   6
CONTINUOUS
  62
7
 100
AcDbCircle
  10
 288.50000777841
  20
 112.49996276200
  30
0.0
  40
 1.4999999552965
 100
AcDbArc
  50
 0.86850349090245E-11
  51
 90.000000000048
   0
LINE
   5
176
 100
AcDbEntity
   8
LEVEL001
 100
AcDbLine
   6
CONTINUOUS
  62
7
  10
 283.50001555681
  20
 113.99996271730
  30
0.0
  11
 288.50000777841
  21
 113.99996271730
  31
0.0
   0
ARC
   5
177
 100
AcDbEntity
   8
LEVEL001
   6
CONTINUOUS
  62
7
 100
AcDbCircle
  10
 288.50000777841
  20
 86.499971166255
  30
0.0
  40
 1.4999999552965
 100
AcDbArc
  50
 270.00000000000
  51
0.0
   0
LINE
   5
178
 100
AcDbEntity
   8
LEVEL001
 100
AcDbLine
   6
CONTINUOUS
  62
7
  10
 283.50001555681
  20
 84.999971210957
  30
0.0
  11
 288.50000777841
  21
 84.999971210957
  31
0.0
   0
LINE
   5
179
 100
AcDbEntity
   8
LEVEL001
 100
AcDbLine
   6
CONTINUOUS
  62
7
  10
 290.00000773370
  20
 112.49996276200
  30
0.0
  11
 290.00000773370
  21
 86.499971166254
  31
0.0
   0
ARC
   5
17A
 100
AcDbEntity
   8
LEVEL001
   6
DASHDOT
  62
1
 100
AcDbCircle
  10
 299.00001506510
  20
 112.49997036162
  30
0.0
  40
 1.0000000000000
 100
AcDbArc
  50
0.0
  51
 90.000435426344
   0
LINE
   5
17B
 100
AcDbEntity
   8
LEVEL001
 100
AcDbLine
   6
DASHDOT
  62
1
  10
 291.00001533329
  20
 113.49997036159
  30
0.0
  11
 299.00000746548
  21
 113.49997036159
  31
0.0
   0
ARC
   5
17C
 100
AcDbEntity
   8
LEVEL001
   6
DASHDOT
  62
1
 100
AcDbCircle
  10
 299.00001506510
  20
 86.499963566637
  30
0.0
  40
 1.0000000000000
 100
AcDbArc
  50
 269.99956457380
  51
 0.43542596493967E-3
   0
LINE
   5
17D
 100
AcDbEntity
   8
LEVEL001
 100
AcDbLine
   6
DASHDOT
  62
1
  10
 291.00001533329
  20
 85.499963566662
  30
0.0
  11
 299.00000746548
  21
 85.499963566662
  31
0.0
   0
LINE
   5
17E
 100
AcDbEntity
   8
LEVEL001
 100
AcDbLine
   6
DASHDOT
  62
1
  10
 300.00001506507
  20
 112.49996276200
  30
0.0
  11
 300.00001506507
  21
 86.499971166254
  31
0.0
   0
CIRCLE
   5
17F
 100
AcDbEntity
   8
LEVEL001
 100
AcDbCircle
   6
DASHDOT
  62
1
  10
 303.00001497567
  20
 99.499966964127
  30
0.0
  40
 1.4999999552965
   0
ARC
   5
180
 100
AcDbEntity
   8
LEVEL001
   6
DASHDOT
  62
1
 100
AcDbCircle
  10
 291.00000773367
  20
 86.499963566632
  30
0.0
  40
 1.0000000000000
 100
AcDbArc
  50
 179.99956457374
  51
 270.00043542596
   0
ARC
   5
181
 100
AcDbEntity
   8
LEVEL001
   6
DASHDOT
  62
1
 100
AcDbCircle
  10
 291.00000773367
  20
 112.49997036162
  30
0.0
  40
 1.0000000000000
 100
AcDbArc
  50
 89.999564573864
  51
 180.00043542619
   0
ARC
   5
182
 100
AcDbEntity
   8
LEVEL001
   6
DASHDOT
  62
1
 100
AcDbCircle
  10
 302.00001506506
  20
 104.99997067450
  30
0.0
  40
 2.0000000000000
 100
AcDbArc
  50
 180.00022027317
  51
 269.99977972685
   0
ARC
   5
183
 100
AcDbEntity
   8
LEVEL001
   6
DASHDOT
  62
1
 100
AcDbCircle
  10
 302.00001506506
  20
 93.999963253752
  30
0.0
  40
 2.0000000000000
 100
AcDbArc
  50
 90.000220273125
  51
 179.99977972684
   0
LINE
   5
184
 100
AcDbEntity
   8
LEVEL001
 100
AcDbLine
   6
DASHDOT
  62
1
  10
 302.00000737607
  20
 102.99997067452
  30
0.0
  11
 302.49999973178
  21
 102.99997067452
  31
0.0
   0
LINE
   5
185
 100
AcDbEntity
   8
LEVEL001
 100
AcDbLine
   6
DASHDOT
  62
1
  10
 302.00000737607
  20
 95.999963253738
  30
0.0
  11
 302.49999973178
  21
 95.999963253738
  31
0.0
   0
ARC
   5
186
 100
AcDbEntity
   8
LEVEL001
   6
DASHDOT
  62
1
 100
AcDbCircle
  10
 302.49999973178
  20
 99.499966964127
  30
0.0
  40
 3.5000037103890
 100
AcDbArc
  50
 270.00000000000
  51
 90.000000000000
   0
LINE
   5
187
 100
AcDbEntity
   8
LEVEL001
 100
AcDbLine
   6
CONTINUOUS
  62
7
  10
 245.00000907481
  20
 95.460786328888
  30
0.0
  11
 259.00000102818
  21
 105.33091466633
  31
0.0
   0
LINE
   5
188
 100
AcDbEntity
   8
LEVEL001
 100
AcDbLine
   6
CONTINUOUS
  62
7
  10
 245.00000907481
  20
 103.53914759936
  30
0.0
  11
 259.00000102818
  21
 93.669019261926
  31
0.0
   0
LINE
   5
189
 100
AcDbEntity
   8
LEVEL001
 100
AcDbLine
   6
CONTINUOUS
  62
3
  10
 245.38368368495
  20
 107.17446624713
  30
0.0
  11
 245.38368368495
  21
 103.53914759936
  31
0.0
   0
LINE
   5
18A
 100
AcDbEntity
   8
LEVEL001
 100
AcDbLine
   6
CONTINUOUS
  62
3
  10
 245.38363790859
  20
 95.460786328888
  30
0.0
  11
 245.38363790859
  21
 91.825467681126
  31
0.0
   0
LINE
   5
18B
 100
AcDbEntity
   8
LEVEL001
 100
AcDbLine
   6
CONTINUOUS
  62
7
  10
 249.00001658499
  20
 108.14347180297
  30
0.0
  11
 249.00001658499
  21
 103.79650232802
  31
0.0
   0
LINE
   5
18C
 100
AcDbEntity
   8
LEVEL001
 100
AcDbLine
   6
CONTINUOUS
  62
7
  10
 249.00001658499
  20
 95.203431600230
  30
0.0
  11
 249.00001658499
  21
 90.856462125288
  31
0.0
   0
LINE
   5
18D
 100
AcDbEntity
   8
LEVEL001
 100
AcDbLine
   6
CONTINUOUS
  62
3
  10
 272.50000062585
  20
 86.499971166254
  30
0.0
  11
 283.50001555681
  21
 86.499971166254
  31
0.0
   0
LINE
   5
18E
 100
AcDbEntity
   8
LEVEL001
 100
AcDbLine
   6
CONTINUOUS
  62
3
  10
 272.50000062585
  20
 88.499963477255
  30
0.0
  11
 283.50001555681
  21
 88.499963477255
  31
0.0
   0
LINE
   5
18F
 100
AcDbEntity
   8
LEVEL001
 100
AcDbLine
   6
CONTINUOUS
  62
3
  10
 272.50000062585
  20
 90.499967232348
  30
0.0
  11
 283.50001555681
  21
 90.499967232348
  31
0.0
   0
LINE
   5
190
 100
AcDbEntity
   8
LEVEL001
 100
AcDbLine
   6
CONTINUOUS
  62
3
  10
 272.50000062585
  20
 92.499970987440
  30
0.0
  11
 283.50001555681
  21
 92.499970987440
  31
0.0
   0
LINE
   5
191
 100
AcDbEntity
   8
LEVEL001
 100
AcDbLine
   6
CONTINUOUS
  62
3
  10
 272.50000062585
  20
 94.499963298441
  30
0.0
  11
 283.50001555681
  21
 94.499963298441
  31
0.0
   0
LINE
   5
192
 100
AcDbEntity
   8
LEVEL001
 100
AcDbLine
   6
CONTINUOUS
  62
3
  10
 272.50000062585
  20
 96.499967053534
  30
0.0
  11
 283.50001555681
  21
 96.499967053534
  31
0.0
   0
LINE
   5
193
 100
AcDbEntity
   8
LEVEL001
 100
AcDbLine
   6
CONTINUOUS
  62
3
  10
 272.50000062585
  20
 98.499970808626
  30
0.0
  11
 283.50001555681
  21
 98.499970808626
  31
0.0
   0
LINE
   5
194
 100
AcDbEntity
   8
LEVEL001
 100
AcDbLine
   6
CONTINUOUS
  62
3
  10
 272.50000062585
  20
 100.49996311963
  30
0.0
  11
 283.50001555681
  21
 100.49996311963
  31
0.0
   0
LINE
   5
195
 100
AcDbEntity
   8
LEVEL001
 100
AcDbLine
   6
CONTINUOUS
  62
3
  10
 272.50000062585
  20
 102.49996687472
  30
0.0
  11
 283.50001555681
  21
 102.49996687472
  31
0.0
   0
LINE
   5
196
 100
AcDbEntity
   8
LEVEL001
 100
AcDbLine
   6
CONTINUOUS
  62
3
  10
 272.50000062585
  20
 104.49997062981
  30
0.0
  11
 283.50001555681
  21
 104.49997062981
  31
0.0
   0
LINE
   5
197
 100
AcDbEntity
   8
LEVEL001
 100
AcDbLine
   6
CONTINUOUS
  62
3
  10
 272.50000062585
  20
 106.49996294081
  30
0.0
  11
 283.50001555681
  21
 106.49996294081
  31
0.0
   0
LINE
   5
198
 100
AcDbEntity
   8
LEVEL001
 100
AcDbLine
   6
CONTINUOUS
  62
3
  10
 272.50000062585
  20
 108.49996669591
  30
0.0
  11
 283.50001555681
  21
 108.49996669591
  31
0.0
   0
LINE
   5
199
 100
AcDbEntity
   8
LEVEL001
 100
AcDbLine
   6
CONTINUOUS
  62
3
  10
 272.50000062585
  20
 110.49997045100
  30
0.0
  11
 283.50001555681
  21
 110.49997045100
  31
0.0
   0
LINE
   5
19A
 100
AcDbEntity
   8
LEVEL001
 100
AcDbLine
   6
CONTINUOUS
  62
3
  10
 272.50000062585
  20
 112.49996276200
  30
0.0
  11
 283.50001555681
  21
 112.49996276200
  31
0.0
   0
LINE
   5
19B
 100
AcDbEntity
   8
LEVEL001
 100
AcDbLine
   6
CONTINUOUS
  62
7
  10
 245.00000907481
  20
 95.460786328888
  30
0.0
  11
 245.00000907481
  21
 103.53914759936
  31
0.0
   0
LINE
   5
19C
 100
AcDbEntity
   8
LEVEL001
 100
AcDbLine
   6
CONTINUOUS
  62
7
  10
 245.00000907481
  20
 103.53914759936
  30
0.0
  11
 249.00001658499
  21
 103.79650232802
  31
0.0
   0
LINE
   5
19D
 100
AcDbEntity
   8
LEVEL001
 100
AcDbLine
   6
CONTINUOUS
  62
7
  10
 249.00001658499
  20
 103.79650232802
  30
0.0
  11
 250.48353704859
  21
 105.33091466633
  31
0.0
   0
LINE
   5
19E
 100
AcDbEntity
   8
LEVEL001
 100
AcDbLine
   6
CONTINUOUS
  62
7
  10
 250.48353704859
  20
 105.33091466633
  30
0.0
  11
 259.00000102818
  21
 105.33091466633
  31
0.0
   0
LINE
   5
19F
 100
AcDbEntity
   8
LEVEL001
 100
AcDbLine
   6
CONTINUOUS
  62
7
  10
 259.00000102818
  20
 105.33091466633
  30
0.0
  11
 259.00000102818
  21
 93.669019261926
  31
0.0
   0
LINE
   5
1A0
 100
AcDbEntity
   8
LEVEL001
 100
AcDbLine
   6
CONTINUOUS
  62
7
  10
 259.00000102818
  20
 93.669019261926
  30
0.0
  11
 250.48353704859
  21
 93.669019261926
  31
0.0
   0
LINE
   5
1A1
 100
AcDbEntity
   8
LEVEL001
 100
AcDbLine
   6
CONTINUOUS
  62
7
  10
 250.48353704859
  20
 93.669019261926
  30
0.0
  11
 249.00001658499
  21
 95.203431600230
  31
0.0
   0
LINE
   5
1A2
 100
AcDbEntity
   8
LEVEL001
 100
AcDbLine
   6
CONTINUOUS
  62
7
  10
 249.00001658499
  20
 95.203431600230
  30
0.0
  11
 245.00000907481
  21
 95.460786328888
  31
0.0
   0
LINE
   5
1A3
 100
AcDbEntity
   8
LEVEL001
 100
AcDbLine
   6
CONTINUOUS
  62
7
  10
 272.50000062585
  20
 84.499967411161
  30
0.0
  11
 272.50000062585
  21
 114.49996651709
  31
0.0
   0
LINE
   5
1A4
 100
AcDbEntity
   8
LEVEL001
 100
AcDbLine
   6
CONTINUOUS
  62
7
  10
 272.50000062585
  20
 114.49996651709
  30
0.0
  11
 283.50001555681
  21
 114.49996651709
  31
0.0
   0
LINE
   5
1A5
 100
AcDbEntity
   8
LEVEL001
 100
AcDbLine
   6
CONTINUOUS
  62
7
  10
 283.50001555681
  20
 114.49996651709
  30
0.0
  11
 283.50001555681
  21
 84.499967411161
  31
0.0
   0
LINE
   5
1A6
 100
AcDbEntity
   8
LEVEL001
 100
AcDbLine
   6
CONTINUOUS
  62
7
  10
 283.50001555681
  20
 84.499967411161
  30
0.0
  11
 272.50000062585
  21
 84.499967411161
  31
0.0
   0
LINE
   5
1A7
 100
AcDbEntity
   8
LEVEL001
 100
AcDbLine
   6
DASHDOT
  62
1
  10
 309.00001479685
  20
 99.499966964127
  30
0.0
  11
 211.06324250808
  21
 99.499966964127
  31
0.0
   0
LEADER
   5
1A8
 100
AcDbEntity
   8
LEVEL003
   6
CONTINUOUS
  62
3
 100
AcDbLeader
   3
GMM001
  73
0
  74
1
  75
0
  40
 6.0000000000000
  41
0.0
  76
3
  10
 242.14306030741
  20
 91.070752737798
  30
0.0
  10
 254.99999351800
  20
 52.499998882413
  30
0.0
  10
 307.49999195337
  20
 52.499998882413
  30
0.0
  77
3
   0
CIRCLE
   5
1A9
 100
AcDbEntity
   8
LEVEL001
 100
AcDbCircle
   6
CONTINUOUS
  62
7
  10
 361.88073526678
  20
 121.88654390316
  30
0.0
  40
 2.2140000398755
   0
CIRCLE
   5
1AA
 100
AcDbEntity
   8
LEVEL001
 100
AcDbCircle
   6
CONTINUOUS
  62
3
  10
 361.88073526678
  20
 121.88654390316
  30
0.0
  40
 2.5920001688003
   0
LINE
   5
1AB
 100
AcDbEntity
   8
LEVEL001
 100
AcDbLine
   6
DASHDOT
  62
1
  10
 364.62997224540
  20
 124.63574654949
  30
0.0
  11
 359.13154406454
  21
 119.13729548045
  31
0.0
   0
ARC
   5
1AC
 100
AcDbEntity
   8
LEVEL001
   6
DASHDOT
  62
1
 100
AcDbCircle
  10
 382.49993729600
  20
 142.50580457579
  30
0.0
  40
 29.159999932051
 100
AcDbArc
  50
 212.24134723539
  51
 237.75886875382
   0
CIRCLE
   5
1AD
 100
AcDbEntity
   8
LEVEL001
 100
AcDbCircle
   6
CONTINUOUS
  62
7
  10
 403.11922128143
  20
 121.88652101497
  30
0.0
  40
 2.2140000398755
   0
CIRCLE
   5
1AE
 100
AcDbEntity
   8
LEVEL001
 100
AcDbCircle
   6
CONTINUOUS
  62
3
  10
 403.11922128143
  20
 121.88652101497
  30
0.0
  40
 2.5920001688003
   0
LINE
   5
1AF
 100
AcDbEntity
   8
LEVEL001
 100
AcDbLine
   6
DASHDOT
  62
1
  10
 400.37003007919
  20
 124.63574654949
  30
0.0
  11
 405.86850403641
  21
 119.13730692454
  31
0.0
   0
ARC
   5
1B0
 100
AcDbEntity
   8
LEVEL001
   6
DASHDOT
  62
1
 100
AcDbCircle
  10
 382.49999527800
  20
 142.50577801027
  30
0.0
  40
 29.159999932051
 100
AcDbArc
  50
 302.24118693995
  51
 327.75874106374
   0
CIRCLE
   5
1B1
 100
AcDbEntity
   8
LEVEL001
 100
AcDbCircle
   6
CONTINUOUS
  62
7
  10
 403.11922128143
  20
 163.12500702962
  30
0.0
  40
 2.2140000398755
   0
CIRCLE
   5
1B2
 100
AcDbEntity
   8
LEVEL001
 100
AcDbCircle
   6
CONTINUOUS
  62
3
  10
 403.11922128143
  20
 163.12500702962
  30
0.0
  40
 2.5920001688003
   0
LINE
   5
1B3
 100
AcDbEntity
   8
LEVEL001
 100
AcDbLine
   6
DASHDOT
  62
1
  10
 400.37003007919
  20
 160.37578149510
  30
0.0
  11
 405.86845826005
  21
 165.87425545233
  31
0.0
   0
ARC
   5
1B4
 100
AcDbEntity
   8
LEVEL001
   6
DASHDOT
  62
1
 100
AcDbCircle
  10
 382.50003123937
  20
 142.50572735217
  30
0.0
  40
 29.159999932051
 100
AcDbArc
  50
 32.241391385005
  51
 57.758896600778
   0
CIRCLE
   5
1B5
 100
AcDbEntity
   8
LEVEL001
 100
AcDbCircle
   6
CONTINUOUS
  62
7
  10
 361.88073526678
  20
 163.12501847371
  30
0.0
  40
 2.2140000398755
   0
CIRCLE
   5
1B6
 100
AcDbEntity
   8
LEVEL001
 100
AcDbCircle
   6
CONTINUOUS
  62
3
  10
 361.88073526678
  20
 163.12501847371
  30
0.0
  40
 2.5920001688003
   0
LINE
   5
1B7
 100
AcDbEntity
   8
LEVEL001
 100
AcDbLine
   6
DASHDOT
  62
1
  10
 364.62997224540
  20
 160.37578149510
  30
0.0
  11
 359.13152117635
  21
 165.87423256414
  31
0.0
   0
ARC
   5
1B8
 100
AcDbEntity
   8
LEVEL001
   6
DASHDOT
  62
1
 100
AcDbCircle
  10
 382.49997639164
  20
 142.50578545257
  30
0.0
  40
 29.159999932051
 100
AcDbArc
  50
 122.24127523901
  51
 147.75879675740
   0
CIRCLE
   5
1B9
 100
AcDbEntity
   8
LEVEL001
 100
AcDbCircle
   6
CONTINUOUS
  62
7
  10
 382.49998971820
  20
 118.74577022356
  30
0.0
  40
 3.2292003861308
   0
CIRCLE
   5
1BA
 100
AcDbEntity
   8
LEVEL001
 100
AcDbCircle
   6
CONTINUOUS
  62
3
  10
 382.49998971820
  20
 118.74577022356
  30
0.0
  40
 3.5989918828311
   0
ARC
   5
1BB
 100
AcDbEntity
   8
LEVEL001
   6
DASHDOT
  62
1
 100
AcDbCircle
  10
 382.49998971820
  20
 142.50575697907
  30
0.0
  40
 23.760000951290
 100
AcDbArc
  50
 243.72683436361
  51
 296.27316563639
   0
CIRCLE
   5
1BC
 100
AcDbEntity
   8
LEVEL001
 100
AcDbCircle
   6
CONTINUOUS
  62
7
  10
 382.49998971820
  20
 142.50577546639
  30
0.0
  40
 17.280000171661
   0
CIRCLE
   5
1BD
 100
AcDbEntity
   8
LEVEL001
 100
AcDbCircle
   6
CONTINUOUS
  62
7
  10
 382.49998971820
  20
 142.50577546639
  30
0.0
  40
 16.848001454830
   0
CIRCLE
   5
1BE
 100
AcDbEntity
   8
LEVEL001
 100
AcDbCircle
   6
CONTINUOUS
  62
7
  10
 382.49998971820
  20
 142.50577546639
  30
0.0
  40
 11.880000475645
   0
CIRCLE
   5
1BF
 100
AcDbEntity
   8
LEVEL001
 100
AcDbCircle
   6
CONTINUOUS
  62
7
  10
 382.49998971820
  20
 142.50577546639
  30
0.0
  40
 11.448001758814
   0
LINE
   5
1C0
 100
AcDbEntity
   8
LEVEL001
 100
AcDbLine
   6
DASHDOT
  62
1
  10
 382.49998971820
  20
 181.38576011700
  30
0.0
  11
 382.49998971820
  21
 103.62576792759
  31
0.0
   0
CIRCLE
   5
1C1
 100
AcDbEntity
   8
LEVEL001
 100
AcDbCircle
   6
CONTINUOUS
  62
7
  10
 382.49998971820
  20
 142.50577546639
  30
0.0
  40
 35.208001994848
   0
CIRCLE
   5
1C2
 100
AcDbEntity
   8
LEVEL001
 100
AcDbCircle
   6
CONTINUOUS
  62
7
  10
 382.49998971820
  20
 142.50577546639
  30
0.0
  40
 34.344001700163
   0
LINE
   5
1C3
 100
AcDbEntity
   8
LEVEL003
 100
AcDbLine
   6
CONTINUOUS
  62
3
  10
 363.74999027699
  20
 84.843747918494
  30
0.0
  11
 401.24998915941
  21
 84.843747918494
  31
0.0
   0
TEXT
   5
1C4
 100
AcDbEntity
   8
LEVEL003
  62
3
 100
AcDbText
  10
 366.74999018759
  20
 84.843747918494
  30
0.0
  40
 6.0000005364418
   1
Ａ　矢　視
   7
STANDARD
 100
AcDbText
   0
LINE
   5
1C5
 100
AcDbEntity
   8
LEVEL001
 100
AcDbLine
   6
CONTINUOUS
  62
3
  10
 421.83726881929
  20
 146.22804632103
  30
0.0
  11
 420.27748493023
  21
 145.81010810107
  31
0.0
   0
LINE
   5
1C6
 100
AcDbEntity
   8
LEVEL001
 100
AcDbLine
   6
CONTINUOUS
  62
3
  10
 421.83726881929
  20
 138.77194607937
  30
0.0
  11
 420.27748493023
  21
 139.18988429934
  31
0.0
   0
LINE
   5
1C7
 100
AcDbEntity
   8
LEVEL001
 100
AcDbLine
   6
CONTINUOUS
  62
7
  10
 421.83726881929
  20
 146.22804632103
  30
0.0
  11
 422.47713086077
  21
 146.59747303732
  31
0.0
   0
LINE
   5
1C8
 100
AcDbEntity
   8
LEVEL001
 100
AcDbLine
   6
CONTINUOUS
  62
7
  10
 421.83726881929
  20
 138.77194607937
  30
0.0
  11
 422.47713086077
  21
 138.40253080718
  31
0.0
   0
ARC
   5
1C9
 100
AcDbEntity
   8
LEVEL001
   6
CONTINUOUS
  62
7
 100
AcDbCircle
  10
 429.81651272427
  20
 148.10706323157
  30
0.0
  40
 0.64696873286460
 100
AcDbArc
  50
 89.996951604566
  51
 180.00000799805
   0
LINE
   5
1CA
 100
AcDbEntity
   8
LEVEL001
 100
AcDbLine
   6
CONTINUOUS
  62
7
  10
 429.81654714595
  20
 148.75403196353
  30
0.0
  11
 431.97311751625
  21
 148.75403196353
  31
0.0
   0
ARC
   5
1CB
 100
AcDbEntity
   8
LEVEL001
   6
CONTINUOUS
  62
7
 100
AcDbCircle
  10
 429.81651272426
  20
 136.89292916883
  30
0.0
  40
 0.64696873286460
 100
AcDbArc
  50
 179.99999200099
  51
 270.00304839647
   0
LINE
   5
1CC
 100
AcDbEntity
   8
LEVEL001
 100
AcDbLine
   6
CONTINUOUS
  62
7
  10
 429.16954399140
  20
 136.89292925915
  30
0.0
  11
 429.16954399140
  21
 148.10706314125
  31
0.0
   0
LINE
   5
1CD
 100
AcDbEntity
   8
LEVEL001
 100
AcDbLine
   6
CONTINUOUS
  62
7
  10
 429.81654714595
  20
 136.24596043688
  30
0.0
  11
 431.97311751625
  21
 136.24596043688
  31
0.0
   0
ARC
   5
1CE
 100
AcDbEntity
   8
LEVEL001
   6
CONTINUOUS
  62
7
 100
AcDbCircle
  10
 438.87407641487
  20
 148.10706323074
  30
0.0
  40
 0.64696873286460
 100
AcDbArc
  50
 0.25170366266161E-11
  51
 89.998994424648
   0
LINE
   5
1CF
 100
AcDbEntity
   8
LEVEL001
 100
AcDbLine
   6
CONTINUOUS
  62
7
  10
 436.71751739927
  20
 148.75403196353
  30
0.0
  11
 438.87408776957
  21
 148.75403196353
  31
0.0
   0
ARC
   5
1D0
 100
AcDbEntity
   8
LEVEL001
   6
CONTINUOUS
  62
7
 100
AcDbCircle
  10
 438.87407641488
  20
 136.89292916966
  30
0.0
  40
 0.64696873286460
 100
AcDbArc
  50
 270.00100557487
  51
 0.79255593507103E-5
   0
LINE
   5
1D1
 100
AcDbEntity
   8
LEVEL001
 100
AcDbLine
   6
CONTINUOUS
  62
7
  10
 436.71751739927
  20
 136.24596043688
  30
0.0
  11
 438.87408776957
  21
 136.24596043688
  31
0.0
   0
LINE
   5
1D2
 100
AcDbEntity
   8
LEVEL001
 100
AcDbLine
   6
CONTINUOUS
  62
7
  10
 439.52104514775
  20
 148.10706314125
  30
0.0
  11
 439.52104514775
  21
 136.89292925915
  31
0.0
   0
ARC
   5
1D3
 100
AcDbEntity
   8
LEVEL001
   6
DASHDOT
  62
1
 100
AcDbCircle
  10
 443.40287341475
  20
 148.10705558642
  30
0.0
  40
 0.43131247367524
 100
AcDbArc
  50
 0.10035880709775E-2
  51
 89.998996414557
   0
LINE
   5
1D4
 100
AcDbEntity
   8
LEVEL001
 100
AcDbLine
   6
DASHDOT
  62
1
  10
 439.95239584290
  20
 148.53836806004
  30
0.0
  11
 443.40288096956
  21
 148.53836806004
  31
0.0
   0
ARC
   5
1D5
 100
AcDbEntity
   8
LEVEL001
   6
DASHDOT
  62
1
 100
AcDbCircle
  10
 443.40287341474
  20
 136.89293681400
  30
0.0
  40
 0.43131247367524
 100
AcDbArc
  50
 270.00100358664
  51
 359.99899640988
   0
LINE
   5
1D6
 100
AcDbEntity
   8
LEVEL001
 100
AcDbLine
   6
DASHDOT
  62
1
  10
 439.95239584290
  20
 136.46162434037
  30
0.0
  11
 443.40288096956
  21
 136.46162434037
  31
0.0
   0
LINE
   5
1D7
 100
AcDbEntity
   8
LEVEL001
 100
AcDbLine
   6
DASHDOT
  62
1
  10
 443.83418588834
  20
 148.10706314125
  30
0.0
  11
 443.83418588834
  21
 136.89292925915
  31
0.0
   0
CIRCLE
   5
1D8
 100
AcDbEntity
   8
LEVEL001
 100
AcDbCircle
   6
DASHDOT
  62
1
  10
 445.12814642107
  20
 142.49999620020
  30
0.0
  40
 0.64696873286460
   0
ARC
   5
1D9
 100
AcDbEntity
   8
LEVEL001
   6
DASHDOT
  62
1
 100
AcDbCircle
  10
 439.95235762135
  20
 136.89293681236
  30
0.0
  40
 0.43131247367524
 100
AcDbArc
  50
 180.00100337250
  51
 270.00507737019
   0
ARC
   5
1DA
 100
AcDbEntity
   8
LEVEL001
   6
DASHDOT
  62
1
 100
AcDbCircle
  10
 439.95235762134
  20
 148.10705558805
  30
0.0
  40
 0.43131247367524
 100
AcDbArc
  50
 89.994922628189
  51
 179.99899662871
   0
ARC
   5
1DB
 100
AcDbEntity
   8
LEVEL001
   6
DASHDOT
  62
1
 100
AcDbCircle
  10
 444.69681083565
  20
 144.87221125136
  30
0.0
  40
 0.86262494735047
 100
AcDbArc
  50
 179.99948334741
  51
 269.99899640707
   0
ARC
   5
1DC
 100
AcDbEntity
   8
LEVEL001
   6
DASHDOT
  62
1
 100
AcDbCircle
  10
 444.69681083565
  20
 140.12778114906
  30
0.0
  40
 0.86262494735047
 100
AcDbArc
  50
 90.001003592662
  51
 180.00051665314
   0
LINE
   5
1DD
 100
AcDbEntity
   8
LEVEL001
 100
AcDbLine
   6
DASHDOT
  62
1
  10
 444.69679572592
  20
 144.00958630414
  30
0.0
  11
 444.91244818531
  21
 144.00958630414
  31
0.0
   0
LINE
   5
1DE
 100
AcDbEntity
   8
LEVEL001
 100
AcDbLine
   6
DASHDOT
  62
1
  10
 444.69679572592
  20
 140.99040609627
  30
0.0
  11
 444.91244818531
  21
 140.99040609627
  31
0.0
   0
ARC
   5
1DF
 100
AcDbEntity
   8
LEVEL001
   6
DASHDOT
  62
1
 100
AcDbCircle
  10
 444.90916223841
  20
 142.49999620020
  30
0.0
  40
 1.5095936802151
 100
AcDbArc
  50
 270.12471636584
  51
 89.875283634166
   0
LINE
   5
1E0
 100
AcDbEntity
   8
LEVEL001
 100
AcDbLine
   6
CONTINUOUS
  62
7
  10
 420.11200336778
  20
 140.75785071379
  30
0.0
  11
 426.15036378353
  21
 145.01496118263
  31
0.0
   0
LINE
   5
1E1
 100
AcDbEntity
   8
LEVEL001
 100
AcDbLine
   6
CONTINUOUS
  62
7
  10
 420.11200336778
  20
 144.24214168661
  30
0.0
  11
 426.15036378353
  21
 139.98503121778
  31
0.0
   0
LINE
   5
1E2
 100
AcDbEntity
   8
LEVEL001
 100
AcDbLine
   6
CONTINUOUS
  62
3
  10
 420.27748493023
  20
 145.81010810107
  30
0.0
  11
 420.27748493023
  21
 144.24214168661
  31
0.0
   0
LINE
   5
1E3
 100
AcDbEntity
   8
LEVEL001
 100
AcDbLine
   6
CONTINUOUS
  62
3
  10
 420.27748493023
  20
 140.75785071379
  30
0.0
  11
 420.27748493023
  21
 139.18988429934
  31
0.0
   0
LINE
   5
1E4
 100
AcDbEntity
   8
LEVEL001
 100
AcDbLine
   6
CONTINUOUS
  62
7
  10
 421.83726881929
  20
 146.22804632103
  30
0.0
  11
 421.83726881929
  21
 144.35314937374
  31
0.0
   0
LINE
   5
1E5
 100
AcDbEntity
   8
LEVEL001
 100
AcDbLine
   6
CONTINUOUS
  62
7
  10
 421.83726881929
  20
 140.64684302667
  30
0.0
  11
 421.83726881929
  21
 138.77194607937
  31
0.0
   0
LINE
   5
1E6
 100
AcDbEntity
   8
LEVEL001
 100
AcDbLine
   6
CONTINUOUS
  62
3
  10
 431.97311751625
  20
 136.89292925915
  30
0.0
  11
 436.71751739927
  21
 136.89292925915
  31
0.0
   0
LINE
   5
1E7
 100
AcDbEntity
   8
LEVEL001
 100
AcDbLine
   6
CONTINUOUS
  62
3
  10
 431.97311751625
  20
 137.75556198491
  30
0.0
  11
 436.71751739927
  21
 137.75556198491
  31
0.0
   0
LINE
   5
1E8
 100
AcDbEntity
   8
LEVEL001
 100
AcDbLine
   6
CONTINUOUS
  62
3
  10
 431.97311751625
  20
 138.61818326657
  30
0.0
  11
 436.71751739927
  21
 138.61818326657
  31
0.0
   0
LINE
   5
1E9
 100
AcDbEntity
   8
LEVEL001
 100
AcDbLine
   6
CONTINUOUS
  62
3
  10
 431.97311751625
  20
 139.48080454824
  30
0.0
  11
 436.71751739927
  21
 139.48080454824
  31
0.0
   0
LINE
   5
1EA
 100
AcDbEntity
   8
LEVEL001
 100
AcDbLine
   6
CONTINUOUS
  62
3
  10
 431.97311751625
  20
 140.34343727400
  30
0.0
  11
 436.71751739927
  21
 140.34343727400
  31
0.0
   0
LINE
   5
1EB
 100
AcDbEntity
   8
LEVEL001
 100
AcDbLine
   6
CONTINUOUS
  62
3
  10
 431.97311751625
  20
 141.20605855566
  30
0.0
  11
 436.71751739927
  21
 141.20605855566
  31
0.0
   0
LINE
   5
1EC
 100
AcDbEntity
   8
LEVEL001
 100
AcDbLine
   6
CONTINUOUS
  62
3
  10
 431.97311751625
  20
 142.06867983733
  30
0.0
  11
 436.71751739927
  21
 142.06867983733
  31
0.0
   0
LINE
   5
1ED
 100
AcDbEntity
   8
LEVEL001
 100
AcDbLine
   6
CONTINUOUS
  62
3
  10
 431.97311751625
  20
 142.93131256308
  30
0.0
  11
 436.71751739927
  21
 142.93131256308
  31
0.0
   0
LINE
   5
1EE
 100
AcDbEntity
   8
LEVEL001
 100
AcDbLine
   6
CONTINUOUS
  62
3
  10
 431.97311751625
  20
 143.79393384475
  30
0.0
  11
 436.71751739927
  21
 143.79393384475
  31
0.0
   0
LINE
   5
1EF
 100
AcDbEntity
   8
LEVEL001
 100
AcDbLine
   6
CONTINUOUS
  62
3
  10
 431.97311751625
  20
 144.65655512641
  30
0.0
  11
 436.71751739927
  21
 144.65655512641
  31
0.0
   0
LINE
   5
1F0
 100
AcDbEntity
   8
LEVEL001
 100
AcDbLine
   6
CONTINUOUS
  62
3
  10
 431.97311751625
  20
 145.51918785217
  30
0.0
  11
 436.71751739927
  21
 145.51918785217
  31
0.0
   0
LINE
   5
1F1
 100
AcDbEntity
   8
LEVEL001
 100
AcDbLine
   6
CONTINUOUS
  62
3
  10
 431.97311751625
  20
 146.38180913383
  30
0.0
  11
 436.71751739927
  21
 146.38180913383
  31
0.0
   0
LINE
   5
1F2
 100
AcDbEntity
   8
LEVEL001
 100
AcDbLine
   6
CONTINUOUS
  62
3
  10
 431.97311751625
  20
 147.24443041550
  30
0.0
  11
 436.71751739927
  21
 147.24443041550
  31
0.0
   0
LINE
   5
1F3
 100
AcDbEntity
   8
LEVEL001
 100
AcDbLine
   6
CONTINUOUS
  62
3
  10
 431.97311751625
  20
 148.10706314125
  30
0.0
  11
 436.71751739927
  21
 148.10706314125
  31
0.0
   0
LINE
   5
1F4
 100
AcDbEntity
   8
LEVEL001
 100
AcDbLine
   6
CONTINUOUS
  62
7
  10
 421.83726881929
  20
 146.22804632103
  30
0.0
  11
 417.52412807870
  21
 146.09325781187
  31
0.0
   0
LINE
   5
1F5
 100
AcDbEntity
   8
LEVEL001
 100
AcDbLine
   6
CONTINUOUS
  62
3
  10
 420.27748493023
  20
 145.81010810107
  30
0.0
  11
 417.52412807870
  21
 145.72404853332
  31
0.0
   0
LINE
   5
1F6
 100
AcDbEntity
   8
LEVEL001
 100
AcDbLine
   6
CONTINUOUS
  62
3
  10
 420.27748493023
  20
 139.18988429934
  30
0.0
  11
 417.52412807870
  21
 139.27593242300
  31
0.0
   0
LINE
   5
1F7
 100
AcDbEntity
   8
LEVEL001
 100
AcDbLine
   6
CONTINUOUS
  62
7
  10
 421.83726881929
  20
 138.77194607937
  30
0.0
  11
 417.52412807870
  21
 138.90673458854
  31
0.0
   0
LINE
   5
1F8
 100
AcDbEntity
   8
LEVEL001
 100
AcDbLine
   6
CONTINUOUS
  62
7
  10
 420.11200336778
  20
 140.75785071379
  30
0.0
  11
 420.11200336778
  21
 144.24214168661
  31
0.0
   0
LINE
   5
1F9
 100
AcDbEntity
   8
LEVEL001
 100
AcDbLine
   6
CONTINUOUS
  62
7
  10
 420.11200336778
  20
 144.24214168661
  30
0.0
  11
 421.83726881929
  21
 144.35314937374
  31
0.0
   0
LINE
   5
1FA
 100
AcDbEntity
   8
LEVEL001
 100
AcDbLine
   6
CONTINUOUS
  62
7
  10
 421.83726881929
  20
 144.35314937374
  30
0.0
  11
 422.47713086077
  21
 145.01496118263
  31
0.0
   0
LINE
   5
1FB
 100
AcDbEntity
   8
LEVEL001
 100
AcDbLine
   6
CONTINUOUS
  62
7
  10
 422.47713086077
  20
 145.01496118263
  30
0.0
  11
 426.15036378353
  21
 145.01496118263
  31
0.0
   0
LINE
   5
1FC
 100
AcDbEntity
   8
LEVEL001
 100
AcDbLine
   6
CONTINUOUS
  62
7
  10
 426.15036378353
  20
 145.01496118263
  30
0.0
  11
 426.15036378353
  21
 139.98503121778
  31
0.0
   0
LINE
   5
1FD
 100
AcDbEntity
   8
LEVEL001
 100
AcDbLine
   6
CONTINUOUS
  62
7
  10
 426.15036378353
  20
 139.98503121778
  30
0.0
  11
 422.47713086077
  21
 139.98503121778
  31
0.0
   0
LINE
   5
1FE
 100
AcDbEntity
   8
LEVEL001
 100
AcDbLine
   6
CONTINUOUS
  62
7
  10
 422.47713086077
  20
 139.98503121778
  30
0.0
  11
 421.83726881929
  21
 140.64684302667
  31
0.0
   0
LINE
   5
1FF
 100
AcDbEntity
   8
LEVEL001
 100
AcDbLine
   6
CONTINUOUS
  62
7
  10
 421.83726881929
  20
 140.64684302667
  30
0.0
  11
 420.11200336778
  21
 140.75785071379
  31
0.0
   0
LINE
   5
200
 100
AcDbEntity
   8
LEVEL001
 100
AcDbLine
   6
CONTINUOUS
  62
7
  10
 431.97311751625
  20
 136.03030797749
  30
0.0
  11
 431.97311751625
  21
 148.96968442292
  31
0.0
   0
LINE
   5
201
 100
AcDbEntity
   8
LEVEL001
 100
AcDbLine
   6
CONTINUOUS
  62
7
  10
 431.97311751625
  20
 148.96968442292
  30
0.0
  11
 436.71751739927
  21
 148.96968442292
  31
0.0
   0
LINE
   5
202
 100
AcDbEntity
   8
LEVEL001
 100
AcDbLine
   6
CONTINUOUS
  62
7
  10
 436.71751739927
  20
 148.96968442292
  30
0.0
  11
 436.71751739927
  21
 136.03030797749
  31
0.0
   0
LINE
   5
203
 100
AcDbEntity
   8
LEVEL001
 100
AcDbLine
   6
CONTINUOUS
  62
7
  10
 436.71751739927
  20
 136.03030797749
  30
0.0
  11
 431.97311751625
  21
 136.03030797749
  31
0.0
   0
LINE
   5
204
 100
AcDbEntity
   8
LEVEL001
 100
AcDbLine
   6
DASHDOT
  62
1
  10
 447.71602171016
  20
 142.49999620020
  30
0.0
  11
 343.61999362350
  21
 142.49999620020
  31
0.0
   0
TEXT
   5
205
 100
AcDbEntity
   8
LEVEL003
  62
3
 100
AcDbText
  10
 37.500000000000
  20
 59.999998658896
  30
0.0
  40
 5.9999998211861
   1
４－Ｍ１２
   7
STANDARD
 100
AcDbText
   0
TEXT
   5
206
 100
AcDbEntity
   8
LEVEL003
  62
3
 100
AcDbText
  10
 37.500000000000
  20
 51.999998897314
  30
0.0
  40
 5.9999998211861
   1
タップ　１６
   7
STANDARD
 100
AcDbText
   0
LEADER
   5
207
 100
AcDbEntity
   8
LEVEL003
   6
CONTINUOUS
  62
3
 100
AcDbLeader
   3
GMM001
  73
0
  74
1
  75
0
  40
 6.0000000000000
  41
0.0
  76
3
  10
 89.999998435378
  20
 77.499982878566
  30
0.0
  10
 74.999998882413
  20
 59.999998658896
  30
0.0
  10
 37.500000000000
  20
 59.999998658896
  30
0.0
  77
3
   0
LEADER
   5
208
 100
AcDbEntity
   8
LEVEL003
   6
CONTINUOUS
  62
3
 100
AcDbLeader
   3
GMM002
  73
0
  74
1
  75
0
  40
 6.0000000000000
  41
0.0
  76
2
  10
 212.50002530217
  20
 77.499994322658
  30
0.0
  10
 254.99999351800
  20
 52.499998882413
  30
0.0
  77
3
   0
LINE
   5
209
 100
AcDbEntity
   8
LEVEL001
 100
AcDbLine
   6
CONTINUOUS
  62
7
  10
 429.16954399140
  20
 138.40253080718
  30
0.0
  11
 422.47713086077
  21
 138.40253080718
  31
0.0
   0
LINE
   5
20A
 100
AcDbEntity
   8
LEVEL001
 100
AcDbLine
   6
CONTINUOUS
  62
7
  10
 422.47713086077
  20
 138.40253080718
  30
0.0
  11
 422.47713086077
  21
 139.98503121778
  31
0.0
   0
LINE
   5
20B
 100
AcDbEntity
   8
LEVEL001
 100
AcDbLine
   6
CONTINUOUS
  62
7
  10
 429.16954399140
  20
 146.59746159323
  30
0.0
  11
 422.47713086077
  21
 146.59746159323
  31
0.0
   0
LINE
   5
20C
 100
AcDbEntity
   8
LEVEL001
 100
AcDbLine
   6
CONTINUOUS
  62
7
  10
 422.47713086077
  20
 146.59746159323
  30
0.0
  11
 422.47713086077
  21
 145.01496118263
  31
0.0
   0
LINE
   5
20D
 100
AcDbEntity
   8
LEVEL001
 100
AcDbLine
   6
CONTINUOUS
  62
7
  10
 266.00000844896
  20
 108.99997049570
  30
0.0
  11
 250.48353704859
  21
 108.99997049570
  31
0.0
   0
LINE
   5
20E
 100
AcDbEntity
   8
LEVEL001
 100
AcDbLine
   6
CONTINUOUS
  62
7
  10
 250.48353704859
  20
 108.99997049570
  30
0.0
  11
 250.48353704859
  21
 105.33091466633
  31
0.0
   0
LINE
   5
20F
 100
AcDbEntity
   8
LEVEL001
 100
AcDbLine
   6
CONTINUOUS
  62
7
  10
 250.48353704859
  20
 93.669019261926
  30
0.0
  11
 250.48353704859
  21
 89.999963432552
  31
0.0
   0
LINE
   5
210
 100
AcDbEntity
   8
LEVEL001
 100
AcDbLine
   6
CONTINUOUS
  62
7
  10
 250.48353704859
  20
 89.999963432552
  30
0.0
  11
 266.00000844896
  21
 89.999963432552
  31
0.0
   0
LINE
   5
211
 100
AcDbEntity
   8
LEVEL001
 100
AcDbLine
   6
CONTINUOUS
  62
7
  10
 205.49999499321
  20
 370.49998940527
  30
0.0
  11
 205.49999499321
  21
 381.50000433624
  31
0.0
   0
LINE
   5
212
 100
AcDbEntity
   8
LEVEL001
 100
AcDbLine
   6
CONTINUOUS
  62
7
  10
 205.49999499321
  20
 381.50000433624
  30
0.0
  11
 204.50001028180
  21
 382.49998904765
  31
0.0
   0
LINE
   5
213
 100
AcDbEntity
   8
LEVEL001
 100
AcDbLine
   6
CONTINUOUS
  62
7
  10
 204.50001028180
  20
 382.49998904765
  30
0.0
  11
 157.49999642372
  21
 382.49998904765
  31
0.0
   0
LINE
   5
214
 100
AcDbEntity
   8
LEVEL001
 100
AcDbLine
   6
CONTINUOUS
  62
7
  10
 157.49999642372
  20
 382.49998904765
  30
0.0
  11
 110.50000545382
  21
 382.49998904765
  31
0.0
   0
LINE
   5
215
 100
AcDbEntity
   8
LEVEL001
 100
AcDbLine
   6
CONTINUOUS
  62
7
  10
 110.50000545382
  20
 382.49998904765
  30
0.0
  11
 109.49999785423
  21
 381.50000433624
  31
0.0
   0
LINE
   5
216
 100
AcDbEntity
   8
LEVEL001
 100
AcDbLine
   6
CONTINUOUS
  62
7
  10
 109.49999785423
  20
 381.50000433624
  30
0.0
  11
 109.49999785423
  21
 370.49998940527
  31
0.0
   0
DIMENSION
   5
217
 100
AcDbEntity
   8
LEVEL003
   6
CONTINUOUS
  62
3
 100
AcDbDimension
   2
*D6
  10
 205.49999499321
  20
 408.74998826534
  30
0.0
  11
 157.49999642372
  21
 408.74998826534
  31
0.0
  70
128
   1
\A1;%%c96
   3
GMM003
 100
AcDbAlignedDimension
  13
 109.49999785423
  23
 381.50000433624
  33
0.0
  14
 205.49999499321
  24
 381.50000433624
  34
0.0
 100
AcDbRotatedDimension
   0
DIMENSION
   5
219
 100
AcDbEntity
   8
LEVEL003
   6
CONTINUOUS
  62
3
 100
AcDbDimension
   2
*D7
  10
 277.49999284744
  20
 362.50002016127
  30
0.0
  11
 277.49999284744
  21
 355.39788102608
  31
0.0
  70
128
   1
\A1;5
   3
GMM004
 100
AcDbAlignedDimension
  13
 277.49999284744
  23
 367.49998949468
  33
0.0
  14
 240.50000920892
  24
 362.50002016127
  34
0.0
  50
 270.00000000000
 100
AcDbRotatedDimension
   0
DIMENSION
   5
21B
 100
AcDbEntity
   8
LEVEL003
   6
CONTINUOUS
  62
3
 100
AcDbDimension
   2
*D8
  10
 292.49999240041
  20
 370.49998940527
  30
0.0
  11
 292.49999240041
  21
 376.49998922646
  31
0.0
  70
128
   1
\A1;12
   3
GMM005
 100
AcDbAlignedDimension
  13
 204.50001028180
  23
 382.49998904765
  33
0.0
  14
 206.35962936700
  24
 370.49998940527
  34
0.0
  50
 270.00000000000
 100
AcDbRotatedDimension
   0
DIMENSION
   5
21D
 100
AcDbEntity
   8
LEVEL003
   6
CONTINUOUS
  62
3
 100
AcDbDimension
   2
*D9
  10
 307.49999195337
  20
 367.49998949468
  30
0.0
  11
 307.49999195337
  21
 374.99998927116
  31
0.0
  70
128
   1
\A1;15
   3
GMM005
 100
AcDbAlignedDimension
  13
 204.50001028180
  23
 382.49998904765
  33
0.0
  14
 234.50000938773
  24
 367.49998949468
  34
0.0
  50
 270.00000000000
 100
AcDbRotatedDimension
   0
DIMENSION
   5
21F
 100
AcDbEntity
   8
LEVEL003
   6
CONTINUOUS
  62
3
 100
AcDbDimension
   2
*D10
  10
 307.49999195337
  20
 307.49999128282
  30
0.0
  11
 307.49999195337
  21
 337.49999038875
  31
0.0
  70
128
   1
\A1;60
   3
GMM005
 100
AcDbAlignedDimension
  13
 234.50000938773
  23
 367.49998949468
  33
0.0
  14
 240.50000920892
  24
 307.49999128282
  34
0.0
  50
 270.00000000000
 100
AcDbRotatedDimension
   0
DIMENSION
   5
221
 100
AcDbEntity
   8
LEVEL003
   6
CONTINUOUS
  62
3
 100
AcDbDimension
   2
*D11
  10
 322.49999150634
  20
 77.499982878566
  30
0.0
  11
 322.49999150634
  21
 88.499974921346
  31
0.0
  70
128
   1
\A1;22
   3
GMM005
 100
AcDbAlignedDimension
  13
 309.00001479685
  23
 99.499966964127
  33
0.0
  14
 292.49999240041
  24
 77.499982878566
  34
0.0
  50
 270.00000000000
 100
AcDbRotatedDimension
   0
DIMENSION
   5
223
 100
AcDbEntity
   8
LEVEL003
   6
CONTINUOUS
  62
3
 100
AcDbDimension
   2
*D12
  10
 52.500000000000
  20
 77.499982878566
  30
0.0
  11
 52.500000000000
  21
 177.49998752773
  31
0.0
  70
128
   1
\A1;200
   3
GMM006
 100
AcDbAlignedDimension
  13
 157.49999642372
  23
 277.49999217689
  33
0.0
  14
 77.999975904823
  24
 77.499982878566
  34
0.0
  50
 270.00000000000
 100
AcDbRotatedDimension
   0
DIMENSION
   5
225
 100
AcDbEntity
   8
LEVEL003
   6
CONTINUOUS
  62
3
 100
AcDbDimension
   2
*D13
  10
 337.49999105930
  20
 77.499982878566
  30
0.0
  11
 337.49999105930
  21
 229.99998596311
  31
0.0
  70
128
   1
\A1;335
   3
GMM005
 100
AcDbAlignedDimension
  13
 204.50001028180
  23
 382.49998904765
  33
0.0
  14
 237.00003983080
  24
 77.499982878566
  34
0.0
  50
 270.00000000000
 100
AcDbRotatedDimension
   0
LINE
   5
227
 100
AcDbEntity
   8
LEVEL001
 100
AcDbLine
   6
CONTINUOUS
  62
7
  10
 239.00000925362
  20
 79.499998077750
  30
0.0
  11
 237.00003983080
  21
 77.499982878566
  31
0.0
   0
LINE
   5
228
 100
AcDbEntity
   8
LEVEL001
 100
AcDbLine
   6
CONTINUOUS
  62
7
  10
 237.00003983080
  20
 77.499982878566
  30
0.0
  11
 157.49999642372
  21
 77.499982878566
  31
0.0
   0
LINE
   5
229
 100
AcDbEntity
   8
LEVEL001
 100
AcDbLine
   6
CONTINUOUS
  62
7
  10
 157.49999642372
  20
 77.499982878566
  30
0.0
  11
 77.999975904823
  21
 77.499982878566
  31
0.0
   0
LINE
   5
22A
 100
AcDbEntity
   8
LEVEL001
 100
AcDbLine
   6
CONTINUOUS
  62
7
  10
 77.999975904823
  20
 77.499982878566
  30
0.0
  11
 75.999983593822
  21
 79.499998077750
  31
0.0
   0
LINE
   5
22B
 100
AcDbEntity
   8
LEVEL001
 100
AcDbLine
   6
CONTINUOUS
  62
7
  10
 75.999983593822
  20
 79.499998077750
  30
0.0
  11
 75.999983593822
  21
 288.22875925217
  31
0.0
   0
LINE
   5
22C
 100
AcDbEntity
   8
LEVEL001
 100
AcDbLine
   6
CONTINUOUS
  62
7
  10
 239.00000925362
  20
 296.77122420754
  30
0.0
  11
 239.00000925362
  21
 79.499998077750
  31
0.0
   0
LINE
   5
22D
 100
AcDbEntity
   8
LEVEL001
 100
AcDbLine
   6
DASHDOT
  62
1
  10
 237.50000929832
  20
 307.49999128282
  30
0.0
  11
 240.50000920892
  21
 307.49999128282
  31
0.0
   0
LINE
   5
22E
 100
AcDbEntity
   8
LEVEL001
 100
AcDbLine
   6
DASHDOT
  62
1
  10
 240.50000920892
  20
 307.49999128282
  30
0.0
  11
 240.50000920892
  21
 362.50002016127
  31
0.0
   0
LINE
   5
22F
 100
AcDbEntity
   8
LEVEL001
 100
AcDbLine
   6
DASHDOT
  62
1
  10
 240.50000920892
  20
 362.50002016127
  30
0.0
  11
 235.49999409914
  21
 362.50002016127
  31
0.0
   0
DIMENSION
   5
230
 100
AcDbEntity
   8
LEVEL003
   6
CONTINUOUS
  62
3
 100
AcDbDimension
   2
*D14
  10
 165.00000000000
  20
 330.49998296797
  30
0.0
  11
 165.00000000000
  21
 353.49997465313
  31
0.0
  70
128
   1
\A1;40
   3
GMM006
 100
AcDbAlignedDimension
  13
 196.49999526143
  23
 370.49998940527
  33
0.0
  14
 195.50001055002
  24
 330.49998296797
  34
0.0
  50
 270.00000000000
 100
AcDbRotatedDimension
   0
LINE
   5
232
 100
AcDbEntity
   8
LEVEL001
 100
AcDbLine
   6
DOT
  62
3
  10
 195.50001055002
  20
 342.49998261035
  30
0.0
  11
 196.49999526143
  21
 343.49999020994
  31
0.0
   0
LINE
   5
233
 100
AcDbEntity
   8
LEVEL001
 100
AcDbLine
   6
DOT
  62
3
  10
 196.49999526143
  20
 343.49999020994
  30
0.0
  11
 196.49999526143
  21
 367.49998949468
  31
0.0
   0
ARC
   5
234
 100
AcDbEntity
   8
LEVEL001
   6
DOT
  62
3
 100
AcDbCircle
  10
 196.50001054953
  20
 368.49998949456
  30
0.0
  40
 1.0000000000000
 100
AcDbArc
  50
 179.99825317248
  51
 269.99912405616
   0
ARC
   5
235
 100
AcDbEntity
   8
LEVEL001
   6
DOT
  62
3
 100
AcDbCircle
  10
 196.50001054956
  20
 369.49998940540
  30
0.0
  40
 1.0000000000000
 100
AcDbArc
  50
 90.000875945107
  51
 180.00174682808
   0
LINE
   5
236
 100
AcDbEntity
   8
LEVEL001
 100
AcDbLine
   6
DOT
  62
3
  10
 195.50001055002
  20
 368.50001998246
  30
0.0
  11
 195.50001055002
  21
 369.49995891750
  31
0.0
   0
LINE
   5
237
 100
AcDbEntity
   8
LEVEL001
 100
AcDbLine
   6
DOT
  62
3
  10
 184.99999941885
  20
 377.50001971424
  30
0.0
  11
 184.99999941885
  21
 347.49997483194
  31
0.0
   0
ARC
   5
238
 100
AcDbEntity
   8
LEVEL001
   6
DOT
  62
3
 100
AcDbCircle
  10
 186.81984296461
  20
 381.49998904767
  30
0.0
  40
 1.0000000000000
 100
AcDbArc
  50
 89.999580501092
  51
 168.68976926088
   0
LINE
   5
239
 100
AcDbEntity
   8
LEVEL001
 100
AcDbLine
   6
DOT
  62
3
  10
 185.83926330986
  20
 381.69611028742
  30
0.0
  11
 184.99999941885
  21
 377.50001971424
  31
0.0
   0
ARC
   5
23A
 100
AcDbEntity
   8
LEVEL001
   6
DOT
  62
3
 100
AcDbCircle
  10
 186.81980176596
  20
 343.49998260916
  30
0.0
  40
 1.0000000000000
 100
AcDbArc
  50
 191.30889330623
  51
 270.00278000766
   0
LINE
   5
23B
 100
AcDbEntity
   8
LEVEL001
 100
AcDbLine
   6
DOT
  62
3
  10
 185.83921753349
  20
 343.30388425875
  30
0.0
  11
 184.99999941885
  21
 347.49997483194
  31
0.0
   0
LINE
   5
23C
 100
AcDbEntity
   8
LEVEL001
 100
AcDbLine
   6
DOT
  62
3
  10
 196.49999526143
  20
 330.49998296797
  30
0.0
  11
 195.50001055002
  21
 326.76792741513
  31
0.0
   0
LINE
   5
23D
 100
AcDbEntity
   8
LEVEL001
 100
AcDbLine
   6
DOT
  62
3
  10
 195.50001055002
  20
 342.49998261035
  30
0.0
  11
 195.50001055002
  21
 326.76792741513
  31
0.0
   0
LINE
   5
23E
 100
AcDbEntity
   8
LEVEL001
 100
AcDbLine
   6
DOT
  62
3
  10
 196.49999526143
  20
 370.49998940527
  30
0.0
  11
 196.49999526143
  21
 367.49998949468
  31
0.0
   0
LINE
   5
23F
 100
AcDbEntity
   8
LEVEL001
 100
AcDbLine
   6
DOT
  62
3
  10
 195.50001055002
  20
 297.27478711978
  30
0.0
  11
 195.50001055002
  21
 326.76792741513
  31
0.0
   0
LINE
   5
240
 100
AcDbEntity
   8
LEVEL001
 100
AcDbLine
   6
DOT
  62
3
  10
 196.49999526143
  20
 370.49998940527
  30
0.0
  11
 195.50001055002
  21
 369.49995891750
  31
0.0
   0
LINE
   5
241
 100
AcDbEntity
   8
LEVEL001
 100
AcDbLine
   6
DOT
  62
3
  10
 195.50001055002
  20
 369.49995891750
  30
0.0
  11
 195.50001055002
  21
 342.49998261035
  31
0.0
   0
LINE
   5
242
 100
AcDbEntity
   8
LEVEL001
 100
AcDbLine
   6
DOT
  62
3
  10
 186.81985028625
  20
 342.49998261035
  30
0.0
  11
 195.50001055002
  21
 342.49998261035
  31
0.0
   0
LINE
   5
243
 100
AcDbEntity
   8
LEVEL001
 100
AcDbLine
   6
DOT
  62
3
  10
 196.49999526143
  20
 343.49999020994
  30
0.0
  11
 196.49999526143
  21
 330.49998296797
  31
0.0
   0
LINE
   5
244
 100
AcDbEntity
   8
LEVEL001
 100
AcDbLine
   6
DOT
  62
3
  10
 196.49999526143
  20
 330.49998296797
  30
0.0
  11
 195.50001055002
  21
 330.49998296797
  31
0.0
   0
LINE
   5
245
 100
AcDbEntity
   8
LEVEL001
 100
AcDbLine
   6
DOT
  62
3
  10
 222.50000974536
  20
 283.49999199808
  30
0.0
  11
 222.50000974536
  21
 107.49998198450
  31
0.0
   0
LINE
   5
246
 100
AcDbEntity
   8
LEVEL001
 100
AcDbLine
   6
DOT
  62
3
  10
 207.50001019239
  20
 295.12039112686
  30
0.0
  11
 207.50001019239
  21
 141.49996571243
  31
0.0
   0
LINE
   5
247
 100
AcDbEntity
   8
LEVEL001
 100
AcDbLine
   6
DOT
  62
3
  10
 195.50001055002
  20
 287.99999186397
  30
0.0
  11
 195.50001055002
  21
 294.49149252500
  31
0.0
   0
LINE
   5
248
 100
AcDbEntity
   8
LEVEL001
 100
AcDbLine
   6
DOT
  62
3
  10
 185.83926330986
  20
 78.803876882676
  30
0.0
  11
 184.99999941885
  21
 82.999967455865
  31
0.0
   0
LINE
   5
249
 100
AcDbEntity
   8
LEVEL001
 100
AcDbLine
   6
DOT
  62
3
  10
 204.44544485374
  20
 86.616369020451
  30
0.0
  11
 205.32906604323
  21
 87.499990209937
  31
0.0
   0
LINE
   5
24A
 100
AcDbEntity
   8
LEVEL001
 100
AcDbLine
   6
DOT
  62
3
  10
 220.55460575060
  20
 86.616369020451
  30
0.0
  11
 219.67098456112
  21
 87.499990209937
  31
0.0
   0
LINE
   5
24B
 100
AcDbEntity
   8
LEVEL001
 100
AcDbLine
   6
DOT
  62
3
  10
 205.32906604323
  20
 87.499990209937
  30
0.0
  11
 219.67098456112
  21
 87.499990209937
  31
0.0
   0
LINE
   5
24C
 100
AcDbEntity
   8
LEVEL001
 100
AcDbLine
   6
DOT
  62
3
  10
 220.55460575060
  20
 86.616369020451
  30
0.0
  11
 204.44544485374
  21
 86.616369020451
  31
0.0
   0
LINE
   5
24D
 100
AcDbEntity
   8
LEVEL001
 100
AcDbLine
   6
DOT
  62
3
  10
 205.68131517824
  20
 99.116361018528
  30
0.0
  11
 204.71227529012
  21
 95.499982342125
  31
0.0
   0
LINE
   5
24E
 100
AcDbEntity
   8
LEVEL001
 100
AcDbLine
   6
DOT
  62
3
  10
 204.71227529012
  20
 95.499982342125
  30
0.0
  11
 204.44416311550
  21
 86.616403352725
  31
0.0
   0
LINE
   5
24F
 100
AcDbEntity
   8
LEVEL001
 100
AcDbLine
   6
DOT
  62
3
  10
 220.55588748885
  20
 86.616403352725
  30
0.0
  11
 220.43425968485
  21
 90.646176944787
  31
0.0
   0
LINE
   5
250
 100
AcDbEntity
   8
LEVEL001
 100
AcDbLine
   6
DOT
  62
3
  10
 186.00004135072
  20
 287.99999186397
  30
0.0
  11
 184.99999941885
  21
 282.99997675419
  31
0.0
   0
LINE
   5
251
 100
AcDbEntity
   8
LEVEL001
 100
AcDbLine
   6
DOT
  62
3
  10
 184.99999941885
  20
 282.99997675419
  30
0.0
  11
 184.99999941885
  21
 82.999967455865
  31
0.0
   0
LINE
   5
252
 100
AcDbEntity
   8
LEVEL001
 100
AcDbLine
   6
DOT
  62
3
  10
 186.00004135072
  20
 287.99999186397
  30
0.0
  11
 194.00001059473
  21
 287.99999186397
  31
0.0
   0
LINE
   5
253
 100
AcDbEntity
   8
LEVEL001
 100
AcDbLine
   6
DOT
  62
3
  10
 194.00001059473
  20
 287.99999186397
  30
0.0
  11
 194.99999530613
  21
 282.99997675419
  31
0.0
   0
LINE
   5
254
 100
AcDbEntity
   8
LEVEL001
 100
AcDbLine
   6
DOT
  62
3
  10
 194.99999530613
  20
 282.99997675419
  30
0.0
  11
 194.99999530613
  21
 91.499997720122
  31
0.0
   0
LINE
   5
255
 100
AcDbEntity
   8
LEVEL001
 100
AcDbLine
   6
DOT
  62
3
  10
 204.16900138053
  20
 77.499982878566
  30
0.0
  11
 205.05262257002
  21
 78.383604068053
  31
0.0
   0
LINE
   5
256
 100
AcDbEntity
   8
LEVEL001
 100
AcDbLine
   6
DOT
  62
3
  10
 220.83100344744
  20
 77.499982878566
  30
0.0
  11
 219.94738225796
  21
 78.383604068053
  31
0.0
   0
LINE
   5
257
 100
AcDbEntity
   8
LEVEL001
 100
AcDbLine
   6
DOT
  62
3
  10
 204.19568900181
  20
 78.383604068053
  30
0.0
  11
 220.80436160253
  21
 78.383604068053
  31
0.0
   0
LINE
   5
258
 100
AcDbEntity
   8
LEVEL001
 100
AcDbLine
   6
DOT
  62
3
  10
 204.19566611362
  20
 78.383592623961
  30
0.0
  11
 204.16900138053
  21
 77.499982878566
  31
0.0
   0
LINE
   5
259
 100
AcDbEntity
   8
LEVEL001
 100
AcDbLine
   6
DOT
  62
3
  10
 220.83100344744
  20
 77.499982878566
  30
0.0
  11
 220.80433871435
  21
 78.383604068053
  31
0.0
   0
LINE
   5
25A
 100
AcDbEntity
   8
LEVEL001
 100
AcDbLine
   6
DOT
  62
3
  10
 205.05264545820
  20
 78.383604068053
  30
0.0
  11
 205.02584339601
  21
 77.499982878566
  31
0.0
   0
LINE
   5
25B
 100
AcDbEntity
   8
LEVEL001
 100
AcDbLine
   6
DOT
  62
3
  10
 219.97418432015
  20
 77.499982878566
  30
0.0
  11
 219.94738225796
  21
 78.383604068053
  31
0.0
   0
LINE
   5
25C
 100
AcDbEntity
   8
LEVEL001
 100
AcDbLine
   6
DOT
  62
3
  10
 219.97418432015
  20
 77.499982878566
  30
0.0
  11
 220.80433871435
  21
 78.383604068053
  31
0.0
   0
LINE
   5
25D
 100
AcDbEntity
   8
LEVEL001
 100
AcDbLine
   6
DOT
  62
3
  10
 205.02584339601
  20
 77.499982878566
  30
0.0
  11
 204.19566611362
  21
 78.383592623961
  31
0.0
   0
LINE
   5
25E
 100
AcDbEntity
   8
LEVEL001
 100
AcDbLine
   6
DOT
  62
3
  10
 205.78390001405
  20
 102.49996687472
  30
0.0
  11
 205.05264545820
  21
 78.383604068053
  31
0.0
   0
LINE
   5
25F
 100
AcDbEntity
   8
LEVEL001
 100
AcDbLine
   6
DOT
  62
3
  10
 219.94738225796
  20
 78.383604068053
  30
0.0
  11
 219.57558661474
  21
 90.646176944787
  31
0.0
   0
LINE
   5
260
 100
AcDbEntity
   8
LEVEL001
 100
AcDbLine
   6
DOT
  62
3
  10
 220.55588748885
  20
 86.616403352725
  30
0.0
  11
 220.80433871435
  21
 78.383604068053
  31
0.0
   0
LINE
   5
261
 100
AcDbEntity
   8
LEVEL001
 100
AcDbLine
   6
DOT
  62
3
  10
 204.19566611362
  20
 78.383592623961
  30
0.0
  11
 204.44416311550
  21
 86.616403352725
  31
0.0
   0
ARC
   5
262
 100
AcDbEntity
   8
LEVEL001
   6
DASHDOT
  62
1
 100
AcDbCircle
  10
 157.49999653893
  20
 245.49999217690
  30
0.0
  40
 32.000000000000
 100
AcDbArc
  50
 90.000000206271
  51
 270.00000020627
   0
ARC
   5
263
 100
AcDbEntity
   8
LEVEL001
   6
CONTINUOUS
  62
7
 100
AcDbCircle
  10
 157.50001298867
  20
 245.49999350407
  30
0.0
  40
 27.500000134110
 100
AcDbArc
  50
 112.67194334320
  51
 269.99997342156
   0
LINE
   5
264
 100
AcDbEntity
   8
LEVEL001
 100
AcDbLine
   6
CONTINUOUS
  62
3
  10
 78.999990656972
  20
 361.99995914102
  30
0.0
  11
 78.999990656972
  21
 307.49999128282
  31
0.0
   0
LINE
   5
265
 100
AcDbEntity
   8
LEVEL001
 100
AcDbLine
   6
CONTINUOUS
  62
3
  10
 78.999990656972
  20
 307.49999128282
  30
0.0
  11
 77.499990701676
  21
 307.49999128282
  31
0.0
   0
LINE
   5
266
 100
AcDbEntity
   8
LEVEL001
 100
AcDbLine
   6
CONTINUOUS
  62
3
  10
 78.999990656972
  20
 307.49999128282
  30
0.0
  11
 77.499990701676
  21
 304.90193075234
  31
0.0
   0
LINE
   5
267
 100
AcDbEntity
   8
LEVEL001
 100
AcDbLine
   6
CONTINUOUS
  62
7
  10
 79.500005900860
  20
 362.50002016127
  30
0.0
  11
 77.499990701676
  21
 360.49995918572
  31
0.0
   0
LINE
   5
268
 100
AcDbEntity
   8
LEVEL001
 100
AcDbLine
   6
CONTINUOUS
  62
7
  10
 77.499990701676
  20
 360.49995918572
  30
0.0
  11
 77.499990701676
  21
 302.49997617304
  31
0.0
   0
LINE
   5
269
 100
AcDbEntity
   8
LEVEL001
 100
AcDbLine
   6
DASHDOT
  62
1
  10
 77.499990701676
  20
 307.49999128282
  30
0.0
  11
 74.499990791083
  21
 307.49999128282
  31
0.0
   0
LINE
   5
26A
 100
AcDbEntity
   8
LEVEL001
 100
AcDbLine
   6
DASHDOT
  62
1
  10
 74.499990791083
  20
 307.49999128282
  30
0.0
  11
 74.499990791083
  21
 362.50002016127
  31
0.0
   0
LINE
   5
26B
 100
AcDbEntity
   8
LEVEL001
 100
AcDbLine
   6
DASHDOT
  62
1
  10
 74.499990791083
  20
 362.50002016127
  30
0.0
  11
 79.500005900860
  21
 362.50002016127
  31
0.0
   0
LINE
   5
26C
 100
AcDbEntity
   8
LEVEL001
 100
AcDbLine
   6
CONTINUOUS
  62
7
  10
 234.49999365211
  20
 367.49998949468
  30
0.0
  11
 157.50000357628
  21
 367.49998949468
  31
0.0
   0
LINE
   5
26D
 100
AcDbEntity
   8
LEVEL001
 100
AcDbLine
   6
CONTINUOUS
  62
7
  10
 157.50000357628
  20
 370.49998940527
  30
0.0
  11
 206.35963651956
  21
 370.49998940527
  31
0.0
   0
LINE
   5
26E
 100
AcDbEntity
   8
LEVEL001
 100
AcDbLine
   6
CONTINUOUS
  62
7
  10
 235.50000125170
  20
 366.50000478327
  30
0.0
  11
 157.50000357628
  21
 366.50000478327
  31
0.0
   0
LINE
   5
26F
 100
AcDbEntity
   8
LEVEL001
 100
AcDbLine
   6
CONTINUOUS
  62
7
  10
 157.50000357628
  20
 381.50000433624
  30
0.0
  11
 205.50000214577
  21
 381.50000433624
  31
0.0
   0
LINE
   5
270
 100
AcDbEntity
   8
LEVEL001
 100
AcDbLine
   6
DOT
  62
3
  10
 119.49998944998
  20
 342.49998261035
  30
0.0
  11
 118.50000473857
  21
 343.49999020994
  31
0.0
   0
LINE
   5
271
 100
AcDbEntity
   8
LEVEL001
 100
AcDbLine
   6
DOT
  62
3
  10
 118.50000473857
  20
 343.49999020994
  30
0.0
  11
 118.50000473857
  21
 367.49998949468
  31
0.0
   0
ARC
   5
272
 100
AcDbEntity
   8
LEVEL001
   6
DOT
  62
3
 100
AcDbCircle
  10
 118.49998945045
  20
 368.49998949457
  30
0.0
  40
 1.0000000000000
 100
AcDbArc
  50
 270.00087594486
  51
 0.17468270816161E-2
   0
ARC
   5
273
 100
AcDbEntity
   8
LEVEL001
   6
DOT
  62
3
 100
AcDbCircle
  10
 118.49998945044
  20
 369.49998940539
  30
0.0
  40
 1.0000000000000
 100
AcDbArc
  50
 359.99825317249
  51
 89.999124055172
   0
LINE
   5
274
 100
AcDbEntity
   8
LEVEL001
 100
AcDbLine
   6
DOT
  62
3
  10
 119.49998944998
  20
 368.50001998246
  30
0.0
  11
 119.49998944998
  21
 369.49995891750
  31
0.0
   0
LINE
   5
275
 100
AcDbEntity
   8
LEVEL001
 100
AcDbLine
   6
DOT
  62
3
  10
 130.00000058115
  20
 377.50001971424
  30
0.0
  11
 130.00000058115
  21
 347.49997483194
  31
0.0
   0
LINE
   5
276
 100
AcDbEntity
   8
LEVEL001
 100
AcDbLine
   6
DOT
  62
3
  10
 129.16073669014
  20
 381.69611028742
  30
0.0
  11
 130.00000058115
  21
 377.50001971424
  31
0.0
   0
ARC
   5
277
 100
AcDbEntity
   8
LEVEL001
   6
DOT
  62
3
 100
AcDbCircle
  10
 128.18019823404
  20
 343.49998260916
  30
0.0
  40
 1.0000000000000
 100
AcDbArc
  50
 269.99721999228
  51
 348.69110669407
   0
LINE
   5
278
 100
AcDbEntity
   8
LEVEL001
 100
AcDbLine
   6
DOT
  62
3
  10
 129.16078246651
  20
 343.30388425875
  30
0.0
  11
 130.00000058115
  21
 347.49997483194
  31
0.0
   0
LINE
   5
279
 100
AcDbEntity
   8
LEVEL001
 100
AcDbLine
   6
DOT
  62
3
  10
 118.50000473857
  20
 330.49998296797
  30
0.0
  11
 119.49998944998
  21
 326.76792741513
  31
0.0
   0
LINE
   5
27A
 100
AcDbEntity
   8
LEVEL001
 100
AcDbLine
   6
DOT
  62
3
  10
 119.49998944998
  20
 342.49998261035
  30
0.0
  11
 119.49998944998
  21
 326.76792741513
  31
0.0
   0
LINE
   5
27B
 100
AcDbEntity
   8
LEVEL001
 100
AcDbLine
   6
DOT
  62
3
  10
 118.50000473857
  20
 370.49998940527
  30
0.0
  11
 118.50000473857
  21
 367.49998949468
  31
0.0
   0
LINE
   5
27C
 100
AcDbEntity
   8
LEVEL001
 100
AcDbLine
   6
DOT
  62
3
  10
 118.50000473857
  20
 370.49998940527
  30
0.0
  11
 119.49998944998
  21
 369.49995891750
  31
0.0
   0
LINE
   5
27D
 100
AcDbEntity
   8
LEVEL001
 100
AcDbLine
   6
DOT
  62
3
  10
 119.49998944998
  20
 369.49995891750
  30
0.0
  11
 119.49998944998
  21
 342.49998261035
  31
0.0
   0
LINE
   5
27E
 100
AcDbEntity
   8
LEVEL001
 100
AcDbLine
   6
DOT
  62
3
  10
 128.18014971375
  20
 342.49998261035
  30
0.0
  11
 119.49998944998
  21
 342.49998261035
  31
0.0
   0
LINE
   5
27F
 100
AcDbEntity
   8
LEVEL001
 100
AcDbLine
   6
DOT
  62
3
  10
 118.50000473857
  20
 343.49999020994
  30
0.0
  11
 118.50000473857
  21
 330.49998296797
  31
0.0
   0
LINE
   5
280
 100
AcDbEntity
   8
LEVEL001
 100
AcDbLine
   6
DOT
  62
3
  10
 118.50000473857
  20
 330.49998296797
  30
0.0
  11
 119.49998944998
  21
 330.49998296797
  31
0.0
   0
LINE
   5
281
 100
AcDbEntity
   8
LEVEL001
 100
AcDbLine
   6
CONTINUOUS
  62
7
  10
 237.50001645088
  20
 304.90193075234
  30
0.0
  11
 157.50000357628
  21
 304.90193075234
  31
0.0
   0
LINE
   5
282
 100
AcDbEntity
   8
LEVEL001
 100
AcDbLine
   6
CONTINUOUS
  62
7
  10
 157.50000357628
  20
 300.99997621775
  30
0.0
  11
 239.00001640618
  21
 300.99997621775
  31
0.0
   0
LINE
   5
283
 100
AcDbEntity
   8
LEVEL001
 100
AcDbLine
   6
CONTINUOUS
  62
7
  10
 237.50001645088
  20
 302.49997617304
  30
0.0
  11
 157.50000357628
  21
 302.49997617304
  31
0.0
   0
LINE
   5
284
 100
AcDbEntity
   8
LEVEL001
 100
AcDbLine
   6
DOT
  62
3
  10
 92.499990254641
  20
 283.49999199808
  30
0.0
  11
 92.499990254641
  21
 107.49998198450
  31
0.0
   0
LINE
   5
285
 100
AcDbEntity
   8
LEVEL001
 100
AcDbLine
   6
DOT
  62
3
  10
 128.99995864928
  20
 287.99999186397
  30
0.0
  11
 130.00000058115
  21
 282.99997675419
  31
0.0
   0
LINE
   5
286
 100
AcDbEntity
   8
LEVEL001
 100
AcDbLine
   6
DOT
  62
3
  10
 130.00000058115
  20
 282.99997675419
  30
0.0
  11
 130.00000058115
  21
 82.999967455865
  31
0.0
   0
LINE
   5
287
 100
AcDbEntity
   8
LEVEL001
 100
AcDbLine
   6
DOT
  62
3
  10
 128.99995864928
  20
 287.99999186397
  30
0.0
  11
 120.99998940527
  21
 287.99999186397
  31
0.0
   0
LINE
   5
288
 100
AcDbEntity
   8
LEVEL001
 100
AcDbLine
   6
DOT
  62
3
  10
 120.99998940527
  20
 287.99999186397
  30
0.0
  11
 120.00000469387
  21
 282.99997675419
  31
0.0
   0
LINE
   5
289
 100
AcDbEntity
   8
LEVEL001
 100
AcDbLine
   6
DOT
  62
3
  10
 120.00000469387
  20
 282.99997675419
  30
0.0
  11
 120.00000469387
  21
 91.499997720122
  31
0.0
   0
ARC
   5
28A
 100
AcDbEntity
   8
LEVEL001
   6
CONTINUOUS
  62
7
 100
AcDbCircle
  10
 157.49993354995
  20
 245.50000934296
  30
0.0
  40
 36.499999865890
 100
AcDbArc
  50
 270.00010992365
  51
 70.352689987329
   0
ARC
   5
28B
 100
AcDbEntity
   8
LEVEL001
   6
DASHDOT
  62
1
 100
AcDbCircle
  10
 157.50000346107
  20
 245.49999217690
  30
0.0
  40
 32.000000000000
 100
AcDbArc
  50
 269.99999979373
  51
 89.999999793729
   0
ARC
   5
28C
 100
AcDbEntity
   8
LEVEL001
   6
CONTINUOUS
  62
7
 100
AcDbCircle
  10
 157.49998701133
  20
 245.49999350407
  30
0.0
  40
 27.500000134110
 100
AcDbArc
  50
 270.00002657844
  51
 67.328056656797
   0
ARC
   5
28D
 100
AcDbEntity
   8
LEVEL001
   6
CONTINUOUS
  62
7
 100
AcDbCircle
  10
 157.51465201170
  20
 277.49999217689
  30
0.0
  40
 12.500000581145
 100
AcDbArc
  50
 269.93285650567
  51
 90.067143494338
   0
ARC
   5
28E
 100
AcDbEntity
   8
LEVEL001
   6
CONTINUOUS
  62
7
 100
AcDbCircle
  10
 157.50000357628
  20
 277.49999217689
  30
0.0
  40
 11.500007286668
 100
AcDbArc
  50
 270.00000000000
  51
 90.000000000000
   0
LINE
   5
28F
 100
AcDbEntity
   8
LEVEL001
 100
AcDbLine
   6
CONTINUOUS
  62
7
  10
 239.00001640618
  20
 79.499998077750
  30
0.0
  11
 157.50000357628
  21
 79.499998077750
  31
0.0
   0
LINE
   5
290
 100
AcDbEntity
   8
LEVEL001
 100
AcDbLine
   6
DOT
  62
3
  10
 129.16073669014
  20
 78.803876882676
  30
0.0
  11
 130.00000058115
  21
 82.999967455865
  31
0.0
   0
LINE
   5
291
 100
AcDbEntity
   8
LEVEL001
 100
AcDbLine
   6
CONTINUOUS
  62
7
  10
 249.00001658499
  20
 90.856462125288
  30
0.0
  11
 239.00000925362
  21
 91.168974472846
  31
0.0
   0
LINE
   5
292
 100
AcDbEntity
   8
LEVEL001
 100
AcDbLine
   6
CONTINUOUS
  62
3
  10
 245.38363790859
  20
 91.825467681126
  30
0.0
  11
 239.00000925362
  21
 92.024962987807
  31
0.0
   0
LINE
   5
293
 100
AcDbEntity
   8
LEVEL001
 100
AcDbLine
   6
CONTINUOUS
  62
3
  10
 245.38368368495
  20
 107.17446624713
  30
0.0
  11
 239.00000925362
  21
 106.97497076651
  31
0.0
   0
LINE
   5
294
 100
AcDbEntity
   8
LEVEL001
 100
AcDbLine
   6
CONTINUOUS
  62
7
  10
 249.00001658499
  20
 108.14347180297
  30
0.0
  11
 239.00000925362
  21
 107.83095945541
  31
0.0
   0
LINE
   5
295
 100
AcDbEntity
   8
LEVEL001
 100
AcDbLine
   6
CONTINUOUS
  62
7
  10
 79.500005900860
  20
 362.50002016127
  30
0.0
  11
 157.49999642372
  21
 362.50002016127
  31
0.0
   0
LEADER
   5
296
 100
AcDbEntity
   8
LEVEL003
   6
CONTINUOUS
  62
3
 100
AcDbLeader
   3
GMM007
  73
0
  74
1
  75
0
  40
 6.0000000000000
  41
0.0
  76
3
  10
 196.49999526143
  20
 352.50000000000
  30
0.0
  10
 232.15969179095
  20
 412.63150409962
  30
0.0
  10
 269.99999217689
  20
 412.63150409962
  30
0.0
  77
3
   0
TEXT
   5
297
 100
AcDbEntity
   8
LEVEL003
  62
3
 100
AcDbText
  10
 232.15969179095
  20
 412.63150409962
  30
0.0
  40
 5.9999998211861
   1
Ｍ７８×２
   7
STANDARD
 100
AcDbText
   0
DIMENSION
   5
298
 100
AcDbEntity
   8
LEVEL003
   6
CONTINUOUS
  62
3
 100
AcDbDimension
   2
*D16
  10
 75.999983593823
  20
 149.99999552966
  30
0.0
  11
 157.49999652863
  21
 149.99999552966
  31
0.0
  70
128
   1
\A1;%%c163
   3
GMM008
 100
AcDbAlignedDimension
  13
 239.00000925362
  23
 149.99999552965
  33
0.0
  14
 75.999983593823
  24
 149.99998127973
  34
0.0
  50
 180.00000000000
 100
AcDbRotatedDimension
   0
DIMENSION
   5
29A
 100
AcDbEntity
   8
LEVEL003
   6
CONTINUOUS
  62
3
 100
AcDbDimension
   2
*D17
  10
 222.50000974536
  20
 165.00000000000
  30
0.0
  11
 157.50000000000
  21
 165.00000000000
  31
0.0
  70
0
   1
\A1;%%c130
   3
GMM009
 100
AcDbAlignedDimension
  13
 92.499990254641
  23
 165.00000000000
  33
0.0
  14
 222.50000974536
  24
 165.00000000000
  34
0.0
 100
AcDbRotatedDimension
   0
DIMENSION
   5
29C
 100
AcDbEntity
   8
LEVEL003
   6
CONTINUOUS
  62
3
 100
AcDbDimension
   2
*D18
  10
 207.50001019239
  20
 180.00000000000
  30
0.0
  11
 157.50000000000
  21
 180.00000000000
  31
0.0
  70
0
   1
\A1;%%c100
   3
GMM009
 100
AcDbAlignedDimension
  13
 107.49998980761
  23
 180.00000000000
  33
0.0
  14
 207.50001019239
  24
 180.00000000000
  34
0.0
 100
AcDbRotatedDimension
   0
DIMENSION
   5
29E
 100
AcDbEntity
   8
LEVEL003
   6
CONTINUOUS
  62
3
 100
AcDbDimension
   2
*D19
  10
 194.99999530613
  20
 195.00000000000
  30
0.0
  11
 157.50000000000
  21
 195.00000000000
  31
0.0
  70
0
   1
\A1;%%c75
   3
GMM009
 100
AcDbAlignedDimension
  13
 120.00000469387
  23
 195.00000000000
  33
0.0
  14
 194.99999530613
  24
 195.00000000000
  34
0.0
 100
AcDbRotatedDimension
   0
DIMENSION
   5
2A0
 100
AcDbEntity
   8
LEVEL003
   6
CONTINUOUS
  62
3
 100
AcDbDimension
   2
*D20
  10
 184.99999941885
  20
 52.500000000000
  30
0.0
  11
 157.50000000000
  21
 52.500000000000
  31
0.0
  70
0
   1
\A1;%%c55
   3
GMM010
 100
AcDbAlignedDimension
  13
 130.00000058115
  23
 82.999967455865
  33
0.0
  14
 184.99999941885
  24
 82.999967455865
  34
0.0
 100
AcDbRotatedDimension
   0
LINE
   5
2A2
 100
AcDbEntity
   8
LEVEL003
 100
AcDbLine
   6
CONTINUOUS
  62
3
  10
 89.999998435378
  20
 72.999982967973
  30
0.0
  11
 89.999998435378
  21
 34.500000000000
  31
0.0
   0
LINE
   5
2A3
 100
AcDbEntity
   8
LEVEL003
 100
AcDbLine
   6
CONTINUOUS
  62
3
  10
 89.999998435378
  20
 37.500000000000
  30
0.0
  11
 157.50000000000
  21
 37.500000000000
  31
0.0
   0
LINE
   5
2A4
 100
AcDbEntity
   8
LEVEL003
 100
AcDbLine
   6
CONTINUOUS
  62
3
  10
 94.499998435378
  20
 36.750000000000
  30
0.0
  11
 89.999998435378
  21
 37.500000000000
  31
0.0
   0
LINE
   5
2A5
 100
AcDbEntity
   8
LEVEL003
 100
AcDbLine
   6
CONTINUOUS
  62
3
  10
 89.999998435378
  20
 37.500000000000
  30
0.0
  11
 94.499998435378
  21
 38.250000000000
  31
0.0
   0
LINE
   5
2A6
 100
AcDbEntity
   8
LEVEL003
 100
AcDbLine
   6
CONTINUOUS
  62
3
  10
 89.999998435378
  20
 37.500000000000
  30
0.0
  11
 94.499998435378
  21
 37.500000000000
  31
0.0
   0
MTEXT
   5
2A7
 100
AcDbEntity
   8
LEVEL003
  62
3
 100
AcDbMText
  10
 150.00000000000
  20
 38.700000000000
  30
0.0
  40
 6.0000000000000
  41
0.0
  71
8
  72
1
   1
%%c\Ftxt.shx;135
   7
GMM002
   0
DIMENSION
   5
2A8
 100
AcDbEntity
   8
LEVEL003
   6
CONTINUOUS
  62
3
 100
AcDbDimension
   2
*D21
  10
 184.99999941885
  20
 397.50000000000
  30
0.0
  11
 157.50000000000
  21
 397.50000000000
  31
0.0
  70
0
   1
\A1;%%c55
   3
GMM010
 100
AcDbAlignedDimension
  13
 130.00000058115
  23
 377.50001971424
  33
0.0
  14
 184.99999941885
  24
 377.50001971424
  34
0.0
 100
AcDbRotatedDimension
   0
LINE
   5
2AA
 100
AcDbEntity
   8
LEVEL001
 100
AcDbLine
   6
DOT
  62
3
  10
 119.49998944998
  20
 293.29179142819
  30
0.0
  11
 119.49998944998
  21
 326.76792741513
  31
0.0
   0
LINE
   5
2AB
 100
AcDbEntity
   8
LEVEL001
 100
AcDbLine
   6
DOT
  62
3
  10
 119.49998944998
  20
 287.99999186397
  30
0.0
  11
 119.49998944998
  21
 290.50850297824
  31
0.0
   0
LINE
   5
2AC
 100
AcDbEntity
   8
LEVEL001
 100
AcDbLine
   6
DOT
  62
3
  10
 107.49998980761
  20
 289.87960926074
  30
0.0
  11
 107.49998980761
  21
 141.49996571243
  31
0.0
   0
LINE
   5
2AD
 100
AcDbEntity
   8
LEVEL001
 100
AcDbLine
   6
CONTINUOUS
  62
7
  10
 235.49999409914
  20
 362.50002016127
  30
0.0
  11
 157.50000357628
  21
 362.50002016127
  31
0.0
   0
LINE
   5
2AE
 100
AcDbEntity
   8
LEVEL001
 100
AcDbLine
   6
DASHDOT
  62
1
  10
 157.49999642372
  20
 150.00000000000
  30
0.0
  11
 157.49999642372
  21
 67.499998435378
  31
0.0
   0
LINE
   5
2AF
 100
AcDbEntity
   8
LEVEL001
 100
AcDbLine
   6
DASHDOT
  62
1
  10
 157.49999642372
  20
 389.99998882413
  30
0.0
  11
 157.49999642372
  21
 202.50000000000
  31
0.0
   0
TEXT
   5
2B0
 100
AcDbEntity
   8
LEVEL003
  62
7
 100
AcDbText
  10
 485.62998991395
  20
 26.313370614670
  30
0.0
  40
 10.000000000000
   1
ＯＳＡＫＡ ＪＡＣＫ
   7
STANDARD
 100
AcDbText
   0
CIRCLE
   5
2B1
 100
AcDbEntity
   8
LEVEL003
 100
AcDbCircle
   6
CONTINUOUS
  62
7
  10
 465.18357606359
  20
 33.027342452201
  30
0.0
  40
 3.0000000000000
   0
LINE
   5
2B2
 100
AcDbEntity
   8
LEVEL003
 100
AcDbLine
   6
CONTINUOUS
  62
7
  10
 471.07157606359
  20
 36.027342452201
  30
0.0
  11
 467.26257606359
  21
 29.427342452201
  31
0.0
   0
LINE
   5
2B3
 100
AcDbEntity
   8
LEVEL003
 100
AcDbLine
   6
CONTINUOUS
  62
7
  10
 467.26257606359
  20
 29.427342452201
  30
0.0
  11
 459.64157606359
  21
 29.427342452201
  31
0.0
   0
LINE
   5
2B4
 100
AcDbEntity
   8
LEVEL003
 100
AcDbLine
   6
CONTINUOUS
  62
7
  10
 458.77457606359
  20
 27.927342452201
  30
0.0
  11
 472.39557606359
  21
 27.927342452201
  31
0.0
   0
LINE
   5
2B5
 100
AcDbEntity
   8
LEVEL003
 100
AcDbLine
   6
CONTINUOUS
  62
7
  10
 472.39557606359
  20
 27.927342452201
  30
0.0
  11
 477.07157606359
  21
 36.027342452201
  31
0.0
   0
LINE
   5
2B6
 100
AcDbEntity
   8
LEVEL003
 100
AcDbLine
   6
CONTINUOUS
  62
7
  10
 477.07157606359
  20
 36.027342452201
  30
0.0
  11
 471.07157606359
  21
 36.027342452201
  31
0.0
   0
LINE
   5
2B7
 100
AcDbEntity
   8
LEVEL003
 100
AcDbLine
   6
CONTINUOUS
  62
7
  10
 459.64157606359
  20
 29.427342452201
  30
0.0
  11
 458.77457606359
  21
 27.927342452201
  31
0.0
   0
TEXT
   5
2B8
 100
AcDbEntity
   8
LEVEL003
  62
7
 100
AcDbText
  10
 488.54098991395
  20
 43.206770614670
  30
0.0
  40
 6.0000000000000
   1
Model : ＥＣ６０Ｓ１５
   7
STANDARD
 100
AcDbText
   0
ENDSEC
  0
SECTION
  2
OBJECTS
  0
DICTIONARY
  5
C
100
AcDbDictionary
  3
ACAD_GROUP
350
D
  3
ACAD_MLINESTYLE
350
1B
  0
DICTIONARY
  5
D
102
{ACAD_REACTORS
330
C
102
}
100
AcDbDictionary
  0
DICTIONARY
  5
1B
102
{ACAD_REACTORS
330
C
102
}
100
AcDbDictionary
  3
STANDARD
350
1C
  0
MLINESTYLE
  5
1C
102
{ACAD_REACTORS
330
1B
102
}
100
AcDbMlineStyle
  2
STANDARD
 70
     0
  3

 62
   256
 51
90.0
 52
90.0
 71
     2
 49
0.5
 62
   256
  6
BYLAYER
 49
-0.5
 62
   256
  6
BYLAYER
  0
ENDSEC
   0
EOF
