   0
SECTION
   2
HEADER
   9
$ACADVER
   1
AC1014
   9
$LIMMIN
  10
0.0
  20
0.0
   9
$LIMMAX
  10
 630.00000000000
  20
 446.00000000000
   9
$EXTMIN
  10
0.0
  20
0.0
  30
0.0
   9
$EXTMAX
  10
 630.00000000000
  20
 446.00000000000
  30
0.0
   9
$LTSCALE
  40
 12.600000000000
   9
$HANDSEED
   5
283
   0
ENDSEC
   0
SECTION
   2
TABLES
  0
TABLE
  2
VPORT
  5
8
100
AcDbSymbolTable
 70
     1
  0
VPORT
  5
282
100
AcDbSymbolTableRecord
100
AcDbViewportTableRecord
  2
*ACTIVE
 70
     0
 10
0.0
 20
0.0
 11
1.0
 21
1.0
  12
 315.00000000000
  22
 223.00000000000
 13
0.0
 23
0.0
 14
1.0
 24
1.0
 15
0.0
 25
0.0
 16
0.0
 26
0.0
 36
1.0
 17
0.0
 27
0.0
 37
0.0
  40
 630.00000000000
  41
 1.4787878787879
 42
50.0
 43
0.0
 44
0.0
 50
0.0
 51
0.0
 71
     0
 72
   100
 73
     1
 74
     1
 75
     0
 76
     0
 77
     0
 78
     0
  0
ENDTAB
  0
TABLE
  2
LTYPE
  5
5
100
AcDbSymbolTable
 70
    25
  0
LTYPE
  5
12
100
AcDbSymbolTableRecord
100
AcDbLinetypeTableRecord
  2
BYBLOCK
 70
     0
  3

 72
    65
 73
     0
 40
0.0
  0
LTYPE
  5
13
100
AcDbSymbolTableRecord
100
AcDbLinetypeTableRecord
  2
BYLAYER
 70
     0
  3

 72
    65
 73
     0
 40
0.0
  0
LTYPE
  5
14
100
AcDbSymbolTableRecord
100
AcDbLinetypeTableRecord
  2
CONTINUOUS
 70
     0
  3
Solid line
 72
    65
 73
     0
 40
0.0
  0
LTYPE
  5
20
100
AcDbSymbolTableRecord
100
AcDbLinetypeTableRecord
  2
BORDER
 70
     0
  3
__ __ . __ __ . __ __ . __ __ . __ __ . __ __ .
 72
    65
 73
     6
 40
1.75
 49
0.5
 74
     0
 49
-0.25
 74
     0
 49
0.5
 74
     0
 49
-0.25
 74
     0
 49
0.0
 74
     0
 49
-0.25
 74
     0
  0
LTYPE
  5
21
100
AcDbSymbolTableRecord
100
AcDbLinetypeTableRecord
  2
BORDER2
 70
     0
  3
__.__.__.__.__.__.__.__.__.__.__.__.__.__.__.__
 72
    65
 73
     6
 40
0.875
 49
0.25
 74
     0
 49
-0.125
 74
     0
 49
0.25
 74
     0
 49
-0.125
 74
     0
 49
0.0
 74
     0
 49
-0.125
 74
     0
  0
LTYPE
  5
22
100
AcDbSymbolTableRecord
100
AcDbLinetypeTableRecord
  2
BORDERX2
 70
     0
  3
____  ____  .  ____  ____  .  ____  ____  .  __
 72
    65
 73
     6
 40
3.5
 49
1.0
 74
     0
 49
-0.5
 74
     0
 49
1.0
 74
     0
 49
-0.5
 74
     0
 49
0.0
 74
     0
 49
-0.5
 74
     0
  0
LTYPE
  5
23
100
AcDbSymbolTableRecord
100
AcDbLinetypeTableRecord
  2
CENTER
 70
     0
  3
____ _ ____ _ ____ _ ____ _ ____ _ ____ _ ____ 
 72
    65
 73
     4
 40
2.0
 49
1.25
 74
     0
 49
-0.25
 74
     0
 49
0.25
 74
     0
 49
-0.25
 74
     0
  0
LTYPE
  5
24
100
AcDbSymbolTableRecord
100
AcDbLinetypeTableRecord
  2
CENTER2
 70
     0
  3
___ _ ___ _ ___ _ ___ _ ___ _ ___ _ ___ _ ___ _
 72
    65
 73
     4
 40
1.125
 49
0.75
 74
     0
 49
-0.125
 74
     0
 49
0.125
 74
     0
 49
-0.125
 74
     0
  0
LTYPE
  5
25
100
AcDbSymbolTableRecord
100
AcDbLinetypeTableRecord
  2
CENTERX2
 70
     0
  3
________  __  ________  __  ________  __  _____
 72
    65
 73
     4
 40
4.0
 49
2.5
 74
     0
 49
-0.5
 74
     0
 49
0.5
 74
     0
 49
-0.5
 74
     0
  0
LTYPE
  5
26
100
AcDbSymbolTableRecord
100
AcDbLinetypeTableRecord
  2
DASHDOT
 70
     0
  3
__ . __ . __ . __ . __ . __ . __ . __ . __ . __
 72
    65
 73
     4
 40
1.0
 49
0.5
 74
     0
 49
-0.25
 74
     0
 49
0.0
 74
     0
 49
-0.25
 74
     0
  0
LTYPE
  5
27
100
AcDbSymbolTableRecord
100
AcDbLinetypeTableRecord
  2
DASHDOT2
 70
     0
  3
_._._._._._._._._._._._._._._._._._._._._._._._
 72
    65
 73
     4
 40
0.5
 49
0.25
 74
     0
 49
-0.125
 74
     0
 49
0.0
 74
     0
 49
-0.125
 74
     0
  0
LTYPE
  5
28
100
AcDbSymbolTableRecord
100
AcDbLinetypeTableRecord
  2
DASHDOTX2
 70
     0
  3
____  .  ____  .  ____  .  ____  .  ____  .  __
 72
    65
 73
     4
 40
2.0
 49
1.0
 74
     0
 49
-0.5
 74
     0
 49
0.0
 74
     0
 49
-0.5
 74
     0
  0
LTYPE
  5
29
100
AcDbSymbolTableRecord
100
AcDbLinetypeTableRecord
  2
DASHED
 70
     0
  3
__ __ __ __ __ __ __ __ __ __ __ __ __ __ __ __
 72
    65
 73
     2
 40
0.75
 49
0.5
 74
     0
 49
-0.25
 74
     0
  0
LTYPE
  5
2A
100
AcDbSymbolTableRecord
100
AcDbLinetypeTableRecord
  2
DASHED2
 70
     0
  3
_ _ _ _ _ _ _ _ _ _ _ _ _ _ _ _ _ _ _ _ _ _ _ _
 72
    65
 73
     2
 40
0.375
 49
0.25
 74
     0
 49
-0.125
 74
     0
  0
LTYPE
  5
2B
100
AcDbSymbolTableRecord
100
AcDbLinetypeTableRecord
  2
DASHEDX2
 70
     0
  3
____  ____  ____  ____  ____  ____  ____  ____ 
 72
    65
 73
     2
 40
1.5
 49
1.0
 74
     0
 49
-0.5
 74
     0
  0
LTYPE
  5
2C
100
AcDbSymbolTableRecord
100
AcDbLinetypeTableRecord
  2
DIVIDE
 70
     0
  3
____ . . ____ . . ____ . . ____ . . ____ . . __
 72
    65
 73
     6
 40
1.25
 49
0.5
 74
     0
 49
-0.25
 74
     0
 49
0.0
 74
     0
 49
-0.25
 74
     0
 49
0.0
 74
     0
 49
-0.25
 74
     0
  0
LTYPE
  5
2D
100
AcDbSymbolTableRecord
100
AcDbLinetypeTableRecord
  2
DIVIDE2
 70
     0
  3
__..__..__..__..__..__..__..__..__..__..__..__.
 72
    65
 73
     6
 40
0.625
 49
0.25
 74
     0
 49
-0.125
 74
     0
 49
0.0
 74
     0
 49
-0.125
 74
     0
 49
0.0
 74
     0
 49
-0.125
 74
     0
  0
LTYPE
  5
2E
100
AcDbSymbolTableRecord
100
AcDbLinetypeTableRecord
  2
DIVIDEX2
 70
     0
  3
________  .  .  ________  .  .  ________  .  . 
 72
    65
 73
     6
 40
2.5
 49
1.0
 74
     0
 49
-0.5
 74
     0
 49
0.0
 74
     0
 49
-0.5
 74
     0
 49
0.0
 74
     0
 49
-0.5
 74
     0
  0
LTYPE
  5
2F
100
AcDbSymbolTableRecord
100
AcDbLinetypeTableRecord
  2
DOT
 70
     0
  3
. . . . . . . . . . . . . . . . . . . . . . . .
 72
    65
 73
     2
 40
0.25
 49
0.0
 74
     0
 49
-0.25
 74
     0
  0
LTYPE
  5
30
100
AcDbSymbolTableRecord
100
AcDbLinetypeTableRecord
  2
DOT2
 70
     0
  3
...............................................
 72
    65
 73
     2
 40
0.125
 49
0.0
 74
     0
 49
-0.125
 74
     0
  0
LTYPE
  5
31
100
AcDbSymbolTableRecord
100
AcDbLinetypeTableRecord
  2
DOTX2
 70
     0
  3
.  .  .  .  .  .  .  .  .  .  .  .  .  .  .  . 
 72
    65
 73
     2
 40
0.5
 49
0.0
 74
     0
 49
-0.5
 74
     0
  0
LTYPE
  5
32
100
AcDbSymbolTableRecord
100
AcDbLinetypeTableRecord
  2
HIDDEN
 70
     0
  3
__ __ __ __ __ __ __ __ __ __ __ __ __ __ __ __
 72
    65
 73
     2
 40
0.375
 49
0.25
 74
     0
 49
-0.125
 74
     0
  0
LTYPE
  5
33
100
AcDbSymbolTableRecord
100
AcDbLinetypeTableRecord
  2
HIDDEN2
 70
     0
  3
_ _ _ _ _ _ _ _ _ _ _ _ _ _ _ _ _ _ _ _ _ _ _ _
 72
    65
 73
     2
 40
0.1875
 49
0.125
 74
     0
 49
-0.0625
 74
     0
  0
LTYPE
  5
34
100
AcDbSymbolTableRecord
100
AcDbLinetypeTableRecord
  2
HIDDENX2
 70
     0
  3
____ ____ ____ ____ ____ ____ ____ ____ ____ __
 72
    65
 73
     2
 40
0.75
 49
0.5
 74
     0
 49
-0.25
 74
     0
  0
LTYPE
  5
35
100
AcDbSymbolTableRecord
100
AcDbLinetypeTableRecord
  2
PHANTOM
 70
     0
  3
______  __  __  ______  __  __  ______  __  __ 
 72
    65
 73
     6
 40
2.5
 49
1.25
 74
     0
 49
-0.25
 74
     0
 49
0.25
 74
     0
 49
-0.25
 74
     0
 49
0.25
 74
     0
 49
-0.25
 74
     0
  0
LTYPE
  5
36
100
AcDbSymbolTableRecord
100
AcDbLinetypeTableRecord
  2
PHANTOM2
 70
     0
  3
___ _ _ ___ _ _ ___ _ _ ___ _ _ ___ _ _ ___ _ _
 72
    65
 73
     6
 40
1.25
 49
0.625
 74
     0
 49
-0.125
 74
     0
 49
0.125
 74
     0
 49
-0.125
 74
     0
 49
0.125
 74
     0
 49
-0.125
 74
     0
  0
LTYPE
  5
37
100
AcDbSymbolTableRecord
100
AcDbLinetypeTableRecord
  2
PHANTOMX2
 70
     0
  3
____________    ____    ____    ____________   
 72
    65
 73
     6
 40
5.0
 49
2.5
 74
     0
 49
-0.5
 74
     0
 49
0.5
 74
     0
 49
-0.5
 74
     0
 49
0.5
 74
     0
 49
-0.5
 74
     0
  0
ENDTAB
   0
TABLE
   2
LAYER
   5
2
 100
AcDbSymbolTable
  70
6
   0
LAYER
   5
E
 100
AcDbSymbolTableRecord
 100
AcDbLayerTableRecord
   2
0
  70
0
  62
7
   6
CONTINUOUS
   0
LAYER
   5
39
 100
AcDbSymbolTableRecord
 100
AcDbLayerTableRecord
   2
LEVEL001
  70
0
  62
7
   6
CONTINUOUS
   0
LAYER
   5
3A
 100
AcDbSymbolTableRecord
 100
AcDbLayerTableRecord
   2
LEVEL003
  70
0
  62
7
   6
CONTINUOUS
   0
LAYER
   5
3B
 100
AcDbSymbolTableRecord
 100
AcDbLayerTableRecord
   2
LEVEL020
  70
0
  62
7
   6
CONTINUOUS
   0
LAYER
   5
3C
 100
AcDbSymbolTableRecord
 100
AcDbLayerTableRecord
   2
LEVEL050
  70
0
  62
7
   6
CONTINUOUS
   0
LAYER
   5
3D
 100
AcDbSymbolTableRecord
 100
AcDbLayerTableRecord
   2
LEVEL110
  70
0
  62
7
   6
CONTINUOUS
   0
ENDTAB
  0
TABLE
  2
STYLE
  5
3
100
AcDbSymbolTable
  70
4
  0
STYLE
  5
F
100
AcDbSymbolTableRecord
100
AcDbTextStyleTableRecord
  2
STANDARD
 70
     0
 40
0.0
 41
1.0
 50
0.0
 71
     0
 42
0.2
  3
TXT
  4
BIGFONT
  0
STYLE
  5
38
100
AcDbSymbolTableRecord
100
AcDbTextStyleTableRecord
  2
STANDARD1
 70
     4
 40
0.0
 41
1.0
 50
0.0
 71
     0
 42
0.2
  3
TXT
  4
BIGFONT
   0
STYLE
   5
3E
 100
AcDbSymbolTableRecord
 100
AcDbTextStyleTableRecord
   2
GMM001
  70
0
  40
0.0
  41
 1.0000000000000
  50
0.0
  71
     0
  42
1.0
   3
txt.shx
   4
bigfont.shx
   0
STYLE
   5
3F
 100
AcDbSymbolTableRecord
 100
AcDbTextStyleTableRecord
   2
GMM002
  70
0
  40
0.0
  41
 1.0000000000000
  50
0.0
  71
     0
  42
1.0
   3

   4

1001
ACAD
1000
ＭＳ ゴシック
1071
32817
   0
ENDTAB
  0
TABLE
  2
VIEW
  5
6
100
AcDbSymbolTable
 70
     0
  0
ENDTAB
  0
TABLE
  2
UCS
  5
7
100
AcDbSymbolTable
 70
     0
  0
ENDTAB
  0
TABLE
  2
APPID
  5
9
100
AcDbSymbolTable
 70
     1
  0
APPID
  5
10
100
AcDbSymbolTableRecord
100
AcDbRegAppTableRecord
  2
ACAD
 70
     0
  0
ENDTAB
   0
TABLE
   2
DIMSTYLE
   5
A
 100
AcDbSymbolTable
  70
13
  0
DIMSTYLE
105
1D
100
AcDbSymbolTableRecord
100
AcDbDimStyleTableRecord
  2
STANDARD
 70
     0
  3

  4

  5

  6

  7

 40
1.0
 41
0.18
 42
0.0625
 43
0.38
 44
0.18
 45
0.0
 46
0.0
 47
0.0
 48
0.0
140
0.18
141
0.09
142
0.0
143
25.4
144
1.0
145
0.0
146
1.0
147
0.09
 71
     0
 72
     0
 73
     1
 74
     1
 75
     0
 76
     0
 77
     0
 78
     0
170
     0
171
     2
172
     0
173
     0
174
     0
175
     0
176
     0
177
     0
178
     0
270
     2
271
     4
272
     4
273
     2
274
     2
340
F
275
     0
280
     0
281
     0
282
     0
283
     1
284
     0
285
     0
286
     0
287
     3
288
     0
   0
DIMSTYLE
 105
40
 100
AcDbSymbolTableRecord
 100
AcDbDimStyleTableRecord
   2
GMM001
  70
0
   3

   4

   5

   6
_OPEN
   7
_OPEN
  40
 1.0000000000000
  41
 4.5000000000000
  42
 1.5000000000000
  43
 0.10000000000000E-5
  44
 3.0000000000000
  45
0.0
  46
0.0
  47
0.0
  48
0.0
 140
 6.0000000000000
 141
 1.5000000000000
 142
0.0
 143
 0.39400000000000E-1
 144
 1.0000000000000
 145
0.0
 146
 0.62500000000000
 147
 1.1999816536909
  71
0
  72
0
  73
0
  74
0
  75
0
  76
0
  77
3
  78
0
 170
0
 171
2
 172
1
 173
1
 174
0
 175
0
 176
3
 177
3
 178
3
 270
2
 271
0
 272
0
 273
2
 274
2
 340
3E
 275
1
 280
0
 281
0
 282
0
 283
1
 284
0
 285
0
 286
0
 287
3
 288
1
   0
DIMSTYLE
 105
41
 100
AcDbSymbolTableRecord
 100
AcDbDimStyleTableRecord
   2
GMM002
  70
0
   3

   4

   5

   6
_OPEN
   7
_OPEN
  40
 1.0000000000000
  41
 4.5000000000000
  42
 1.5000000000000
  43
 0.10000000000000E-5
  44
 3.0000000000000
  45
0.0
  46
0.0
  47
0.0
  48
0.0
 140
 6.0000000000000
 141
 1.5000000000000
 142
0.0
 143
 0.39400000000000E-1
 144
 1.0000000000000
 145
0.0
 146
 0.62500000000000
 147
 1.1999988198281
  71
0
  72
0
  73
0
  74
0
  75
0
  76
0
  77
3
  78
0
 170
0
 171
2
 172
1
 173
1
 174
0
 175
0
 176
3
 177
3
 178
3
 270
2
 271
0
 272
0
 273
2
 274
2
 340
3E
 275
1
 280
0
 281
0
 282
0
 283
1
 284
0
 285
0
 286
0
 287
3
 288
1
   0
DIMSTYLE
 105
42
 100
AcDbSymbolTableRecord
 100
AcDbDimStyleTableRecord
   2
GMM003
  70
0
   3

   4

   5

   6
_OPEN
   7
_OPEN
  40
 1.0000000000000
  41
 4.5000000000000
  42
 1.5000000000000
  43
 0.10000000000000E-5
  44
 3.0000000000000
  45
0.0
  46
0.0
  47
0.0
  48
0.0
 140
 6.0000000000000
 141
 1.5000000000000
 142
0.0
 143
 0.39400000000000E-1
 144
 1.0000000000000
 145
0.0
 146
 0.62500000000000
 147
0.0
  71
0
  72
0
  73
0
  74
0
  75
0
  76
0
  77
1
  78
0
 170
0
 171
2
 172
1
 173
1
 174
0
 175
0
 176
3
 177
3
 178
7
 270
2
 271
0
 272
0
 273
2
 274
2
 340
F
 275
1
 280
0
 281
0
 282
0
 283
1
 284
0
 285
0
 286
0
 287
3
 288
1
   0
DIMSTYLE
 105
43
 100
AcDbSymbolTableRecord
 100
AcDbDimStyleTableRecord
   2
GMM004
  70
0
   3

   4

   5

   6
_OPEN
   7
_OPEN
  40
 1.0000000000000
  41
 4.5000000000000
  42
 1.5000000000000
  43
 0.10000000000000E-5
  44
 3.0000000000000
  45
0.0
  46
0.0
  47
0.0
  48
0.0
 140
 6.0000000000000
 141
 1.5000000000000
 142
0.0
 143
 0.39400000000000E-1
 144
 1.0000000000000
 145
0.0
 146
 0.62500000000000
 147
 1.2000045418738
  71
0
  72
0
  73
0
  74
0
  75
0
  76
0
  77
3
  78
0
 170
0
 171
2
 172
1
 173
1
 174
0
 175
0
 176
3
 177
3
 178
3
 270
2
 271
0
 272
0
 273
2
 274
2
 340
3E
 275
1
 280
0
 281
0
 282
0
 283
1
 284
0
 285
0
 286
0
 287
3
 288
1
   0
DIMSTYLE
 105
44
 100
AcDbSymbolTableRecord
 100
AcDbDimStyleTableRecord
   2
GMM005
  70
0
   3

   4

   5

   6
_OPEN
   7
_OPEN
  40
 1.0000000000000
  41
 4.5000000000000
  42
 1.5000000000000
  43
 0.10000000000000E-5
  44
 3.0000000000000
  45
0.0
  46
0.0
  47
0.0
  48
0.0
 140
 6.0000000000000
 141
 1.5000000000000
 142
0.0
 143
 0.39400000000000E-1
 144
 1.0000000000000
 145
0.0
 146
 0.62500000000000
 147
 1.1999816536909
  71
0
  72
0
  73
0
  74
0
  75
0
  76
0
  77
3
  78
0
 170
0
 171
2
 172
1
 173
1
 174
0
 175
0
 176
3
 177
3
 178
3
 270
2
 271
0
 272
0
 273
2
 274
2
 340
3E
 275
1
 280
0
 281
0
 282
0
 283
1
 284
0
 285
0
 286
0
 287
3
 288
1
   0
DIMSTYLE
 105
45
 100
AcDbSymbolTableRecord
 100
AcDbDimStyleTableRecord
   2
GMM006
  70
0
   3

   4

   5

   6
_OPEN
   7
_OPEN
  40
 1.0000000000000
  41
 4.5000000000000
  42
 1.5000000000000
  43
 12.000000000000
  44
 3.0000000000000
  45
0.0
  46
0.0
  47
0.0
  48
0.0
 140
 6.0000000000000
 141
 1.5000000000000
 142
0.0
 143
 0.39400000000000E-1
 144
 1.0000000000000
 145
0.0
 146
 0.62500000000000
 147
0.0
  71
0
  72
0
  73
0
  74
0
  75
0
  76
0
  77
1
  78
8
 170
0
 171
2
 172
1
 173
1
 174
0
 175
0
 176
3
 177
3
 178
7
 270
2
 271
2
 272
0
 273
2
 274
2
 340
F
 275
0
 280
0
 281
0
 282
0
 283
1
 284
0
 285
0
 286
0
 287
3
 288
1
   0
DIMSTYLE
 105
46
 100
AcDbSymbolTableRecord
 100
AcDbDimStyleTableRecord
   2
GMM007
  70
0
   3

   4

   5

   6
_OPEN
   7
_OPEN
  40
 1.0000000000000
  41
 4.5000000000000
  42
 1.5000000000000
  43
 0.10000000000000E-5
  44
 3.0000000000000
  45
0.0
  46
0.0
  47
0.0
  48
0.0
 140
 6.0000000000000
 141
 1.5000000000000
 142
0.0
 143
 0.39400000000000E-1
 144
 1.0000000000000
 145
0.0
 146
 0.62500000000000
 147
 1.2000045418738
  71
0
  72
0
  73
0
  74
0
  75
0
  76
0
  77
3
  78
0
 170
0
 171
2
 172
1
 173
1
 174
0
 175
0
 176
3
 177
3
 178
3
 270
2
 271
0
 272
0
 273
2
 274
2
 340
3E
 275
1
 280
0
 281
0
 282
0
 283
1
 284
0
 285
0
 286
0
 287
3
 288
1
   0
DIMSTYLE
 105
47
 100
AcDbSymbolTableRecord
 100
AcDbDimStyleTableRecord
   2
GMM008
  70
0
   3

   4

   5

   6
_OPEN
   7
_OPEN
  40
 1.0000000000000
  41
 4.5000000000000
  42
 1.5000000000000
  43
 12.000000000000
  44
 3.0000000000000
  45
0.0
  46
0.0
  47
0.0
  48
0.0
 140
 6.0000000000000
 141
 1.5000000000000
 142
0.0
 143
 0.39400000000000E-1
 144
 1.0000000000000
 145
0.0
 146
 0.62500000000000
 147
0.0
  71
0
  72
0
  73
0
  74
0
  75
0
  76
0
  77
1
  78
8
 170
0
 171
2
 172
1
 173
1
 174
0
 175
0
 176
3
 177
3
 178
7
 270
2
 271
2
 272
0
 273
2
 274
2
 340
F
 275
0
 280
0
 281
0
 282
0
 283
1
 284
0
 285
0
 286
0
 287
3
 288
1
   0
DIMSTYLE
 105
48
 100
AcDbSymbolTableRecord
 100
AcDbDimStyleTableRecord
   2
GMM009
  70
0
   3

   4

   5

   6
_OPEN
   7
_OPEN
  40
 1.0000000000000
  41
 4.5000000000000
  42
 1.5000000000000
  43
 12.000000000000
  44
 3.0000000000000
  45
0.0
  46
0.0
  47
0.0
  48
0.0
 140
 6.0000000000000
 141
 1.5000000000000
 142
0.0
 143
 0.39400000000000E-1
 144
 1.0000000000000
 145
0.0
 146
 0.62500000000000
 147
 1.2000000000000
  71
0
  72
0
  73
0
  74
0
  75
0
  76
0
  77
3
  78
8
 170
0
 171
2
 172
1
 173
1
 174
0
 175
0
 176
3
 177
3
 178
3
 270
2
 271
2
 272
0
 273
2
 274
2
 340
3E
 275
0
 280
0
 281
0
 282
0
 283
1
 284
0
 285
0
 286
0
 287
3
 288
0
   0
DIMSTYLE
 105
49
 100
AcDbSymbolTableRecord
 100
AcDbDimStyleTableRecord
   2
GMM010
  70
0
   3

   4

   5

   6
_OPEN
   7
_OPEN
  40
 1.0000000000000
  41
 4.5000000000000
  42
 1.5000000000000
  43
 0.10000000000000E-5
  44
 3.0000000000000
  45
0.0
  46
0.0
  47
0.0
  48
0.0
 140
 6.0000000000000
 141
 1.5000000000000
 142
0.0
 143
 0.39400000000000E-1
 144
 1.0000000000000
 145
0.0
 146
 0.62500000000000
 147
 1.2000045418738
  71
0
  72
0
  73
0
  74
0
  75
1
  76
1
  77
3
  78
0
 170
0
 171
2
 172
1
 173
1
 174
0
 175
0
 176
3
 177
3
 178
3
 270
2
 271
0
 272
0
 273
2
 274
2
 340
3E
 275
1
 280
0
 281
0
 282
0
 283
1
 284
0
 285
0
 286
0
 287
3
 288
1
   0
DIMSTYLE
 105
4A
 100
AcDbSymbolTableRecord
 100
AcDbDimStyleTableRecord
   2
GMM011
  70
0
   3

   4

   5

   6
_OPEN
   7
_OPEN
  40
 1.0000000000000
  41
 4.5000000000000
  42
 1.5000000000000
  43
 12.000000000000
  44
 3.0000000000000
  45
0.0
  46
0.0
  47
0.0
  48
0.0
 140
 6.0000000000000
 141
 1.5000000000000
 142
0.0
 143
 0.39400000000000E-1
 144
 1.0000000000000
 145
0.0
 146
 0.62500000000000
 147
 1.2000000000000
  71
0
  72
0
  73
0
  74
0
  75
1
  76
1
  77
3
  78
8
 170
0
 171
2
 172
1
 173
1
 174
0
 175
0
 176
3
 177
3
 178
3
 270
2
 271
2
 272
0
 273
2
 274
2
 340
3E
 275
0
 280
0
 281
0
 282
0
 283
1
 284
0
 285
0
 286
0
 287
3
 288
0
   0
ENDTAB
  0
TABLE
  2
BLOCK_RECORD
  5
1
100
AcDbSymbolTable
 70
     0
  0
BLOCK_RECORD
  5
18
100
AcDbSymbolTableRecord
100
AcDbBlockTableRecord
  2
*MODEL_SPACE
  0
BLOCK_RECORD
  5
15
100
AcDbSymbolTableRecord
100
AcDbBlockTableRecord
  2
*PAPER_SPACE
   0
BLOCK_RECORD
   5
4B
 100
AcDbSymbolTableRecord
 100
AcDbBlockTableRecord
   2
*D1
   0
BLOCK_RECORD
   5
4C
 100
AcDbSymbolTableRecord
 100
AcDbBlockTableRecord
   2
*D2
   0
BLOCK_RECORD
   5
4D
 100
AcDbSymbolTableRecord
 100
AcDbBlockTableRecord
   2
*D4
   0
BLOCK_RECORD
   5
4E
 100
AcDbSymbolTableRecord
 100
AcDbBlockTableRecord
   2
*D5
   0
BLOCK_RECORD
   5
4F
 100
AcDbSymbolTableRecord
 100
AcDbBlockTableRecord
   2
*D6
   0
BLOCK_RECORD
   5
50
 100
AcDbSymbolTableRecord
 100
AcDbBlockTableRecord
   2
*D7
   0
BLOCK_RECORD
   5
51
 100
AcDbSymbolTableRecord
 100
AcDbBlockTableRecord
   2
*D10
   0
BLOCK_RECORD
   5
52
 100
AcDbSymbolTableRecord
 100
AcDbBlockTableRecord
   2
*D12
   0
BLOCK_RECORD
   5
53
 100
AcDbSymbolTableRecord
 100
AcDbBlockTableRecord
   2
*D13
   0
BLOCK_RECORD
   5
54
 100
AcDbSymbolTableRecord
 100
AcDbBlockTableRecord
   2
*D14
   0
BLOCK_RECORD
   5
55
 100
AcDbSymbolTableRecord
 100
AcDbBlockTableRecord
   2
*D15
   0
BLOCK_RECORD
   5
56
 100
AcDbSymbolTableRecord
 100
AcDbBlockTableRecord
   2
*D16
   0
BLOCK_RECORD
   5
57
 100
AcDbSymbolTableRecord
 100
AcDbBlockTableRecord
   2
*D17
   0
BLOCK_RECORD
   5
58
 100
AcDbSymbolTableRecord
 100
AcDbBlockTableRecord
   2
_ARCHTICK
   0
BLOCK_RECORD
   5
59
 100
AcDbSymbolTableRecord
 100
AcDbBlockTableRecord
   2
_BOXBLANK
   0
BLOCK_RECORD
   5
5A
 100
AcDbSymbolTableRecord
 100
AcDbBlockTableRecord
   2
_BOXFILLED
   0
BLOCK_RECORD
   5
5B
 100
AcDbSymbolTableRecord
 100
AcDbBlockTableRecord
   2
_CLOSED
   0
BLOCK_RECORD
   5
5C
 100
AcDbSymbolTableRecord
 100
AcDbBlockTableRecord
   2
_CLOSEDBLANK
   0
BLOCK_RECORD
   5
5D
 100
AcDbSymbolTableRecord
 100
AcDbBlockTableRecord
   2
_DATUMBLANK
   0
BLOCK_RECORD
   5
5E
 100
AcDbSymbolTableRecord
 100
AcDbBlockTableRecord
   2
_DATUMFILLED
   0
BLOCK_RECORD
   5
5F
 100
AcDbSymbolTableRecord
 100
AcDbBlockTableRecord
   2
_DOT
   0
BLOCK_RECORD
   5
60
 100
AcDbSymbolTableRecord
 100
AcDbBlockTableRecord
   2
_DOTBLANK
   0
BLOCK_RECORD
   5
61
 100
AcDbSymbolTableRecord
 100
AcDbBlockTableRecord
   2
_DOTSMALL
   0
BLOCK_RECORD
   5
62
 100
AcDbSymbolTableRecord
 100
AcDbBlockTableRecord
   2
_INTEGRAL
   0
BLOCK_RECORD
   5
63
 100
AcDbSymbolTableRecord
 100
AcDbBlockTableRecord
   2
_NONE
   0
BLOCK_RECORD
   5
64
 100
AcDbSymbolTableRecord
 100
AcDbBlockTableRecord
   2
_OBLIQUE
   0
BLOCK_RECORD
   5
65
 100
AcDbSymbolTableRecord
 100
AcDbBlockTableRecord
   2
_OPEN
   0
BLOCK_RECORD
   5
66
 100
AcDbSymbolTableRecord
 100
AcDbBlockTableRecord
   2
_OPEN30
   0
BLOCK_RECORD
   5
67
 100
AcDbSymbolTableRecord
 100
AcDbBlockTableRecord
   2
_OPEN90
   0
BLOCK_RECORD
   5
68
 100
AcDbSymbolTableRecord
 100
AcDbBlockTableRecord
   2
_ORIGIN
   0
ENDTAB
   0
ENDSEC
  0
SECTION
  2
BLOCKS
  0
BLOCK
  5
19
100
AcDbEntity
  8
0
100
AcDbBlockBegin
  2
*MODEL_SPACE
 70
     0
 10
0.0
 20
0.0
 30
0.0
  3
*MODEL_SPACE
  1

  0
ENDBLK
  5
1A
100
AcDbEntity
  8
0
100
AcDbBlockEnd
  0
BLOCK
  5
16
100
AcDbEntity
 67
     1
  8
0
100
AcDbBlockBegin
  2
*PAPER_SPACE
 70
     0
 10
0.0
 20
0.0
 30
0.0
  3
*PAPER_SPACE
  1

  0
ENDBLK
  5
17
100
AcDbEntity
 67
     1
  8
0
100
AcDbBlockEnd
   0
BLOCK
   5
69
 100
AcDbEntity
   8
0
 100
AcDbBlockBegin
   2
_ARCHTICK
  70
0
  10
0.0
  20
0.0
  30
0.0
   3
_ARCHTICK
   0
POLYLINE
   5
6A
 100
AcDbEntity
   8
0
   6
BYBLOCK
  62
0
 100
AcDb2dPolyline
  66
1
  10
0.0
  20
0.0
  30
0.0
  70
1
  40
 0.15000000000000
  41
 0.15000000000000
   0
VERTEX
   5
6B
 100
AcDbEntity
   8
0
   6
BYBLOCK
  62
0
 100
AcDbVertex
 100
AcDb2dVertex
  10
-0.50000000000000
  20
-0.50000000000000
  30
0.0
  40
 0.15000000000000
  41
 0.15000000000000
   0
VERTEX
   5
6C
 100
AcDbEntity
   8
0
   6
BYBLOCK
  62
0
 100
AcDbVertex
 100
AcDb2dVertex
  10
 0.50000000000000
  20
 0.50000000000000
  30
0.0
  40
 0.15000000000000
  41
 0.15000000000000
   0
SEQEND
   5
6D
 100
AcDbEntity
   8
0
   6
BYBLOCK
  62
0
   0
ENDBLK
   5
6E
 100
AcDbEntity
   8
0
 100
AcDbBlockEnd
   0
BLOCK
   5
6F
 100
AcDbEntity
   8
0
 100
AcDbBlockBegin
   2
_OBLIQUE
  70
0
  10
0.0
  20
0.0
  30
0.0
   3
_OBLIQUE
   0
LINE
   5
70
 100
AcDbEntity
   8
0
 100
AcDbLine
   6
BYBLOCK
  62
0
  10
-0.50000000000000
  20
-0.50000000000000
  30
0.0
  11
 0.50000000000000
  21
 0.50000000000000
  31
0.0
   0
ENDBLK
   5
71
 100
AcDbEntity
   8
0
 100
AcDbBlockEnd
   0
BLOCK
   5
72
 100
AcDbEntity
   8
0
 100
AcDbBlockBegin
   2
_BOXBLANK
  70
0
  10
0.0
  20
0.0
  30
0.0
   3
_BOXBLANK
   0
LINE
   5
73
 100
AcDbEntity
   8
0
 100
AcDbLine
   6
BYBLOCK
  62
0
  10
-0.50000000000000
  20
-0.50000000000000
  30
0.0
  11
 0.50000000000000
  21
-0.50000000000000
  31
0.0
   0
LINE
   5
74
 100
AcDbEntity
   8
0
 100
AcDbLine
   6
BYBLOCK
  62
0
  10
 0.50000000000000
  20
-0.50000000000000
  30
0.0
  11
 0.50000000000000
  21
 0.50000000000000
  31
0.0
   0
LINE
   5
75
 100
AcDbEntity
   8
0
 100
AcDbLine
   6
BYBLOCK
  62
0
  10
 0.50000000000000
  20
 0.50000000000000
  30
0.0
  11
-0.50000000000000
  21
 0.50000000000000
  31
0.0
   0
LINE
   5
76
 100
AcDbEntity
   8
0
 100
AcDbLine
   6
BYBLOCK
  62
0
  10
-0.50000000000000
  20
 0.50000000000000
  30
0.0
  11
-0.50000000000000
  21
-0.50000000000000
  31
0.0
   0
LINE
   5
77
 100
AcDbEntity
   8
0
 100
AcDbLine
   6
BYBLOCK
  62
0
  10
-0.50000000000000
  20
0.0
  30
0.0
  11
-1.0000000000000
  21
0.0
  31
0.0
   0
ENDBLK
   5
78
 100
AcDbEntity
   8
0
 100
AcDbBlockEnd
   0
BLOCK
   5
79
 100
AcDbEntity
   8
0
 100
AcDbBlockBegin
   2
_BOXFILLED
  70
0
  10
0.0
  20
0.0
  30
0.0
   3
_BOXFILLED
   0
SOLID
   5
7A
 100
AcDbEntity
   8
0
 100
AcDbTrace
   6
BYBLOCK
  62
0
  10
-0.50000000000000
  20
 0.50000000000000
  30
0.0
  11
 0.50000000000000
  21
 0.50000000000000
  31
0.0
  12
-0.50000000000000
  22
-0.50000000000000
  32
0.0
  13
 0.50000000000000
  23
-0.50000000000000
  33
0.0
   0
LINE
   5
7B
 100
AcDbEntity
   8
0
 100
AcDbLine
   6
BYBLOCK
  62
0
  10
-0.50000000000000
  20
0.0
  30
0.0
  11
-1.0000000000000
  21
0.0
  31
0.0
   0
ENDBLK
   5
7C
 100
AcDbEntity
   8
0
 100
AcDbBlockEnd
   0
BLOCK
   5
7D
 100
AcDbEntity
   8
0
 100
AcDbBlockBegin
   2
_CLOSED
  70
0
  10
0.0
  20
0.0
  30
0.0
   3
_CLOSED
   0
LINE
   5
7E
 100
AcDbEntity
   8
0
 100
AcDbLine
   6
BYBLOCK
  62
0
  10
-1.0000000000000
  20
 0.16666666666667
  30
0.0
  11
0.0
  21
0.0
  31
0.0
   0
LINE
   5
7F
 100
AcDbEntity
   8
0
 100
AcDbLine
   6
BYBLOCK
  62
0
  10
0.0
  20
0.0
  30
0.0
  11
-1.0000000000000
  21
-0.16666666666667
  31
0.0
   0
LINE
   5
80
 100
AcDbEntity
   8
0
 100
AcDbLine
   6
BYBLOCK
  62
0
  10
-1.0000000000000
  20
 0.16666666666667
  30
0.0
  11
-1.0000000000000
  21
-0.16666666666667
  31
0.0
   0
LINE
   5
81
 100
AcDbEntity
   8
0
 100
AcDbLine
   6
BYBLOCK
  62
0
  10
0.0
  20
0.0
  30
0.0
  11
-1.0000000000000
  21
0.0
  31
0.0
   0
ENDBLK
   5
82
 100
AcDbEntity
   8
0
 100
AcDbBlockEnd
   0
BLOCK
   5
83
 100
AcDbEntity
   8
0
 100
AcDbBlockBegin
   2
_OPEN
  70
0
  10
0.0
  20
0.0
  30
0.0
   3
_OPEN
   0
LINE
   5
84
 100
AcDbEntity
   8
0
 100
AcDbLine
   6
BYBLOCK
  62
0
  10
-1.0000000000000
  20
 0.16666666666667
  30
0.0
  11
0.0
  21
0.0
  31
0.0
   0
LINE
   5
85
 100
AcDbEntity
   8
0
 100
AcDbLine
   6
BYBLOCK
  62
0
  10
0.0
  20
0.0
  30
0.0
  11
-1.0000000000000
  21
-0.16666666666667
  31
0.0
   0
LINE
   5
86
 100
AcDbEntity
   8
0
 100
AcDbLine
   6
BYBLOCK
  62
0
  10
0.0
  20
0.0
  30
0.0
  11
-1.0000000000000
  21
0.0
  31
0.0
   0
ENDBLK
   5
87
 100
AcDbEntity
   8
0
 100
AcDbBlockEnd
   0
BLOCK
   5
88
 100
AcDbEntity
   8
0
 100
AcDbBlockBegin
   2
_OPEN30
  70
0
  10
0.0
  20
0.0
  30
0.0
   3
_OPEN30
   0
LINE
   5
89
 100
AcDbEntity
   8
0
 100
AcDbLine
   6
BYBLOCK
  62
0
  10
-1.0000000000000
  20
 0.26794919243110
  30
0.0
  11
0.0
  21
0.0
  31
0.0
   0
LINE
   5
8A
 100
AcDbEntity
   8
0
 100
AcDbLine
   6
BYBLOCK
  62
0
  10
0.0
  20
0.0
  30
0.0
  11
-1.0000000000000
  21
-0.26794919243110
  31
0.0
   0
LINE
   5
8B
 100
AcDbEntity
   8
0
 100
AcDbLine
   6
BYBLOCK
  62
0
  10
0.0
  20
0.0
  30
0.0
  11
-1.0000000000000
  21
0.0
  31
0.0
   0
ENDBLK
   5
8C
 100
AcDbEntity
   8
0
 100
AcDbBlockEnd
   0
BLOCK
   5
8D
 100
AcDbEntity
   8
0
 100
AcDbBlockBegin
   2
_OPEN90
  70
0
  10
0.0
  20
0.0
  30
0.0
   3
_OPEN90
   0
LINE
   5
8E
 100
AcDbEntity
   8
0
 100
AcDbLine
   6
BYBLOCK
  62
0
  10
-0.50000000000000
  20
 0.50000000000000
  30
0.0
  11
0.0
  21
0.0
  31
0.0
   0
LINE
   5
8F
 100
AcDbEntity
   8
0
 100
AcDbLine
   6
BYBLOCK
  62
0
  10
0.0
  20
0.0
  30
0.0
  11
-0.50000000000000
  21
-0.50000000000000
  31
0.0
   0
LINE
   5
90
 100
AcDbEntity
   8
0
 100
AcDbLine
   6
BYBLOCK
  62
0
  10
0.0
  20
0.0
  30
0.0
  11
-1.0000000000000
  21
0.0
  31
0.0
   0
ENDBLK
   5
91
 100
AcDbEntity
   8
0
 100
AcDbBlockEnd
   0
BLOCK
   5
92
 100
AcDbEntity
   8
0
 100
AcDbBlockBegin
   2
_CLOSEDBLANK
  70
0
  10
0.0
  20
0.0
  30
0.0
   3
_CLOSEDBLANK
   0
LINE
   5
93
 100
AcDbEntity
   8
0
 100
AcDbLine
   6
BYBLOCK
  62
0
  10
-1.0000000000000
  20
 0.16666666666667
  30
0.0
  11
0.0
  21
0.0
  31
0.0
   0
LINE
   5
94
 100
AcDbEntity
   8
0
 100
AcDbLine
   6
BYBLOCK
  62
0
  10
0.0
  20
0.0
  30
0.0
  11
-1.0000000000000
  21
-0.16666666666667
  31
0.0
   0
LINE
   5
95
 100
AcDbEntity
   8
0
 100
AcDbLine
   6
BYBLOCK
  62
0
  10
-1.0000000000000
  20
 0.16666666666667
  30
0.0
  11
-1.0000000000000
  21
-0.16666666666667
  31
0.0
   0
ENDBLK
   5
96
 100
AcDbEntity
   8
0
 100
AcDbBlockEnd
   0
BLOCK
   5
97
 100
AcDbEntity
   8
0
 100
AcDbBlockBegin
   2
_DOT
  70
0
  10
0.0
  20
0.0
  30
0.0
   3
_DOT
   0
POLYLINE
   5
98
 100
AcDbEntity
   8
0
   6
BYBLOCK
  62
0
 100
AcDb2dPolyline
  66
1
  10
0.0
  20
0.0
  30
0.0
  70
1
  40
 0.50000000000000
  41
 0.50000000000000
   0
VERTEX
   5
99
 100
AcDbEntity
   8
0
   6
BYBLOCK
  62
0
 100
AcDbVertex
 100
AcDb2dVertex
  10
-0.25000000000000
  20
0.0
  30
0.0
  42
 1.0000000000000
  40
 0.50000000000000
  41
 0.50000000000000
   0
VERTEX
   5
9A
 100
AcDbEntity
   8
0
   6
BYBLOCK
  62
0
 100
AcDbVertex
 100
AcDb2dVertex
  10
 0.25000000000000
  20
0.0
  30
0.0
  42
 1.0000000000000
  40
 0.50000000000000
  41
 0.50000000000000
   0
SEQEND
   5
9B
 100
AcDbEntity
   8
0
   6
BYBLOCK
  62
0
   0
LINE
   5
9C
 100
AcDbEntity
   8
0
 100
AcDbLine
   6
BYBLOCK
  62
0
  10
-0.50000000000000
  20
0.0
  30
0.0
  11
-1.0000000000000
  21
0.0
  31
0.0
   0
ENDBLK
   5
9D
 100
AcDbEntity
   8
0
 100
AcDbBlockEnd
   0
BLOCK
   5
9E
 100
AcDbEntity
   8
0
 100
AcDbBlockBegin
   2
_DOTSMALL
  70
0
  10
0.0
  20
0.0
  30
0.0
   3
_DOTSMALL
   0
POLYLINE
   5
9F
 100
AcDbEntity
   8
0
   6
BYBLOCK
  62
0
 100
AcDb2dPolyline
  66
1
  10
0.0
  20
0.0
  30
0.0
  70
1
  40
 0.50000000000000
  41
 0.50000000000000
   0
VERTEX
   5
A0
 100
AcDbEntity
   8
0
   6
BYBLOCK
  62
0
 100
AcDbVertex
 100
AcDb2dVertex
  10
-0.62500000000000E-1
  20
0.0
  30
0.0
  42
 1.0000000000000
  40
 0.50000000000000
  41
 0.50000000000000
   0
VERTEX
   5
A1
 100
AcDbEntity
   8
0
   6
BYBLOCK
  62
0
 100
AcDbVertex
 100
AcDb2dVertex
  10
 0.62500000000000E-1
  20
0.0
  30
0.0
  42
 1.0000000000000
  40
 0.50000000000000
  41
 0.50000000000000
   0
SEQEND
   5
A2
 100
AcDbEntity
   8
0
   6
BYBLOCK
  62
0
   0
ENDBLK
   5
A3
 100
AcDbEntity
   8
0
 100
AcDbBlockEnd
   0
BLOCK
   5
A4
 100
AcDbEntity
   8
0
 100
AcDbBlockBegin
   2
_DATUMBLANK
  70
0
  10
0.0
  20
0.0
  30
0.0
   3
_DATUMBLANK
   0
LINE
   5
A5
 100
AcDbEntity
   8
0
 100
AcDbLine
   6
BYBLOCK
  62
0
  10
0.0
  20
 0.57735027000000
  30
0.0
  11
-1.0000000000000
  21
0.0
  31
0.0
   0
LINE
   5
A6
 100
AcDbEntity
   8
0
 100
AcDbLine
   6
BYBLOCK
  62
0
  10
-1.0000000000000
  20
0.0
  30
0.0
  11
0.0
  21
-0.57735027000000
  31
0.0
   0
LINE
   5
A7
 100
AcDbEntity
   8
0
 100
AcDbLine
   6
BYBLOCK
  62
0
  10
0.0
  20
-0.57735027000000
  30
0.0
  11
0.0
  21
 0.57735027000000
  31
0.0
   0
ENDBLK
   5
A8
 100
AcDbEntity
   8
0
 100
AcDbBlockEnd
   0
BLOCK
   5
A9
 100
AcDbEntity
   8
0
 100
AcDbBlockBegin
   2
_DATUMFILLED
  70
0
  10
0.0
  20
0.0
  30
0.0
   3
_DATUMFILLED
   0
SOLID
   5
AA
 100
AcDbEntity
   8
0
 100
AcDbTrace
   6
BYBLOCK
  62
0
  10
0.0
  20
 0.57735027000000
  30
0.0
  11
-1.0000000000000
  21
0.0
  31
0.0
  12
0.0
  22
-0.57735027000000
  32
0.0
  13
0.0
  23
-0.57735027000000
  33
0.0
   0
ENDBLK
   5
AB
 100
AcDbEntity
   8
0
 100
AcDbBlockEnd
   0
BLOCK
   5
AC
 100
AcDbEntity
   8
0
 100
AcDbBlockBegin
   2
_ORIGIN
  70
0
  10
0.0
  20
0.0
  30
0.0
   3
_ORIGIN
   0
CIRCLE
   5
AD
 100
AcDbEntity
   8
0
 100
AcDbCircle
   6
BYBLOCK
  62
0
  10
0.0
  20
0.0
  30
0.0
  40
 0.50000000000000
   0
LINE
   5
AE
 100
AcDbEntity
   8
0
 100
AcDbLine
   6
BYBLOCK
  62
0
  10
0.0
  20
0.0
  30
0.0
  11
-1.0000000000000
  21
0.0
  31
0.0
   0
ENDBLK
   5
AF
 100
AcDbEntity
   8
0
 100
AcDbBlockEnd
   0
BLOCK
   5
B0
 100
AcDbEntity
   8
0
 100
AcDbBlockBegin
   2
_NONE
  70
0
  10
0.0
  20
0.0
  30
0.0
   3
_NONE
   0
CIRCLE
   5
B1
 100
AcDbEntity
   8
0
 100
AcDbCircle
   6
BYBLOCK
  62
0
  10
0.0
  20
0.0
  30
0.0
  40
 0.25000000000000
   0
ENDBLK
   5
B2
 100
AcDbEntity
   8
0
 100
AcDbBlockEnd
   0
BLOCK
   5
B3
 100
AcDbEntity
   8
0
 100
AcDbBlockBegin
   2
_DOTBLANK
  70
0
  10
0.0
  20
0.0
  30
0.0
   3
_DOTBLANK
   0
CIRCLE
   5
B4
 100
AcDbEntity
   8
0
 100
AcDbCircle
   6
BYBLOCK
  62
0
  10
0.0
  20
0.0
  30
0.0
  40
 0.50000000000000
   0
LINE
   5
B5
 100
AcDbEntity
   8
0
 100
AcDbLine
   6
BYBLOCK
  62
0
  10
-0.50000000000000
  20
0.0
  30
0.0
  11
-1.0000000000000
  21
0.0
  31
0.0
   0
ENDBLK
   5
B6
 100
AcDbEntity
   8
0
 100
AcDbBlockEnd
   0
BLOCK
   5
B7
 100
AcDbEntity
   8
0
 100
AcDbBlockBegin
   2
_INTEGRAL
  70
0
  10
0.0
  20
0.0
  30
0.0
   3
_INTEGRAL
   0
ARC
   5
B8
 100
AcDbEntity
   8
0
   6
BYBLOCK
  62
0
 100
AcDbCircle
  10
 0.44488800000000
  20
-0.91335000000000E-1
  30
0.0
  40
 0.45416700000000
 100
AcDbArc
  50
 102.00000000000
  51
 168.00000000000
   0
ARC
   5
B9
 100
AcDbEntity
   8
0
   6
BYBLOCK
  62
0
 100
AcDbCircle
  10
-0.44488800000000
  20
 0.91335000000000E-1
  30
0.0
  40
 0.45416700000000
 100
AcDbArc
  50
 282.00000000000
  51
 348.00000000000
   0
ENDBLK
   5
BA
 100
AcDbEntity
   8
0
 100
AcDbBlockEnd
   0
BLOCK
   5
BB
 100
AcDbEntity
   8
0
 100
AcDbBlockBegin
   2
*D1
  70
65
  10
0.0
  20
0.0
  30
0.0
   3
*D1
   0
LINE
   5
BC
 100
AcDbEntity
   8
LEVEL003
 100
AcDbLine
   6
CONTINUOUS
  62
3
  10
 260.99999356270
  20
 345.50000500679
  30
0.0
  11
 260.99999356270
  21
 377.99998882413
  31
0.0
   0
LINE
   5
BD
 100
AcDbEntity
   8
LEVEL003
 100
AcDbLine
   6
CONTINUOUS
  62
3
  10
 128.99999749660
  20
 345.50000500679
  30
0.0
  11
 128.99999749660
  21
 377.99998882413
  31
0.0
   0
LINE
   5
BE
 100
AcDbEntity
   8
LEVEL003
 100
AcDbLine
   6
CONTINUOUS
  62
3
  10
 260.99999356270
  20
 374.99998882413
  30
0.0
  11
 207.27187334466
  21
 374.99998882413
  31
0.0
   0
LINE
   5
BF
 100
AcDbEntity
   8
LEVEL003
 100
AcDbLine
   6
CONTINUOUS
  62
3
  10
 128.99999749660
  20
 374.99998882413
  30
0.0
  11
 182.72812334466
  21
 374.99998882413
  31
0.0
   0
INSERT
   5
C0
 100
AcDbEntity
   8
LEVEL003
   6
CONTINUOUS
  62
3
 100
AcDbBlockReference
   2
_OPEN
  10
 260.99999356270
  20
 374.99998882413
  30
0.0
  41
 4.5000000000000
  42
 4.5000000000000
  43
 4.5000000000000
  50
0.0
   0
INSERT
   5
C1
 100
AcDbEntity
   8
LEVEL003
   6
CONTINUOUS
  62
3
 100
AcDbBlockReference
   2
_OPEN
  10
 128.99999749660
  20
 374.99998882413
  30
0.0
  41
 4.5000000000000
  42
 4.5000000000000
  43
 4.5000000000000
  50
 180.00000000000
   0
MTEXT
   5
C2
 100
AcDbEntity
   8
LEVEL003
  62
3
 100
AcDbMText
  10
 194.99999834466
  20
 376.19997047783
  30
0.0
  40
 6.0000000000000
  41
0.0
  71
8
  72
1
   1
\A1;%%c132
   7
GMM001
   0
ENDBLK
   5
C3
 100
AcDbEntity
   8
0
 100
AcDbBlockEnd
   0
BLOCK
   5
C4
 100
AcDbEntity
   8
0
 100
AcDbBlockBegin
   2
*D2
  70
65
  10
0.0
  20
0.0
  30
0.0
   3
*D2
   0
LINE
   5
C5
 100
AcDbEntity
   8
LEVEL003
 100
AcDbLine
   6
CONTINUOUS
  62
3
  10
 193.49999552965
  20
 234.99997773767
  30
0.0
  11
 56.999999552965
  21
 234.99997773767
  31
0.0
   0
LINE
   5
C6
 100
AcDbEntity
   8
LEVEL003
 100
AcDbLine
   6
CONTINUOUS
  62
3
  10
 88.499975770713
  20
 64.999967545272
  30
0.0
  11
 56.999999552965
  21
 64.999967545272
  31
0.0
   0
LINE
   5
C7
 100
AcDbEntity
   8
LEVEL003
 100
AcDbLine
   6
CONTINUOUS
  62
3
  10
 59.999999552965
  20
 234.99997773767
  30
0.0
  11
 59.999999552965
  21
 157.54684764147
  31
0.0
   0
LINE
   5
C8
 100
AcDbEntity
   8
LEVEL003
 100
AcDbLine
   6
CONTINUOUS
  62
3
  10
 59.999999552965
  20
 64.999967545272
  30
0.0
  11
 59.999999552965
  21
 142.45309764147
  31
0.0
   0
INSERT
   5
C9
 100
AcDbEntity
   8
LEVEL003
   6
CONTINUOUS
  62
3
 100
AcDbBlockReference
   2
_OPEN
  10
 59.999999552965
  20
 234.99997773767
  30
0.0
  41
 4.5000000000000
  42
 4.5000000000000
  43
 4.5000000000000
  50
 90.000000000000
   0
INSERT
   5
CA
 100
AcDbEntity
   8
LEVEL003
   6
CONTINUOUS
  62
3
 100
AcDbBlockReference
   2
_OPEN
  10
 59.999999552965
  20
 64.999967545272
  30
0.0
  41
 4.5000000000000
  42
 4.5000000000000
  43
 4.5000000000000
  50
 270.00000000000
   0
MTEXT
   5
CB
 100
AcDbEntity
   8
LEVEL003
  62
3
 100
AcDbMText
  10
 58.800000733137
  20
 149.99997264147
  30
0.0
  40
 6.0000000000000
  41
0.0
  71
8
  72
1
   1
\A1;170
   7
GMM001
  11
0.0
  21
 1.0000000000000
  31
0.0
   0
ENDBLK
   5
CC
 100
AcDbEntity
   8
0
 100
AcDbBlockEnd
   0
BLOCK
   5
CD
 100
AcDbEntity
   8
0
 100
AcDbBlockBegin
   2
*D4
  70
65
  10
0.0
  20
0.0
  30
0.0
   3
*D4
   0
LINE
   5
CE
 100
AcDbEntity
   8
LEVEL003
 100
AcDbLine
   6
CONTINUOUS
  62
3
  10
 261.49998596311
  20
 344.99998971820
  30
0.0
  11
 355.49999083579
  21
 344.99998971820
  31
0.0
   0
LINE
   5
CF
 100
AcDbEntity
   8
LEVEL003
 100
AcDbLine
   6
CONTINUOUS
  62
3
  10
 301.50001528859
  20
 324.99999794364
  30
0.0
  11
 355.49999083579
  21
 324.99999794364
  31
0.0
   0
LINE
   5
D0
 100
AcDbEntity
   8
LEVEL003
 100
AcDbLine
   6
CONTINUOUS
  62
3
  10
 352.49999083579
  20
 344.99998971820
  30
0.0
  11
 352.49999083579
  21
 340.51250527501
  31
0.0
   0
LINE
   5
D1
 100
AcDbEntity
   8
LEVEL003
 100
AcDbLine
   6
CONTINUOUS
  62
3
  10
 352.49999083579
  20
 324.99999794364
  30
0.0
  11
 352.49999083579
  21
 329.48750527501
  31
0.0
   0
INSERT
   5
D2
 100
AcDbEntity
   8
LEVEL003
   6
CONTINUOUS
  62
3
 100
AcDbBlockReference
   2
_OPEN
  10
 352.49999083579
  20
 344.99998971820
  30
0.0
  41
 4.5000000000000
  42
 4.5000000000000
  43
 4.5000000000000
  50
 90.000000000000
   0
INSERT
   5
D3
 100
AcDbEntity
   8
LEVEL003
   6
CONTINUOUS
  62
3
 100
AcDbBlockReference
   2
_OPEN
  10
 352.49999083579
  20
 324.99999794364
  30
0.0
  41
 4.5000000000000
  42
 4.5000000000000
  43
 4.5000000000000
  50
 270.00000000000
   0
MTEXT
   5
D4
 100
AcDbEntity
   8
LEVEL003
  62
3
 100
AcDbMText
  10
 351.29998629392
  20
 335.00000527501
  30
0.0
  40
 6.0000000000000
  41
0.0
  71
8
  72
1
   1
\A1;20
   7
GMM001
  11
0.0
  21
 1.0000000000000
  31
0.0
   0
ENDBLK
   5
D5
 100
AcDbEntity
   8
0
 100
AcDbBlockEnd
   0
BLOCK
   5
D6
 100
AcDbEntity
   8
0
 100
AcDbBlockBegin
   2
*D5
  70
65
  10
0.0
  20
0.0
  30
0.0
   3
*D5
   0
LINE
   5
D7
 100
AcDbEntity
   8
LEVEL003
 100
AcDbLine
   6
CONTINUOUS
  62
3
  10
 261.49998596311
  20
 344.99998971820
  30
0.0
  11
 340.49999128282
  21
 344.99998971820
  31
0.0
   0
LINE
   5
D8
 100
AcDbEntity
   8
LEVEL003
 100
AcDbLine
   6
CONTINUOUS
  62
3
  10
 263.35965082468
  20
 329.99999016523
  30
0.0
  11
 340.49999128282
  21
 329.99999016523
  31
0.0
   0
LINE
   5
D9
 100
AcDbEntity
   8
LEVEL003
 100
AcDbLine
   6
CONTINUOUS
  62
3
  10
 337.49999128282
  20
 344.99998971820
  30
0.0
  11
 337.49999128282
  21
 342.55311494172
  31
0.0
   0
LINE
   5
DA
 100
AcDbEntity
   8
LEVEL003
 100
AcDbLine
   6
CONTINUOUS
  62
3
  10
 337.49999128282
  20
 329.99999016523
  30
0.0
  11
 337.49999128282
  21
 332.44686494172
  31
0.0
   0
INSERT
   5
DB
 100
AcDbEntity
   8
LEVEL003
   6
CONTINUOUS
  62
3
 100
AcDbBlockReference
   2
_OPEN
  10
 337.49999128282
  20
 344.99998971820
  30
0.0
  41
 4.5000000000000
  42
 4.5000000000000
  43
 4.5000000000000
  50
 90.000000000000
   0
INSERT
   5
DC
 100
AcDbEntity
   8
LEVEL003
   6
CONTINUOUS
  62
3
 100
AcDbBlockReference
   2
_OPEN
  10
 337.49999128282
  20
 329.99999016523
  30
0.0
  41
 4.5000000000000
  42
 4.5000000000000
  43
 4.5000000000000
  50
 270.00000000000
   0
MTEXT
   5
DD
 100
AcDbEntity
   8
LEVEL003
  62
3
 100
AcDbMText
  10
 336.29998674095
  20
 337.49998994172
  30
0.0
  40
 6.0000000000000
  41
0.0
  71
8
  72
1
   1
\A1;15
   7
GMM001
  11
0.0
  21
 1.0000000000000
  31
0.0
   0
ENDBLK
   5
DE
 100
AcDbEntity
   8
0
 100
AcDbBlockEnd
   0
BLOCK
   5
DF
 100
AcDbEntity
   8
0
 100
AcDbBlockBegin
   2
*D6
  70
65
  10
0.0
  20
0.0
  30
0.0
   3
*D6
   0
LINE
   5
E0
 100
AcDbEntity
   8
LEVEL003
 100
AcDbLine
   6
CONTINUOUS
  62
3
  10
 373.50000759959
  20
 91.999966740609
  30
0.0
  11
 385.50000000000
  21
 91.999966740609
  31
0.0
   0
LINE
   5
E1
 100
AcDbEntity
   8
LEVEL003
 100
AcDbLine
   6
CONTINUOUS
  62
3
  10
 301.50001528859
  20
 64.999967545272
  30
0.0
  11
 385.50000000000
  21
 64.999967545272
  31
0.0
   0
LINE
   5
E2
 100
AcDbEntity
   8
LEVEL003
 100
AcDbLine
   6
CONTINUOUS
  62
3
  10
 382.50000000000
  20
 91.999966740609
  30
0.0
  11
 382.50000000000
  21
 84.537467142941
  31
0.0
   0
LINE
   5
E3
 100
AcDbEntity
   8
LEVEL003
 100
AcDbLine
   6
CONTINUOUS
  62
3
  10
 382.50000000000
  20
 64.999967545272
  30
0.0
  11
 382.50000000000
  21
 72.462467142941
  31
0.0
   0
INSERT
   5
E4
 100
AcDbEntity
   8
LEVEL003
   6
CONTINUOUS
  62
3
 100
AcDbBlockReference
   2
_OPEN
  10
 382.50000000000
  20
 91.999966740609
  30
0.0
  41
 4.5000000000000
  42
 4.5000000000000
  43
 4.5000000000000
  50
 90.000000000000
   0
INSERT
   5
E5
 100
AcDbEntity
   8
LEVEL003
   6
CONTINUOUS
  62
3
 100
AcDbBlockReference
   2
_OPEN
  10
 382.50000000000
  20
 64.999967545272
  30
0.0
  41
 4.5000000000000
  42
 4.5000000000000
  43
 4.5000000000000
  50
 270.00000000000
   0
MTEXT
   5
E6
 100
AcDbEntity
   8
LEVEL003
  62
3
 100
AcDbMText
  10
 381.30001834631
  20
 78.499967142941
  30
0.0
  40
 6.0000000000000
  41
0.0
  71
8
  72
1
   1
\A1;27
   7
GMM001
  11
0.0
  21
 1.0000000000000
  31
0.0
   0
ENDBLK
   5
E7
 100
AcDbEntity
   8
0
 100
AcDbBlockEnd
   0
BLOCK
   5
E8
 100
AcDbEntity
   8
0
 100
AcDbBlockBegin
   2
*D7
  70
65
  10
0.0
  20
0.0
  30
0.0
   3
*D7
   0
LINE
   5
E9
 100
AcDbEntity
   8
LEVEL003
 100
AcDbLine
   6
CONTINUOUS
  62
3
  10
 261.49998596311
  20
 344.99998971820
  30
0.0
  11
 400.50000000000
  21
 344.99998971820
  31
0.0
   0
LINE
   5
EA
 100
AcDbEntity
   8
LEVEL003
 100
AcDbLine
   6
CONTINUOUS
  62
3
  10
 301.50001528859
  20
 64.999967545272
  30
0.0
  11
 400.50000000000
  21
 64.999967545272
  31
0.0
   0
LINE
   5
EB
 100
AcDbEntity
   8
LEVEL003
 100
AcDbLine
   6
CONTINUOUS
  62
3
  10
 397.50000000000
  20
 344.99998971820
  30
0.0
  11
 397.50000000000
  21
 213.53122863174
  31
0.0
   0
LINE
   5
EC
 100
AcDbEntity
   8
LEVEL003
 100
AcDbLine
   6
CONTINUOUS
  62
3
  10
 397.50000000000
  20
 64.999967545272
  30
0.0
  11
 397.50000000000
  21
 196.46872863174
  31
0.0
   0
INSERT
   5
ED
 100
AcDbEntity
   8
LEVEL003
   6
CONTINUOUS
  62
3
 100
AcDbBlockReference
   2
_OPEN
  10
 397.50000000000
  20
 344.99998971820
  30
0.0
  41
 4.5000000000000
  42
 4.5000000000000
  43
 4.5000000000000
  50
 90.000000000000
   0
INSERT
   5
EE
 100
AcDbEntity
   8
LEVEL003
   6
CONTINUOUS
  62
3
 100
AcDbBlockReference
   2
_OPEN
  10
 397.50000000000
  20
 64.999967545272
  30
0.0
  41
 4.5000000000000
  42
 4.5000000000000
  43
 4.5000000000000
  50
 270.00000000000
   0
MTEXT
   5
EF
 100
AcDbEntity
   8
LEVEL003
  62
3
 100
AcDbMText
  10
 396.30001834631
  20
 204.99997863174
  30
0.0
  40
 6.0000000000000
  41
0.0
  71
8
  72
1
   1
\A1;280
   7
GMM001
  11
0.0
  21
 1.0000000000000
  31
0.0
   0
ENDBLK
   5
F0
 100
AcDbEntity
   8
0
 100
AcDbBlockEnd
   0
BLOCK
   5
F1
 100
AcDbEntity
   8
0
 100
AcDbBlockBegin
   2
*D10
  70
65
  10
0.0
  20
0.0
  30
0.0
   3
*D10
   0
LINE
   5
F2
 100
AcDbEntity
   8
LEVEL003
 100
AcDbLine
   6
CONTINUOUS
  62
3
  10
 251.00000907481
  20
 329.99999016523
  30
0.0
  11
 222.00000000000
  21
 329.99999016523
  31
0.0
   0
LINE
   5
F3
 100
AcDbEntity
   8
LEVEL003
 100
AcDbLine
   6
CONTINUOUS
  62
3
  10
 249.50000911951
  20
 284.99999150634
  30
0.0
  11
 222.00000000000
  21
 284.99999150634
  31
0.0
   0
LINE
   5
F4
 100
AcDbEntity
   8
LEVEL003
 100
AcDbLine
   6
CONTINUOUS
  62
3
  10
 225.00000000000
  20
 329.99999016523
  30
0.0
  11
 225.00000000000
  21
 313.53749083579
  31
0.0
   0
LINE
   5
F5
 100
AcDbEntity
   8
LEVEL003
 100
AcDbLine
   6
CONTINUOUS
  62
3
  10
 225.00000000000
  20
 284.99999150634
  30
0.0
  11
 225.00000000000
  21
 301.46249083579
  31
0.0
   0
INSERT
   5
F6
 100
AcDbEntity
   8
LEVEL003
   6
CONTINUOUS
  62
3
 100
AcDbBlockReference
   2
_OPEN
  10
 225.00000000000
  20
 329.99999016523
  30
0.0
  41
 4.5000000000000
  42
 4.5000000000000
  43
 4.5000000000000
  50
 90.000000000000
   0
INSERT
   5
F7
 100
AcDbEntity
   8
LEVEL003
   6
CONTINUOUS
  62
3
 100
AcDbBlockReference
   2
_OPEN
  10
 225.00000000000
  20
 284.99999150634
  30
0.0
  41
 4.5000000000000
  42
 4.5000000000000
  43
 4.5000000000000
  50
 270.00000000000
   0
MTEXT
   5
F8
 100
AcDbEntity
   8
LEVEL003
  62
3
 100
AcDbMText
  10
 223.79999545813
  20
 307.49999083579
  30
0.0
  40
 6.0000000000000
  41
0.0
  71
8
  72
1
   1
\A1;45
   7
GMM001
  11
0.0
  21
 1.0000000000000
  31
0.0
   0
ENDBLK
   5
F9
 100
AcDbEntity
   8
0
 100
AcDbBlockEnd
   0
BLOCK
   5
FA
 100
AcDbEntity
   8
0
 100
AcDbBlockBegin
   2
*D12
  70
65
  10
0.0
  20
0.0
  30
0.0
   3
*D12
   0
LINE
   5
FB
 100
AcDbEntity
   8
LEVEL003
 100
AcDbLine
   6
CONTINUOUS
  62
3
  10
 154.99999803305
  20
 68.999997898936
  30
0.0
  11
 154.99999803305
  21
 42.000000000000
  31
0.0
   0
LINE
   5
FC
 100
AcDbEntity
   8
LEVEL003
 100
AcDbLine
   6
CONTINUOUS
  62
3
  10
 235.00000196695
  20
 68.999997898936
  30
0.0
  11
 235.00000196695
  21
 42.000000000000
  31
0.0
   0
LINE
   5
FD
 100
AcDbEntity
   8
LEVEL003
 100
AcDbLine
   6
CONTINUOUS
  62
3
  10
 154.99999803305
  20
 45.000000000000
  30
0.0
  11
 185.28750000000
  21
 45.000000000000
  31
0.0
   0
LINE
   5
FE
 100
AcDbEntity
   8
LEVEL003
 100
AcDbLine
   6
CONTINUOUS
  62
3
  10
 235.00000196695
  20
 45.000000000000
  30
0.0
  11
 204.71250000000
  21
 45.000000000000
  31
0.0
   0
INSERT
   5
FF
 100
AcDbEntity
   8
LEVEL003
   6
CONTINUOUS
  62
3
 100
AcDbBlockReference
   2
_OPEN
  10
 154.99999803305
  20
 45.000000000000
  30
0.0
  41
 4.5000000000000
  42
 4.5000000000000
  43
 4.5000000000000
  50
 180.00000000000
   0
INSERT
   5
100
 100
AcDbEntity
   8
LEVEL003
   6
CONTINUOUS
  62
3
 100
AcDbBlockReference
   2
_OPEN
  10
 235.00000196695
  20
 45.000000000000
  30
0.0
  41
 4.5000000000000
  42
 4.5000000000000
  43
 4.5000000000000
  50
0.0
   0
MTEXT
   5
101
 100
AcDbEntity
   8
LEVEL003
  62
3
 100
AcDbMText
  10
 195.00000000000
  20
 46.200000000000
  30
0.0
  40
 6.0000000000000
  41
0.0
  71
8
  72
1
   1
\A1;%%c80
   7
GMM001
   0
ENDBLK
   5
102
 100
AcDbEntity
   8
0
 100
AcDbBlockEnd
   0
BLOCK
   5
103
 100
AcDbEntity
   8
0
 100
AcDbBlockBegin
   2
*D13
  70
65
  10
0.0
  20
0.0
  30
0.0
   3
*D13
   0
LINE
   5
104
 100
AcDbEntity
   8
LEVEL003
 100
AcDbLine
   6
CONTINUOUS
  62
3
  10
 154.99999803305
  20
 341.49999749660
  30
0.0
  11
 154.99999803305
  21
 363.00000000000
  31
0.0
   0
LINE
   5
105
 100
AcDbEntity
   8
LEVEL003
 100
AcDbLine
   6
CONTINUOUS
  62
3
  10
 235.00000196695
  20
 341.49999749660
  30
0.0
  11
 235.00000196695
  21
 363.00000000000
  31
0.0
   0
LINE
   5
106
 100
AcDbEntity
   8
LEVEL003
 100
AcDbLine
   6
CONTINUOUS
  62
3
  10
 154.99999803305
  20
 360.00000000000
  30
0.0
  11
 185.28750000000
  21
 360.00000000000
  31
0.0
   0
LINE
   5
107
 100
AcDbEntity
   8
LEVEL003
 100
AcDbLine
   6
CONTINUOUS
  62
3
  10
 235.00000196695
  20
 360.00000000000
  30
0.0
  11
 204.71250000000
  21
 360.00000000000
  31
0.0
   0
INSERT
   5
108
 100
AcDbEntity
   8
LEVEL003
   6
CONTINUOUS
  62
3
 100
AcDbBlockReference
   2
_OPEN
  10
 154.99999803305
  20
 360.00000000000
  30
0.0
  41
 4.5000000000000
  42
 4.5000000000000
  43
 4.5000000000000
  50
 180.00000000000
   0
INSERT
   5
109
 100
AcDbEntity
   8
LEVEL003
   6
CONTINUOUS
  62
3
 100
AcDbBlockReference
   2
_OPEN
  10
 235.00000196695
  20
 360.00000000000
  30
0.0
  41
 4.5000000000000
  42
 4.5000000000000
  43
 4.5000000000000
  50
0.0
   0
MTEXT
   5
10A
 100
AcDbEntity
   8
LEVEL003
  62
3
 100
AcDbMText
  10
 195.00000000000
  20
 361.20000000000
  30
0.0
  40
 6.0000000000000
  41
0.0
  71
8
  72
1
   1
\A1;%%c80
   7
GMM001
   0
ENDBLK
   5
10B
 100
AcDbEntity
   8
0
 100
AcDbBlockEnd
   0
BLOCK
   5
10C
 100
AcDbEntity
   8
0
 100
AcDbBlockBegin
   2
*D14
  70
65
  10
0.0
  20
0.0
  30
0.0
   3
*D14
   0
LINE
   5
10D
 100
AcDbEntity
   8
LEVEL003
 100
AcDbLine
   6
CONTINUOUS
  62
3
  10
 87.999983459712
  20
 112.49999575317
  30
0.0
  11
 182.72812052965
  21
 112.49999575317
  31
0.0
   0
LINE
   5
10E
 100
AcDbEntity
   8
LEVEL003
 100
AcDbLine
   6
CONTINUOUS
  62
3
  10
 302.00000759959
  20
 112.49999575317
  30
0.0
  11
 207.27187052965
  21
 112.49999575317
  31
0.0
   0
INSERT
   5
10F
 100
AcDbEntity
   8
LEVEL003
   6
CONTINUOUS
  62
3
 100
AcDbBlockReference
   2
_OPEN
  10
 87.999983459712
  20
 112.49999575317
  30
0.0
  41
 4.5000000000000
  42
 4.5000000000000
  43
 4.5000000000000
  50
 180.00000000000
   0
INSERT
   5
110
 100
AcDbEntity
   8
LEVEL003
   6
CONTINUOUS
  62
3
 100
AcDbBlockReference
   2
_OPEN
  10
 302.00000759959
  20
 112.49999575317
  30
0.0
  41
 4.5000000000000
  42
 4.5000000000000
  43
 4.5000000000000
  50
0.0
   0
MTEXT
   5
111
 100
AcDbEntity
   8
LEVEL003
  62
3
 100
AcDbMText
  10
 194.99999552965
  20
 113.70000029504
  30
0.0
  40
 6.0000000000000
  41
0.0
  71
8
  72
1
   1
\A1;%%c214
   7
GMM001
   0
ENDBLK
   5
112
 100
AcDbEntity
   8
0
 100
AcDbBlockEnd
   0
BLOCK
   5
113
 100
AcDbEntity
   8
0
 100
AcDbBlockBegin
   2
*D15
  70
65
  10
0.0
  20
0.0
  30
0.0
   3
*D15
   0
LINE
   5
114
 100
AcDbEntity
   8
LEVEL003
 100
AcDbLine
   6
CONTINUOUS
  62
3
  10
 109.99999937415
  20
 127.50000000000
  30
0.0
  11
 183.25312500000
  21
 127.50000000000
  31
0.0
   0
LINE
   5
115
 100
AcDbEntity
   8
LEVEL003
 100
AcDbLine
   6
CONTINUOUS
  62
3
  10
 280.00000062585
  20
 127.50000000000
  30
0.0
  11
 206.74687500000
  21
 127.50000000000
  31
0.0
   0
INSERT
   5
116
 100
AcDbEntity
   8
LEVEL003
   6
CONTINUOUS
  62
3
 100
AcDbBlockReference
   2
_OPEN
  10
 109.99999937415
  20
 127.50000000000
  30
0.0
  41
 4.5000000000000
  42
 4.5000000000000
  43
 4.5000000000000
  50
 180.00000000000
   0
INSERT
   5
117
 100
AcDbEntity
   8
LEVEL003
   6
CONTINUOUS
  62
3
 100
AcDbBlockReference
   2
_OPEN
  10
 280.00000062585
  20
 127.50000000000
  30
0.0
  41
 4.5000000000000
  42
 4.5000000000000
  43
 4.5000000000000
  50
0.0
   0
MTEXT
   5
118
 100
AcDbEntity
   8
LEVEL003
  62
3
 100
AcDbMText
  10
 195.00000000000
  20
 128.70000000000
  30
0.0
  40
 6.0000000000000
  41
0.0
  71
8
  72
1
   1
\A1;%%c170
   7
GMM001
   0
ENDBLK
   5
119
 100
AcDbEntity
   8
0
 100
AcDbBlockEnd
   0
BLOCK
   5
11A
 100
AcDbEntity
   8
0
 100
AcDbBlockBegin
   2
*D16
  70
65
  10
0.0
  20
0.0
  30
0.0
   3
*D16
   0
LINE
   5
11B
 100
AcDbEntity
   8
LEVEL003
 100
AcDbLine
   6
CONTINUOUS
  62
3
  10
 263.00000876188
  20
 142.50000000000
  30
0.0
  11
 207.27187500000
  21
 142.50000000000
  31
0.0
   0
LINE
   5
11C
 100
AcDbEntity
   8
LEVEL003
 100
AcDbLine
   6
CONTINUOUS
  62
3
  10
 126.99999123812
  20
 142.50000000000
  30
0.0
  11
 182.72812500000
  21
 142.50000000000
  31
0.0
   0
INSERT
   5
11D
 100
AcDbEntity
   8
LEVEL003
   6
CONTINUOUS
  62
3
 100
AcDbBlockReference
   2
_OPEN
  10
 263.00000876188
  20
 142.50000000000
  30
0.0
  41
 4.5000000000000
  42
 4.5000000000000
  43
 4.5000000000000
  50
0.0
   0
INSERT
   5
11E
 100
AcDbEntity
   8
LEVEL003
   6
CONTINUOUS
  62
3
 100
AcDbBlockReference
   2
_OPEN
  10
 126.99999123812
  20
 142.50000000000
  30
0.0
  41
 4.5000000000000
  42
 4.5000000000000
  43
 4.5000000000000
  50
 180.00000000000
   0
MTEXT
   5
11F
 100
AcDbEntity
   8
LEVEL003
  62
3
 100
AcDbMText
  10
 195.00000000000
  20
 143.70000000000
  30
0.0
  40
 6.0000000000000
  41
0.0
  71
8
  72
1
   1
\A1;%%c136
   7
GMM001
   0
ENDBLK
   5
120
 100
AcDbEntity
   8
0
 100
AcDbBlockEnd
   0
BLOCK
   5
121
 100
AcDbEntity
   8
0
 100
AcDbBlockBegin
   2
*D17
  70
65
  10
0.0
  20
0.0
  30
0.0
   3
*D17
   0
LINE
   5
122
 100
AcDbEntity
   8
LEVEL003
 100
AcDbLine
   6
CONTINUOUS
  62
3
  10
 139.99999848008
  20
 157.50000000000
  30
0.0
  11
 184.23750000000
  21
 157.50000000000
  31
0.0
   0
LINE
   5
123
 100
AcDbEntity
   8
LEVEL003
 100
AcDbLine
   6
CONTINUOUS
  62
3
  10
 250.00000151992
  20
 157.50000000000
  30
0.0
  11
 205.76250000000
  21
 157.50000000000
  31
0.0
   0
INSERT
   5
124
 100
AcDbEntity
   8
LEVEL003
   6
CONTINUOUS
  62
3
 100
AcDbBlockReference
   2
_OPEN
  10
 139.99999848008
  20
 157.50000000000
  30
0.0
  41
 4.5000000000000
  42
 4.5000000000000
  43
 4.5000000000000
  50
 180.00000000000
   0
INSERT
   5
125
 100
AcDbEntity
   8
LEVEL003
   6
CONTINUOUS
  62
3
 100
AcDbBlockReference
   2
_OPEN
  10
 250.00000151992
  20
 157.50000000000
  30
0.0
  41
 4.5000000000000
  42
 4.5000000000000
  43
 4.5000000000000
  50
0.0
   0
MTEXT
   5
126
 100
AcDbEntity
   8
LEVEL003
  62
3
 100
AcDbMText
  10
 195.00000000000
  20
 158.70000000000
  30
0.0
  40
 6.0000000000000
  41
0.0
  71
8
  72
1
   1
\A1;%%c110
   7
GMM001
   0
ENDBLK
   5
127
 100
AcDbEntity
   8
0
 100
AcDbBlockEnd
   0
ENDSEC
   0
SECTION
   2
ENTITIES
   0
ARC
   5
128
 100
AcDbEntity
   8
LEVEL001
   6
CONTINUOUS
  62
7
 100
AcDbCircle
  10
 261.85964346969
  20
 329.49999016529
  30
0.0
  40
 0.50000000000000
 100
AcDbArc
  50
 14.033708262327
  51
 89.999157180186
   0
ARC
   5
129
 100
AcDbEntity
   8
LEVEL001
   6
CONTINUOUS
  62
7
 100
AcDbCircle
  10
 194.98534709469
  20
 234.99997773767
  30
0.0
  40
 12.500000581145
 100
AcDbArc
  50
 89.932856507778
  51
 270.06714349223
   0
ARC
   5
12A
 100
AcDbEntity
   8
LEVEL001
   6
CONTINUOUS
  62
7
 100
AcDbCircle
  10
 195.00006555598
  20
 202.99999490374
  30
0.0
  40
 36.499999865890
 100
AcDbArc
  50
 109.64731001267
  51
 269.99989007635
   0
ARC
   5
12B
 100
AcDbEntity
   8
LEVEL001
   6
CONTINUOUS
  62
7
 100
AcDbCircle
  10
 194.99999552965
  20
 234.99997773767
  30
0.0
  40
 11.500007286668
 100
AcDbArc
  50
 90.000000000000
  51
 270.00000000000
   0
ARC
   5
12C
 100
AcDbEntity
   8
LEVEL001
   6
CONTINUOUS
  62
7
 100
AcDbCircle
  10
 128.14034758961
  20
 329.49999016529
  30
0.0
  40
 0.50000000000000
 100
AcDbArc
  50
 90.000842819397
  51
 165.96629173763
   0
LINE
   5
12D
 100
AcDbEntity
   8
LEVEL001
 100
AcDbLine
   6
CONTINUOUS
  62
7
  10
 127.65527097418
  20
 329.62123651441
  30
0.0
  11
 126.99998229742
  21
 326.99999025464
  31
0.0
   0
LINE
   5
12E
 100
AcDbEntity
   8
LEVEL001
 100
AcDbLine
   6
CONTINUOUS
  62
7
  10
 194.99999552965
  20
 329.99999016523
  30
0.0
  11
 128.14034023463
  21
 329.99999016523
  31
0.0
   0
LINE
   5
12F
 100
AcDbEntity
   8
LEVEL001
 100
AcDbLine
   6
CONTINUOUS
  62
7
  10
 128.99999749660
  20
 344.00000500679
  30
0.0
  11
 194.99999552965
  21
 344.00000500679
  31
0.0
   0
LINE
   5
130
 100
AcDbEntity
   8
LEVEL001
 100
AcDbLine
   6
CONTINUOUS
  62
7
  10
 87.999983459712
  20
 322.99998274446
  30
0.0
  11
 194.99999552965
  21
 322.99998274446
  31
0.0
   0
LINE
   5
131
 100
AcDbEntity
   8
LEVEL001
 100
AcDbLine
   6
CONTINUOUS
  62
7
  10
 87.999983459712
  20
 66.999982744456
  30
0.0
  11
 194.99999552965
  21
 66.999982744456
  31
0.0
   0
LINE
   5
132
 100
AcDbEntity
   8
LEVEL001
 100
AcDbLine
   6
DASHDOT
  62
1
  10
 104.99999821186
  20
 61.999967634679
  30
0.0
  11
 104.99999821186
  21
 95.773472792701
  31
0.0
   0
LINE
   5
133
 100
AcDbEntity
   8
LEVEL001
 100
AcDbLine
   6
DOT
  62
7
  10
 97.000000357628
  20
 64.999967545272
  30
0.0
  11
 97.999996513128
  21
 65.999963700772
  31
0.0
   0
LINE
   5
134
 100
AcDbEntity
   8
LEVEL001
 100
AcDbLine
   6
DOT
  62
7
  10
 97.999996513128
  20
 65.999963700772
  30
0.0
  11
 97.999996513128
  21
 88.732014872670
  31
0.0
   0
LINE
   5
135
 100
AcDbEntity
   8
LEVEL001
 100
AcDbLine
   6
DOT
  62
7
  10
 97.999996513128
  20
 88.732014872670
  30
0.0
  11
 104.99999821186
  21
 92.773472882108
  31
0.0
   0
LINE
   5
136
 100
AcDbEntity
   8
LEVEL001
 100
AcDbLine
   6
DOT
  62
7
  10
 104.99999821186
  20
 92.773472882108
  30
0.0
  11
 111.99999418855
  21
 88.732014872670
  31
0.0
   0
LINE
   5
137
 100
AcDbEntity
   8
LEVEL001
 100
AcDbLine
   6
DOT
  62
7
  10
 111.99999418855
  20
 88.732014872670
  30
0.0
  11
 111.99999418855
  21
 65.999963700772
  31
0.0
   0
LINE
   5
138
 100
AcDbEntity
   8
LEVEL001
 100
AcDbLine
   6
DOT
  62
7
  10
 111.99999418855
  20
 65.999963700772
  30
0.0
  11
 113.00000178814
  21
 64.999967545272
  31
0.0
   0
LINE
   5
139
 100
AcDbEntity
   8
LEVEL001
 100
AcDbLine
   6
DOT
  62
7
  10
 97.999996513128
  20
 65.999963700772
  30
0.0
  11
 111.99999418855
  21
 65.999963700772
  31
0.0
   0
LINE
   5
13A
 100
AcDbEntity
   8
LEVEL001
 100
AcDbLine
   6
DOT
  62
7
  10
 97.999996513128
  20
 88.732014872670
  30
0.0
  11
 111.99999418855
  21
 88.732014872670
  31
0.0
   0
LINE
   5
13B
 100
AcDbEntity
   8
LEVEL001
 100
AcDbLine
   6
DOT
  62
3
  10
 111.99999418855
  20
 88.732014872670
  30
0.0
  11
 113.00000178814
  21
 84.999970763923
  31
0.0
   0
LINE
   5
13C
 100
AcDbEntity
   8
LEVEL001
 100
AcDbLine
   6
DOT
  62
3
  10
 113.00000178814
  20
 84.999970763923
  30
0.0
  11
 113.00000178814
  21
 64.999967545272
  31
0.0
   0
LINE
   5
13D
 100
AcDbEntity
   8
LEVEL001
 100
AcDbLine
   6
DOT
  62
3
  10
 97.000000357628
  20
 84.999970763923
  30
0.0
  11
 113.00000178814
  21
 84.999970763923
  31
0.0
   0
LINE
   5
13E
 100
AcDbEntity
   8
LEVEL001
 100
AcDbLine
   6
DOT
  62
3
  10
 97.000000357628
  20
 64.999967545272
  30
0.0
  11
 97.000000357628
  21
 84.999970763923
  31
0.0
   0
LINE
   5
13F
 100
AcDbEntity
   8
LEVEL001
 100
AcDbLine
   6
DOT
  62
3
  10
 97.000000357628
  20
 84.999970763923
  30
0.0
  11
 97.999996513128
  21
 88.732014872670
  31
0.0
   0
DIMENSION
   5
140
 100
AcDbEntity
   8
LEVEL003
   6
CONTINUOUS
  62
3
 100
AcDbDimension
   2
*D1
  10
 128.99999749660
  20
 374.99998882413
  30
0.0
  11
 194.99999834466
  21
 374.99998882413
  31
0.0
  70
128
   1
\A1;%%c132
   3
GMM001
 100
AcDbAlignedDimension
  13
 260.99999356270
  23
 344.00000500679
  33
0.0
  14
 128.99999749660
  24
 344.00000500679
  34
0.0
  50
 180.00000000000
 100
AcDbRotatedDimension
   0
ARC
   5
142
 100
AcDbEntity
   8
LEVEL001
   6
DASHDOT
  62
1
 100
AcDbCircle
  10
 194.99672843164
  20
 202.99999473702
  30
0.0
  40
 32.000000000000
 100
AcDbArc
  50
 269.70123559505
  51
 270.00584971649
   0
ARC
   5
143
 100
AcDbEntity
   8
LEVEL001
   6
CONTINUOUS
  62
7
 100
AcDbCircle
  10
 194.99864226942
  20
 202.99999487051
  30
0.0
  40
 27.500000134110
 100
AcDbArc
  50
 269.85212797659
  51
 270.00281949455
   0
DIMENSION
   5
144
 100
AcDbEntity
   8
LEVEL003
   6
CONTINUOUS
  62
3
 100
AcDbDimension
   2
*D2
  10
 59.999999552965
  20
 64.999967545272
  30
0.0
  11
 59.999999552965
  21
 149.99997264147
  31
0.0
  70
128
   1
\A1;170
   3
GMM002
 100
AcDbAlignedDimension
  13
 194.99999552965
  23
 234.99997773767
  33
0.0
  14
 89.999975770713
  24
 64.999967545272
  34
0.0
  50
 270.00000000000
 100
AcDbRotatedDimension
   0
TEXT
   5
146
 100
AcDbEntity
   8
LEVEL003
  62
3
 100
AcDbText
  10
 314.99999195337
  20
 44.999998658896
  30
0.0
  40
 5.9999998211861
   1
ＮＰＴ３／８
   7
STANDARD
 100
AcDbText
   0
LEADER
   5
147
 100
AcDbEntity
   8
LEVEL003
   6
CONTINUOUS
  62
3
 100
AcDbLeader
   3
GMM003
  73
0
  74
1
  75
0
  40
 6.0000000000000
  41
0.0
  76
3
  10
 303.96928396913
  20
 83.607430827396
  30
0.0
  10
 314.99999195337
  20
 44.999998658896
  30
0.0
  10
 352.49999083579
  20
 44.999998658896
  30
0.0
  77
3
   0
DIMENSION
   5
148
 100
AcDbEntity
   8
LEVEL003
   6
CONTINUOUS
  62
3
 100
AcDbDimension
   2
*D4
  10
 352.49999083579
  20
 324.99999794364
  30
0.0
  11
 352.49999083579
  21
 335.00000527501
  31
0.0
  70
128
   1
\A1;20
   3
GMM004
 100
AcDbAlignedDimension
  13
 259.99998596311
  23
 344.99998971820
  33
0.0
  14
 300.00001528859
  24
 324.99999794364
  34
0.0
  50
 270.00000000000
 100
AcDbRotatedDimension
   0
DIMENSION
   5
14A
 100
AcDbEntity
   8
LEVEL003
   6
CONTINUOUS
  62
3
 100
AcDbDimension
   2
*D5
  10
 337.49999128282
  20
 329.99999016523
  30
0.0
  11
 337.49999128282
  21
 337.49998994172
  31
0.0
  70
128
   1
\A1;15
   3
GMM004
 100
AcDbAlignedDimension
  13
 259.99998596311
  23
 344.99998971820
  33
0.0
  14
 261.85965082468
  24
 329.99999016523
  34
0.0
  50
 270.00000000000
 100
AcDbRotatedDimension
   0
LINE
   5
14C
 100
AcDbEntity
   8
LEVEL001
 100
AcDbLine
   6
CONTINUOUS
  62
7
  10
 260.99999356270
  20
 329.99999016523
  30
0.0
  11
 260.99999356270
  21
 344.00000500679
  31
0.0
   0
LINE
   5
14D
 100
AcDbEntity
   8
LEVEL001
 100
AcDbLine
   6
CONTINUOUS
  62
7
  10
 260.99999356270
  20
 344.00000500679
  30
0.0
  11
 259.99998596311
  21
 344.99998971820
  31
0.0
   0
LINE
   5
14E
 100
AcDbEntity
   8
LEVEL001
 100
AcDbLine
   6
CONTINUOUS
  62
7
  10
 259.99998596311
  20
 344.99998971820
  30
0.0
  11
 194.99999552965
  21
 344.99998971820
  31
0.0
   0
LINE
   5
14F
 100
AcDbEntity
   8
LEVEL001
 100
AcDbLine
   6
CONTINUOUS
  62
7
  10
 194.99999552965
  20
 344.99998971820
  30
0.0
  11
 130.00000509620
  21
 344.99998971820
  31
0.0
   0
LINE
   5
150
 100
AcDbEntity
   8
LEVEL001
 100
AcDbLine
   6
CONTINUOUS
  62
7
  10
 130.00000509620
  20
 344.99998971820
  30
0.0
  11
 128.99999749660
  21
 344.00000500679
  31
0.0
   0
LINE
   5
151
 100
AcDbEntity
   8
LEVEL001
 100
AcDbLine
   6
CONTINUOUS
  62
7
  10
 128.99999749660
  20
 344.00000500679
  30
0.0
  11
 128.99999749660
  21
 329.99999016523
  31
0.0
   0
LINE
   5
152
 100
AcDbEntity
   8
LEVEL001
 100
AcDbLine
   6
CONTINUOUS
  62
7
  10
 194.99999552965
  20
 326.99999025464
  30
0.0
  11
 126.99998229742
  21
 326.99999025464
  31
0.0
   0
LINE
   5
153
 100
AcDbEntity
   8
LEVEL001
 100
AcDbLine
   6
CONTINUOUS
  62
7
  10
 126.99998229742
  20
 326.99999025464
  30
0.0
  11
 126.99998229742
  21
 324.99999794364
  31
0.0
   0
LINE
   5
154
 100
AcDbEntity
   8
LEVEL001
 100
AcDbLine
   6
CONTINUOUS
  62
7
  10
 262.34472008512
  20
 329.62123651441
  30
0.0
  11
 263.00000876188
  21
 326.99999025464
  31
0.0
   0
LINE
   5
155
 100
AcDbEntity
   8
LEVEL001
 100
AcDbLine
   6
CONTINUOUS
  62
3
  10
 312.00000759959
  20
 100.64347565174
  30
0.0
  11
 308.38367459178
  21
 99.674481511117
  31
0.0
   0
LINE
   5
156
 100
AcDbEntity
   8
LEVEL001
 100
AcDbLine
   6
CONTINUOUS
  62
3
  10
 312.00000759959
  20
 83.356457829476
  30
0.0
  11
 308.38367459178
  21
 84.325467228890
  31
0.0
   0
LINE
   5
157
 100
AcDbEntity
   8
LEVEL001
 100
AcDbLine
   6
CONTINUOUS
  62
7
  10
 312.00000759959
  20
 100.64347565174
  30
0.0
  11
 313.48352810740
  21
 101.49999725819
  31
0.0
   0
LINE
   5
158
 100
AcDbEntity
   8
LEVEL001
 100
AcDbLine
   6
CONTINUOUS
  62
7
  10
 329.00000759959
  20
 101.49996674061
  30
0.0
  11
 313.48352810740
  21
 101.49996674061
  31
0.0
   0
LINE
   5
159
 100
AcDbEntity
   8
LEVEL001
 100
AcDbLine
   6
CONTINUOUS
  62
7
  10
 312.00000759959
  20
 83.356457829476
  30
0.0
  11
 313.48352810740
  21
 82.499966740609
  31
0.0
   0
LINE
   5
15A
 100
AcDbEntity
   8
LEVEL001
 100
AcDbLine
   6
CONTINUOUS
  62
7
  10
 329.00000759959
  20
 82.499966740609
  30
0.0
  11
 313.48352810740
  21
 82.499966740609
  31
0.0
   0
ARC
   5
15B
 100
AcDbEntity
   8
LEVEL001
   6
CONTINUOUS
  62
7
 100
AcDbCircle
  10
 330.50000759959
  20
 104.99996674061
  30
0.0
  40
 1.5000000000000
 100
AcDbArc
  50
 90.000000000017
  51
 180.00000000002
   0
LINE
   5
15C
 100
AcDbEntity
   8
LEVEL001
 100
AcDbLine
   6
CONTINUOUS
  62
7
  10
 330.50000759959
  20
 106.49996674061
  30
0.0
  11
 335.50000759959
  21
 106.49996674061
  31
0.0
   0
ARC
   5
15D
 100
AcDbEntity
   8
LEVEL001
   6
CONTINUOUS
  62
7
 100
AcDbCircle
  10
 330.50000759959
  20
 78.999966740609
  30
0.0
  40
 1.5000000000000
 100
AcDbArc
  50
 180.00000000000
  51
 270.00000000011
   0
LINE
   5
15E
 100
AcDbEntity
   8
LEVEL001
 100
AcDbLine
   6
CONTINUOUS
  62
7
  10
 329.00000759959
  20
 78.999966740609
  30
0.0
  11
 329.00000759959
  21
 104.99996674061
  31
0.0
   0
LINE
   5
15F
 100
AcDbEntity
   8
LEVEL001
 100
AcDbLine
   6
CONTINUOUS
  62
7
  10
 330.50000759959
  20
 77.499966740609
  30
0.0
  11
 335.50000759959
  21
 77.499966740609
  31
0.0
   0
ARC
   5
160
 100
AcDbEntity
   8
LEVEL001
   6
CONTINUOUS
  62
7
 100
AcDbCircle
  10
 351.50000759959
  20
 104.99996674061
  30
0.0
  40
 1.5000000000000
 100
AcDbArc
  50
 0.54281466563549E-12
  51
 89.999999999900
   0
LINE
   5
161
 100
AcDbEntity
   8
LEVEL001
 100
AcDbLine
   6
CONTINUOUS
  62
7
  10
 346.50000759959
  20
 106.49996674061
  30
0.0
  11
 351.50000759959
  21
 106.49996674061
  31
0.0
   0
ARC
   5
162
 100
AcDbEntity
   8
LEVEL001
   6
CONTINUOUS
  62
7
 100
AcDbCircle
  10
 351.50000759959
  20
 78.999966740607
  30
0.0
  40
 1.5000000000000
 100
AcDbArc
  50
 270.00000000000
  51
 0.95535381152013E-10
   0
LINE
   5
163
 100
AcDbEntity
   8
LEVEL001
 100
AcDbLine
   6
CONTINUOUS
  62
7
  10
 346.50000759959
  20
 77.499966740609
  30
0.0
  11
 351.50000759959
  21
 77.499966740609
  31
0.0
   0
LINE
   5
164
 100
AcDbEntity
   8
LEVEL001
 100
AcDbLine
   6
CONTINUOUS
  62
7
  10
 353.00000759959
  20
 104.99996674061
  30
0.0
  11
 353.00000759959
  21
 78.999966740609
  31
0.0
   0
ARC
   5
165
 100
AcDbEntity
   8
LEVEL001
   6
DASHDOT
  62
1
 100
AcDbCircle
  10
 362.00000759959
  20
 104.99996674062
  30
0.0
  40
 1.0000000000000
 100
AcDbArc
  50
0.0
  51
 90.000000000130
   0
LINE
   5
166
 100
AcDbEntity
   8
LEVEL001
 100
AcDbLine
   6
DASHDOT
  62
1
  10
 354.00000759959
  20
 105.99996674061
  30
0.0
  11
 362.00000759959
  21
 105.99996674061
  31
0.0
   0
ARC
   5
167
 100
AcDbEntity
   8
LEVEL001
   6
DASHDOT
  62
1
 100
AcDbCircle
  10
 362.00000759959
  20
 78.999966740604
  30
0.0
  40
 1.0000000000000
 100
AcDbArc
  50
 270.00000000000
  51
 0.30289058342513E-9
   0
LINE
   5
168
 100
AcDbEntity
   8
LEVEL001
 100
AcDbLine
   6
DASHDOT
  62
1
  10
 354.00000759959
  20
 77.999966740609
  30
0.0
  11
 362.00000759959
  21
 77.999966740609
  31
0.0
   0
LINE
   5
169
 100
AcDbEntity
   8
LEVEL001
 100
AcDbLine
   6
DASHDOT
  62
1
  10
 363.00000759959
  20
 104.99996674061
  30
0.0
  11
 363.00000759959
  21
 78.999966740609
  31
0.0
   0
CIRCLE
   5
16A
 100
AcDbEntity
   8
LEVEL001
 100
AcDbCircle
   6
DASHDOT
  62
1
  10
 366.00000759959
  20
 91.999966740609
  30
0.0
  40
 1.5000000000000
   0
ARC
   5
16B
 100
AcDbEntity
   8
LEVEL001
   6
DASHDOT
  62
1
 100
AcDbCircle
  10
 354.00000759959
  20
 78.999966740609
  30
0.0
  40
 1.0000000000000
 100
AcDbArc
  50
 179.99999999998
  51
 269.99999999986
   0
ARC
   5
16C
 100
AcDbEntity
   8
LEVEL001
   6
DASHDOT
  62
1
 100
AcDbCircle
  10
 354.00000759959
  20
 104.99996674062
  30
0.0
  40
 1.0000000000000
 100
AcDbArc
  50
 90.000000000007
  51
 180.00000000035
   0
ARC
   5
16D
 100
AcDbEntity
   8
LEVEL001
   6
DASHDOT
  62
1
 100
AcDbCircle
  10
 365.00000759959
  20
 97.499966740609
  30
0.0
  40
 2.0000000000000
 100
AcDbArc
  50
 180.00000000000
  51
 270.00000000001
   0
ARC
   5
16E
 100
AcDbEntity
   8
LEVEL001
   6
DASHDOT
  62
1
 100
AcDbCircle
  10
 365.00000759959
  20
 86.499966740608
  30
0.0
  40
 2.0000000000000
 100
AcDbArc
  50
 90.000000000010
  51
 179.99999999997
   0
LINE
   5
16F
 100
AcDbEntity
   8
LEVEL001
 100
AcDbLine
   6
DASHDOT
  62
1
  10
 365.00000759959
  20
 95.499966740609
  30
0.0
  11
 365.50000759959
  21
 95.499966740609
  31
0.0
   0
LINE
   5
170
 100
AcDbEntity
   8
LEVEL001
 100
AcDbLine
   6
DASHDOT
  62
1
  10
 365.00000759959
  20
 88.499966740609
  30
0.0
  11
 365.50000759959
  21
 88.499966740609
  31
0.0
   0
ARC
   5
171
 100
AcDbEntity
   8
LEVEL001
   6
DASHDOT
  62
1
 100
AcDbCircle
  10
 365.50000759959
  20
 91.999966740609
  30
0.0
  40
 3.5000000000000
 100
AcDbArc
  50
 270.00000000000
  51
 90.000000000000
   0
LINE
   5
172
 100
AcDbEntity
   8
LEVEL001
 100
AcDbLine
   6
CONTINUOUS
  62
7
  10
 313.48352810740
  20
 82.499966740609
  30
0.0
  11
 313.48352810740
  21
 86.169018864633
  31
0.0
   0
LINE
   5
173
 100
AcDbEntity
   8
LEVEL001
 100
AcDbLine
   6
CONTINUOUS
  62
7
  10
 313.48352810740
  20
 97.830914616586
  30
0.0
  11
 313.48352810740
  21
 101.49998199940
  31
0.0
   0
LINE
   5
174
 100
AcDbEntity
   8
LEVEL001
 100
AcDbLine
   6
CONTINUOUS
  62
7
  10
 308.00000759959
  20
 87.960782170297
  30
0.0
  11
 322.00000759959
  21
 97.830914616586
  31
0.0
   0
LINE
   5
175
 100
AcDbEntity
   8
LEVEL001
 100
AcDbLine
   6
CONTINUOUS
  62
7
  10
 308.00000759959
  20
 96.039151310922
  30
0.0
  11
 322.00000759959
  21
 86.169018864633
  31
0.0
   0
LINE
   5
176
 100
AcDbEntity
   8
LEVEL001
 100
AcDbLine
   6
CONTINUOUS
  62
3
  10
 308.38367459178
  20
 99.674466252328
  30
0.0
  11
 308.38367459178
  21
 96.039151310922
  31
0.0
   0
LINE
   5
177
 100
AcDbEntity
   8
LEVEL001
 100
AcDbLine
   6
CONTINUOUS
  62
3
  10
 308.38367459178
  20
 87.960782170297
  30
0.0
  11
 308.38367459178
  21
 84.325467228890
  31
0.0
   0
LINE
   5
178
 100
AcDbEntity
   8
LEVEL001
 100
AcDbLine
   6
CONTINUOUS
  62
7
  10
 312.00000759959
  20
 100.64347565174
  30
0.0
  11
 312.00000759959
  21
 96.296506047250
  31
0.0
   0
LINE
   5
179
 100
AcDbEntity
   8
LEVEL001
 100
AcDbLine
   6
CONTINUOUS
  62
7
  10
 312.00000759959
  20
 87.703427433969
  30
0.0
  11
 312.00000759959
  21
 83.356457829476
  31
0.0
   0
LINE
   5
17A
 100
AcDbEntity
   8
LEVEL001
 100
AcDbLine
   6
CONTINUOUS
  62
3
  10
 335.50000759959
  20
 78.999966740609
  30
0.0
  11
 346.50000759959
  21
 78.999966740609
  31
0.0
   0
LINE
   5
17B
 100
AcDbEntity
   8
LEVEL001
 100
AcDbLine
   6
CONTINUOUS
  62
3
  10
 335.50000759959
  20
 80.999966740609
  30
0.0
  11
 346.50000759959
  21
 80.999966740609
  31
0.0
   0
LINE
   5
17C
 100
AcDbEntity
   8
LEVEL001
 100
AcDbLine
   6
CONTINUOUS
  62
3
  10
 335.50000759959
  20
 82.999966740609
  30
0.0
  11
 346.50000759959
  21
 82.999966740609
  31
0.0
   0
LINE
   5
17D
 100
AcDbEntity
   8
LEVEL001
 100
AcDbLine
   6
CONTINUOUS
  62
3
  10
 335.50000759959
  20
 84.999966740609
  30
0.0
  11
 346.50000759959
  21
 84.999966740609
  31
0.0
   0
LINE
   5
17E
 100
AcDbEntity
   8
LEVEL001
 100
AcDbLine
   6
CONTINUOUS
  62
3
  10
 335.50000759959
  20
 86.999966740609
  30
0.0
  11
 346.50000759959
  21
 86.999966740609
  31
0.0
   0
LINE
   5
17F
 100
AcDbEntity
   8
LEVEL001
 100
AcDbLine
   6
CONTINUOUS
  62
3
  10
 335.50000759959
  20
 88.999966740609
  30
0.0
  11
 346.50000759959
  21
 88.999966740609
  31
0.0
   0
LINE
   5
180
 100
AcDbEntity
   8
LEVEL001
 100
AcDbLine
   6
CONTINUOUS
  62
3
  10
 335.50000759959
  20
 90.999966740609
  30
0.0
  11
 346.50000759959
  21
 90.999966740609
  31
0.0
   0
LINE
   5
181
 100
AcDbEntity
   8
LEVEL001
 100
AcDbLine
   6
CONTINUOUS
  62
3
  10
 335.50000759959
  20
 92.999966740609
  30
0.0
  11
 346.50000759959
  21
 92.999966740609
  31
0.0
   0
LINE
   5
182
 100
AcDbEntity
   8
LEVEL001
 100
AcDbLine
   6
CONTINUOUS
  62
3
  10
 335.50000759959
  20
 94.999966740609
  30
0.0
  11
 346.50000759959
  21
 94.999966740609
  31
0.0
   0
LINE
   5
183
 100
AcDbEntity
   8
LEVEL001
 100
AcDbLine
   6
CONTINUOUS
  62
3
  10
 335.50000759959
  20
 96.999966740609
  30
0.0
  11
 346.50000759959
  21
 96.999966740609
  31
0.0
   0
LINE
   5
184
 100
AcDbEntity
   8
LEVEL001
 100
AcDbLine
   6
CONTINUOUS
  62
3
  10
 335.50000759959
  20
 98.999966740609
  30
0.0
  11
 346.50000759959
  21
 98.999966740609
  31
0.0
   0
LINE
   5
185
 100
AcDbEntity
   8
LEVEL001
 100
AcDbLine
   6
CONTINUOUS
  62
3
  10
 335.50000759959
  20
 100.99996674061
  30
0.0
  11
 346.50000759959
  21
 100.99996674061
  31
0.0
   0
LINE
   5
186
 100
AcDbEntity
   8
LEVEL001
 100
AcDbLine
   6
CONTINUOUS
  62
3
  10
 335.50000759959
  20
 102.99996674061
  30
0.0
  11
 346.50000759959
  21
 102.99996674061
  31
0.0
   0
LINE
   5
187
 100
AcDbEntity
   8
LEVEL001
 100
AcDbLine
   6
CONTINUOUS
  62
3
  10
 335.50000759959
  20
 104.99996674061
  30
0.0
  11
 346.50000759959
  21
 104.99996674061
  31
0.0
   0
LINE
   5
188
 100
AcDbEntity
   8
LEVEL001
 100
AcDbLine
   6
CONTINUOUS
  62
7
  10
 308.00000759959
  20
 87.960782170297
  30
0.0
  11
 308.00000759959
  21
 96.039151310922
  31
0.0
   0
LINE
   5
189
 100
AcDbEntity
   8
LEVEL001
 100
AcDbLine
   6
CONTINUOUS
  62
7
  10
 308.00000759959
  20
 96.039151310922
  30
0.0
  11
 312.00000759959
  21
 96.296506047250
  31
0.0
   0
LINE
   5
18A
 100
AcDbEntity
   8
LEVEL001
 100
AcDbLine
   6
CONTINUOUS
  62
7
  10
 312.00000759959
  20
 96.296506047250
  30
0.0
  11
 313.48352810740
  21
 97.830914616586
  31
0.0
   0
LINE
   5
18B
 100
AcDbEntity
   8
LEVEL001
 100
AcDbLine
   6
CONTINUOUS
  62
7
  10
 313.48352810740
  20
 97.830914616586
  30
0.0
  11
 322.00000759959
  21
 97.830914616586
  31
0.0
   0
LINE
   5
18C
 100
AcDbEntity
   8
LEVEL001
 100
AcDbLine
   6
CONTINUOUS
  62
7
  10
 322.00000759959
  20
 97.830914616586
  30
0.0
  11
 322.00000759959
  21
 86.169018864633
  31
0.0
   0
LINE
   5
18D
 100
AcDbEntity
   8
LEVEL001
 100
AcDbLine
   6
CONTINUOUS
  62
7
  10
 322.00000759959
  20
 86.169018864633
  30
0.0
  11
 313.48352810740
  21
 86.169018864633
  31
0.0
   0
LINE
   5
18E
 100
AcDbEntity
   8
LEVEL001
 100
AcDbLine
   6
CONTINUOUS
  62
7
  10
 313.48352810740
  20
 86.169018864633
  30
0.0
  11
 312.00000759959
  21
 87.703427433969
  31
0.0
   0
LINE
   5
18F
 100
AcDbEntity
   8
LEVEL001
 100
AcDbLine
   6
CONTINUOUS
  62
7
  10
 312.00000759959
  20
 87.703427433969
  30
0.0
  11
 308.00000759959
  21
 87.960782170297
  31
0.0
   0
LINE
   5
190
 100
AcDbEntity
   8
LEVEL001
 100
AcDbLine
   6
CONTINUOUS
  62
7
  10
 335.50000759959
  20
 76.999966740609
  30
0.0
  11
 335.50000759959
  21
 106.99996674061
  31
0.0
   0
LINE
   5
191
 100
AcDbEntity
   8
LEVEL001
 100
AcDbLine
   6
CONTINUOUS
  62
7
  10
 335.50000759959
  20
 106.99996674061
  30
0.0
  11
 346.50000759959
  21
 106.99996674061
  31
0.0
   0
LINE
   5
192
 100
AcDbEntity
   8
LEVEL001
 100
AcDbLine
   6
CONTINUOUS
  62
7
  10
 346.50000759959
  20
 106.99996674061
  30
0.0
  11
 346.50000759959
  21
 76.999966740609
  31
0.0
   0
LINE
   5
193
 100
AcDbEntity
   8
LEVEL001
 100
AcDbLine
   6
CONTINUOUS
  62
7
  10
 346.50000759959
  20
 76.999966740609
  30
0.0
  11
 335.50000759959
  21
 76.999966740609
  31
0.0
   0
LINE
   5
194
 100
AcDbEntity
   8
LEVEL001
 100
AcDbLine
   6
DASHDOT
  62
1
  10
 372.00000759959
  20
 91.999966740609
  30
0.0
  11
 265.00000107288
  21
 91.999966740609
  31
0.0
   0
DIMENSION
   5
195
 100
AcDbEntity
   8
LEVEL003
   6
CONTINUOUS
  62
3
 100
AcDbDimension
   2
*D6
  10
 382.50000000000
  20
 64.999967545272
  30
0.0
  11
 382.50000000000
  21
 78.499967142941
  31
0.0
  70
128
   1
\A1;27
   3
GMM005
 100
AcDbAlignedDimension
  13
 372.00000759959
  23
 91.999966740609
  33
0.0
  14
 300.00001528859
  24
 64.999967545272
  34
0.0
  50
 270.00000000000
 100
AcDbRotatedDimension
   0
DIMENSION
   5
197
 100
AcDbEntity
   8
LEVEL003
   6
CONTINUOUS
  62
3
 100
AcDbDimension
   2
*D7
  10
 397.50000000000
  20
 64.999967545272
  30
0.0
  11
 397.50000000000
  21
 204.99997863174
  31
0.0
  70
128
   1
\A1;280
   3
GMM005
 100
AcDbAlignedDimension
  13
 259.99998596311
  23
 344.99998971820
  33
0.0
  14
 300.00001528859
  24
 64.999967545272
  34
0.0
  50
 270.00000000000
 100
AcDbRotatedDimension
   0
LEADER
   5
199
 100
AcDbEntity
   8
LEVEL003
   6
CONTINUOUS
  62
3
 100
AcDbLeader
   3
GMM006
  73
0
  74
1
  75
0
  40
 6.0000000000000
  41
0.0
  76
3
  10
 45.000000000000
  20
 37.499999552965
  30
0.0
  10
 45.000000000000
  20
 22.500000000000
  30
0.0
  10
 63.000000000000
  20
 22.500000000000
  30
0.0
  77
3
   0
TEXT
   5
19A
 100
AcDbEntity
   8
LEVEL003
  62
3
 100
AcDbText
  10
 52.499999776483
  20
 15.000000223517
  30
0.0
  40
 5.9999998211861
   1
Ａ
   7
STANDARD
 100
AcDbText
   0
TEXT
   5
19B
 100
AcDbEntity
   8
LEVEL003
  62
3
 100
AcDbText
  10
 52.499999776483
  20
 44.999998658896
  30
0.0
  40
 5.9999998211861
   1
４―Ｍ１６
   7
STANDARD
 100
AcDbText
   0
TEXT
   5
19C
 100
AcDbEntity
   8
LEVEL003
  62
3
 100
AcDbText
  10
 52.499999776483
  20
 36.999998897314
  30
0.0
  40
 5.9999998211861
   1
タップ深さ　２０
   7
STANDARD
 100
AcDbText
   0
LEADER
   5
19D
 100
AcDbEntity
   8
LEVEL003
   6
CONTINUOUS
  62
3
 100
AcDbLeader
   3
GMM006
  73
0
  74
1
  75
0
  40
 6.0000000000000
  41
0.0
  76
3
  10
 104.99999821186
  20
 64.999967545272
  30
0.0
  10
 97.500000000000
  20
 45.000000000000
  30
0.0
  10
 52.500001341104
  20
 45.000000000000
  30
0.0
  77
3
   0
CIRCLE
   5
19E
 100
AcDbEntity
   8
LEVEL001
 100
AcDbCircle
   6
CONTINUOUS
  62
7
  10
 367.50000000000
  20
 390.00000000000
  30
0.0
  40
 14.375002268702
   0
CIRCLE
   5
19F
 100
AcDbEntity
   8
LEVEL001
 100
AcDbCircle
   6
CONTINUOUS
  62
7
  10
 367.50000000000
  20
 390.00000000000
  30
0.0
  40
 13.750000379980
   0
CIRCLE
   5
1A0
 100
AcDbEntity
   8
LEVEL001
 100
AcDbCircle
   6
CONTINUOUS
  62
7
  10
 367.50000000000
  20
 390.00000000000
  30
0.0
  40
 14.000002279878
   0
CIRCLE
   5
1A1
 100
AcDbEntity
   8
LEVEL001
 100
AcDbCircle
   6
CONTINUOUS
  62
7
  10
 367.50000000000
  20
 390.00000000000
  30
0.0
  40
 10.209810742443
   0
CIRCLE
   5
1A2
 100
AcDbEntity
   8
LEVEL001
 100
AcDbCircle
   6
CONTINUOUS
  62
7
  10
 367.50000000000
  20
 390.00000000000
  30
0.0
  40
 10.000000491738
   0
CIRCLE
   5
1A3
 100
AcDbEntity
   8
LEVEL001
 100
AcDbCircle
   6
CONTINUOUS
  62
7
  10
 367.50000000000
  20
 390.00000000000
  30
0.0
  40
 26.750000000000
   0
CIRCLE
   5
1A4
 100
AcDbEntity
   8
LEVEL001
 100
AcDbCircle
   6
CONTINUOUS
  62
7
  10
 367.50000000000
  20
 390.00000000000
  30
0.0
  40
 26.250003822148
   0
CIRCLE
   5
1A5
 100
AcDbEntity
   8
LEVEL001
 100
AcDbCircle
   6
DASHDOT
  62
1
  10
 367.50000000000
  20
 390.00000000000
  30
0.0
  40
 22.500000000000
   0
CIRCLE
   5
1A6
 100
AcDbEntity
   8
LEVEL001
 100
AcDbCircle
   6
CONTINUOUS
  62
7
  10
 351.59009742329
  20
 405.90990257668
  30
0.0
  40
 1.7500000000000
   0
CIRCLE
   5
1A7
 100
AcDbEntity
   8
LEVEL001
 100
AcDbCircle
   6
CONTINUOUS
  62
3
  10
 351.59009742329
  20
 405.90990257668
  30
0.0
  40
 2.0000000000000
   0
LINE
   5
1A8
 100
AcDbEntity
   8
LEVEL001
 100
AcDbLine
   6
DASHDOT
  62
1
  10
 349.64555377503
  20
 407.85444622495
  30
0.0
  11
 353.53464107155
  21
 403.96535892842
  31
0.0
   0
CIRCLE
   5
1A9
 100
AcDbEntity
   8
LEVEL001
 100
AcDbCircle
   6
CONTINUOUS
  62
7
  10
 351.59009742329
  20
 374.09009742332
  30
0.0
  40
 1.7500000000000
   0
CIRCLE
   5
1AA
 100
AcDbEntity
   8
LEVEL001
 100
AcDbCircle
   6
CONTINUOUS
  62
3
  10
 351.59009742329
  20
 374.09009742332
  30
0.0
  40
 2.0000000000000
   0
LINE
   5
1AB
 100
AcDbEntity
   8
LEVEL001
 100
AcDbLine
   6
DASHDOT
  62
1
  10
 349.64555377503
  20
 372.14555377505
  30
0.0
  11
 353.53464107155
  21
 376.03464107158
  31
0.0
   0
LINE
   5
1AC
 100
AcDbEntity
   8
LEVEL001
 100
AcDbLine
   6
DASHDOT
  62
1
  10
 367.50000000000
  20
 426.01757383556
  30
0.0
  11
 367.50000000000
  21
 353.98242616444
  31
0.0
   0
LINE
   5
1AD
 100
AcDbEntity
   8
LEVEL001
 100
AcDbLine
   6
DASHDOT
  62
1
  10
 413.52805069930
  20
 390.00000000000
  30
0.0
  11
 335.93655157343
  21
 390.00000000000
  31
0.0
   0
LINE
   5
1AE
 100
AcDbEntity
   8
LEVEL001
 100
AcDbLine
   6
CONTINUOUS
  62
7
  10
 364.37500000000
  20
 362.75000000000
  30
0.0
  11
 370.62500000000
  21
 362.75000000000
  31
0.0
   0
LINE
   5
1AF
 100
AcDbEntity
   8
LEVEL001
 100
AcDbLine
   6
CONTINUOUS
  62
7
  10
 364.37500000000
  20
 357.00000000000
  30
0.0
  11
 370.62500000000
  21
 357.00000000000
  31
0.0
   0
LINE
   5
1B0
 100
AcDbEntity
   8
LEVEL001
 100
AcDbLine
   6
CONTINUOUS
  62
7
  10
 359.50000000000
  20
 360.87500000000
  30
0.0
  11
 364.37500000000
  21
 360.87500000000
  31
0.0
   0
LINE
   5
1B1
 100
AcDbEntity
   8
LEVEL001
 100
AcDbLine
   6
CONTINUOUS
  62
7
  10
 370.62500000000
  20
 360.87500000000
  30
0.0
  11
 375.50000000000
  21
 360.87500000000
  31
0.0
   0
LINE
   5
1B2
 100
AcDbEntity
   8
LEVEL001
 100
AcDbLine
   6
CONTINUOUS
  62
7
  10
 375.50000000000
  20
 358.62500000000
  30
0.0
  11
 370.62500000000
  21
 358.62500000000
  31
0.0
   0
LINE
   5
1B3
 100
AcDbEntity
   8
LEVEL001
 100
AcDbLine
   6
CONTINUOUS
  62
7
  10
 364.37500000000
  20
 358.62500000000
  30
0.0
  11
 359.50000000000
  21
 358.62500000000
  31
0.0
   0
ARC
   5
1B4
 100
AcDbEntity
   8
LEVEL001
   6
CONTINUOUS
  62
7
 100
AcDbCircle
  10
 359.50000000000
  20
 359.75000000000
  30
0.0
  40
 1.1250000000000
 100
AcDbArc
  50
 90.000000000000
  51
 270.00000000000
   0
ARC
   5
1B5
 100
AcDbEntity
   8
LEVEL001
   6
CONTINUOUS
  62
7
 100
AcDbCircle
  10
 375.50000000000
  20
 359.75000000000
  30
0.0
  40
 1.1250000000000
 100
AcDbArc
  50
 270.00000000000
  51
 90.000000000000
   0
LINE
   5
1B6
 100
AcDbEntity
   8
LEVEL001
 100
AcDbLine
   6
DASHDOT
  62
1
  10
 357.50000000000
  20
 359.75000000000
  30
0.0
  11
 377.50000000000
  21
 359.75000000000
  31
0.0
   0
LINE
   5
1B7
 100
AcDbEntity
   8
LEVEL001
 100
AcDbLine
   6
CONTINUOUS
  62
7
  10
 370.37500000000
  20
 356.75000000000
  30
0.0
  11
 364.62500000000
  21
 356.75000000000
  31
0.0
   0
LINE
   5
1B8
 100
AcDbEntity
   8
LEVEL001
 100
AcDbLine
   6
CONTINUOUS
  62
7
  10
 364.62500000000
  20
 356.75000000000
  30
0.0
  11
 364.37500000000
  21
 357.00000000000
  31
0.0
   0
LINE
   5
1B9
 100
AcDbEntity
   8
LEVEL001
 100
AcDbLine
   6
CONTINUOUS
  62
7
  10
 364.37500000000
  20
 357.00000000000
  30
0.0
  11
 364.37500000000
  21
 362.75000000000
  31
0.0
   0
LINE
   5
1BA
 100
AcDbEntity
   8
LEVEL001
 100
AcDbLine
   6
CONTINUOUS
  62
7
  10
 364.37500000000
  20
 362.75000000000
  30
0.0
  11
 365.62500000000
  21
 363.25000000000
  31
0.0
   0
LINE
   5
1BB
 100
AcDbEntity
   8
LEVEL001
 100
AcDbLine
   6
CONTINUOUS
  62
7
  10
 365.62500000000
  20
 363.25000000000
  30
0.0
  11
 369.37500000000
  21
 363.25000000000
  31
0.0
   0
LINE
   5
1BC
 100
AcDbEntity
   8
LEVEL001
 100
AcDbLine
   6
CONTINUOUS
  62
7
  10
 369.37500000000
  20
 363.25000000000
  30
0.0
  11
 370.62500000000
  21
 362.75000000000
  31
0.0
   0
LINE
   5
1BD
 100
AcDbEntity
   8
LEVEL001
 100
AcDbLine
   6
CONTINUOUS
  62
7
  10
 370.62500000000
  20
 362.75000000000
  30
0.0
  11
 370.62500000000
  21
 357.00000000000
  31
0.0
   0
LINE
   5
1BE
 100
AcDbEntity
   8
LEVEL001
 100
AcDbLine
   6
CONTINUOUS
  62
7
  10
 370.62500000000
  20
 357.00000000000
  30
0.0
  11
 370.37500000000
  21
 356.75000000000
  31
0.0
   0
LINE
   5
1BF
 100
AcDbEntity
   8
LEVEL001
 100
AcDbLine
   6
CONTINUOUS
  62
7
  10
 370.62500000000
  20
 417.25000000000
  30
0.0
  11
 364.37500000000
  21
 417.25000000000
  31
0.0
   0
LINE
   5
1C0
 100
AcDbEntity
   8
LEVEL001
 100
AcDbLine
   6
CONTINUOUS
  62
7
  10
 370.62500000000
  20
 423.00000000000
  30
0.0
  11
 364.37500000000
  21
 423.00000000000
  31
0.0
   0
LINE
   5
1C1
 100
AcDbEntity
   8
LEVEL001
 100
AcDbLine
   6
CONTINUOUS
  62
7
  10
 375.50000000000
  20
 419.12500000000
  30
0.0
  11
 370.62500000000
  21
 419.12500000000
  31
0.0
   0
LINE
   5
1C2
 100
AcDbEntity
   8
LEVEL001
 100
AcDbLine
   6
CONTINUOUS
  62
7
  10
 364.37500000000
  20
 419.12500000000
  30
0.0
  11
 359.50000000000
  21
 419.12500000000
  31
0.0
   0
LINE
   5
1C3
 100
AcDbEntity
   8
LEVEL001
 100
AcDbLine
   6
CONTINUOUS
  62
7
  10
 359.50000000000
  20
 421.37500000000
  30
0.0
  11
 364.37500000000
  21
 421.37500000000
  31
0.0
   0
LINE
   5
1C4
 100
AcDbEntity
   8
LEVEL001
 100
AcDbLine
   6
CONTINUOUS
  62
7
  10
 370.62500000000
  20
 421.37500000000
  30
0.0
  11
 375.50000000000
  21
 421.37500000000
  31
0.0
   0
ARC
   5
1C5
 100
AcDbEntity
   8
LEVEL001
   6
CONTINUOUS
  62
7
 100
AcDbCircle
  10
 375.50000000000
  20
 420.25000000000
  30
0.0
  40
 1.1250000000000
 100
AcDbArc
  50
 270.00000000000
  51
 90.000000000000
   0
ARC
   5
1C6
 100
AcDbEntity
   8
LEVEL001
   6
CONTINUOUS
  62
7
 100
AcDbCircle
  10
 359.50000000000
  20
 420.25000000000
  30
0.0
  40
 1.1250000000000
 100
AcDbArc
  50
 90.000000000000
  51
 270.00000000000
   0
LINE
   5
1C7
 100
AcDbEntity
   8
LEVEL001
 100
AcDbLine
   6
DASHDOT
  62
1
  10
 377.50000000000
  20
 420.25000000000
  30
0.0
  11
 357.50000000000
  21
 420.25000000000
  31
0.0
   0
LINE
   5
1C8
 100
AcDbEntity
   8
LEVEL001
 100
AcDbLine
   6
CONTINUOUS
  62
7
  10
 364.62500000000
  20
 423.25000000000
  30
0.0
  11
 370.37500000000
  21
 423.25000000000
  31
0.0
   0
LINE
   5
1C9
 100
AcDbEntity
   8
LEVEL001
 100
AcDbLine
   6
CONTINUOUS
  62
7
  10
 370.37500000000
  20
 423.25000000000
  30
0.0
  11
 370.62500000000
  21
 423.00000000000
  31
0.0
   0
LINE
   5
1CA
 100
AcDbEntity
   8
LEVEL001
 100
AcDbLine
   6
CONTINUOUS
  62
7
  10
 370.62500000000
  20
 423.00000000000
  30
0.0
  11
 370.62500000000
  21
 417.25000000000
  31
0.0
   0
LINE
   5
1CB
 100
AcDbEntity
   8
LEVEL001
 100
AcDbLine
   6
CONTINUOUS
  62
7
  10
 370.62500000000
  20
 417.25000000000
  30
0.0
  11
 369.37500000000
  21
 416.75000000000
  31
0.0
   0
LINE
   5
1CC
 100
AcDbEntity
   8
LEVEL001
 100
AcDbLine
   6
CONTINUOUS
  62
7
  10
 369.37500000000
  20
 416.75000000000
  30
0.0
  11
 365.62500000000
  21
 416.75000000000
  31
0.0
   0
LINE
   5
1CD
 100
AcDbEntity
   8
LEVEL001
 100
AcDbLine
   6
CONTINUOUS
  62
7
  10
 365.62500000000
  20
 416.75000000000
  30
0.0
  11
 364.37500000000
  21
 417.25000000000
  31
0.0
   0
LINE
   5
1CE
 100
AcDbEntity
   8
LEVEL001
 100
AcDbLine
   6
CONTINUOUS
  62
7
  10
 364.37500000000
  20
 417.25000000000
  30
0.0
  11
 364.37500000000
  21
 423.00000000000
  31
0.0
   0
LINE
   5
1CF
 100
AcDbEntity
   8
LEVEL001
 100
AcDbLine
   6
CONTINUOUS
  62
7
  10
 364.37500000000
  20
 423.00000000000
  30
0.0
  11
 364.62500000000
  21
 423.25000000000
  31
0.0
   0
CIRCLE
   5
1D0
 100
AcDbEntity
   8
LEVEL001
 100
AcDbCircle
   6
CONTINUOUS
  62
7
  10
 383.40990257671
  20
 374.09009742332
  30
0.0
  40
 1.7500000000000
   0
CIRCLE
   5
1D1
 100
AcDbEntity
   8
LEVEL001
 100
AcDbCircle
   6
CONTINUOUS
  62
3
  10
 383.40990257671
  20
 374.09009742332
  30
0.0
  40
 2.0000000000000
   0
LINE
   5
1D2
 100
AcDbEntity
   8
LEVEL001
 100
AcDbLine
   6
DASHDOT
  62
1
  10
 385.35444622497
  20
 372.14555377505
  30
0.0
  11
 381.46535892845
  21
 376.03464107158
  31
0.0
   0
CIRCLE
   5
1D3
 100
AcDbEntity
   8
LEVEL001
 100
AcDbCircle
   6
CONTINUOUS
  62
7
  10
 383.40990257671
  20
 405.90990257668
  30
0.0
  40
 1.7500000000000
   0
CIRCLE
   5
1D4
 100
AcDbEntity
   8
LEVEL001
 100
AcDbCircle
   6
CONTINUOUS
  62
3
  10
 383.40990257671
  20
 405.90990257668
  30
0.0
  40
 2.0000000000000
   0
LINE
   5
1D5
 100
AcDbEntity
   8
LEVEL001
 100
AcDbLine
   6
DASHDOT
  62
1
  10
 385.35444622497
  20
 407.85444622495
  30
0.0
  11
 381.46535892845
  21
 403.96535892842
  31
0.0
   0
ARC
   5
1D6
 100
AcDbEntity
   8
LEVEL001
   6
CONTINUOUS
  62
7
 100
AcDbCircle
  10
 401.37500189990
  20
 393.24999999999
  30
0.0
  40
 0.37500000000000
 100
AcDbArc
  50
 89.999999999983
  51
 179.99999999889
   0
LINE
   5
1D7
 100
AcDbEntity
   8
LEVEL001
 100
AcDbLine
   6
CONTINUOUS
  62
7
  10
 401.37500189990
  20
 393.62500000000
  30
0.0
  11
 402.62500189990
  21
 393.62500000000
  31
0.0
   0
ARC
   5
1D8
 100
AcDbEntity
   8
LEVEL001
   6
CONTINUOUS
  62
7
 100
AcDbCircle
  10
 401.37500189990
  20
 386.75000000000
  30
0.0
  40
 0.37500000000000
 100
AcDbArc
  50
 180.00000000000
  51
 269.99999999950
   0
LINE
   5
1D9
 100
AcDbEntity
   8
LEVEL001
 100
AcDbLine
   6
CONTINUOUS
  62
7
  10
 401.00000189990
  20
 386.75000000000
  30
0.0
  11
 401.00000189990
  21
 393.25000000000
  31
0.0
   0
LINE
   5
1DA
 100
AcDbEntity
   8
LEVEL001
 100
AcDbLine
   6
CONTINUOUS
  62
7
  10
 401.37500189990
  20
 386.37500000000
  30
0.0
  11
 402.62500189990
  21
 386.37500000000
  31
0.0
   0
ARC
   5
1DB
 100
AcDbEntity
   8
LEVEL001
   6
CONTINUOUS
  62
7
 100
AcDbCircle
  10
 406.62500189990
  20
 393.25000000000
  30
0.0
  40
 0.37500000000000
 100
AcDbArc
  50
0.0
  51
 89.999999999687
   0
LINE
   5
1DC
 100
AcDbEntity
   8
LEVEL001
 100
AcDbLine
   6
CONTINUOUS
  62
7
  10
 405.37500189990
  20
 393.62500000000
  30
0.0
  11
 406.62500189990
  21
 393.62500000000
  31
0.0
   0
ARC
   5
1DD
 100
AcDbEntity
   8
LEVEL001
   6
CONTINUOUS
  62
7
 100
AcDbCircle
  10
 406.62500189990
  20
 386.75000000000
  30
0.0
  40
 0.37500000000000
 100
AcDbArc
  50
 270.00000000000
  51
 0.33003131670696E-9
   0
LINE
   5
1DE
 100
AcDbEntity
   8
LEVEL001
 100
AcDbLine
   6
CONTINUOUS
  62
7
  10
 405.37500189990
  20
 386.37500000000
  30
0.0
  11
 406.62500189990
  21
 386.37500000000
  31
0.0
   0
LINE
   5
1DF
 100
AcDbEntity
   8
LEVEL001
 100
AcDbLine
   6
CONTINUOUS
  62
7
  10
 407.00000189990
  20
 393.25000000000
  30
0.0
  11
 407.00000189990
  21
 386.75000000000
  31
0.0
   0
ARC
   5
1E0
 100
AcDbEntity
   8
LEVEL001
   6
DASHDOT
  62
1
 100
AcDbCircle
  10
 409.25000189989
  20
 393.25000000000
  30
0.0
  40
 0.25000000000000
 100
AcDbArc
  50
 0.26055103949909E-10
  51
 89.999999998593
   0
LINE
   5
1E1
 100
AcDbEntity
   8
LEVEL001
 100
AcDbLine
   6
DASHDOT
  62
1
  10
 407.25000189990
  20
 393.50000000000
  30
0.0
  11
 409.25000189990
  21
 393.50000000000
  31
0.0
   0
ARC
   5
1E2
 100
AcDbEntity
   8
LEVEL001
   6
DASHDOT
  62
1
 100
AcDbCircle
  10
 409.25000189990
  20
 386.75000000000
  30
0.0
  40
 0.25000000000000
 100
AcDbArc
  50
 270.00000000000
  51
 0.44293676715934E-9
   0
LINE
   5
1E3
 100
AcDbEntity
   8
LEVEL001
 100
AcDbLine
   6
DASHDOT
  62
1
  10
 407.25000189990
  20
 386.50000000000
  30
0.0
  11
 409.25000189990
  21
 386.50000000000
  31
0.0
   0
LINE
   5
1E4
 100
AcDbEntity
   8
LEVEL001
 100
AcDbLine
   6
DASHDOT
  62
1
  10
 409.50000189990
  20
 393.25000000000
  30
0.0
  11
 409.50000189990
  21
 386.75000000000
  31
0.0
   0
ARC
   5
1E5
 100
AcDbEntity
   8
LEVEL001
   6
DASHDOT
  62
1
 100
AcDbCircle
  10
 407.25000189990
  20
 386.75000000000
  30
0.0
  40
 0.25000000000000
 100
AcDbArc
  50
 179.99999999997
  51
 270.00000000018
   0
ARC
   5
1E6
 100
AcDbEntity
   8
LEVEL001
   6
DASHDOT
  62
1
 100
AcDbCircle
  10
 407.25000189990
  20
 393.25000000001
  30
0.0
  40
 0.25000000000000
 100
AcDbArc
  50
 90.000000000026
  51
 180.00000000198
   0
LINE
   5
1E7
 100
AcDbEntity
   8
LEVEL001
 100
AcDbLine
   6
CONTINUOUS
  62
3
  10
 395.84591864794
  20
 391.87500000000
  30
0.0
  11
 395.84588813037
  21
 388.12500000000
  31
0.0
   0
LINE
   5
1E8
 100
AcDbEntity
   8
LEVEL001
 100
AcDbLine
   6
CONTINUOUS
  62
7
  10
 396.75000189990
  20
 391.87500000000
  30
0.0
  11
 396.75000189990
  21
 388.12500000000
  31
0.0
   0
LINE
   5
1E9
 100
AcDbEntity
   8
LEVEL001
 100
AcDbLine
   6
CONTINUOUS
  62
7
  10
 397.12088202685
  20
 388.12500000000
  30
0.0
  11
 397.12088202685
  21
 391.87500000000
  31
0.0
   0
LINE
   5
1EA
 100
AcDbEntity
   8
LEVEL001
 100
AcDbLine
   6
CONTINUOUS
  62
3
  10
 402.62500189990
  20
 386.75000000000
  30
0.0
  11
 405.37500189990
  21
 386.75000000000
  31
0.0
   0
LINE
   5
1EB
 100
AcDbEntity
   8
LEVEL001
 100
AcDbLine
   6
CONTINUOUS
  62
3
  10
 402.62500189990
  20
 387.25000000000
  30
0.0
  11
 405.37500189990
  21
 387.25000000000
  31
0.0
   0
LINE
   5
1EC
 100
AcDbEntity
   8
LEVEL001
 100
AcDbLine
   6
CONTINUOUS
  62
3
  10
 402.62500189990
  20
 387.75000000000
  30
0.0
  11
 405.37500189990
  21
 387.75000000000
  31
0.0
   0
LINE
   5
1ED
 100
AcDbEntity
   8
LEVEL001
 100
AcDbLine
   6
CONTINUOUS
  62
3
  10
 402.62500189990
  20
 388.25000000000
  30
0.0
  11
 405.37500189990
  21
 388.25000000000
  31
0.0
   0
LINE
   5
1EE
 100
AcDbEntity
   8
LEVEL001
 100
AcDbLine
   6
CONTINUOUS
  62
3
  10
 402.62500189990
  20
 388.75000000000
  30
0.0
  11
 405.37500189990
  21
 388.75000000000
  31
0.0
   0
LINE
   5
1EF
 100
AcDbEntity
   8
LEVEL001
 100
AcDbLine
   6
CONTINUOUS
  62
3
  10
 402.62500189990
  20
 389.25000000000
  30
0.0
  11
 405.37500189990
  21
 389.25000000000
  31
0.0
   0
LINE
   5
1F0
 100
AcDbEntity
   8
LEVEL001
 100
AcDbLine
   6
CONTINUOUS
  62
3
  10
 402.62500189990
  20
 389.75000000000
  30
0.0
  11
 405.37500189990
  21
 389.75000000000
  31
0.0
   0
LINE
   5
1F1
 100
AcDbEntity
   8
LEVEL001
 100
AcDbLine
   6
CONTINUOUS
  62
3
  10
 402.62500189990
  20
 390.25000000000
  30
0.0
  11
 405.37500189990
  21
 390.25000000000
  31
0.0
   0
LINE
   5
1F2
 100
AcDbEntity
   8
LEVEL001
 100
AcDbLine
   6
CONTINUOUS
  62
3
  10
 402.62500189990
  20
 390.75000000000
  30
0.0
  11
 405.37500189990
  21
 390.75000000000
  31
0.0
   0
LINE
   5
1F3
 100
AcDbEntity
   8
LEVEL001
 100
AcDbLine
   6
CONTINUOUS
  62
3
  10
 402.62500189990
  20
 391.25000000000
  30
0.0
  11
 405.37500189990
  21
 391.25000000000
  31
0.0
   0
LINE
   5
1F4
 100
AcDbEntity
   8
LEVEL001
 100
AcDbLine
   6
CONTINUOUS
  62
3
  10
 402.62500189990
  20
 391.75000000000
  30
0.0
  11
 405.37500189990
  21
 391.75000000000
  31
0.0
   0
LINE
   5
1F5
 100
AcDbEntity
   8
LEVEL001
 100
AcDbLine
   6
CONTINUOUS
  62
3
  10
 402.62500189990
  20
 392.25000000000
  30
0.0
  11
 405.37500189990
  21
 392.25000000000
  31
0.0
   0
LINE
   5
1F6
 100
AcDbEntity
   8
LEVEL001
 100
AcDbLine
   6
CONTINUOUS
  62
3
  10
 402.62500189990
  20
 392.75000000000
  30
0.0
  11
 405.37500189990
  21
 392.75000000000
  31
0.0
   0
LINE
   5
1F7
 100
AcDbEntity
   8
LEVEL001
 100
AcDbLine
   6
CONTINUOUS
  62
3
  10
 402.62500189990
  20
 393.25000000000
  30
0.0
  11
 405.37500189990
  21
 393.25000000000
  31
0.0
   0
LINE
   5
1F8
 100
AcDbEntity
   8
LEVEL001
 100
AcDbLine
   6
CONTINUOUS
  62
7
  10
 395.75000189990
  20
 392.12962722778
  30
0.0
  11
 394.25000189990
  21
 392.08274841309
  31
0.0
   0
LINE
   5
1F9
 100
AcDbEntity
   8
LEVEL001
 100
AcDbLine
   6
CONTINUOUS
  62
3
  10
 395.75000189990
  20
 391.91562652588
  30
0.0
  11
 394.25000189990
  21
 391.86875152588
  31
0.0
   0
LINE
   5
1FA
 100
AcDbEntity
   8
LEVEL001
 100
AcDbLine
   6
CONTINUOUS
  62
3
  10
 395.74873542041
  20
 388.08441162109
  30
0.0
  11
 394.25000189990
  21
 388.13124847412
  31
0.0
   0
LINE
   5
1FB
 100
AcDbEntity
   8
LEVEL001
 100
AcDbLine
   6
CONTINUOUS
  62
7
  10
 395.75000189990
  20
 387.87037277222
  30
0.0
  11
 394.25000189990
  21
 387.91725158691
  31
0.0
   0
LINE
   5
1FC
 100
AcDbEntity
   8
LEVEL001
 100
AcDbLine
   6
DASHDOT
  62
1
  10
 409.50000189990
  20
 390.50000000000
  30
0.0
  11
 411.00000189990
  21
 390.50000000000
  31
0.0
   0
LINE
   5
1FD
 100
AcDbEntity
   8
LEVEL001
 100
AcDbLine
   6
DASHDOT
  62
1
  10
 411.00000189990
  20
 390.50000000000
  30
0.0
  11
 411.00000189990
  21
 389.50000000000
  31
0.0
   0
LINE
   5
1FE
 100
AcDbEntity
   8
LEVEL001
 100
AcDbLine
   6
DASHDOT
  62
1
  10
 411.00000189990
  20
 389.50000000000
  30
0.0
  11
 409.50000189990
  21
 389.50000000000
  31
0.0
   0
LINE
   5
1FF
 100
AcDbEntity
   8
LEVEL001
 100
AcDbLine
   6
CONTINUOUS
  62
7
  10
 395.75000189990
  20
 392.12962722778
  30
0.0
  11
 395.75000189990
  21
 391.87500000000
  31
0.0
   0
LINE
   5
200
 100
AcDbEntity
   8
LEVEL001
 100
AcDbLine
   6
CONTINUOUS
  62
7
  10
 395.75000189990
  20
 391.87500000000
  30
0.0
  11
 399.25000189990
  21
 391.87500000000
  31
0.0
   0
LINE
   5
201
 100
AcDbEntity
   8
LEVEL001
 100
AcDbLine
   6
CONTINUOUS
  62
7
  10
 399.25000189990
  20
 391.87500000000
  30
0.0
  11
 399.25000189990
  21
 392.37500000000
  31
0.0
   0
LINE
   5
202
 100
AcDbEntity
   8
LEVEL001
 100
AcDbLine
   6
CONTINUOUS
  62
7
  10
 399.25000189990
  20
 392.37500000000
  30
0.0
  11
 401.00000189990
  21
 392.37500000000
  31
0.0
   0
LINE
   5
203
 100
AcDbEntity
   8
LEVEL001
 100
AcDbLine
   6
CONTINUOUS
  62
7
  10
 395.75000189990
  20
 387.87037277222
  30
0.0
  11
 395.75000189990
  21
 388.12500000000
  31
0.0
   0
LINE
   5
204
 100
AcDbEntity
   8
LEVEL001
 100
AcDbLine
   6
CONTINUOUS
  62
7
  10
 395.75000189990
  20
 388.12500000000
  30
0.0
  11
 399.25000189990
  21
 388.12500000000
  31
0.0
   0
LINE
   5
205
 100
AcDbEntity
   8
LEVEL001
 100
AcDbLine
   6
CONTINUOUS
  62
7
  10
 399.25000189990
  20
 388.12500000000
  30
0.0
  11
 399.25000189990
  21
 387.62500000000
  31
0.0
   0
LINE
   5
206
 100
AcDbEntity
   8
LEVEL001
 100
AcDbLine
   6
CONTINUOUS
  62
7
  10
 399.25000189990
  20
 387.62500000000
  30
0.0
  11
 401.00000189990
  21
 387.62500000000
  31
0.0
   0
LINE
   5
207
 100
AcDbEntity
   8
LEVEL001
 100
AcDbLine
   6
CONTINUOUS
  62
7
  10
 402.62500189990
  20
 386.25000000000
  30
0.0
  11
 402.62500189990
  21
 393.75000000000
  31
0.0
   0
LINE
   5
208
 100
AcDbEntity
   8
LEVEL001
 100
AcDbLine
   6
CONTINUOUS
  62
7
  10
 402.62500189990
  20
 393.75000000000
  30
0.0
  11
 405.37500189990
  21
 393.75000000000
  31
0.0
   0
LINE
   5
209
 100
AcDbEntity
   8
LEVEL001
 100
AcDbLine
   6
CONTINUOUS
  62
7
  10
 405.37500189990
  20
 393.75000000000
  30
0.0
  11
 405.37500189990
  21
 386.25000000000
  31
0.0
   0
LINE
   5
20A
 100
AcDbEntity
   8
LEVEL001
 100
AcDbLine
   6
CONTINUOUS
  62
7
  10
 405.37500189990
  20
 386.25000000000
  30
0.0
  11
 402.62500189990
  21
 386.25000000000
  31
0.0
   0
TEXT
   5
20B
 100
AcDbEntity
   8
LEVEL003
  62
3
 100
AcDbText
  10
 395.45568067652
  20
 360.00001072884
  30
0.0
  40
 5.9999998211861
   1
Ａ　矢視
   7
STANDARD
 100
AcDbText
   0
TEXT
   5
20C
 100
AcDbEntity
   8
LEVEL003
  62
3
 100
AcDbText
  10
 387.95567307692
  20
 352.50000022352
  30
0.0
  40
 5.9999998211861
   1
（ＳＣＡＬＬ　１／６）
  41
 0.75000000000000
   7
STANDARD
 100
AcDbText
   0
LINE
   5
20D
 100
AcDbEntity
   8
LEVEL003
 100
AcDbLine
   6
CONTINUOUS
  62
3
  10
 390.00000000000
  20
 360.00000000000
  30
0.0
  11
 434.99999865890
  21
 360.00000000000
  31
0.0
   0
DIMENSION
   5
20E
 100
AcDbEntity
   8
LEVEL003
   6
CONTINUOUS
  62
3
 100
AcDbDimension
   2
*D10
  10
 225.00000000000
  20
 284.99999150634
  30
0.0
  11
 225.00000000000
  21
 307.49999083579
  31
0.0
  70
128
   1
\A1;45
   3
GMM007
 100
AcDbAlignedDimension
  13
 252.50000907481
  23
 329.99999016523
  33
0.0
  14
 251.00000911951
  24
 284.99999150634
  34
0.0
  50
 270.00000000000
 100
AcDbRotatedDimension
   0
LINE
   5
210
 100
AcDbEntity
   8
LEVEL001
 100
AcDbLine
   6
DOT
  62
3
  10
 251.50000147521
  20
 299.99999105930
  30
0.0
  11
 252.50000907481
  21
 300.99999865890
  31
0.0
   0
LINE
   5
211
 100
AcDbEntity
   8
LEVEL001
 100
AcDbLine
   6
DOT
  62
3
  10
 252.50000907481
  20
 300.99999865890
  30
0.0
  11
 252.50000907481
  21
 326.99999025464
  31
0.0
   0
ARC
   5
212
 100
AcDbEntity
   8
LEVEL001
   6
DOT
  62
3
 100
AcDbCircle
  10
 252.50000147518
  20
 327.99999025461
  30
0.0
  40
 1.0000000000000
 100
AcDbArc
  50
 179.99956457380
  51
 270.00043542654
   0
ARC
   5
213
 100
AcDbEntity
   8
LEVEL001
   6
DOT
  62
3
 100
AcDbCircle
  10
 252.50000147510
  20
 328.99999016527
  30
0.0
  40
 1.0000000000000
 100
AcDbArc
  50
 89.999564568757
  51
 179.99912403034
   0
LINE
   5
214
 100
AcDbEntity
   8
LEVEL001
 100
AcDbLine
   6
DOT
  62
3
  10
 251.50000147521
  20
 327.99999785423
  30
0.0
  11
 251.50000147521
  21
 329.00000545382
  31
0.0
   0
ARC
   5
215
 100
AcDbEntity
   8
LEVEL001
   6
DOT
  62
3
 100
AcDbCircle
  10
 237.78075924031
  20
 300.99999105912
  30
0.0
  40
 1.0000000000000
 100
AcDbArc
  50
 194.03641175712
  51
 270.00112421800
   0
LINE
   5
216
 100
AcDbEntity
   8
LEVEL001
 100
AcDbLine
   6
DOT
  62
3
  10
 252.50000907481
  20
 329.99999016523
  30
0.0
  11
 252.50000907481
  21
 326.99999025464
  31
0.0
   0
LINE
   5
217
 100
AcDbEntity
   8
LEVEL001
 100
AcDbLine
   6
DOT
  62
3
  10
 252.50000907481
  20
 300.99999865890
  30
0.0
  11
 252.50000907481
  21
 284.99999150634
  31
0.0
   0
LINE
   5
218
 100
AcDbEntity
   8
LEVEL001
 100
AcDbLine
   6
DOT
  62
3
  10
 252.50000907481
  20
 284.99999150634
  30
0.0
  11
 251.50000147521
  21
 284.99999150634
  31
0.0
   0
LINE
   5
219
 100
AcDbEntity
   8
LEVEL001
 100
AcDbLine
   6
DOT
  62
3
  10
 252.50000907481
  20
 284.99999150634
  30
0.0
  11
 251.00000911951
  21
 281.26793595350
  31
0.0
   0
LINE
   5
21A
 100
AcDbEntity
   8
LEVEL001
 100
AcDbLine
   6
DOT
  62
3
  10
 251.50000147521
  20
 299.99999105930
  30
0.0
  11
 251.50000147521
  21
 284.99999150634
  31
0.0
   0
LINE
   5
21B
 100
AcDbEntity
   8
LEVEL001
 100
AcDbLine
   6
DOT
  62
3
  10
 252.50000907481
  20
 329.99999016523
  30
0.0
  11
 251.50000147521
  21
 329.00000545382
  31
0.0
   0
LINE
   5
21C
 100
AcDbEntity
   8
LEVEL001
 100
AcDbLine
   6
DOT
  62
3
  10
 251.50000147521
  20
 329.00000545382
  30
0.0
  11
 251.50000147521
  21
 299.99999105930
  31
0.0
   0
LINE
   5
21D
 100
AcDbEntity
   8
LEVEL001
 100
AcDbLine
   6
DOT
  62
3
  10
 251.50000147521
  20
 284.99999150634
  30
0.0
  11
 251.00000911951
  21
 284.99999150634
  31
0.0
   0
LINE
   5
21E
 100
AcDbEntity
   8
LEVEL001
 100
AcDbLine
   6
DOT
  62
3
  10
 237.78077886162
  20
 299.99999105930
  30
0.0
  11
 251.50000147521
  21
 299.99999105930
  31
0.0
   0
ARC
   5
21F
 100
AcDbEntity
   8
LEVEL001
   6
DOT
  62
3
 100
AcDbCircle
  10
 236.81979973638
  20
 343.99998971838
  30
0.0
  40
 1.0000000000000
 100
AcDbArc
  50
 89.998924804783
  51
 168.68976927022
   0
LINE
   5
220
 100
AcDbEntity
   8
LEVEL001
 100
AcDbLine
   6
DOT
  62
3
  10
 236.81061745254
  20
 300.75745258458
  30
0.0
  11
 235.00000196695
  21
 307.99998319149
  31
0.0
   0
LINE
   5
221
 100
AcDbEntity
   8
LEVEL001
 100
AcDbLine
   6
DOT
  62
3
  10
 235.00000196695
  20
 307.99998319149
  30
0.0
  11
 235.00000196695
  21
 339.99999749660
  31
0.0
   0
LINE
   5
222
 100
AcDbEntity
   8
LEVEL001
 100
AcDbLine
   6
DOT
  62
3
  10
 235.00000196695
  20
 339.99999749660
  30
0.0
  11
 235.83922008159
  21
 344.19611095798
  31
0.0
   0
LINE
   5
223
 100
AcDbEntity
   8
LEVEL001
 100
AcDbLine
   6
DOT
  62
3
  10
 236.00000956655
  20
 215.49997831881
  30
0.0
  11
 235.00000196695
  21
 210.49996320903
  31
0.0
   0
LINE
   5
224
 100
AcDbEntity
   8
LEVEL001
 100
AcDbLine
   6
DOT
  62
3
  10
 235.00000196695
  20
 210.49996320903
  30
0.0
  11
 235.00000196695
  21
 70.499997898936
  31
0.0
   0
LINE
   5
225
 100
AcDbEntity
   8
LEVEL001
 100
AcDbLine
   6
DOT
  62
3
  10
 235.00000196695
  20
 70.499997898936
  30
0.0
  11
 235.83924296977
  21
 66.303861549382
  31
0.0
   0
LINE
   5
226
 100
AcDbEntity
   8
LEVEL001
 100
AcDbLine
   6
DOT
  62
3
  10
 236.00000956655
  20
 215.49997831881
  30
0.0
  11
 248.99999392033
  21
 215.49997831881
  31
0.0
   0
LINE
   5
227
 100
AcDbEntity
   8
LEVEL001
 100
AcDbLine
   6
DOT
  62
3
  10
 248.99999392033
  20
 215.49997831881
  30
0.0
  11
 250.00000151992
  21
 210.49996320903
  31
0.0
   0
LINE
   5
228
 100
AcDbEntity
   8
LEVEL001
 100
AcDbLine
   6
DOT
  62
3
  10
 250.00000151992
  20
 210.49996320903
  30
0.0
  11
 250.00000151992
  21
 79.999967098237
  31
0.0
   0
LINE
   5
229
 100
AcDbEntity
   8
LEVEL001
 100
AcDbLine
   6
DOT
  62
3
  10
 251.00000911951
  20
 284.99999150634
  30
0.0
  11
 251.00000911951
  21
 215.49997831881
  31
0.0
   0
LINE
   5
22A
 100
AcDbEntity
   8
LEVEL001
 100
AcDbLine
   6
DOT
  62
3
  10
 280.00000062585
  20
 100.49999700487
  30
0.0
  11
 280.00000062585
  21
 206.99999383092
  31
0.0
   0
LINE
   5
22B
 100
AcDbEntity
   8
LEVEL001
 100
AcDbLine
   6
DOT
  62
3
  10
 263.00000876188
  20
 324.99999794364
  30
0.0
  11
 263.00000876188
  21
 140.99999579787
  31
0.0
   0
LINE
   5
22C
 100
AcDbEntity
   8
LEVEL001
 100
AcDbLine
   6
CONTINUOUS
  62
7
  10
 194.99999552965
  20
 329.99999016523
  30
0.0
  11
 261.85965082468
  21
 329.99999016523
  31
0.0
   0
TEXT
   5
22D
 100
AcDbEntity
   8
LEVEL003
  62
3
 100
AcDbText
  10
 285.00000000000
  20
 360.00000000000
  30
0.0
  40
 6.0000000000000
   1
Ｍ１１５×２
   7
STANDARD
 100
AcDbText
   0
ARC
   5
22E
 100
AcDbEntity
   8
LEVEL001
   6
CONTINUOUS
  62
7
 100
AcDbCircle
  10
 194.99999749671
  20
 202.99997296681
  30
0.0
  40
 27.500000134110
 100
AcDbArc
  50
 112.67191038171
  51
 270.00000623600
   0
ARC
   5
22F
 100
AcDbEntity
   8
LEVEL001
   6
DASHDOT
  62
1
 100
AcDbCircle
  10
 194.99999711116
  20
 202.99997773768
  30
0.0
  40
 32.000000000000
 100
AcDbArc
  50
 90.000002831679
  51
 270.00000283168
   0
LINE
   5
230
 100
AcDbEntity
   8
LEVEL001
 100
AcDbLine
   6
CONTINUOUS
  62
7
  10
 195.00000447035
  20
 326.99999025464
  30
0.0
  11
 263.00001770258
  21
 326.99999025464
  31
0.0
   0
LINE
   5
231
 100
AcDbEntity
   8
LEVEL001
 100
AcDbLine
   6
CONTINUOUS
  62
7
  10
 263.00001770258
  20
 326.99999025464
  30
0.0
  11
 263.00001770258
  21
 324.99999794364
  31
0.0
   0
LINE
   5
232
 100
AcDbEntity
   8
LEVEL001
 100
AcDbLine
   6
CONTINUOUS
  62
7
  10
 261.00000250340
  20
 344.00000500679
  30
0.0
  11
 195.00000447035
  21
 344.00000500679
  31
0.0
   0
LINE
   5
233
 100
AcDbEntity
   8
LEVEL001
 100
AcDbLine
   6
CONTINUOUS
  62
7
  10
 302.00001654029
  20
 322.99998274446
  30
0.0
  11
 195.00000447035
  21
 322.99998274446
  31
0.0
   0
LINE
   5
234
 100
AcDbEntity
   8
LEVEL001
 100
AcDbLine
   6
DOT
  62
3
  10
 138.49999852479
  20
 299.99999105930
  30
0.0
  11
 137.49999092519
  21
 300.99999865890
  31
0.0
   0
LINE
   5
235
 100
AcDbEntity
   8
LEVEL001
 100
AcDbLine
   6
DOT
  62
3
  10
 137.49999092519
  20
 300.99999865890
  30
0.0
  11
 137.49999092519
  21
 326.99999025464
  31
0.0
   0
ARC
   5
236
 100
AcDbEntity
   8
LEVEL001
   6
DOT
  62
3
 100
AcDbCircle
  10
 152.21924075969
  20
 300.99999105911
  30
0.0
  40
 1.0000000000000
 100
AcDbArc
  50
 269.99887578187
  51
 345.96358824331
   0
LINE
   5
237
 100
AcDbEntity
   8
LEVEL001
 100
AcDbLine
   6
DOT
  62
3
  10
 137.49999092519
  20
 300.99999865890
  30
0.0
  11
 137.49999092519
  21
 284.99999150634
  31
0.0
   0
LINE
   5
238
 100
AcDbEntity
   8
LEVEL001
 100
AcDbLine
   6
DOT
  62
3
  10
 137.49999092519
  20
 284.99999150634
  30
0.0
  11
 138.49999852479
  21
 284.99999150634
  31
0.0
   0
LINE
   5
239
 100
AcDbEntity
   8
LEVEL001
 100
AcDbLine
   6
DOT
  62
3
  10
 138.49999852479
  20
 299.99999105930
  30
0.0
  11
 138.49999852479
  21
 284.99999150634
  31
0.0
   0
LINE
   5
23A
 100
AcDbEntity
   8
LEVEL001
 100
AcDbLine
   6
DOT
  62
3
  10
 137.49999092519
  20
 329.99999016523
  30
0.0
  11
 138.49999852479
  21
 329.00000545382
  31
0.0
   0
LINE
   5
23B
 100
AcDbEntity
   8
LEVEL001
 100
AcDbLine
   6
DOT
  62
3
  10
 138.49999852479
  20
 329.00000545382
  30
0.0
  11
 138.49999852479
  21
 299.99999105930
  31
0.0
   0
LINE
   5
23C
 100
AcDbEntity
   8
LEVEL001
 100
AcDbLine
   6
DOT
  62
3
  10
 152.21922113838
  20
 299.99999105930
  30
0.0
  11
 138.49999852479
  21
 299.99999105930
  31
0.0
   0
LINE
   5
23D
 100
AcDbEntity
   8
LEVEL001
 100
AcDbLine
   6
DOT
  62
3
  10
 153.18938254746
  20
 300.75745258458
  30
0.0
  11
 154.99999803305
  21
 307.99998319149
  31
0.0
   0
LINE
   5
23E
 100
AcDbEntity
   8
LEVEL001
 100
AcDbLine
   6
DOT
  62
3
  10
 154.99999803305
  20
 307.99998319149
  30
0.0
  11
 154.99999803305
  21
 339.99999749660
  31
0.0
   0
LINE
   5
23F
 100
AcDbEntity
   8
LEVEL001
 100
AcDbLine
   6
DOT
  62
3
  10
 154.99999803305
  20
 339.99999749660
  30
0.0
  11
 154.16077991841
  21
 344.19611095798
  31
0.0
   0
LINE
   5
240
 100
AcDbEntity
   8
LEVEL001
 100
AcDbLine
   6
DOT
  62
3
  10
 126.99999123812
  20
 324.99999794364
  30
0.0
  11
 126.99999123812
  21
 140.99999579787
  31
0.0
   0
LINE
   5
241
 100
AcDbEntity
   8
LEVEL001
 100
AcDbLine
   6
DOT
  62
3
  10
 137.49999092519
  20
 284.99999150634
  30
0.0
  11
 138.99999088049
  21
 281.26793595350
  31
0.0
   0
LINE
   5
242
 100
AcDbEntity
   8
LEVEL001
 100
AcDbLine
   6
DOT
  62
3
  10
 138.49999852479
  20
 284.99999150634
  30
0.0
  11
 138.99999088049
  21
 284.99999150634
  31
0.0
   0
LINE
   5
243
 100
AcDbEntity
   8
LEVEL001
 100
AcDbLine
   6
DOT
  62
3
  10
 138.99999088049
  20
 284.99999150634
  30
0.0
  11
 138.99999088049
  21
 215.49997831881
  31
0.0
   0
ARC
   5
244
 100
AcDbEntity
   8
LEVEL001
   6
DOT
  62
3
 100
AcDbCircle
  10
 137.49999852482
  20
 327.99999025462
  30
0.0
  40
 1.0000000000000
 100
AcDbArc
  50
 269.99956457370
  51
 0.43542582326505E-3
   0
ARC
   5
245
 100
AcDbEntity
   8
LEVEL001
   6
DOT
  62
3
 100
AcDbCircle
  10
 137.49999852490
  20
 328.99999016527
  30
0.0
  40
 1.0000000000000
 100
AcDbArc
  50
 0.87596966365404E-3
  51
 90.000435431350
   0
LINE
   5
246
 100
AcDbEntity
   8
LEVEL001
 100
AcDbLine
   6
DOT
  62
3
  10
 138.49999852479
  20
 327.99999785423
  30
0.0
  11
 138.49999852479
  21
 329.00000545382
  31
0.0
   0
LINE
   5
247
 100
AcDbEntity
   8
LEVEL001
 100
AcDbLine
   6
DOT
  62
3
  10
 137.49999092519
  20
 329.99999016523
  30
0.0
  11
 137.49999092519
  21
 326.99999025464
  31
0.0
   0
ARC
   5
248
 100
AcDbEntity
   8
LEVEL001
   6
DOT
  62
3
 100
AcDbCircle
  10
 153.18020026362
  20
 343.99998971838
  30
0.0
  40
 1.0000000000000
 100
AcDbArc
  50
 11.310230730254
  51
 90.001075195152
   0
LINE
   5
249
 100
AcDbEntity
   8
LEVEL001
 100
AcDbLine
   6
DOT
  62
3
  10
 153.99999043345
  20
 215.49997831881
  30
0.0
  11
 154.99999803305
  21
 210.49996320903
  31
0.0
   0
LINE
   5
24A
 100
AcDbEntity
   8
LEVEL001
 100
AcDbLine
   6
DOT
  62
3
  10
 154.99999803305
  20
 210.49996320903
  30
0.0
  11
 154.99999803305
  21
 70.499997898936
  31
0.0
   0
LINE
   5
24B
 100
AcDbEntity
   8
LEVEL001
 100
AcDbLine
   6
DOT
  62
3
  10
 154.99999803305
  20
 70.499997898936
  30
0.0
  11
 154.16075703023
  21
 66.303861549382
  31
0.0
   0
LINE
   5
24C
 100
AcDbEntity
   8
LEVEL001
 100
AcDbLine
   6
DOT
  62
3
  10
 153.99999043345
  20
 215.49997831881
  30
0.0
  11
 141.00000607967
  21
 215.49997831881
  31
0.0
   0
LINE
   5
24D
 100
AcDbEntity
   8
LEVEL001
 100
AcDbLine
   6
DOT
  62
3
  10
 141.00000607967
  20
 215.49997831881
  30
0.0
  11
 139.99999848008
  21
 210.49996320903
  31
0.0
   0
LINE
   5
24E
 100
AcDbEntity
   8
LEVEL001
 100
AcDbLine
   6
DOT
  62
3
  10
 139.99999848008
  20
 210.49996320903
  30
0.0
  11
 139.99999848008
  21
 79.999967098237
  31
0.0
   0
LINE
   5
24F
 100
AcDbEntity
   8
LEVEL001
 100
AcDbLine
   6
DOT
  62
3
  10
 109.99999937415
  20
 100.49999700487
  30
0.0
  11
 109.99999937415
  21
 206.99999383092
  31
0.0
   0
ARC
   5
250
 100
AcDbEntity
   8
LEVEL001
   6
CONTINUOUS
  62
7
 100
AcDbCircle
  10
 194.99993444402
  20
 202.99999490374
  30
0.0
  40
 36.499999865890
 100
AcDbArc
  50
 270.00010992365
  51
 70.352689987331
   0
ARC
   5
251
 100
AcDbEntity
   8
LEVEL001
   6
CONTINUOUS
  62
7
 100
AcDbCircle
  10
 195.00000250329
  20
 202.99997296681
  30
0.0
  40
 27.500000134110
 100
AcDbArc
  50
 269.99999376400
  51
 67.328089618290
   0
ARC
   5
252
 100
AcDbEntity
   8
LEVEL001
   6
DASHDOT
  62
1
 100
AcDbCircle
  10
 195.00000288884
  20
 202.99997773768
  30
0.0
  40
 32.000000000000
 100
AcDbArc
  50
 269.99999716832
  51
 89.999997168320
   0
ARC
   5
253
 100
AcDbEntity
   8
LEVEL001
   6
CONTINUOUS
  62
7
 100
AcDbCircle
  10
 195.01465290560
  20
 234.99997773767
  30
0.0
  40
 12.500000581145
 100
AcDbArc
  50
 269.93285650644
  51
 90.067143493556
   0
ARC
   5
254
 100
AcDbEntity
   8
LEVEL001
   6
CONTINUOUS
  62
7
 100
AcDbCircle
  10
 195.00000447035
  20
 234.99997773767
  30
0.0
  40
 11.500007286668
 100
AcDbArc
  50
 270.00000000000
  51
 90.000000000000
   0
LINE
   5
255
 100
AcDbEntity
   8
LEVEL001
 100
AcDbLine
   6
CONTINUOUS
  62
7
  10
 302.00001654029
  20
 66.999982744456
  30
0.0
  11
 195.00000447035
  21
 66.999982744456
  31
0.0
   0
LINE
   5
256
 100
AcDbEntity
   8
LEVEL001
 100
AcDbLine
   6
CONTINUOUS
  62
7
  10
 302.00000759959
  20
 66.999982744456
  30
0.0
  11
 300.00001528859
  21
 64.999967545272
  31
0.0
   0
LINE
   5
257
 100
AcDbEntity
   8
LEVEL001
 100
AcDbLine
   6
CONTINUOUS
  62
7
  10
 300.00001528859
  20
 64.999967545272
  30
0.0
  11
 194.99999552965
  21
 64.999967545272
  31
0.0
   0
LINE
   5
258
 100
AcDbEntity
   8
LEVEL001
 100
AcDbLine
   6
CONTINUOUS
  62
7
  10
 194.99999552965
  20
 64.999967545272
  30
0.0
  11
 89.999975770713
  21
 64.999967545272
  31
0.0
   0
LINE
   5
259
 100
AcDbEntity
   8
LEVEL001
 100
AcDbLine
   6
CONTINUOUS
  62
7
  10
 89.999975770713
  20
 64.999967545272
  30
0.0
  11
 87.999983459712
  21
 66.999982744456
  31
0.0
   0
LINE
   5
25A
 100
AcDbEntity
   8
LEVEL001
 100
AcDbLine
   6
CONTINUOUS
  62
7
  10
 87.999983459712
  20
 66.999982744456
  30
0.0
  11
 87.999983459712
  21
 322.99998274446
  31
0.0
   0
LINE
   5
25B
 100
AcDbEntity
   8
LEVEL001
 100
AcDbLine
   6
CONTINUOUS
  62
7
  10
 87.999983459712
  20
 322.99998274446
  30
0.0
  11
 89.999975770713
  21
 324.99999794364
  31
0.0
   0
LINE
   5
25C
 100
AcDbEntity
   8
LEVEL001
 100
AcDbLine
   6
CONTINUOUS
  62
7
  10
 89.999975770713
  20
 324.99999794364
  30
0.0
  11
 194.99999552965
  21
 324.99999794364
  31
0.0
   0
LINE
   5
25D
 100
AcDbEntity
   8
LEVEL001
 100
AcDbLine
   6
CONTINUOUS
  62
7
  10
 302.00000759959
  20
 66.999982744456
  30
0.0
  11
 302.00000759959
  21
 322.99998274446
  31
0.0
   0
LINE
   5
25E
 100
AcDbEntity
   8
LEVEL001
 100
AcDbLine
   6
CONTINUOUS
  62
7
  10
 302.00000759959
  20
 322.99998274446
  30
0.0
  11
 300.00001528859
  21
 324.99999794364
  31
0.0
   0
LINE
   5
25F
 100
AcDbEntity
   8
LEVEL001
 100
AcDbLine
   6
CONTINUOUS
  62
7
  10
 300.00001528859
  20
 324.99999794364
  30
0.0
  11
 195.00000000000
  21
 324.99999794364
  31
0.0
   0
LINE
   5
260
 100
AcDbEntity
   8
LEVEL001
 100
AcDbLine
   6
CONTINUOUS
  62
7
  10
 312.00000809117
  20
 83.356473559609
  30
0.0
  11
 302.00000759959
  21
 83.668979007377
  31
0.0
   0
LINE
   5
261
 100
AcDbEntity
   8
LEVEL001
 100
AcDbLine
   6
CONTINUOUS
  62
7
  10
 302.00000759959
  20
 100.33095447384
  30
0.0
  11
 312.00000809117
  21
 100.64345992161
  31
0.0
   0
LINE
   5
262
 100
AcDbEntity
   8
LEVEL001
 100
AcDbLine
   6
CONTINUOUS
  62
3
  10
 308.38367459178
  20
 99.674466252328
  30
0.0
  11
 302.00000759959
  21
 99.474957585336
  31
0.0
   0
LINE
   5
263
 100
AcDbEntity
   8
LEVEL001
 100
AcDbLine
   6
CONTINUOUS
  62
3
  10
 308.38367459178
  20
 84.325467228890
  30
0.0
  11
 302.00000759959
  21
 84.524960637094
  31
0.0
   0
LEADER
   5
264
 100
AcDbEntity
   8
LEVEL003
   6
CONTINUOUS
  62
3
 100
AcDbLeader
   3
GMM008
  73
0
  74
1
  75
0
  40
 6.0000000000000
  41
0.0
  76
3
  10
 252.50000907481
  20
 307.50000000000
  30
0.0
  10
 285.00000000000
  20
 360.00000000000
  30
0.0
  10
 322.50000000000
  20
 360.00000000000
  30
0.0
  77
3
   0
DIMENSION
   5
265
 100
AcDbEntity
   8
LEVEL003
   6
CONTINUOUS
  62
3
 100
AcDbDimension
   2
*D12
  10
 235.00000196695
  20
 45.000000000000
  30
0.0
  11
 195.00000000000
  21
 45.000000000000
  31
0.0
  70
0
   1
\A1;%%c80
   3
GMM009
 100
AcDbAlignedDimension
  13
 154.99999803305
  23
 70.499997898936
  33
0.0
  14
 235.00000196695
  24
 70.499997898936
  34
0.0
 100
AcDbRotatedDimension
   0
LINE
   5
267
 100
AcDbEntity
   8
LEVEL003
 100
AcDbLine
   6
CONTINUOUS
  62
3
  10
 104.99999821186
  20
 60.499967634679
  30
0.0
  11
 104.99999821186
  21
 27.000000000000
  31
0.0
   0
LINE
   5
268
 100
AcDbEntity
   8
LEVEL003
 100
AcDbLine
   6
CONTINUOUS
  62
3
  10
 104.99999821186
  20
 30.000000000000
  30
0.0
  11
 195.00000000000
  21
 30.000000000000
  31
0.0
   0
LINE
   5
269
 100
AcDbEntity
   8
LEVEL003
 100
AcDbLine
   6
CONTINUOUS
  62
3
  10
 109.49999821186
  20
 29.250000000000
  30
0.0
  11
 104.99999821186
  21
 30.000000000000
  31
0.0
   0
LINE
   5
26A
 100
AcDbEntity
   8
LEVEL003
 100
AcDbLine
   6
CONTINUOUS
  62
3
  10
 104.99999821186
  20
 30.000000000000
  30
0.0
  11
 109.49999821186
  21
 30.750000000000
  31
0.0
   0
LINE
   5
26B
 100
AcDbEntity
   8
LEVEL003
 100
AcDbLine
   6
CONTINUOUS
  62
3
  10
 104.99999821186
  20
 30.000000000000
  30
0.0
  11
 109.49999821186
  21
 30.000000000000
  31
0.0
   0
MTEXT
   5
26C
 100
AcDbEntity
   8
LEVEL003
  62
3
 100
AcDbMText
  10
 195.00000000000
  20
 31.200000000000
  30
0.0
  40
 6.0000000000000
  41
0.0
  71
7
  72
1
   1
%%c\Ftxt.shx;180
   7
GMM002
   0
DIMENSION
   5
26D
 100
AcDbEntity
   8
LEVEL003
   6
CONTINUOUS
  62
3
 100
AcDbDimension
   2
*D13
  10
 235.00000196695
  20
 360.00000000000
  30
0.0
  11
 195.00000000000
  21
 360.00000000000
  31
0.0
  70
0
   1
\A1;%%c80
   3
GMM009
 100
AcDbAlignedDimension
  13
 154.99999803305
  23
 339.99999749660
  33
0.0
  14
 235.00000196695
  24
 339.99999749660
  34
0.0
 100
AcDbRotatedDimension
   0
DIMENSION
   5
26F
 100
AcDbEntity
   8
LEVEL003
   6
CONTINUOUS
  62
3
 100
AcDbDimension
   2
*D14
  10
 302.00000759959
  20
 112.49999575317
  30
0.0
  11
 194.99999552965
  21
 112.49999575317
  31
0.0
  70
128
   1
\A1;%%c214
   3
GMM010
 100
AcDbAlignedDimension
  13
 87.999983459712
  23
 112.49999575317
  33
0.0
  14
 302.00000759959
  24
 112.49999575317
  34
0.0
 100
AcDbRotatedDimension
   0
DIMENSION
   5
271
 100
AcDbEntity
   8
LEVEL003
   6
CONTINUOUS
  62
3
 100
AcDbDimension
   2
*D15
  10
 280.00000062585
  20
 127.50000000000
  30
0.0
  11
 195.00000000000
  21
 127.50000000000
  31
0.0
  70
0
   1
\A1;%%c170
   3
GMM011
 100
AcDbAlignedDimension
  13
 109.99999937415
  23
 127.50000000000
  33
0.0
  14
 280.00000062585
  24
 127.50000000000
  34
0.0
 100
AcDbRotatedDimension
   0
DIMENSION
   5
273
 100
AcDbEntity
   8
LEVEL003
   6
CONTINUOUS
  62
3
 100
AcDbDimension
   2
*D16
  10
 126.99999123812
  20
 142.50000000000
  30
0.0
  11
 195.00000000000
  21
 142.50000000000
  31
0.0
  70
0
   1
\A1;%%c136
   3
GMM011
 100
AcDbAlignedDimension
  13
 263.00000876188
  23
 142.50000000000
  33
0.0
  14
 126.99999123812
  24
 142.50000000000
  34
0.0
  50
 180.00000000000
 100
AcDbRotatedDimension
   0
DIMENSION
   5
275
 100
AcDbEntity
   8
LEVEL003
   6
CONTINUOUS
  62
3
 100
AcDbDimension
   2
*D17
  10
 250.00000151992
  20
 157.50000000000
  30
0.0
  11
 195.00000000000
  21
 157.50000000000
  31
0.0
  70
0
   1
\A1;%%c110
   3
GMM011
 100
AcDbAlignedDimension
  13
 139.99999848008
  23
 157.50000000000
  33
0.0
  14
 250.00000151992
  24
 157.50000000000
  34
0.0
 100
AcDbRotatedDimension
   0
LINE
   5
277
 100
AcDbEntity
   8
LEVEL001
 100
AcDbLine
   6
DASHDOT
  62
1
  10
 194.99999552965
  20
 112.50000000000
  30
0.0
  11
 194.99999552965
  21
 52.499998435378
  31
0.0
   0
LINE
   5
278
 100
AcDbEntity
   8
LEVEL001
 100
AcDbLine
   6
DASHDOT
  62
1
  10
 194.99999552965
  20
 352.49998949468
  30
0.0
  11
 194.99999552965
  21
 165.00000000000
  31
0.0
   0
TEXT
   5
279
 100
AcDbEntity
   8
LEVEL003
  62
7
 100
AcDbText
  10
 485.08652238806
  20
 28.339369651742
  30
0.0
  40
 10.000000000000
   1
ＯＳＡＫＡ ＪＡＣＫ
   7
STANDARD
 100
AcDbText
   0
CIRCLE
   5
27A
 100
AcDbEntity
   8
LEVEL003
 100
AcDbCircle
   6
CONTINUOUS
  62
7
  10
 464.64010853770
  20
 35.053341489273
  30
0.0
  40
 3.0000000000000
   0
LINE
   5
27B
 100
AcDbEntity
   8
LEVEL003
 100
AcDbLine
   6
CONTINUOUS
  62
7
  10
 470.52810853770
  20
 38.053341489273
  30
0.0
  11
 466.71910853770
  21
 31.453341489273
  31
0.0
   0
LINE
   5
27C
 100
AcDbEntity
   8
LEVEL003
 100
AcDbLine
   6
CONTINUOUS
  62
7
  10
 466.71910853770
  20
 31.453341489273
  30
0.0
  11
 459.09810853770
  21
 31.453341489273
  31
0.0
   0
LINE
   5
27D
 100
AcDbEntity
   8
LEVEL003
 100
AcDbLine
   6
CONTINUOUS
  62
7
  10
 458.23110853770
  20
 29.953341489273
  30
0.0
  11
 471.85210853770
  21
 29.953341489273
  31
0.0
   0
LINE
   5
27E
 100
AcDbEntity
   8
LEVEL003
 100
AcDbLine
   6
CONTINUOUS
  62
7
  10
 471.85210853770
  20
 29.953341489273
  30
0.0
  11
 476.52810853770
  21
 38.053341489273
  31
0.0
   0
LINE
   5
27F
 100
AcDbEntity
   8
LEVEL003
 100
AcDbLine
   6
CONTINUOUS
  62
7
  10
 476.52810853770
  20
 38.053341489273
  30
0.0
  11
 470.52810853770
  21
 38.053341489273
  31
0.0
   0
LINE
   5
280
 100
AcDbEntity
   8
LEVEL003
 100
AcDbLine
   6
CONTINUOUS
  62
7
  10
 459.09810853770
  20
 31.453341489273
  30
0.0
  11
 458.23110853770
  21
 29.953341489273
  31
0.0
   0
TEXT
   5
281
 100
AcDbEntity
   8
LEVEL003
  62
7
 100
AcDbText
  10
 487.99752238806
  20
 45.232769651742
  30
0.0
  40
 6.0000000000000
   1
Model : ＥＣ９０Ｓ７．５
   7
STANDARD
 100
AcDbText
   0
ENDSEC
  0
SECTION
  2
OBJECTS
  0
DICTIONARY
  5
C
100
AcDbDictionary
  3
ACAD_GROUP
350
D
  3
ACAD_MLINESTYLE
350
1B
  0
DICTIONARY
  5
D
102
{ACAD_REACTORS
330
C
102
}
100
AcDbDictionary
  0
DICTIONARY
  5
1B
102
{ACAD_REACTORS
330
C
102
}
100
AcDbDictionary
  3
STANDARD
350
1C
  0
MLINESTYLE
  5
1C
102
{ACAD_REACTORS
330
1B
102
}
100
AcDbMlineStyle
  2
STANDARD
 70
     0
  3

 62
   256
 51
90.0
 52
90.0
 71
     2
 49
0.5
 62
   256
  6
BYLAYER
 49
-0.5
 62
   256
  6
BYLAYER
  0
ENDSEC
   0
EOF
