   0
SECTION
   2
HEADER
   9
$ACADVER
   1
AC1014
   9
$LIMMIN
  10
0.0
  20
0.0
   9
$LIMMAX
  10
 420.00000000000
  20
 297.00000000000
   9
$EXTMIN
  10
0.0
  20
0.0
  30
0.0
   9
$EXTMAX
  10
 420.00000000000
  20
 297.00000000000
  30
0.0
   9
$LTSCALE
  40
 8.4000000000000
   9
$HANDSEED
   5
160
   0
ENDSEC
   0
SECTION
   2
TABLES
  0
TABLE
  2
VPORT
  5
8
100
AcDbSymbolTable
 70
     1
  0
VPORT
  5
15F
100
AcDbSymbolTableRecord
100
AcDbViewportTableRecord
  2
*ACTIVE
 70
     0
 10
0.0
 20
0.0
 11
1.0
 21
1.0
  12
 210.00000000000
  22
 148.50000000000
 13
0.0
 23
0.0
 14
1.0
 24
1.0
 15
0.0
 25
0.0
 16
0.0
 26
0.0
 36
1.0
 17
0.0
 27
0.0
 37
0.0
  40
 420.00000000000
  41
 1.4787878787879
 42
50.0
 43
0.0
 44
0.0
 50
0.0
 51
0.0
 71
     0
 72
   100
 73
     1
 74
     1
 75
     0
 76
     0
 77
     0
 78
     0
  0
ENDTAB
  0
TABLE
  2
LTYPE
  5
5
100
AcDbSymbolTable
 70
    25
  0
LTYPE
  5
12
100
AcDbSymbolTableRecord
100
AcDbLinetypeTableRecord
  2
BYBLOCK
 70
     0
  3

 72
    65
 73
     0
 40
0.0
  0
LTYPE
  5
13
100
AcDbSymbolTableRecord
100
AcDbLinetypeTableRecord
  2
BYLAYER
 70
     0
  3

 72
    65
 73
     0
 40
0.0
  0
LTYPE
  5
14
100
AcDbSymbolTableRecord
100
AcDbLinetypeTableRecord
  2
CONTINUOUS
 70
     0
  3
Solid line
 72
    65
 73
     0
 40
0.0
  0
LTYPE
  5
20
100
AcDbSymbolTableRecord
100
AcDbLinetypeTableRecord
  2
BORDER
 70
     0
  3
__ __ . __ __ . __ __ . __ __ . __ __ . __ __ .
 72
    65
 73
     6
 40
1.75
 49
0.5
 74
     0
 49
-0.25
 74
     0
 49
0.5
 74
     0
 49
-0.25
 74
     0
 49
0.0
 74
     0
 49
-0.25
 74
     0
  0
LTYPE
  5
21
100
AcDbSymbolTableRecord
100
AcDbLinetypeTableRecord
  2
BORDER2
 70
     0
  3
__.__.__.__.__.__.__.__.__.__.__.__.__.__.__.__
 72
    65
 73
     6
 40
0.875
 49
0.25
 74
     0
 49
-0.125
 74
     0
 49
0.25
 74
     0
 49
-0.125
 74
     0
 49
0.0
 74
     0
 49
-0.125
 74
     0
  0
LTYPE
  5
22
100
AcDbSymbolTableRecord
100
AcDbLinetypeTableRecord
  2
BORDERX2
 70
     0
  3
____  ____  .  ____  ____  .  ____  ____  .  __
 72
    65
 73
     6
 40
3.5
 49
1.0
 74
     0
 49
-0.5
 74
     0
 49
1.0
 74
     0
 49
-0.5
 74
     0
 49
0.0
 74
     0
 49
-0.5
 74
     0
  0
LTYPE
  5
23
100
AcDbSymbolTableRecord
100
AcDbLinetypeTableRecord
  2
CENTER
 70
     0
  3
____ _ ____ _ ____ _ ____ _ ____ _ ____ _ ____ 
 72
    65
 73
     4
 40
2.0
 49
1.25
 74
     0
 49
-0.25
 74
     0
 49
0.25
 74
     0
 49
-0.25
 74
     0
  0
LTYPE
  5
24
100
AcDbSymbolTableRecord
100
AcDbLinetypeTableRecord
  2
CENTER2
 70
     0
  3
___ _ ___ _ ___ _ ___ _ ___ _ ___ _ ___ _ ___ _
 72
    65
 73
     4
 40
1.125
 49
0.75
 74
     0
 49
-0.125
 74
     0
 49
0.125
 74
     0
 49
-0.125
 74
     0
  0
LTYPE
  5
25
100
AcDbSymbolTableRecord
100
AcDbLinetypeTableRecord
  2
CENTERX2
 70
     0
  3
________  __  ________  __  ________  __  _____
 72
    65
 73
     4
 40
4.0
 49
2.5
 74
     0
 49
-0.5
 74
     0
 49
0.5
 74
     0
 49
-0.5
 74
     0
  0
LTYPE
  5
26
100
AcDbSymbolTableRecord
100
AcDbLinetypeTableRecord
  2
DASHDOT
 70
     0
  3
__ . __ . __ . __ . __ . __ . __ . __ . __ . __
 72
    65
 73
     4
 40
1.0
 49
0.5
 74
     0
 49
-0.25
 74
     0
 49
0.0
 74
     0
 49
-0.25
 74
     0
  0
LTYPE
  5
27
100
AcDbSymbolTableRecord
100
AcDbLinetypeTableRecord
  2
DASHDOT2
 70
     0
  3
_._._._._._._._._._._._._._._._._._._._._._._._
 72
    65
 73
     4
 40
0.5
 49
0.25
 74
     0
 49
-0.125
 74
     0
 49
0.0
 74
     0
 49
-0.125
 74
     0
  0
LTYPE
  5
28
100
AcDbSymbolTableRecord
100
AcDbLinetypeTableRecord
  2
DASHDOTX2
 70
     0
  3
____  .  ____  .  ____  .  ____  .  ____  .  __
 72
    65
 73
     4
 40
2.0
 49
1.0
 74
     0
 49
-0.5
 74
     0
 49
0.0
 74
     0
 49
-0.5
 74
     0
  0
LTYPE
  5
29
100
AcDbSymbolTableRecord
100
AcDbLinetypeTableRecord
  2
DASHED
 70
     0
  3
__ __ __ __ __ __ __ __ __ __ __ __ __ __ __ __
 72
    65
 73
     2
 40
0.75
 49
0.5
 74
     0
 49
-0.25
 74
     0
  0
LTYPE
  5
2A
100
AcDbSymbolTableRecord
100
AcDbLinetypeTableRecord
  2
DASHED2
 70
     0
  3
_ _ _ _ _ _ _ _ _ _ _ _ _ _ _ _ _ _ _ _ _ _ _ _
 72
    65
 73
     2
 40
0.375
 49
0.25
 74
     0
 49
-0.125
 74
     0
  0
LTYPE
  5
2B
100
AcDbSymbolTableRecord
100
AcDbLinetypeTableRecord
  2
DASHEDX2
 70
     0
  3
____  ____  ____  ____  ____  ____  ____  ____ 
 72
    65
 73
     2
 40
1.5
 49
1.0
 74
     0
 49
-0.5
 74
     0
  0
LTYPE
  5
2C
100
AcDbSymbolTableRecord
100
AcDbLinetypeTableRecord
  2
DIVIDE
 70
     0
  3
____ . . ____ . . ____ . . ____ . . ____ . . __
 72
    65
 73
     6
 40
1.25
 49
0.5
 74
     0
 49
-0.25
 74
     0
 49
0.0
 74
     0
 49
-0.25
 74
     0
 49
0.0
 74
     0
 49
-0.25
 74
     0
  0
LTYPE
  5
2D
100
AcDbSymbolTableRecord
100
AcDbLinetypeTableRecord
  2
DIVIDE2
 70
     0
  3
__..__..__..__..__..__..__..__..__..__..__..__.
 72
    65
 73
     6
 40
0.625
 49
0.25
 74
     0
 49
-0.125
 74
     0
 49
0.0
 74
     0
 49
-0.125
 74
     0
 49
0.0
 74
     0
 49
-0.125
 74
     0
  0
LTYPE
  5
2E
100
AcDbSymbolTableRecord
100
AcDbLinetypeTableRecord
  2
DIVIDEX2
 70
     0
  3
________  .  .  ________  .  .  ________  .  . 
 72
    65
 73
     6
 40
2.5
 49
1.0
 74
     0
 49
-0.5
 74
     0
 49
0.0
 74
     0
 49
-0.5
 74
     0
 49
0.0
 74
     0
 49
-0.5
 74
     0
  0
LTYPE
  5
2F
100
AcDbSymbolTableRecord
100
AcDbLinetypeTableRecord
  2
DOT
 70
     0
  3
. . . . . . . . . . . . . . . . . . . . . . . .
 72
    65
 73
     2
 40
0.25
 49
0.0
 74
     0
 49
-0.25
 74
     0
  0
LTYPE
  5
30
100
AcDbSymbolTableRecord
100
AcDbLinetypeTableRecord
  2
DOT2
 70
     0
  3
...............................................
 72
    65
 73
     2
 40
0.125
 49
0.0
 74
     0
 49
-0.125
 74
     0
  0
LTYPE
  5
31
100
AcDbSymbolTableRecord
100
AcDbLinetypeTableRecord
  2
DOTX2
 70
     0
  3
.  .  .  .  .  .  .  .  .  .  .  .  .  .  .  . 
 72
    65
 73
     2
 40
0.5
 49
0.0
 74
     0
 49
-0.5
 74
     0
  0
LTYPE
  5
32
100
AcDbSymbolTableRecord
100
AcDbLinetypeTableRecord
  2
HIDDEN
 70
     0
  3
__ __ __ __ __ __ __ __ __ __ __ __ __ __ __ __
 72
    65
 73
     2
 40
0.375
 49
0.25
 74
     0
 49
-0.125
 74
     0
  0
LTYPE
  5
33
100
AcDbSymbolTableRecord
100
AcDbLinetypeTableRecord
  2
HIDDEN2
 70
     0
  3
_ _ _ _ _ _ _ _ _ _ _ _ _ _ _ _ _ _ _ _ _ _ _ _
 72
    65
 73
     2
 40
0.1875
 49
0.125
 74
     0
 49
-0.0625
 74
     0
  0
LTYPE
  5
34
100
AcDbSymbolTableRecord
100
AcDbLinetypeTableRecord
  2
HIDDENX2
 70
     0
  3
____ ____ ____ ____ ____ ____ ____ ____ ____ __
 72
    65
 73
     2
 40
0.75
 49
0.5
 74
     0
 49
-0.25
 74
     0
  0
LTYPE
  5
35
100
AcDbSymbolTableRecord
100
AcDbLinetypeTableRecord
  2
PHANTOM
 70
     0
  3
______  __  __  ______  __  __  ______  __  __ 
 72
    65
 73
     6
 40
2.5
 49
1.25
 74
     0
 49
-0.25
 74
     0
 49
0.25
 74
     0
 49
-0.25
 74
     0
 49
0.25
 74
     0
 49
-0.25
 74
     0
  0
LTYPE
  5
36
100
AcDbSymbolTableRecord
100
AcDbLinetypeTableRecord
  2
PHANTOM2
 70
     0
  3
___ _ _ ___ _ _ ___ _ _ ___ _ _ ___ _ _ ___ _ _
 72
    65
 73
     6
 40
1.25
 49
0.625
 74
     0
 49
-0.125
 74
     0
 49
0.125
 74
     0
 49
-0.125
 74
     0
 49
0.125
 74
     0
 49
-0.125
 74
     0
  0
LTYPE
  5
37
100
AcDbSymbolTableRecord
100
AcDbLinetypeTableRecord
  2
PHANTOMX2
 70
     0
  3
____________    ____    ____    ____________   
 72
    65
 73
     6
 40
5.0
 49
2.5
 74
     0
 49
-0.5
 74
     0
 49
0.5
 74
     0
 49
-0.5
 74
     0
 49
0.5
 74
     0
 49
-0.5
 74
     0
  0
ENDTAB
   0
TABLE
   2
LAYER
   5
2
 100
AcDbSymbolTable
  70
6
   0
LAYER
   5
E
 100
AcDbSymbolTableRecord
 100
AcDbLayerTableRecord
   2
0
  70
0
  62
7
   6
CONTINUOUS
   0
LAYER
   5
39
 100
AcDbSymbolTableRecord
 100
AcDbLayerTableRecord
   2
LEVEL001
  70
0
  62
7
   6
CONTINUOUS
   0
LAYER
   5
3A
 100
AcDbSymbolTableRecord
 100
AcDbLayerTableRecord
   2
LEVEL003
  70
0
  62
7
   6
CONTINUOUS
   0
LAYER
   5
3B
 100
AcDbSymbolTableRecord
 100
AcDbLayerTableRecord
   2
LEVEL020
  70
0
  62
7
   6
CONTINUOUS
   0
LAYER
   5
3C
 100
AcDbSymbolTableRecord
 100
AcDbLayerTableRecord
   2
LEVEL050
  70
0
  62
7
   6
CONTINUOUS
   0
LAYER
   5
3D
 100
AcDbSymbolTableRecord
 100
AcDbLayerTableRecord
   2
LEVEL110
  70
0
  62
7
   6
CONTINUOUS
   0
ENDTAB
  0
TABLE
  2
STYLE
  5
3
100
AcDbSymbolTable
  70
3
  0
STYLE
  5
F
100
AcDbSymbolTableRecord
100
AcDbTextStyleTableRecord
  2
STANDARD
 70
     0
 40
0.0
 41
1.0
 50
0.0
 71
     0
 42
0.2
  3
TXT
  4
BIGFONT
  0
STYLE
  5
38
100
AcDbSymbolTableRecord
100
AcDbTextStyleTableRecord
  2
STANDARD1
 70
     4
 40
0.0
 41
1.0
 50
0.0
 71
     0
 42
0.2
  3
TXT
  4
BIGFONT
   0
STYLE
   5
3E
 100
AcDbSymbolTableRecord
 100
AcDbTextStyleTableRecord
   2
GMM001
  70
0
  40
0.0
  41
 1.0000000000000
  50
0.0
  71
     0
  42
1.0
   3
txt.shx
   4
bigfont.shx
   0
ENDTAB
  0
TABLE
  2
VIEW
  5
6
100
AcDbSymbolTable
 70
     0
  0
ENDTAB
  0
TABLE
  2
UCS
  5
7
100
AcDbSymbolTable
 70
     0
  0
ENDTAB
  0
TABLE
  2
APPID
  5
9
100
AcDbSymbolTable
 70
     1
  0
APPID
  5
10
100
AcDbSymbolTableRecord
100
AcDbRegAppTableRecord
  2
ACAD
 70
     0
  0
ENDTAB
   0
TABLE
   2
DIMSTYLE
   5
A
 100
AcDbSymbolTable
  70
9
  0
DIMSTYLE
105
1D
100
AcDbSymbolTableRecord
100
AcDbDimStyleTableRecord
  2
STANDARD
 70
     0
  3

  4

  5

  6

  7

 40
1.0
 41
0.18
 42
0.0625
 43
0.38
 44
0.18
 45
0.0
 46
0.0
 47
0.0
 48
0.0
140
0.18
141
0.09
142
0.0
143
25.4
144
1.0
145
0.0
146
1.0
147
0.09
 71
     0
 72
     0
 73
     1
 74
     1
 75
     0
 76
     0
 77
     0
 78
     0
170
     0
171
     2
172
     0
173
     0
174
     0
175
     0
176
     0
177
     0
178
     0
270
     2
271
     4
272
     4
273
     2
274
     2
340
F
275
     0
280
     0
281
     0
282
     0
283
     1
284
     0
285
     0
286
     0
287
     3
288
     0
   0
DIMSTYLE
 105
3F
 100
AcDbSymbolTableRecord
 100
AcDbDimStyleTableRecord
   2
GMM001
  70
0
   3

   4

   5

   6
_OPEN
   7
_OPEN
  40
 1.0000000000000
  41
 3.0000000000000
  42
 1.0000000000000
  43
 0.10000000000000E-5
  44
 2.0000000000000
  45
0.0
  46
0.0
  47
0.0
  48
0.0
 140
 4.0000000000000
 141
 1.0000000000000
 142
0.0
 143
 0.39400000000000E-1
 144
 1.0000000000000
 145
0.0
 146
 0.62500000000000
 147
 0.79998779296875
  71
0
  72
0
  73
0
  74
0
  75
0
  76
0
  77
3
  78
0
 170
0
 171
2
 172
1
 173
1
 174
0
 175
0
 176
3
 177
3
 178
3
 270
2
 271
0
 272
0
 273
2
 274
2
 340
3E
 275
1
 280
0
 281
0
 282
0
 283
1
 284
0
 285
0
 286
0
 287
3
 288
1
   0
DIMSTYLE
 105
40
 100
AcDbSymbolTableRecord
 100
AcDbDimStyleTableRecord
   2
GMM002
  70
0
   3

   4

   5

   6
_OPEN
   7
_OPEN
  40
 1.0000000000000
  41
 3.0000000000000
  42
 1.0000000000000
  43
 0.10000000000000E-5
  44
 2.0000000000000
  45
0.0
  46
0.0
  47
0.0
  48
0.0
 140
 4.0000000000000
 141
 1.0000000000000
 142
0.0
 143
 0.39400000000000E-1
 144
 1.0000000000000
 145
0.0
 146
 0.62500000000000
 147
 0.80000305175781
  71
0
  72
0
  73
0
  74
0
  75
0
  76
0
  77
3
  78
0
 170
0
 171
2
 172
1
 173
1
 174
0
 175
0
 176
3
 177
3
 178
3
 270
2
 271
0
 272
0
 273
2
 274
2
 340
3E
 275
1
 280
0
 281
0
 282
0
 283
1
 284
0
 285
0
 286
0
 287
3
 288
1
   0
DIMSTYLE
 105
41
 100
AcDbSymbolTableRecord
 100
AcDbDimStyleTableRecord
   2
GMM003
  70
0
   3

   4

   5

   6
_DOT
   7
_OPEN
  40
 1.0000000000000
  41
 3.0000000000000
  42
 1.0000000000000
  43
 0.10000000000000E-5
  44
 2.0000000000000
  45
0.0
  46
0.0
  47
0.0
  48
0.0
 140
 4.0000000000000
 141
 1.0000000000000
 142
0.0
 143
 0.39400000000000E-1
 144
 1.0000000000000
 145
0.0
 146
 0.62500000000000
 147
 0.79998779296875
  71
0
  72
0
  73
0
  74
0
  75
0
  76
0
  77
3
  78
0
 170
0
 171
2
 172
1
 173
1
 174
0
 175
0
 176
3
 177
3
 178
3
 270
2
 271
0
 272
0
 273
2
 274
2
 340
3E
 275
1
 280
0
 281
0
 282
0
 283
1
 284
0
 285
0
 286
0
 287
3
 288
1
   0
DIMSTYLE
 105
42
 100
AcDbSymbolTableRecord
 100
AcDbDimStyleTableRecord
   2
GMM004
  70
0
   3

   4

   5

   6
_OPEN
   7
_OPEN
  40
 1.0000000000000
  41
 3.0000000000000
  42
 1.0000000000000
  43
 0.10000000000000E-5
  44
 2.0000000000000
  45
0.0
  46
0.0
  47
0.0
  48
0.0
 140
 4.0000000000000
 141
 1.0000000000000
 142
0.0
 143
 0.39400000000000E-1
 144
 1.0000000000000
 145
0.0
 146
 0.62500000000000
 147
 0.79998779296875
  71
0
  72
0
  73
0
  74
0
  75
0
  76
0
  77
3
  78
0
 170
0
 171
2
 172
1
 173
1
 174
0
 175
0
 176
3
 177
3
 178
3
 270
2
 271
0
 272
0
 273
2
 274
2
 340
3E
 275
1
 280
0
 281
0
 282
0
 283
1
 284
0
 285
0
 286
0
 287
3
 288
1
   0
DIMSTYLE
 105
43
 100
AcDbSymbolTableRecord
 100
AcDbDimStyleTableRecord
   2
GMM005
  70
0
   3

   4

   5

   6
_OPEN
   7
_OPEN
  40
 1.0000000000000
  41
 3.0000000000000
  42
 1.0000000000000
  43
 0.10000000000000E-5
  44
 2.0000000000000
  45
0.0
  46
0.0
  47
0.0
  48
0.0
 140
 4.0000000000000
 141
 1.0000000000000
 142
0.0
 143
 0.39400000000000E-1
 144
 1.0000000000000
 145
0.0
 146
 0.62500000000000
 147
0.0
  71
0
  72
0
  73
0
  74
0
  75
0
  76
0
  77
1
  78
0
 170
0
 171
2
 172
1
 173
1
 174
0
 175
0
 176
3
 177
3
 178
7
 270
2
 271
0
 272
0
 273
2
 274
2
 340
F
 275
1
 280
0
 281
0
 282
0
 283
1
 284
0
 285
0
 286
0
 287
3
 288
1
   0
DIMSTYLE
 105
44
 100
AcDbSymbolTableRecord
 100
AcDbDimStyleTableRecord
   2
GMM006
  70
0
   3

   4

   5

   6
_DOT
   7
_OPEN
  40
 1.0000000000000
  41
 3.0000000000000
  42
 1.0000000000000
  43
 0.10000000000000E-5
  44
 2.0000000000000
  45
0.0
  46
0.0
  47
0.0
  48
0.0
 140
 4.0000000000000
 141
 1.0000000000000
 142
0.0
 143
 0.39400000000000E-1
 144
 1.0000000000000
 145
0.0
 146
 0.62500000000000
 147
 3.6251049928515
  71
0
  72
0
  73
1
  74
1
  75
1
  76
0
  77
3
  78
0
 170
0
 171
2
 172
1
 173
1
 174
0
 175
0
 176
3
 177
3
 178
3
 270
2
 271
0
 272
0
 273
2
 274
2
 340
3E
 275
0
 280
0
 281
0
 282
0
 283
1
 284
0
 285
0
 286
0
 287
3
 288
1
   0
DIMSTYLE
 105
45
 100
AcDbSymbolTableRecord
 100
AcDbDimStyleTableRecord
   2
GMM007
  70
0
   3

   4

   5

   6
_OPEN
   7
_OPEN
  40
 1.0000000000000
  41
 3.0000000000000
  42
 1.0000000000000
  43
 8.0000000000000
  44
 2.0000000000000
  45
0.0
  46
0.0
  47
0.0
  48
0.0
 140
 4.0000000000000
 141
 1.0000000000000
 142
0.0
 143
 0.39400000000000E-1
 144
 1.0000000000000
 145
0.0
 146
 0.62500000000000
 147
 0.80000000000000
  71
0
  72
0
  73
0
  74
0
  75
1
  76
1
  77
3
  78
8
 170
0
 171
2
 172
1
 173
1
 174
0
 175
0
 176
3
 177
3
 178
3
 270
2
 271
1
 272
0
 273
2
 274
2
 340
3E
 275
0
 280
0
 281
0
 282
0
 283
1
 284
0
 285
0
 286
0
 287
3
 288
0
   0
ENDTAB
  0
TABLE
  2
BLOCK_RECORD
  5
1
100
AcDbSymbolTable
 70
     0
  0
BLOCK_RECORD
  5
18
100
AcDbSymbolTableRecord
100
AcDbBlockTableRecord
  2
*MODEL_SPACE
  0
BLOCK_RECORD
  5
15
100
AcDbSymbolTableRecord
100
AcDbBlockTableRecord
  2
*PAPER_SPACE
   0
BLOCK_RECORD
   5
46
 100
AcDbSymbolTableRecord
 100
AcDbBlockTableRecord
   2
*D1
   0
BLOCK_RECORD
   5
47
 100
AcDbSymbolTableRecord
 100
AcDbBlockTableRecord
   2
*D2
   0
BLOCK_RECORD
   5
48
 100
AcDbSymbolTableRecord
 100
AcDbBlockTableRecord
   2
*D3
   0
BLOCK_RECORD
   5
49
 100
AcDbSymbolTableRecord
 100
AcDbBlockTableRecord
   2
*D4
   0
BLOCK_RECORD
   5
4A
 100
AcDbSymbolTableRecord
 100
AcDbBlockTableRecord
   2
*D5
   0
BLOCK_RECORD
   5
4B
 100
AcDbSymbolTableRecord
 100
AcDbBlockTableRecord
   2
*D7
   0
BLOCK_RECORD
   5
4C
 100
AcDbSymbolTableRecord
 100
AcDbBlockTableRecord
   2
*D8
   0
BLOCK_RECORD
   5
4D
 100
AcDbSymbolTableRecord
 100
AcDbBlockTableRecord
   2
_ARCHTICK
   0
BLOCK_RECORD
   5
4E
 100
AcDbSymbolTableRecord
 100
AcDbBlockTableRecord
   2
_BOXBLANK
   0
BLOCK_RECORD
   5
4F
 100
AcDbSymbolTableRecord
 100
AcDbBlockTableRecord
   2
_BOXFILLED
   0
BLOCK_RECORD
   5
50
 100
AcDbSymbolTableRecord
 100
AcDbBlockTableRecord
   2
_CLOSED
   0
BLOCK_RECORD
   5
51
 100
AcDbSymbolTableRecord
 100
AcDbBlockTableRecord
   2
_CLOSEDBLANK
   0
BLOCK_RECORD
   5
52
 100
AcDbSymbolTableRecord
 100
AcDbBlockTableRecord
   2
_DATUMBLANK
   0
BLOCK_RECORD
   5
53
 100
AcDbSymbolTableRecord
 100
AcDbBlockTableRecord
   2
_DATUMFILLED
   0
BLOCK_RECORD
   5
54
 100
AcDbSymbolTableRecord
 100
AcDbBlockTableRecord
   2
_DOT
   0
BLOCK_RECORD
   5
55
 100
AcDbSymbolTableRecord
 100
AcDbBlockTableRecord
   2
_DOTBLANK
   0
BLOCK_RECORD
   5
56
 100
AcDbSymbolTableRecord
 100
AcDbBlockTableRecord
   2
_DOTSMALL
   0
BLOCK_RECORD
   5
57
 100
AcDbSymbolTableRecord
 100
AcDbBlockTableRecord
   2
_INTEGRAL
   0
BLOCK_RECORD
   5
58
 100
AcDbSymbolTableRecord
 100
AcDbBlockTableRecord
   2
_NONE
   0
BLOCK_RECORD
   5
59
 100
AcDbSymbolTableRecord
 100
AcDbBlockTableRecord
   2
_OBLIQUE
   0
BLOCK_RECORD
   5
5A
 100
AcDbSymbolTableRecord
 100
AcDbBlockTableRecord
   2
_OPEN
   0
BLOCK_RECORD
   5
5B
 100
AcDbSymbolTableRecord
 100
AcDbBlockTableRecord
   2
_OPEN30
   0
BLOCK_RECORD
   5
5C
 100
AcDbSymbolTableRecord
 100
AcDbBlockTableRecord
   2
_OPEN90
   0
BLOCK_RECORD
   5
5D
 100
AcDbSymbolTableRecord
 100
AcDbBlockTableRecord
   2
_ORIGIN
   0
ENDTAB
   0
ENDSEC
  0
SECTION
  2
BLOCKS
  0
BLOCK
  5
19
100
AcDbEntity
  8
0
100
AcDbBlockBegin
  2
*MODEL_SPACE
 70
     0
 10
0.0
 20
0.0
 30
0.0
  3
*MODEL_SPACE
  1

  0
ENDBLK
  5
1A
100
AcDbEntity
  8
0
100
AcDbBlockEnd
  0
BLOCK
  5
16
100
AcDbEntity
 67
     1
  8
0
100
AcDbBlockBegin
  2
*PAPER_SPACE
 70
     0
 10
0.0
 20
0.0
 30
0.0
  3
*PAPER_SPACE
  1

  0
ENDBLK
  5
17
100
AcDbEntity
 67
     1
  8
0
100
AcDbBlockEnd
   0
BLOCK
   5
5E
 100
AcDbEntity
   8
0
 100
AcDbBlockBegin
   2
_ARCHTICK
  70
0
  10
0.0
  20
0.0
  30
0.0
   3
_ARCHTICK
   0
POLYLINE
   5
5F
 100
AcDbEntity
   8
0
   6
BYBLOCK
  62
0
 100
AcDb2dPolyline
  66
1
  10
0.0
  20
0.0
  30
0.0
  70
1
  40
 0.15000000000000
  41
 0.15000000000000
   0
VERTEX
   5
60
 100
AcDbEntity
   8
0
   6
BYBLOCK
  62
0
 100
AcDbVertex
 100
AcDb2dVertex
  10
-0.50000000000000
  20
-0.50000000000000
  30
0.0
  40
 0.15000000000000
  41
 0.15000000000000
   0
VERTEX
   5
61
 100
AcDbEntity
   8
0
   6
BYBLOCK
  62
0
 100
AcDbVertex
 100
AcDb2dVertex
  10
 0.50000000000000
  20
 0.50000000000000
  30
0.0
  40
 0.15000000000000
  41
 0.15000000000000
   0
SEQEND
   5
62
 100
AcDbEntity
   8
0
   6
BYBLOCK
  62
0
   0
ENDBLK
   5
63
 100
AcDbEntity
   8
0
 100
AcDbBlockEnd
   0
BLOCK
   5
64
 100
AcDbEntity
   8
0
 100
AcDbBlockBegin
   2
_OBLIQUE
  70
0
  10
0.0
  20
0.0
  30
0.0
   3
_OBLIQUE
   0
LINE
   5
65
 100
AcDbEntity
   8
0
 100
AcDbLine
   6
BYBLOCK
  62
0
  10
-0.50000000000000
  20
-0.50000000000000
  30
0.0
  11
 0.50000000000000
  21
 0.50000000000000
  31
0.0
   0
ENDBLK
   5
66
 100
AcDbEntity
   8
0
 100
AcDbBlockEnd
   0
BLOCK
   5
67
 100
AcDbEntity
   8
0
 100
AcDbBlockBegin
   2
_BOXBLANK
  70
0
  10
0.0
  20
0.0
  30
0.0
   3
_BOXBLANK
   0
LINE
   5
68
 100
AcDbEntity
   8
0
 100
AcDbLine
   6
BYBLOCK
  62
0
  10
-0.50000000000000
  20
-0.50000000000000
  30
0.0
  11
 0.50000000000000
  21
-0.50000000000000
  31
0.0
   0
LINE
   5
69
 100
AcDbEntity
   8
0
 100
AcDbLine
   6
BYBLOCK
  62
0
  10
 0.50000000000000
  20
-0.50000000000000
  30
0.0
  11
 0.50000000000000
  21
 0.50000000000000
  31
0.0
   0
LINE
   5
6A
 100
AcDbEntity
   8
0
 100
AcDbLine
   6
BYBLOCK
  62
0
  10
 0.50000000000000
  20
 0.50000000000000
  30
0.0
  11
-0.50000000000000
  21
 0.50000000000000
  31
0.0
   0
LINE
   5
6B
 100
AcDbEntity
   8
0
 100
AcDbLine
   6
BYBLOCK
  62
0
  10
-0.50000000000000
  20
 0.50000000000000
  30
0.0
  11
-0.50000000000000
  21
-0.50000000000000
  31
0.0
   0
LINE
   5
6C
 100
AcDbEntity
   8
0
 100
AcDbLine
   6
BYBLOCK
  62
0
  10
-0.50000000000000
  20
0.0
  30
0.0
  11
-1.0000000000000
  21
0.0
  31
0.0
   0
ENDBLK
   5
6D
 100
AcDbEntity
   8
0
 100
AcDbBlockEnd
   0
BLOCK
   5
6E
 100
AcDbEntity
   8
0
 100
AcDbBlockBegin
   2
_BOXFILLED
  70
0
  10
0.0
  20
0.0
  30
0.0
   3
_BOXFILLED
   0
SOLID
   5
6F
 100
AcDbEntity
   8
0
 100
AcDbTrace
   6
BYBLOCK
  62
0
  10
-0.50000000000000
  20
 0.50000000000000
  30
0.0
  11
 0.50000000000000
  21
 0.50000000000000
  31
0.0
  12
-0.50000000000000
  22
-0.50000000000000
  32
0.0
  13
 0.50000000000000
  23
-0.50000000000000
  33
0.0
   0
LINE
   5
70
 100
AcDbEntity
   8
0
 100
AcDbLine
   6
BYBLOCK
  62
0
  10
-0.50000000000000
  20
0.0
  30
0.0
  11
-1.0000000000000
  21
0.0
  31
0.0
   0
ENDBLK
   5
71
 100
AcDbEntity
   8
0
 100
AcDbBlockEnd
   0
BLOCK
   5
72
 100
AcDbEntity
   8
0
 100
AcDbBlockBegin
   2
_CLOSED
  70
0
  10
0.0
  20
0.0
  30
0.0
   3
_CLOSED
   0
LINE
   5
73
 100
AcDbEntity
   8
0
 100
AcDbLine
   6
BYBLOCK
  62
0
  10
-1.0000000000000
  20
 0.16666666666667
  30
0.0
  11
0.0
  21
0.0
  31
0.0
   0
LINE
   5
74
 100
AcDbEntity
   8
0
 100
AcDbLine
   6
BYBLOCK
  62
0
  10
0.0
  20
0.0
  30
0.0
  11
-1.0000000000000
  21
-0.16666666666667
  31
0.0
   0
LINE
   5
75
 100
AcDbEntity
   8
0
 100
AcDbLine
   6
BYBLOCK
  62
0
  10
-1.0000000000000
  20
 0.16666666666667
  30
0.0
  11
-1.0000000000000
  21
-0.16666666666667
  31
0.0
   0
LINE
   5
76
 100
AcDbEntity
   8
0
 100
AcDbLine
   6
BYBLOCK
  62
0
  10
0.0
  20
0.0
  30
0.0
  11
-1.0000000000000
  21
0.0
  31
0.0
   0
ENDBLK
   5
77
 100
AcDbEntity
   8
0
 100
AcDbBlockEnd
   0
BLOCK
   5
78
 100
AcDbEntity
   8
0
 100
AcDbBlockBegin
   2
_OPEN
  70
0
  10
0.0
  20
0.0
  30
0.0
   3
_OPEN
   0
LINE
   5
79
 100
AcDbEntity
   8
0
 100
AcDbLine
   6
BYBLOCK
  62
0
  10
-1.0000000000000
  20
 0.16666666666667
  30
0.0
  11
0.0
  21
0.0
  31
0.0
   0
LINE
   5
7A
 100
AcDbEntity
   8
0
 100
AcDbLine
   6
BYBLOCK
  62
0
  10
0.0
  20
0.0
  30
0.0
  11
-1.0000000000000
  21
-0.16666666666667
  31
0.0
   0
LINE
   5
7B
 100
AcDbEntity
   8
0
 100
AcDbLine
   6
BYBLOCK
  62
0
  10
0.0
  20
0.0
  30
0.0
  11
-1.0000000000000
  21
0.0
  31
0.0
   0
ENDBLK
   5
7C
 100
AcDbEntity
   8
0
 100
AcDbBlockEnd
   0
BLOCK
   5
7D
 100
AcDbEntity
   8
0
 100
AcDbBlockBegin
   2
_OPEN30
  70
0
  10
0.0
  20
0.0
  30
0.0
   3
_OPEN30
   0
LINE
   5
7E
 100
AcDbEntity
   8
0
 100
AcDbLine
   6
BYBLOCK
  62
0
  10
-1.0000000000000
  20
 0.26794919243110
  30
0.0
  11
0.0
  21
0.0
  31
0.0
   0
LINE
   5
7F
 100
AcDbEntity
   8
0
 100
AcDbLine
   6
BYBLOCK
  62
0
  10
0.0
  20
0.0
  30
0.0
  11
-1.0000000000000
  21
-0.26794919243110
  31
0.0
   0
LINE
   5
80
 100
AcDbEntity
   8
0
 100
AcDbLine
   6
BYBLOCK
  62
0
  10
0.0
  20
0.0
  30
0.0
  11
-1.0000000000000
  21
0.0
  31
0.0
   0
ENDBLK
   5
81
 100
AcDbEntity
   8
0
 100
AcDbBlockEnd
   0
BLOCK
   5
82
 100
AcDbEntity
   8
0
 100
AcDbBlockBegin
   2
_OPEN90
  70
0
  10
0.0
  20
0.0
  30
0.0
   3
_OPEN90
   0
LINE
   5
83
 100
AcDbEntity
   8
0
 100
AcDbLine
   6
BYBLOCK
  62
0
  10
-0.50000000000000
  20
 0.50000000000000
  30
0.0
  11
0.0
  21
0.0
  31
0.0
   0
LINE
   5
84
 100
AcDbEntity
   8
0
 100
AcDbLine
   6
BYBLOCK
  62
0
  10
0.0
  20
0.0
  30
0.0
  11
-0.50000000000000
  21
-0.50000000000000
  31
0.0
   0
LINE
   5
85
 100
AcDbEntity
   8
0
 100
AcDbLine
   6
BYBLOCK
  62
0
  10
0.0
  20
0.0
  30
0.0
  11
-1.0000000000000
  21
0.0
  31
0.0
   0
ENDBLK
   5
86
 100
AcDbEntity
   8
0
 100
AcDbBlockEnd
   0
BLOCK
   5
87
 100
AcDbEntity
   8
0
 100
AcDbBlockBegin
   2
_CLOSEDBLANK
  70
0
  10
0.0
  20
0.0
  30
0.0
   3
_CLOSEDBLANK
   0
LINE
   5
88
 100
AcDbEntity
   8
0
 100
AcDbLine
   6
BYBLOCK
  62
0
  10
-1.0000000000000
  20
 0.16666666666667
  30
0.0
  11
0.0
  21
0.0
  31
0.0
   0
LINE
   5
89
 100
AcDbEntity
   8
0
 100
AcDbLine
   6
BYBLOCK
  62
0
  10
0.0
  20
0.0
  30
0.0
  11
-1.0000000000000
  21
-0.16666666666667
  31
0.0
   0
LINE
   5
8A
 100
AcDbEntity
   8
0
 100
AcDbLine
   6
BYBLOCK
  62
0
  10
-1.0000000000000
  20
 0.16666666666667
  30
0.0
  11
-1.0000000000000
  21
-0.16666666666667
  31
0.0
   0
ENDBLK
   5
8B
 100
AcDbEntity
   8
0
 100
AcDbBlockEnd
   0
BLOCK
   5
8C
 100
AcDbEntity
   8
0
 100
AcDbBlockBegin
   2
_DOT
  70
0
  10
0.0
  20
0.0
  30
0.0
   3
_DOT
   0
POLYLINE
   5
8D
 100
AcDbEntity
   8
0
   6
BYBLOCK
  62
0
 100
AcDb2dPolyline
  66
1
  10
0.0
  20
0.0
  30
0.0
  70
1
  40
 0.50000000000000
  41
 0.50000000000000
   0
VERTEX
   5
8E
 100
AcDbEntity
   8
0
   6
BYBLOCK
  62
0
 100
AcDbVertex
 100
AcDb2dVertex
  10
-0.25000000000000
  20
0.0
  30
0.0
  42
 1.0000000000000
  40
 0.50000000000000
  41
 0.50000000000000
   0
VERTEX
   5
8F
 100
AcDbEntity
   8
0
   6
BYBLOCK
  62
0
 100
AcDbVertex
 100
AcDb2dVertex
  10
 0.25000000000000
  20
0.0
  30
0.0
  42
 1.0000000000000
  40
 0.50000000000000
  41
 0.50000000000000
   0
SEQEND
   5
90
 100
AcDbEntity
   8
0
   6
BYBLOCK
  62
0
   0
LINE
   5
91
 100
AcDbEntity
   8
0
 100
AcDbLine
   6
BYBLOCK
  62
0
  10
-0.50000000000000
  20
0.0
  30
0.0
  11
-1.0000000000000
  21
0.0
  31
0.0
   0
ENDBLK
   5
92
 100
AcDbEntity
   8
0
 100
AcDbBlockEnd
   0
BLOCK
   5
93
 100
AcDbEntity
   8
0
 100
AcDbBlockBegin
   2
_DOTSMALL
  70
0
  10
0.0
  20
0.0
  30
0.0
   3
_DOTSMALL
   0
POLYLINE
   5
94
 100
AcDbEntity
   8
0
   6
BYBLOCK
  62
0
 100
AcDb2dPolyline
  66
1
  10
0.0
  20
0.0
  30
0.0
  70
1
  40
 0.50000000000000
  41
 0.50000000000000
   0
VERTEX
   5
95
 100
AcDbEntity
   8
0
   6
BYBLOCK
  62
0
 100
AcDbVertex
 100
AcDb2dVertex
  10
-0.62500000000000E-1
  20
0.0
  30
0.0
  42
 1.0000000000000
  40
 0.50000000000000
  41
 0.50000000000000
   0
VERTEX
   5
96
 100
AcDbEntity
   8
0
   6
BYBLOCK
  62
0
 100
AcDbVertex
 100
AcDb2dVertex
  10
 0.62500000000000E-1
  20
0.0
  30
0.0
  42
 1.0000000000000
  40
 0.50000000000000
  41
 0.50000000000000
   0
SEQEND
   5
97
 100
AcDbEntity
   8
0
   6
BYBLOCK
  62
0
   0
ENDBLK
   5
98
 100
AcDbEntity
   8
0
 100
AcDbBlockEnd
   0
BLOCK
   5
99
 100
AcDbEntity
   8
0
 100
AcDbBlockBegin
   2
_DATUMBLANK
  70
0
  10
0.0
  20
0.0
  30
0.0
   3
_DATUMBLANK
   0
LINE
   5
9A
 100
AcDbEntity
   8
0
 100
AcDbLine
   6
BYBLOCK
  62
0
  10
0.0
  20
 0.57735027000000
  30
0.0
  11
-1.0000000000000
  21
0.0
  31
0.0
   0
LINE
   5
9B
 100
AcDbEntity
   8
0
 100
AcDbLine
   6
BYBLOCK
  62
0
  10
-1.0000000000000
  20
0.0
  30
0.0
  11
0.0
  21
-0.57735027000000
  31
0.0
   0
LINE
   5
9C
 100
AcDbEntity
   8
0
 100
AcDbLine
   6
BYBLOCK
  62
0
  10
0.0
  20
-0.57735027000000
  30
0.0
  11
0.0
  21
 0.57735027000000
  31
0.0
   0
ENDBLK
   5
9D
 100
AcDbEntity
   8
0
 100
AcDbBlockEnd
   0
BLOCK
   5
9E
 100
AcDbEntity
   8
0
 100
AcDbBlockBegin
   2
_DATUMFILLED
  70
0
  10
0.0
  20
0.0
  30
0.0
   3
_DATUMFILLED
   0
SOLID
   5
9F
 100
AcDbEntity
   8
0
 100
AcDbTrace
   6
BYBLOCK
  62
0
  10
0.0
  20
 0.57735027000000
  30
0.0
  11
-1.0000000000000
  21
0.0
  31
0.0
  12
0.0
  22
-0.57735027000000
  32
0.0
  13
0.0
  23
-0.57735027000000
  33
0.0
   0
ENDBLK
   5
A0
 100
AcDbEntity
   8
0
 100
AcDbBlockEnd
   0
BLOCK
   5
A1
 100
AcDbEntity
   8
0
 100
AcDbBlockBegin
   2
_ORIGIN
  70
0
  10
0.0
  20
0.0
  30
0.0
   3
_ORIGIN
   0
CIRCLE
   5
A2
 100
AcDbEntity
   8
0
 100
AcDbCircle
   6
BYBLOCK
  62
0
  10
0.0
  20
0.0
  30
0.0
  40
 0.50000000000000
   0
LINE
   5
A3
 100
AcDbEntity
   8
0
 100
AcDbLine
   6
BYBLOCK
  62
0
  10
0.0
  20
0.0
  30
0.0
  11
-1.0000000000000
  21
0.0
  31
0.0
   0
ENDBLK
   5
A4
 100
AcDbEntity
   8
0
 100
AcDbBlockEnd
   0
BLOCK
   5
A5
 100
AcDbEntity
   8
0
 100
AcDbBlockBegin
   2
_NONE
  70
0
  10
0.0
  20
0.0
  30
0.0
   3
_NONE
   0
CIRCLE
   5
A6
 100
AcDbEntity
   8
0
 100
AcDbCircle
   6
BYBLOCK
  62
0
  10
0.0
  20
0.0
  30
0.0
  40
 0.25000000000000
   0
ENDBLK
   5
A7
 100
AcDbEntity
   8
0
 100
AcDbBlockEnd
   0
BLOCK
   5
A8
 100
AcDbEntity
   8
0
 100
AcDbBlockBegin
   2
_DOTBLANK
  70
0
  10
0.0
  20
0.0
  30
0.0
   3
_DOTBLANK
   0
CIRCLE
   5
A9
 100
AcDbEntity
   8
0
 100
AcDbCircle
   6
BYBLOCK
  62
0
  10
0.0
  20
0.0
  30
0.0
  40
 0.50000000000000
   0
LINE
   5
AA
 100
AcDbEntity
   8
0
 100
AcDbLine
   6
BYBLOCK
  62
0
  10
-0.50000000000000
  20
0.0
  30
0.0
  11
-1.0000000000000
  21
0.0
  31
0.0
   0
ENDBLK
   5
AB
 100
AcDbEntity
   8
0
 100
AcDbBlockEnd
   0
BLOCK
   5
AC
 100
AcDbEntity
   8
0
 100
AcDbBlockBegin
   2
_INTEGRAL
  70
0
  10
0.0
  20
0.0
  30
0.0
   3
_INTEGRAL
   0
ARC
   5
AD
 100
AcDbEntity
   8
0
   6
BYBLOCK
  62
0
 100
AcDbCircle
  10
 0.44488800000000
  20
-0.91335000000000E-1
  30
0.0
  40
 0.45416700000000
 100
AcDbArc
  50
 102.00000000000
  51
 168.00000000000
   0
ARC
   5
AE
 100
AcDbEntity
   8
0
   6
BYBLOCK
  62
0
 100
AcDbCircle
  10
-0.44488800000000
  20
 0.91335000000000E-1
  30
0.0
  40
 0.45416700000000
 100
AcDbArc
  50
 282.00000000000
  51
 348.00000000000
   0
ENDBLK
   5
AF
 100
AcDbEntity
   8
0
 100
AcDbBlockEnd
   0
BLOCK
   5
B0
 100
AcDbEntity
   8
0
 100
AcDbBlockBegin
   2
*D1
  70
65
  10
0.0
  20
0.0
  30
0.0
   3
*D1
   0
LINE
   5
B1
 100
AcDbEntity
   8
LEVEL003
 100
AcDbLine
   6
CONTINUOUS
  62
3
  10
 52.500000000000
  20
 86.000000000000
  30
0.0
  11
 52.500000000000
  21
 48.000000000000
  31
0.0
   0
LINE
   5
B2
 100
AcDbEntity
   8
LEVEL003
 100
AcDbLine
   6
CONTINUOUS
  62
3
  10
 197.50000000000
  20
 86.000000000000
  30
0.0
  11
 197.50000000000
  21
 48.000000000000
  31
0.0
   0
LINE
   5
B3
 100
AcDbEntity
   8
LEVEL003
 100
AcDbLine
   6
CONTINUOUS
  62
3
  10
 52.500000000000
  20
 50.000000000000
  30
0.0
  11
 116.81875000000
  21
 50.000000000000
  31
0.0
   0
LINE
   5
B4
 100
AcDbEntity
   8
LEVEL003
 100
AcDbLine
   6
CONTINUOUS
  62
3
  10
 197.50000000000
  20
 50.000000000000
  30
0.0
  11
 133.18125000000
  21
 50.000000000000
  31
0.0
   0
INSERT
   5
B5
 100
AcDbEntity
   8
LEVEL003
   6
CONTINUOUS
  62
3
 100
AcDbBlockReference
   2
_OPEN
  10
 52.500000000000
  20
 50.000000000000
  30
0.0
  41
 3.0000000000000
  42
 3.0000000000000
  43
 3.0000000000000
  50
 180.00000000000
   0
INSERT
   5
B6
 100
AcDbEntity
   8
LEVEL003
   6
CONTINUOUS
  62
3
 100
AcDbBlockReference
   2
_OPEN
  10
 197.50000000000
  20
 50.000000000000
  30
0.0
  41
 3.0000000000000
  42
 3.0000000000000
  43
 3.0000000000000
  50
0.0
   0
MTEXT
   5
B7
 100
AcDbEntity
   8
LEVEL003
  62
3
 100
AcDbMText
  10
 125.00000000000
  20
 50.799987792969
  30
0.0
  40
 4.0000000000000
  41
0.0
  71
8
  72
1
   1
\A1;%%c145
   7
GMM001
   0
ENDBLK
   5
B8
 100
AcDbEntity
   8
0
 100
AcDbBlockEnd
   0
BLOCK
   5
B9
 100
AcDbEntity
   8
0
 100
AcDbBlockBegin
   2
*D2
  70
65
  10
0.0
  20
0.0
  30
0.0
   3
*D2
   0
LINE
   5
BA
 100
AcDbEntity
   8
LEVEL003
 100
AcDbLine
   6
CONTINUOUS
  62
3
  10
 162.50000000000
  20
 155.00000000000
  30
0.0
  11
 162.50000000000
  21
 187.00000000000
  31
0.0
   0
LINE
   5
BB
 100
AcDbEntity
   8
LEVEL003
 100
AcDbLine
   6
CONTINUOUS
  62
3
  10
 87.500000000000
  20
 155.00000000000
  30
0.0
  11
 87.500000000000
  21
 187.00000000000
  31
0.0
   0
LINE
   5
BC
 100
AcDbEntity
   8
LEVEL003
 100
AcDbLine
   6
CONTINUOUS
  62
3
  10
 162.50000000000
  20
 185.00000000000
  30
0.0
  11
 131.82500278005
  21
 185.00000000000
  31
0.0
   0
LINE
   5
BD
 100
AcDbEntity
   8
LEVEL003
 100
AcDbLine
   6
CONTINUOUS
  62
3
  10
 87.500000000000
  20
 185.00000000000
  30
0.0
  11
 118.17500278005
  21
 185.00000000000
  31
0.0
   0
INSERT
   5
BE
 100
AcDbEntity
   8
LEVEL003
   6
CONTINUOUS
  62
3
 100
AcDbBlockReference
   2
_OPEN
  10
 162.50000000000
  20
 185.00000000000
  30
0.0
  41
 3.0000000000000
  42
 3.0000000000000
  43
 3.0000000000000
  50
0.0
   0
INSERT
   5
BF
 100
AcDbEntity
   8
LEVEL003
   6
CONTINUOUS
  62
3
 100
AcDbBlockReference
   2
_OPEN
  10
 87.500000000000
  20
 185.00000000000
  30
0.0
  41
 3.0000000000000
  42
 3.0000000000000
  43
 3.0000000000000
  50
 180.00000000000
   0
MTEXT
   5
C0
 100
AcDbEntity
   8
LEVEL003
  62
3
 100
AcDbMText
  10
 125.00000278005
  20
 185.79998779297
  30
0.0
  40
 4.0000000000000
  41
0.0
  71
8
  72
1
   1
\A1;%%c75
   7
GMM001
   0
ENDBLK
   5
C1
 100
AcDbEntity
   8
0
 100
AcDbBlockEnd
   0
BLOCK
   5
C2
 100
AcDbEntity
   8
0
 100
AcDbBlockBegin
   2
*D3
  70
65
  10
0.0
  20
0.0
  30
0.0
   3
*D3
   0
LINE
   5
C3
 100
AcDbEntity
   8
LEVEL003
 100
AcDbLine
   6
CONTINUOUS
  62
3
  10
 196.50000000000
  20
 154.00000000000
  30
0.0
  11
 242.00000000000
  21
 154.00000000000
  31
0.0
   0
LINE
   5
C4
 100
AcDbEntity
   8
LEVEL003
 100
AcDbLine
   6
CONTINUOUS
  62
3
  10
 162.50000000000
  20
 155.00000000000
  30
0.0
  11
 242.00000000000
  21
 155.00000000000
  31
0.0
   0
LINE
   5
C5
 100
AcDbEntity
   8
LEVEL003
 100
AcDbLine
   6
CONTINUOUS
  62
3
  10
 240.00000000000
  20
 150.25000000000
  30
0.0
  11
 240.00000000000
  21
 157.15406705625
  31
0.0
   0
LINE
   5
C6
 100
AcDbEntity
   8
LEVEL003
 100
AcDbLine
   6
CONTINUOUS
  62
3
  10
 240.00000000000
  20
 159.86656705625
  30
0.0
  11
 240.00000000000
  21
 159.86656705625
  31
0.0
   0
INSERT
   5
C7
 100
AcDbEntity
   8
LEVEL003
   6
CONTINUOUS
  62
3
 100
AcDbBlockReference
   2
_OPEN
  10
 240.00000000000
  20
 154.00000000000
  30
0.0
  41
 3.0000000000000
  42
 3.0000000000000
  43
 3.0000000000000
  50
 90.000000000000
   0
INSERT
   5
C8
 100
AcDbEntity
   8
LEVEL003
   6
CONTINUOUS
  62
3
 100
AcDbBlockReference
   2
_OPEN
  10
 240.00000000000
  20
 155.00000000000
  30
0.0
  41
 3.0000000000000
  42
 3.0000000000000
  43
 3.0000000000000
  50
 270.00000000000
   0
MTEXT
   5
C9
 100
AcDbEntity
   8
LEVEL003
  62
3
 100
AcDbMText
  10
 239.19999694824
  20
 157.15406705625
  30
0.0
  40
 4.0000000000000
  41
0.0
  71
7
  72
1
   1
\A1;1
   7
GMM001
  11
0.0
  21
 1.0000000000000
  31
0.0
   0
ENDBLK
   5
CA
 100
AcDbEntity
   8
0
 100
AcDbBlockEnd
   0
BLOCK
   5
CB
 100
AcDbEntity
   8
0
 100
AcDbBlockBegin
   2
*D4
  70
65
  10
0.0
  20
0.0
  30
0.0
   3
*D4
   0
LINE
   5
CC
 100
AcDbEntity
   8
LEVEL003
 100
AcDbLine
   6
CONTINUOUS
  62
3
  10
 198.50000000000
  20
 104.04391479492
  30
0.0
  11
 282.00000000000
  21
 104.04391479492
  31
0.0
   0
LINE
   5
CD
 100
AcDbEntity
   8
LEVEL003
 100
AcDbLine
   6
CONTINUOUS
  62
3
  10
 196.50000000000
  20
 85.000000000000
  30
0.0
  11
 282.00000000000
  21
 85.000000000000
  31
0.0
   0
LINE
   5
CE
 100
AcDbEntity
   8
LEVEL003
 100
AcDbLine
   6
CONTINUOUS
  62
3
  10
 280.00000000000
  20
 104.04391479492
  30
0.0
  11
 280.00000000000
  21
 97.890707397461
  31
0.0
   0
LINE
   5
CF
 100
AcDbEntity
   8
LEVEL003
 100
AcDbLine
   6
CONTINUOUS
  62
3
  10
 280.00000000000
  20
 85.000000000000
  30
0.0
  11
 280.00000000000
  21
 91.153207397461
  31
0.0
   0
INSERT
   5
D0
 100
AcDbEntity
   8
LEVEL003
   6
CONTINUOUS
  62
3
 100
AcDbBlockReference
   2
_DOT
  10
 280.00000000000
  20
 104.04391479492
  30
0.0
  41
 3.0000000000000
  42
 3.0000000000000
  43
 3.0000000000000
  50
 90.000000000000
   0
INSERT
   5
D1
 100
AcDbEntity
   8
LEVEL003
   6
CONTINUOUS
  62
3
 100
AcDbBlockReference
   2
_OPEN
  10
 280.00000000000
  20
 85.000000000000
  30
0.0
  41
 3.0000000000000
  42
 3.0000000000000
  43
 3.0000000000000
  50
 270.00000000000
   0
MTEXT
   5
D2
 100
AcDbEntity
   8
LEVEL003
  62
3
 100
AcDbMText
  10
 279.20001220703
  20
 94.521957397461
  30
0.0
  40
 4.0000000000000
  41
0.0
  71
8
  72
1
   1
\A1;19
   7
GMM001
  11
0.0
  21
 1.0000000000000
  31
0.0
   0
ENDBLK
   5
D3
 100
AcDbEntity
   8
0
 100
AcDbBlockEnd
   0
BLOCK
   5
D4
 100
AcDbEntity
   8
0
 100
AcDbBlockBegin
   2
*D5
  70
65
  10
0.0
  20
0.0
  30
0.0
   3
*D5
   0
LINE
   5
D5
 100
AcDbEntity
   8
LEVEL003
 100
AcDbLine
   6
CONTINUOUS
  62
3
  10
 162.50000000000
  20
 155.00000000000
  30
0.0
  11
 292.00000000000
  21
 155.00000000000
  31
0.0
   0
LINE
   5
D6
 100
AcDbEntity
   8
LEVEL003
 100
AcDbLine
   6
CONTINUOUS
  62
3
  10
 196.50000000000
  20
 85.000000000000
  30
0.0
  11
 292.00000000000
  21
 85.000000000000
  31
0.0
   0
LINE
   5
D7
 100
AcDbEntity
   8
LEVEL003
 100
AcDbLine
   6
CONTINUOUS
  62
3
  10
 290.00000000000
  20
 155.00000000000
  30
0.0
  11
 290.00000000000
  21
 123.67500000000
  31
0.0
   0
LINE
   5
D8
 100
AcDbEntity
   8
LEVEL003
 100
AcDbLine
   6
CONTINUOUS
  62
3
  10
 290.00000000000
  20
 85.000000000000
  30
0.0
  11
 290.00000000000
  21
 116.32500000000
  31
0.0
   0
INSERT
   5
D9
 100
AcDbEntity
   8
LEVEL003
   6
CONTINUOUS
  62
3
 100
AcDbBlockReference
   2
_OPEN
  10
 290.00000000000
  20
 155.00000000000
  30
0.0
  41
 3.0000000000000
  42
 3.0000000000000
  43
 3.0000000000000
  50
 90.000000000000
   0
INSERT
   5
DA
 100
AcDbEntity
   8
LEVEL003
   6
CONTINUOUS
  62
3
 100
AcDbBlockReference
   2
_OPEN
  10
 290.00000000000
  20
 85.000000000000
  30
0.0
  41
 3.0000000000000
  42
 3.0000000000000
  43
 3.0000000000000
  50
 270.00000000000
   0
MTEXT
   5
DB
 100
AcDbEntity
   8
LEVEL003
  62
3
 100
AcDbMText
  10
 289.20001220703
  20
 120.00000000000
  30
0.0
  40
 4.0000000000000
  41
0.0
  71
8
  72
1
   1
\A1;70
   7
GMM001
  11
0.0
  21
 1.0000000000000
  31
0.0
   0
ENDBLK
   5
DC
 100
AcDbEntity
   8
0
 100
AcDbBlockEnd
   0
BLOCK
   5
DD
 100
AcDbEntity
   8
0
 100
AcDbBlockBegin
   2
*D7
  70
65
  10
0.0
  20
0.0
  30
0.0
   3
*D7
   0
LINE
   5
DE
 100
AcDbEntity
   8
LEVEL003
 100
AcDbLine
   6
CONTINUOUS
  62
3
  10
 267.72794537180
  20
 110.18792266628
  30
0.0
  11
 281.67846725070
  21
 111.40840527357
  31
0.0
   0
ARC
   5
DF
 100
AcDbEntity
   8
LEVEL003
   6
CONTINUOUS
  62
3
 100
AcDbCircle
  10
 197.49989318848
  20
 104.04391479492
  30
0.0
  40
 82.500106811523
 100
AcDbArc
  50
0.0
  51
 2.4999390506391
   0
ARC
   5
E0
 100
AcDbEntity
   8
LEVEL003
   6
CONTINUOUS
  62
3
 100
AcDbCircle
  10
 197.49989318848
  20
 104.04391479492
  30
0.0
  40
 82.500106811523
 100
AcDbArc
  50
 2.4999390506391
  51
 4.9998781012782
   0
INSERT
   5
E1
 100
AcDbEntity
   8
LEVEL003
   6
CONTINUOUS
  62
3
 100
AcDbBlockReference
   2
_DOT
  10
 280.00000000000
  20
 104.04391479492
  30
0.0
  41
 3.0000000000000
  42
 3.0000000000000
  43
 3.0000000000000
  50
 270.00000000000
   0
INSERT
   5
E2
 100
AcDbEntity
   8
LEVEL003
   6
CONTINUOUS
  62
3
 100
AcDbBlockReference
   2
_OPEN
  10
 279.68607748367
  20
 111.23409802695
  30
0.0
  41
 3.0000000000000
  42
 3.0000000000000
  43
 3.0000000000000
  50
 94.999878101278
   0
MTEXT
   5
E3
 100
AcDbEntity
   8
LEVEL003
  62
3
 100
AcDbMText
  10
 276.04791305062
  20
 111.21848709108
  30
0.0
  40
 4.0000000000000
  41
0.0
  71
8
  72
1
   1
\A1;5%%d
   7
GMM001
   0
ENDBLK
   5
E4
 100
AcDbEntity
   8
0
 100
AcDbBlockEnd
   0
BLOCK
   5
E5
 100
AcDbEntity
   8
0
 100
AcDbBlockBegin
   2
*D8
  70
65
  10
0.0
  20
0.0
  30
0.0
   3
*D8
   0
LINE
   5
E6
 100
AcDbEntity
   8
LEVEL003
 100
AcDbLine
   6
CONTINUOUS
  62
3
  10
 77.500000000000
  20
 115.00000000000
  30
0.0
  11
 118.17500000000
  21
 115.00000000000
  31
0.0
   0
LINE
   5
E7
 100
AcDbEntity
   8
LEVEL003
 100
AcDbLine
   6
CONTINUOUS
  62
3
  10
 172.50000000000
  20
 115.00000000000
  30
0.0
  11
 131.82500000000
  21
 115.00000000000
  31
0.0
   0
INSERT
   5
E8
 100
AcDbEntity
   8
LEVEL003
   6
CONTINUOUS
  62
3
 100
AcDbBlockReference
   2
_OPEN
  10
 77.500000000000
  20
 115.00000000000
  30
0.0
  41
 3.0000000000000
  42
 3.0000000000000
  43
 3.0000000000000
  50
 180.00000000000
   0
INSERT
   5
E9
 100
AcDbEntity
   8
LEVEL003
   6
CONTINUOUS
  62
3
 100
AcDbBlockReference
   2
_OPEN
  10
 172.50000000000
  20
 115.00000000000
  30
0.0
  41
 3.0000000000000
  42
 3.0000000000000
  43
 3.0000000000000
  50
0.0
   0
MTEXT
   5
EA
 100
AcDbEntity
   8
LEVEL003
  62
3
 100
AcDbMText
  10
 125.00000000000
  20
 115.80000000000
  30
0.0
  40
 4.0000000000000
  41
0.0
  71
8
  72
1
   1
\A1;%%c95
   7
GMM001
   0
ENDBLK
   5
EB
 100
AcDbEntity
   8
0
 100
AcDbBlockEnd
   0
ENDSEC
   0
SECTION
   2
ENTITIES
   0
LINE
   5
EC
 100
AcDbEntity
   8
LEVEL001
 100
AcDbLine
   6
CONTINUOUS
  62
7
  10
 162.50000000000
  20
 154.00000000000
  30
0.0
  11
 161.50000000000
  21
 155.00000000000
  31
0.0
   0
LINE
   5
ED
 100
AcDbEntity
   8
LEVEL001
 100
AcDbLine
   6
CONTINUOUS
  62
7
  10
 197.50000000000
  20
 152.00000000000
  30
0.0
  11
 195.50000000000
  21
 154.00000000000
  31
0.0
   0
LINE
   5
EE
 100
AcDbEntity
   8
LEVEL001
 100
AcDbLine
   6
CONTINUOUS
  62
7
  10
 197.50000000000
  20
 87.000000000000
  30
0.0
  11
 195.50000000000
  21
 85.000000000000
  31
0.0
   0
LINE
   5
EF
 100
AcDbEntity
   8
LEVEL001
 100
AcDbLine
   6
CONTINUOUS
  62
7
  10
 52.500000000000
  20
 87.000000000000
  30
0.0
  11
 54.500000000000
  21
 85.000000000000
  31
0.0
   0
LINE
   5
F0
 100
AcDbEntity
   8
LEVEL001
 100
AcDbLine
   6
CONTINUOUS
  62
7
  10
 52.500000000000
  20
 152.00000000000
  30
0.0
  11
 52.500000000000
  21
 87.000000000000
  31
0.0
   0
LINE
   5
F1
 100
AcDbEntity
   8
LEVEL001
 100
AcDbLine
   6
CONTINUOUS
  62
7
  10
 52.500000000000
  20
 152.00000000000
  30
0.0
  11
 54.500000000000
  21
 154.00000000000
  31
0.0
   0
LINE
   5
F2
 100
AcDbEntity
   8
LEVEL001
 100
AcDbLine
   6
CONTINUOUS
  62
7
  10
 87.500000000000
  20
 154.00000000000
  30
0.0
  11
 88.500000000000
  21
 155.00000000000
  31
0.0
   0
LINE
   5
F3
 100
AcDbEntity
   8
LEVEL001
 100
AcDbLine
   6
CONTINUOUS
  62
7
  10
 54.500000000000
  20
 154.00000000000
  30
0.0
  11
 125.00000000000
  21
 154.00000000000
  31
0.0
   0
LINE
   5
F4
 100
AcDbEntity
   8
LEVEL001
 100
AcDbLine
   6
CONTINUOUS
  62
7
  10
 125.00000000000
  20
 152.00000000000
  30
0.0
  11
 52.500000000000
  21
 152.00000000000
  31
0.0
   0
LINE
   5
F5
 100
AcDbEntity
   8
LEVEL001
 100
AcDbLine
   6
CONTINUOUS
  62
7
  10
 52.500000000000
  20
 87.000000000000
  30
0.0
  11
 125.00000000000
  21
 87.000000000000
  31
0.0
   0
LINE
   5
F6
 100
AcDbEntity
   8
LEVEL001
 100
AcDbLine
   6
CONTINUOUS
  62
7
  10
 161.50001525879
  20
 155.00000000000
  30
0.0
  11
 88.500000000000
  21
 155.00000000000
  31
0.0
   0
LINE
   5
F7
 100
AcDbEntity
   8
LEVEL001
 100
AcDbLine
   6
CONTINUOUS
  62
7
  10
 54.500000000000
  20
 85.000000000000
  30
0.0
  11
 195.50000000000
  21
 85.000000000000
  31
0.0
   0
DIMENSION
   5
F8
 100
AcDbEntity
   8
LEVEL003
   6
CONTINUOUS
  62
3
 100
AcDbDimension
   2
*D1
  10
 197.50000000000
  20
 50.000000000000
  30
0.0
  11
 125.00000000000
  21
 50.000000000000
  31
0.0
  70
128
   1
\A1;%%c145
   3
GMM001
 100
AcDbAlignedDimension
  13
 52.500000000000
  23
 87.000000000000
  33
0.0
  14
 197.50000000000
  24
 87.000000000000
  34
0.0
 100
AcDbRotatedDimension
   0
DIMENSION
   5
FA
 100
AcDbEntity
   8
LEVEL003
   6
CONTINUOUS
  62
3
 100
AcDbDimension
   2
*D2
  10
 87.500000000000
  20
 185.00000000000
  30
0.0
  11
 125.00000278005
  21
 185.00000000000
  31
0.0
  70
128
   1
\A1;%%c75
   3
GMM001
 100
AcDbAlignedDimension
  13
 162.50000000000
  23
 154.00000000000
  33
0.0
  14
 87.500000000000
  24
 154.00000000000
  34
0.0
  50
 180.00000000000
 100
AcDbRotatedDimension
   0
DIMENSION
   5
FC
 100
AcDbEntity
   8
LEVEL003
   6
CONTINUOUS
  62
3
 100
AcDbDimension
   2
*D3
  10
 240.00000000000
  20
 155.00000000000
  30
0.0
  11
 240.00000000000
  21
 157.15406705625
  31
0.0
  70
128
   1
\A1;1
   3
GMM002
 100
AcDbAlignedDimension
  13
 195.50000000000
  23
 154.00000000000
  33
0.0
  14
 161.50000000000
  24
 155.00000000000
  34
0.0
  50
 90.000000000000
 100
AcDbRotatedDimension
   0
TEXT
   5
FE
 100
AcDbEntity
   8
LEVEL003
  62
3
 100
AcDbText
  10
 210.00000000000
  20
 65.000000000000
  30
0.0
  40
 4.0000000000000
   1
ＮＰＴ３／８
   7
STANDARD
 100
AcDbText
   0
DIMENSION
   5
FF
 100
AcDbEntity
   8
LEVEL003
   6
CONTINUOUS
  62
3
 100
AcDbDimension
   2
*D4
  10
 280.00000000000
  20
 85.000000000000
  30
0.0
  11
 280.00000000000
  21
 94.521957397461
  31
0.0
  70
128
   1
\A1;19
   3
GMM003
 100
AcDbAlignedDimension
  13
 197.50000000000
  23
 104.04391479492
  33
0.0
  14
 195.50000000000
  24
 85.000000000000
  34
0.0
  50
 270.00000000000
 100
AcDbRotatedDimension
   0
DIMENSION
   5
101
 100
AcDbEntity
   8
LEVEL003
   6
CONTINUOUS
  62
3
 100
AcDbDimension
   2
*D5
  10
 290.00000000000
  20
 85.000000000000
  30
0.0
  11
 290.00000000000
  21
 120.00000000000
  31
0.0
  70
128
   1
\A1;70
   3
GMM004
 100
AcDbAlignedDimension
  13
 161.50000000000
  23
 155.00000000000
  33
0.0
  14
 195.50000000000
  24
 85.000000000000
  34
0.0
  50
 270.00000000000
 100
AcDbRotatedDimension
   0
LINE
   5
103
 100
AcDbEntity
   8
LEVEL001
 100
AcDbLine
   6
CONTINUOUS
  62
3
  10
 206.20674133301
  20
 113.48216247559
  30
0.0
  11
 202.68862915039
  21
 112.20169067383
  31
0.0
   0
LINE
   5
104
 100
AcDbEntity
   8
LEVEL001
 100
AcDbLine
   6
CONTINUOUS
  62
3
  10
 207.71336364746
  20
 96.260925292969
  30
0.0
  11
 204.02630615234
  21
 96.911071777344
  31
0.0
   0
LINE
   5
105
 100
AcDbEntity
   8
LEVEL001
 100
AcDbLine
   6
CONTINUOUS
  62
7
  10
 206.20674133301
  20
 113.48216247559
  30
0.0
  11
 207.60997009277
  21
 114.46472167969
  31
0.0
   0
LINE
   5
106
 100
AcDbEntity
   8
LEVEL001
 100
AcDbLine
   6
CONTINUOUS
  62
7
  10
 223.06741333008
  20
 115.81701660156
  30
0.0
  11
 207.60997009277
  21
 114.46469116211
  31
0.0
   0
LINE
   5
107
 100
AcDbEntity
   8
LEVEL001
 100
AcDbLine
   6
CONTINUOUS
  62
7
  10
 207.71336364746
  20
 96.260925292969
  30
0.0
  11
 209.26588439941
  21
 95.536987304688
  31
0.0
   0
LINE
   5
108
 100
AcDbEntity
   8
LEVEL001
 100
AcDbLine
   6
CONTINUOUS
  62
7
  10
 224.72332763672
  20
 96.889312744141
  30
0.0
  11
 209.26588439941
  21
 95.536987304688
  31
0.0
   0
ARC
   5
109
 100
AcDbEntity
   8
LEVEL001
   6
CONTINUOUS
  62
7
 100
AcDbCircle
  10
 224.25666780904
  20
 119.43441918860
  30
0.0
  40
 1.5000000000000
 100
AcDbArc
  50
 95.000130703351
  51
 184.99961257247
   0
LINE
   5
10A
 100
AcDbEntity
   8
LEVEL001
 100
AcDbLine
   6
CONTINUOUS
  62
7
  10
 224.12593078613
  20
 120.92871093750
  30
0.0
  11
 229.10691833496
  21
 121.36448669434
  31
0.0
   0
ARC
   5
10B
 100
AcDbEntity
   8
LEVEL001
   6
CONTINUOUS
  62
7
 100
AcDbCircle
  10
 226.52265850018
  20
 93.533355489058
  30
0.0
  40
 1.5000000000000
 100
AcDbArc
  50
 184.99984039073
  51
 274.99958717348
   0
LINE
   5
10C
 100
AcDbEntity
   8
LEVEL001
 100
AcDbLine
   6
CONTINUOUS
  62
7
  10
 225.02836608887
  20
 93.402626037598
  30
0.0
  11
 222.76237487793
  21
 119.30369567871
  31
0.0
   0
LINE
   5
10D
 100
AcDbEntity
   8
LEVEL001
 100
AcDbLine
   6
CONTINUOUS
  62
7
  10
 226.65338134766
  20
 92.039062500000
  30
0.0
  11
 231.63436889648
  21
 92.474830627441
  31
0.0
   0
ARC
   5
10E
 100
AcDbEntity
   8
LEVEL001
   6
CONTINUOUS
  62
7
 100
AcDbCircle
  10
 245.17675927649
  20
 121.26464871928
  30
0.0
  40
 1.5000000000000
 100
AcDbArc
  50
 5.0001307033484
  51
 94.999612572401
   0
LINE
   5
10F
 100
AcDbEntity
   8
LEVEL001
 100
AcDbLine
   6
CONTINUOUS
  62
7
  10
 240.06504821777
  20
 122.32316589355
  30
0.0
  11
 245.04603576660
  21
 122.75894165039
  31
0.0
   0
ARC
   5
110
 100
AcDbEntity
   8
LEVEL001
   6
CONTINUOUS
  62
7
 100
AcDbCircle
  10
 247.44274996760
  20
 95.363577390354
  30
0.0
  40
 1.5000000000000
 100
AcDbArc
  50
 275.00010530554
  51
 4.9999028847940
   0
LINE
   5
111
 100
AcDbEntity
   8
LEVEL001
 100
AcDbLine
   6
CONTINUOUS
  62
7
  10
 242.59251403809
  20
 93.433517456055
  30
0.0
  11
 247.57348632813
  21
 93.869285583496
  31
0.0
   0
LINE
   5
112
 100
AcDbEntity
   8
LEVEL001
 100
AcDbLine
   6
CONTINUOUS
  62
7
  10
 246.67105102539
  20
 121.39538574219
  30
0.0
  11
 248.93704223633
  21
 95.494308471680
  31
0.0
   0
ARC
   5
113
 100
AcDbEntity
   8
LEVEL001
   6
DASHDOT
  62
1
 100
AcDbCircle
  10
 255.63680066459
  20
 122.17975377064
  30
0.0
  40
 1.0000000000000
 100
AcDbArc
  50
 4.9998403905950
  51
 94.999587173531
   0
LINE
   5
114
 100
AcDbEntity
   8
LEVEL001
 100
AcDbLine
   6
DASHDOT
  62
1
  10
 247.58009338379
  20
 122.47872924805
  30
0.0
  11
 255.54965209961
  21
 123.17594909668
  31
0.0
   0
ARC
   5
115
 100
AcDbEntity
   8
LEVEL001
   6
DASHDOT
  62
1
 100
AcDbCircle
  10
 257.90279149037
  20
 96.278696161580
  30
0.0
  40
 1.0000000000000
 100
AcDbArc
  50
 274.99984039073
  51
 4.9995871735571
   0
LINE
   5
116
 100
AcDbEntity
   8
LEVEL001
 100
AcDbLine
   6
DASHDOT
  62
1
  10
 250.02038574219
  20
 94.585266113281
  30
0.0
  11
 257.98994445801
  21
 95.282501220703
  31
0.0
   0
LINE
   5
117
 100
AcDbEntity
   8
LEVEL001
 100
AcDbLine
   6
DASHDOT
  62
1
  10
 256.63299560547
  20
 122.26690673828
  30
0.0
  11
 258.89898681641
  21
 96.365844726563
  31
0.0
   0
CIRCLE
   5
118
 100
AcDbEntity
   8
LEVEL001
 100
AcDbCircle
   6
DASHDOT
  62
1
  10
 260.75457763672
  20
 109.57783508301
  30
0.0
  40
 1.5000000000000
   0
ARC
   5
119
 100
AcDbEntity
   8
LEVEL001
   6
DASHDOT
  62
1
 100
AcDbCircle
  10
 249.93323717721
  20
 95.581461439319
  30
0.0
  40
 1.0000000000000
 100
AcDbArc
  50
 184.99984039068
  51
 274.99958717348
   0
ARC
   5
11A
 100
AcDbEntity
   8
LEVEL001
   6
DASHDOT
  62
1
 100
AcDbCircle
  10
 247.66724635143
  20
 121.48253430717
  30
0.0
  40
 1.0000000000000
 100
AcDbArc
  50
 94.999840390805
  51
 184.99958717339
   0
ARC
   5
11B
 100
AcDbEntity
   8
LEVEL001
   6
DASHDOT
  62
1
 100
AcDbCircle
  10
 259.27904160899
  20
 114.96976054312
  30
0.0
  40
 2.0000000000000
 100
AcDbArc
  50
 184.99980229364
  51
 275.00002264225
   0
ARC
   5
11C
 100
AcDbEntity
   8
LEVEL001
   6
DASHDOT
  62
1
 100
AcDbCircle
  10
 260.23773672142
  20
 104.01160792098
  30
0.0
  40
 2.0000000000000
 100
AcDbArc
  50
 94.999840390767
  51
 184.99958717349
   0
LINE
   5
11D
 100
AcDbEntity
   8
LEVEL001
 100
AcDbLine
   6
DASHDOT
  62
1
  10
 259.45335388184
  20
 112.97737121582
  30
0.0
  11
 259.95144653320
  21
 113.02095031738
  31
0.0
   0
LINE
   5
11E
 100
AcDbEntity
   8
LEVEL001
 100
AcDbLine
   6
DASHDOT
  62
1
  10
 260.06343078613
  20
 106.00399780273
  30
0.0
  11
 260.56152343750
  21
 106.04757690430
  31
0.0
   0
ARC
   5
11F
 100
AcDbEntity
   8
LEVEL001
   6
DASHDOT
  62
1
 100
AcDbCircle
  10
 260.25648498535
  20
 109.53426361084
  30
0.0
  40
 3.5000046638358
 100
AcDbArc
  50
 274.99988408436
  51
 94.999884084362
   0
LINE
   5
120
 100
AcDbEntity
   8
LEVEL001
 100
AcDbLine
   6
CONTINUOUS
  62
7
  10
 209.26588439941
  20
 95.536987304688
  30
0.0
  11
 208.94612121582
  21
 99.192077636719
  31
0.0
   0
LINE
   5
121
 100
AcDbEntity
   8
LEVEL001
 100
AcDbLine
   6
CONTINUOUS
  62
7
  10
 207.92974853516
  20
 110.80960083008
  30
0.0
  11
 207.60997009277
  21
 114.46470642090
  31
0.0
   0
LINE
   5
122
 100
AcDbEntity
   8
LEVEL001
 100
AcDbLine
   6
CONTINUOUS
  62
7
  10
 203.32730102539
  20
 100.49911499023
  30
0.0
  11
 216.41381835938
  21
 111.55184936523
  31
0.0
   0
LINE
   5
123
 100
AcDbEntity
   8
LEVEL001
 100
AcDbLine
   6
CONTINUOUS
  62
7
  10
 202.62324523926
  20
 108.54675292969
  30
0.0
  11
 217.43019104004
  21
 99.934326171875
  31
0.0
   0
LINE
   5
124
 100
AcDbEntity
   8
LEVEL001
 100
AcDbLine
   6
CONTINUOUS
  62
3
  10
 202.68862915039
  20
 112.20167541504
  30
0.0
  11
 203.00546264648
  21
 108.58018493652
  31
0.0
   0
LINE
   5
125
 100
AcDbEntity
   8
LEVEL001
 100
AcDbLine
   6
CONTINUOUS
  62
3
  10
 203.70948791504
  20
 100.53256225586
  30
0.0
  11
 204.02630615234
  21
 96.911071777344
  31
0.0
   0
LINE
   5
126
 100
AcDbEntity
   8
LEVEL001
 100
AcDbLine
   6
CONTINUOUS
  62
7
  10
 206.20674133301
  20
 113.48216247559
  30
0.0
  11
 206.58560180664
  21
 109.15173339844
  31
0.0
   0
LINE
   5
127
 100
AcDbEntity
   8
LEVEL001
 100
AcDbLine
   6
CONTINUOUS
  62
7
  10
 207.33451843262
  20
 100.59135437012
  30
0.0
  11
 207.71336364746
  21
 96.260925292969
  31
0.0
   0
LINE
   5
128
 100
AcDbEntity
   8
LEVEL001
 100
AcDbLine
   6
CONTINUOUS
  62
3
  10
 231.50363159180
  20
 93.969123840332
  30
0.0
  11
 242.46177673340
  21
 94.927810668945
  31
0.0
   0
LINE
   5
129
 100
AcDbEntity
   8
LEVEL001
 100
AcDbLine
   6
CONTINUOUS
  62
3
  10
 231.32933044434
  20
 95.961517333984
  30
0.0
  11
 242.28747558594
  21
 96.920196533203
  31
0.0
   0
LINE
   5
12A
 100
AcDbEntity
   8
LEVEL001
 100
AcDbLine
   6
CONTINUOUS
  62
3
  10
 231.15501403809
  20
 97.953903198242
  30
0.0
  11
 242.11315917969
  21
 98.912597656250
  31
0.0
   0
LINE
   5
12B
 100
AcDbEntity
   8
LEVEL001
 100
AcDbLine
   6
CONTINUOUS
  62
3
  10
 230.98071289063
  20
 99.946289062500
  30
0.0
  11
 241.93885803223
  21
 100.90498352051
  31
0.0
   0
LINE
   5
12C
 100
AcDbEntity
   8
LEVEL001
 100
AcDbLine
   6
CONTINUOUS
  62
3
  10
 230.80641174316
  20
 101.93869018555
  30
0.0
  11
 241.76454162598
  21
 102.89736938477
  31
0.0
   0
LINE
   5
12D
 100
AcDbEntity
   8
LEVEL001
 100
AcDbLine
   6
CONTINUOUS
  62
3
  10
 230.63209533691
  20
 103.93107604980
  30
0.0
  11
 241.59024047852
  21
 104.88975524902
  31
0.0
   0
LINE
   5
12E
 100
AcDbEntity
   8
LEVEL001
 100
AcDbLine
   6
CONTINUOUS
  62
3
  10
 230.45779418945
  20
 105.92346191406
  30
0.0
  11
 241.41593933105
  21
 106.88215637207
  31
0.0
   0
LINE
   5
12F
 100
AcDbEntity
   8
LEVEL001
 100
AcDbLine
   6
CONTINUOUS
  62
3
  10
 230.28347778320
  20
 107.91584777832
  30
0.0
  11
 241.24162292480
  21
 108.87454223633
  31
0.0
   0
LINE
   5
130
 100
AcDbEntity
   8
LEVEL001
 100
AcDbLine
   6
CONTINUOUS
  62
3
  10
 230.10917663574
  20
 109.90824890137
  30
0.0
  11
 241.06732177734
  21
 110.86692810059
  31
0.0
   0
LINE
   5
131
 100
AcDbEntity
   8
LEVEL001
 100
AcDbLine
   6
CONTINUOUS
  62
3
  10
 229.93487548828
  20
 111.90063476563
  30
0.0
  11
 240.89302062988
  21
 112.85931396484
  31
0.0
   0
LINE
   5
132
 100
AcDbEntity
   8
LEVEL001
 100
AcDbLine
   6
CONTINUOUS
  62
3
  10
 229.76055908203
  20
 113.89302062988
  30
0.0
  11
 240.71870422363
  21
 114.85171508789
  31
0.0
   0
LINE
   5
133
 100
AcDbEntity
   8
LEVEL001
 100
AcDbLine
   6
CONTINUOUS
  62
3
  10
 229.58625793457
  20
 115.88540649414
  30
0.0
  11
 240.54440307617
  21
 116.84410095215
  31
0.0
   0
LINE
   5
134
 100
AcDbEntity
   8
LEVEL001
 100
AcDbLine
   6
CONTINUOUS
  62
3
  10
 229.41194152832
  20
 117.87780761719
  30
0.0
  11
 240.37008666992
  21
 118.83648681641
  31
0.0
   0
LINE
   5
135
 100
AcDbEntity
   8
LEVEL001
 100
AcDbLine
   6
CONTINUOUS
  62
3
  10
 229.23764038086
  20
 119.87019348145
  30
0.0
  11
 240.19578552246
  21
 120.82888793945
  31
0.0
   0
LINE
   5
136
 100
AcDbEntity
   8
LEVEL001
 100
AcDbLine
   6
CONTINUOUS
  62
7
  10
 203.32730102539
  20
 100.49911499023
  30
0.0
  11
 202.62324523926
  21
 108.54675292969
  31
0.0
   0
LINE
   5
137
 100
AcDbEntity
   8
LEVEL001
 100
AcDbLine
   6
CONTINUOUS
  62
7
  10
 202.62324523926
  20
 108.54675292969
  30
0.0
  11
 206.58560180664
  21
 109.15173339844
  31
0.0
   0
LINE
   5
138
 100
AcDbEntity
   8
LEVEL001
 100
AcDbLine
   6
CONTINUOUS
  62
7
  10
 206.58560180664
  20
 109.15173339844
  30
0.0
  11
 207.92974853516
  21
 110.80960083008
  31
0.0
   0
LINE
   5
139
 100
AcDbEntity
   8
LEVEL001
 100
AcDbLine
   6
CONTINUOUS
  62
7
  10
 207.92974853516
  20
 110.80960083008
  30
0.0
  11
 216.41381835938
  21
 111.55184936523
  31
0.0
   0
LINE
   5
13A
 100
AcDbEntity
   8
LEVEL001
 100
AcDbLine
   6
CONTINUOUS
  62
7
  10
 216.41381835938
  20
 111.55184936523
  30
0.0
  11
 217.43019104004
  21
 99.934326171875
  31
0.0
   0
LINE
   5
13B
 100
AcDbEntity
   8
LEVEL001
 100
AcDbLine
   6
CONTINUOUS
  62
7
  10
 217.43019104004
  20
 99.934326171875
  30
0.0
  11
 208.94612121582
  21
 99.192077636719
  31
0.0
   0
LINE
   5
13C
 100
AcDbEntity
   8
LEVEL001
 100
AcDbLine
   6
CONTINUOUS
  62
7
  10
 208.94612121582
  20
 99.192077636719
  30
0.0
  11
 207.33451843262
  21
 100.59135437012
  31
0.0
   0
LINE
   5
13D
 100
AcDbEntity
   8
LEVEL001
 100
AcDbLine
   6
CONTINUOUS
  62
7
  10
 207.33451843262
  20
 100.59135437012
  30
0.0
  11
 203.32730102539
  21
 100.49911499023
  31
0.0
   0
LINE
   5
13E
 100
AcDbEntity
   8
LEVEL001
 100
AcDbLine
   6
CONTINUOUS
  62
7
  10
 231.67793273926
  20
 91.976737976074
  30
0.0
  11
 229.06333923340
  21
 121.86257934570
  31
0.0
   0
LINE
   5
13F
 100
AcDbEntity
   8
LEVEL001
 100
AcDbLine
   6
CONTINUOUS
  62
7
  10
 229.06333923340
  20
 121.86257934570
  30
0.0
  11
 240.02148437500
  21
 122.82127380371
  31
0.0
   0
LINE
   5
140
 100
AcDbEntity
   8
LEVEL001
 100
AcDbLine
   6
CONTINUOUS
  62
7
  10
 240.02148437500
  20
 122.82127380371
  30
0.0
  11
 242.63607788086
  21
 92.935424804688
  31
0.0
   0
LINE
   5
141
 100
AcDbEntity
   8
LEVEL001
 100
AcDbLine
   6
CONTINUOUS
  62
7
  10
 242.63607788086
  20
 92.935424804688
  30
0.0
  11
 231.67793273926
  21
 91.976737976074
  31
0.0
   0
LEADER
   5
142
 100
AcDbEntity
   8
LEVEL003
   6
CONTINUOUS
  62
3
 100
AcDbLeader
   3
GMM005
  73
0
  74
1
  75
0
  40
 4.0000000000000
  41
0.0
  76
3
  10
 199.72895812988
  20
 95.813140869141
  30
0.0
  10
 210.00000000000
  20
 65.000000000000
  30
0.0
  10
 235.00000000000
  20
 65.000000000000
  30
0.0
  77
3
   0
DIMENSION
   5
143
 100
AcDbEntity
   8
LEVEL003
   6
CONTINUOUS
  62
3
 100
AcDbDimension
   2
*D7
  10
 279.68614938139
  20
 111.23327616475
  30
0.0
  11
 279.65798991167
  21
 111.54823133517
  31
0.0
  70
133
   1
\A1;5%%d
  53
0.0
   3
GMM006
 100
AcDb3PointAngularDimension
  13
 280.00000000000
  23
 104.04391479492
  33
0.0
  14
 266.73175048828
  24
 110.10076904297
  34
0.0
  15
 197.49989318848
  25
 104.04391479492
  35
0.0
   0
LINE
   5
145
 100
AcDbEntity
   8
LEVEL001
 100
AcDbLine
   6
DOT
  62
3
  10
 172.50000000000
  20
 135.00000000000
  30
0.0
  11
 172.50000000000
  21
 102.00000000000
  31
0.0
   0
LINE
   5
146
 100
AcDbEntity
   8
LEVEL001
 100
AcDbLine
   6
DOT
  62
3
  10
 162.50000000000
  20
 154.00000000000
  30
0.0
  11
 162.50000000000
  21
 128.50000000000
  31
0.0
   0
LINE
   5
147
 100
AcDbEntity
   8
LEVEL001
 100
AcDbLine
   6
DASHDOT
  62
1
  10
 266.73175048828
  20
 110.10076904297
  30
0.0
  11
 172.50000000000
  21
 101.85676569275
  31
0.0
   0
LINE
   5
148
 100
AcDbEntity
   8
LEVEL001
 100
AcDbLine
   6
CONTINUOUS
  62
7
  10
 206.20674133301
  20
 113.48216247559
  30
0.0
  11
 197.50000000000
  21
 112.44550948378
  31
0.0
   0
LINE
   5
149
 100
AcDbEntity
   8
LEVEL001
 100
AcDbLine
   6
CONTINUOUS
  62
7
  10
 207.71336364746
  20
 96.260925292969
  30
0.0
  11
 197.50000000000
  21
 95.688143035183
  31
0.0
   0
LINE
   5
14A
 100
AcDbEntity
   8
LEVEL001
 100
AcDbLine
   6
CONTINUOUS
  62
3
  10
 204.02630615234
  20
 96.911071777344
  30
0.0
  11
 197.50000000000
  21
 96.545063633464
  31
0.0
   0
LINE
   5
14B
 100
AcDbEntity
   8
LEVEL001
 100
AcDbLine
   6
CONTINUOUS
  62
3
  10
 202.68862915039
  20
 112.20167541504
  30
0.0
  11
 197.50000000000
  21
 111.58390131317
  31
0.0
   0
LINE
   5
14C
 100
AcDbEntity
   8
LEVEL001
 100
AcDbLine
   6
CONTINUOUS
  62
7
  10
 197.50000000000
  20
 152.00000000000
  30
0.0
  11
 197.50000000000
  21
 87.000000000000
  31
0.0
   0
LINE
   5
14D
 100
AcDbEntity
   8
LEVEL001
 100
AcDbLine
   6
CONTINUOUS
  62
7
  10
 197.50000000000
  20
 87.000000000000
  30
0.0
  11
 125.00000000000
  21
 87.000000000000
  31
0.0
   0
LINE
   5
14E
 100
AcDbEntity
   8
LEVEL001
 100
AcDbLine
   6
DOT
  62
3
  10
 77.500000000000
  20
 135.00000000000
  30
0.0
  11
 77.500000000000
  21
 102.00000000000
  31
0.0
   0
LINE
   5
14F
 100
AcDbEntity
   8
LEVEL001
 100
AcDbLine
   6
DOT
  62
3
  10
 87.500000000000
  20
 154.00000000000
  30
0.0
  11
 87.500000000000
  21
 128.50000000000
  31
0.0
   0
LINE
   5
150
 100
AcDbEntity
   8
LEVEL001
 100
AcDbLine
   6
CONTINUOUS
  62
7
  10
 195.50000000000
  20
 154.00000000000
  30
0.0
  11
 125.00000000000
  21
 154.00000000000
  31
0.0
   0
LINE
   5
151
 100
AcDbEntity
   8
LEVEL001
 100
AcDbLine
   6
CONTINUOUS
  62
7
  10
 125.00000000000
  20
 152.00000000000
  30
0.0
  11
 197.50000000000
  21
 152.00000000000
  31
0.0
   0
DIMENSION
   5
152
 100
AcDbEntity
   8
LEVEL003
   6
CONTINUOUS
  62
3
 100
AcDbDimension
   2
*D8
  10
 172.50000000000
  20
 115.00000000000
  30
0.0
  11
 125.00000000000
  21
 115.00000000000
  31
0.0
  70
0
   1
\A1;%%c95
   3
GMM007
 100
AcDbAlignedDimension
  13
 77.500000000000
  23
 115.00000000000
  33
0.0
  14
 172.50000000000
  24
 115.00000000000
  34
0.0
 100
AcDbRotatedDimension
   0
LINE
   5
154
 100
AcDbEntity
   8
LEVEL001
 100
AcDbLine
   6
DASHDOT
  62
1
  10
 125.00000000000
  20
 160.00000000000
  30
0.0
  11
 125.00000000000
  21
 120.00000000000
  31
0.0
   0
LINE
   5
155
 100
AcDbEntity
   8
LEVEL001
 100
AcDbLine
   6
DASHDOT
  62
1
  10
 125.00000000000
  20
 115.00000000000
  30
0.0
  11
 125.00000000000
  21
 80.000000000000
  31
0.0
   0
TEXT
   5
156
 100
AcDbEntity
   8
LEVEL003
  62
7
 100
AcDbText
  10
 310.18614009769
  20
 15.365005919329
  30
0.0
  40
 10.000000000000
   1
ＯＳＡＫＡ ＪＡＣＫ
   7
STANDARD
 100
AcDbText
   0
CIRCLE
   5
157
 100
AcDbEntity
   8
LEVEL003
 100
AcDbCircle
   6
CONTINUOUS
  62
7
  10
 289.73972624733
  20
 22.078977756860
  30
0.0
  40
 3.0000000000000
   0
LINE
   5
158
 100
AcDbEntity
   8
LEVEL003
 100
AcDbLine
   6
CONTINUOUS
  62
7
  10
 295.62772624733
  20
 25.078977756860
  30
0.0
  11
 291.81872624733
  21
 18.478977756860
  31
0.0
   0
LINE
   5
159
 100
AcDbEntity
   8
LEVEL003
 100
AcDbLine
   6
CONTINUOUS
  62
7
  10
 291.81872624733
  20
 18.478977756860
  30
0.0
  11
 284.19772624733
  21
 18.478977756860
  31
0.0
   0
LINE
   5
15A
 100
AcDbEntity
   8
LEVEL003
 100
AcDbLine
   6
CONTINUOUS
  62
7
  10
 283.33072624733
  20
 16.978977756860
  30
0.0
  11
 296.95172624733
  21
 16.978977756860
  31
0.0
   0
LINE
   5
15B
 100
AcDbEntity
   8
LEVEL003
 100
AcDbLine
   6
CONTINUOUS
  62
7
  10
 296.95172624733
  20
 16.978977756860
  30
0.0
  11
 301.62772624733
  21
 25.078977756860
  31
0.0
   0
LINE
   5
15C
 100
AcDbEntity
   8
LEVEL003
 100
AcDbLine
   6
CONTINUOUS
  62
7
  10
 301.62772624733
  20
 25.078977756860
  30
0.0
  11
 295.62772624733
  21
 25.078977756860
  31
0.0
   0
LINE
   5
15D
 100
AcDbEntity
   8
LEVEL003
 100
AcDbLine
   6
CONTINUOUS
  62
7
  10
 284.19772624733
  20
 18.478977756860
  30
0.0
  11
 283.33072624733
  21
 16.978977756860
  31
0.0
   0
TEXT
   5
15E
 100
AcDbEntity
   8
LEVEL003
  62
7
 100
AcDbText
  10
 313.09714009769
  20
 32.258405919329
  30
0.0
  40
 6.0000000000000
   1
Model : ＥＦ５０Ｓ１.５
   7
STANDARD
 100
AcDbText
   0
ENDSEC
  0
SECTION
  2
OBJECTS
  0
DICTIONARY
  5
C
100
AcDbDictionary
  3
ACAD_GROUP
350
D
  3
ACAD_MLINESTYLE
350
1B
  0
DICTIONARY
  5
D
102
{ACAD_REACTORS
330
C
102
}
100
AcDbDictionary
  0
DICTIONARY
  5
1B
102
{ACAD_REACTORS
330
C
102
}
100
AcDbDictionary
  3
STANDARD
350
1C
  0
MLINESTYLE
  5
1C
102
{ACAD_REACTORS
330
1B
102
}
100
AcDbMlineStyle
  2
STANDARD
 70
     0
  3

 62
   256
 51
90.0
 52
90.0
 71
     2
 49
0.5
 62
   256
  6
BYLAYER
 49
-0.5
 62
   256
  6
BYLAYER
  0
ENDSEC
   0
EOF
