   0
SECTION
   2
HEADER
   9
$ACADVER
   1
AC1014
   9
$LIMMIN
  10
0.0
  20
0.0
   9
$LIMMAX
  10
 420.00000000000
  20
 297.00000000000
   9
$EXTMIN
  10
0.0
  20
0.0
  30
0.0
   9
$EXTMAX
  10
 420.00000000000
  20
 297.00000000000
  30
0.0
   9
$LTSCALE
  40
 8.4000000000000
   9
$HANDSEED
   5
15B
   0
ENDSEC
   0
SECTION
   2
TABLES
  0
TABLE
  2
VPORT
  5
8
100
AcDbSymbolTable
 70
     1
  0
VPORT
  5
15A
100
AcDbSymbolTableRecord
100
AcDbViewportTableRecord
  2
*ACTIVE
 70
     0
 10
0.0
 20
0.0
 11
1.0
 21
1.0
  12
 210.00000000000
  22
 148.50000000000
 13
0.0
 23
0.0
 14
1.0
 24
1.0
 15
0.0
 25
0.0
 16
0.0
 26
0.0
 36
1.0
 17
0.0
 27
0.0
 37
0.0
  40
 420.00000000000
  41
 1.4787878787879
 42
50.0
 43
0.0
 44
0.0
 50
0.0
 51
0.0
 71
     0
 72
   100
 73
     1
 74
     1
 75
     0
 76
     0
 77
     0
 78
     0
  0
ENDTAB
  0
TABLE
  2
LTYPE
  5
5
100
AcDbSymbolTable
 70
    25
  0
LTYPE
  5
12
100
AcDbSymbolTableRecord
100
AcDbLinetypeTableRecord
  2
BYBLOCK
 70
     0
  3

 72
    65
 73
     0
 40
0.0
  0
LTYPE
  5
13
100
AcDbSymbolTableRecord
100
AcDbLinetypeTableRecord
  2
BYLAYER
 70
     0
  3

 72
    65
 73
     0
 40
0.0
  0
LTYPE
  5
14
100
AcDbSymbolTableRecord
100
AcDbLinetypeTableRecord
  2
CONTINUOUS
 70
     0
  3
Solid line
 72
    65
 73
     0
 40
0.0
  0
LTYPE
  5
20
100
AcDbSymbolTableRecord
100
AcDbLinetypeTableRecord
  2
BORDER
 70
     0
  3
__ __ . __ __ . __ __ . __ __ . __ __ . __ __ .
 72
    65
 73
     6
 40
1.75
 49
0.5
 74
     0
 49
-0.25
 74
     0
 49
0.5
 74
     0
 49
-0.25
 74
     0
 49
0.0
 74
     0
 49
-0.25
 74
     0
  0
LTYPE
  5
21
100
AcDbSymbolTableRecord
100
AcDbLinetypeTableRecord
  2
BORDER2
 70
     0
  3
__.__.__.__.__.__.__.__.__.__.__.__.__.__.__.__
 72
    65
 73
     6
 40
0.875
 49
0.25
 74
     0
 49
-0.125
 74
     0
 49
0.25
 74
     0
 49
-0.125
 74
     0
 49
0.0
 74
     0
 49
-0.125
 74
     0
  0
LTYPE
  5
22
100
AcDbSymbolTableRecord
100
AcDbLinetypeTableRecord
  2
BORDERX2
 70
     0
  3
____  ____  .  ____  ____  .  ____  ____  .  __
 72
    65
 73
     6
 40
3.5
 49
1.0
 74
     0
 49
-0.5
 74
     0
 49
1.0
 74
     0
 49
-0.5
 74
     0
 49
0.0
 74
     0
 49
-0.5
 74
     0
  0
LTYPE
  5
23
100
AcDbSymbolTableRecord
100
AcDbLinetypeTableRecord
  2
CENTER
 70
     0
  3
____ _ ____ _ ____ _ ____ _ ____ _ ____ _ ____ 
 72
    65
 73
     4
 40
2.0
 49
1.25
 74
     0
 49
-0.25
 74
     0
 49
0.25
 74
     0
 49
-0.25
 74
     0
  0
LTYPE
  5
24
100
AcDbSymbolTableRecord
100
AcDbLinetypeTableRecord
  2
CENTER2
 70
     0
  3
___ _ ___ _ ___ _ ___ _ ___ _ ___ _ ___ _ ___ _
 72
    65
 73
     4
 40
1.125
 49
0.75
 74
     0
 49
-0.125
 74
     0
 49
0.125
 74
     0
 49
-0.125
 74
     0
  0
LTYPE
  5
25
100
AcDbSymbolTableRecord
100
AcDbLinetypeTableRecord
  2
CENTERX2
 70
     0
  3
________  __  ________  __  ________  __  _____
 72
    65
 73
     4
 40
4.0
 49
2.5
 74
     0
 49
-0.5
 74
     0
 49
0.5
 74
     0
 49
-0.5
 74
     0
  0
LTYPE
  5
26
100
AcDbSymbolTableRecord
100
AcDbLinetypeTableRecord
  2
DASHDOT
 70
     0
  3
__ . __ . __ . __ . __ . __ . __ . __ . __ . __
 72
    65
 73
     4
 40
1.0
 49
0.5
 74
     0
 49
-0.25
 74
     0
 49
0.0
 74
     0
 49
-0.25
 74
     0
  0
LTYPE
  5
27
100
AcDbSymbolTableRecord
100
AcDbLinetypeTableRecord
  2
DASHDOT2
 70
     0
  3
_._._._._._._._._._._._._._._._._._._._._._._._
 72
    65
 73
     4
 40
0.5
 49
0.25
 74
     0
 49
-0.125
 74
     0
 49
0.0
 74
     0
 49
-0.125
 74
     0
  0
LTYPE
  5
28
100
AcDbSymbolTableRecord
100
AcDbLinetypeTableRecord
  2
DASHDOTX2
 70
     0
  3
____  .  ____  .  ____  .  ____  .  ____  .  __
 72
    65
 73
     4
 40
2.0
 49
1.0
 74
     0
 49
-0.5
 74
     0
 49
0.0
 74
     0
 49
-0.5
 74
     0
  0
LTYPE
  5
29
100
AcDbSymbolTableRecord
100
AcDbLinetypeTableRecord
  2
DASHED
 70
     0
  3
__ __ __ __ __ __ __ __ __ __ __ __ __ __ __ __
 72
    65
 73
     2
 40
0.75
 49
0.5
 74
     0
 49
-0.25
 74
     0
  0
LTYPE
  5
2A
100
AcDbSymbolTableRecord
100
AcDbLinetypeTableRecord
  2
DASHED2
 70
     0
  3
_ _ _ _ _ _ _ _ _ _ _ _ _ _ _ _ _ _ _ _ _ _ _ _
 72
    65
 73
     2
 40
0.375
 49
0.25
 74
     0
 49
-0.125
 74
     0
  0
LTYPE
  5
2B
100
AcDbSymbolTableRecord
100
AcDbLinetypeTableRecord
  2
DASHEDX2
 70
     0
  3
____  ____  ____  ____  ____  ____  ____  ____ 
 72
    65
 73
     2
 40
1.5
 49
1.0
 74
     0
 49
-0.5
 74
     0
  0
LTYPE
  5
2C
100
AcDbSymbolTableRecord
100
AcDbLinetypeTableRecord
  2
DIVIDE
 70
     0
  3
____ . . ____ . . ____ . . ____ . . ____ . . __
 72
    65
 73
     6
 40
1.25
 49
0.5
 74
     0
 49
-0.25
 74
     0
 49
0.0
 74
     0
 49
-0.25
 74
     0
 49
0.0
 74
     0
 49
-0.25
 74
     0
  0
LTYPE
  5
2D
100
AcDbSymbolTableRecord
100
AcDbLinetypeTableRecord
  2
DIVIDE2
 70
     0
  3
__..__..__..__..__..__..__..__..__..__..__..__.
 72
    65
 73
     6
 40
0.625
 49
0.25
 74
     0
 49
-0.125
 74
     0
 49
0.0
 74
     0
 49
-0.125
 74
     0
 49
0.0
 74
     0
 49
-0.125
 74
     0
  0
LTYPE
  5
2E
100
AcDbSymbolTableRecord
100
AcDbLinetypeTableRecord
  2
DIVIDEX2
 70
     0
  3
________  .  .  ________  .  .  ________  .  . 
 72
    65
 73
     6
 40
2.5
 49
1.0
 74
     0
 49
-0.5
 74
     0
 49
0.0
 74
     0
 49
-0.5
 74
     0
 49
0.0
 74
     0
 49
-0.5
 74
     0
  0
LTYPE
  5
2F
100
AcDbSymbolTableRecord
100
AcDbLinetypeTableRecord
  2
DOT
 70
     0
  3
. . . . . . . . . . . . . . . . . . . . . . . .
 72
    65
 73
     2
 40
0.25
 49
0.0
 74
     0
 49
-0.25
 74
     0
  0
LTYPE
  5
30
100
AcDbSymbolTableRecord
100
AcDbLinetypeTableRecord
  2
DOT2
 70
     0
  3
...............................................
 72
    65
 73
     2
 40
0.125
 49
0.0
 74
     0
 49
-0.125
 74
     0
  0
LTYPE
  5
31
100
AcDbSymbolTableRecord
100
AcDbLinetypeTableRecord
  2
DOTX2
 70
     0
  3
.  .  .  .  .  .  .  .  .  .  .  .  .  .  .  . 
 72
    65
 73
     2
 40
0.5
 49
0.0
 74
     0
 49
-0.5
 74
     0
  0
LTYPE
  5
32
100
AcDbSymbolTableRecord
100
AcDbLinetypeTableRecord
  2
HIDDEN
 70
     0
  3
__ __ __ __ __ __ __ __ __ __ __ __ __ __ __ __
 72
    65
 73
     2
 40
0.375
 49
0.25
 74
     0
 49
-0.125
 74
     0
  0
LTYPE
  5
33
100
AcDbSymbolTableRecord
100
AcDbLinetypeTableRecord
  2
HIDDEN2
 70
     0
  3
_ _ _ _ _ _ _ _ _ _ _ _ _ _ _ _ _ _ _ _ _ _ _ _
 72
    65
 73
     2
 40
0.1875
 49
0.125
 74
     0
 49
-0.0625
 74
     0
  0
LTYPE
  5
34
100
AcDbSymbolTableRecord
100
AcDbLinetypeTableRecord
  2
HIDDENX2
 70
     0
  3
____ ____ ____ ____ ____ ____ ____ ____ ____ __
 72
    65
 73
     2
 40
0.75
 49
0.5
 74
     0
 49
-0.25
 74
     0
  0
LTYPE
  5
35
100
AcDbSymbolTableRecord
100
AcDbLinetypeTableRecord
  2
PHANTOM
 70
     0
  3
______  __  __  ______  __  __  ______  __  __ 
 72
    65
 73
     6
 40
2.5
 49
1.25
 74
     0
 49
-0.25
 74
     0
 49
0.25
 74
     0
 49
-0.25
 74
     0
 49
0.25
 74
     0
 49
-0.25
 74
     0
  0
LTYPE
  5
36
100
AcDbSymbolTableRecord
100
AcDbLinetypeTableRecord
  2
PHANTOM2
 70
     0
  3
___ _ _ ___ _ _ ___ _ _ ___ _ _ ___ _ _ ___ _ _
 72
    65
 73
     6
 40
1.25
 49
0.625
 74
     0
 49
-0.125
 74
     0
 49
0.125
 74
     0
 49
-0.125
 74
     0
 49
0.125
 74
     0
 49
-0.125
 74
     0
  0
LTYPE
  5
37
100
AcDbSymbolTableRecord
100
AcDbLinetypeTableRecord
  2
PHANTOMX2
 70
     0
  3
____________    ____    ____    ____________   
 72
    65
 73
     6
 40
5.0
 49
2.5
 74
     0
 49
-0.5
 74
     0
 49
0.5
 74
     0
 49
-0.5
 74
     0
 49
0.5
 74
     0
 49
-0.5
 74
     0
  0
ENDTAB
   0
TABLE
   2
LAYER
   5
2
 100
AcDbSymbolTable
  70
6
   0
LAYER
   5
E
 100
AcDbSymbolTableRecord
 100
AcDbLayerTableRecord
   2
0
  70
0
  62
7
   6
CONTINUOUS
   0
LAYER
   5
39
 100
AcDbSymbolTableRecord
 100
AcDbLayerTableRecord
   2
LEVEL001
  70
0
  62
7
   6
CONTINUOUS
   0
LAYER
   5
3A
 100
AcDbSymbolTableRecord
 100
AcDbLayerTableRecord
   2
LEVEL003
  70
0
  62
7
   6
CONTINUOUS
   0
LAYER
   5
3B
 100
AcDbSymbolTableRecord
 100
AcDbLayerTableRecord
   2
LEVEL020
  70
0
  62
7
   6
CONTINUOUS
   0
LAYER
   5
3C
 100
AcDbSymbolTableRecord
 100
AcDbLayerTableRecord
   2
LEVEL050
  70
0
  62
7
   6
CONTINUOUS
   0
LAYER
   5
3D
 100
AcDbSymbolTableRecord
 100
AcDbLayerTableRecord
   2
LEVEL110
  70
0
  62
7
   6
CONTINUOUS
   0
ENDTAB
  0
TABLE
  2
STYLE
  5
3
100
AcDbSymbolTable
  70
3
  0
STYLE
  5
F
100
AcDbSymbolTableRecord
100
AcDbTextStyleTableRecord
  2
STANDARD
 70
     0
 40
0.0
 41
1.0
 50
0.0
 71
     0
 42
0.2
  3
TXT
  4
BIGFONT
  0
STYLE
  5
38
100
AcDbSymbolTableRecord
100
AcDbTextStyleTableRecord
  2
STANDARD1
 70
     4
 40
0.0
 41
1.0
 50
0.0
 71
     0
 42
0.2
  3
TXT
  4
BIGFONT
   0
STYLE
   5
3E
 100
AcDbSymbolTableRecord
 100
AcDbTextStyleTableRecord
   2
GMM001
  70
0
  40
0.0
  41
 1.0000000000000
  50
0.0
  71
     0
  42
1.0
   3
txt.shx
   4
bigfont.shx
   0
ENDTAB
  0
TABLE
  2
VIEW
  5
6
100
AcDbSymbolTable
 70
     0
  0
ENDTAB
  0
TABLE
  2
UCS
  5
7
100
AcDbSymbolTable
 70
     0
  0
ENDTAB
  0
TABLE
  2
APPID
  5
9
100
AcDbSymbolTable
 70
     1
  0
APPID
  5
10
100
AcDbSymbolTableRecord
100
AcDbRegAppTableRecord
  2
ACAD
 70
     0
  0
ENDTAB
   0
TABLE
   2
DIMSTYLE
   5
A
 100
AcDbSymbolTable
  70
7
  0
DIMSTYLE
105
1D
100
AcDbSymbolTableRecord
100
AcDbDimStyleTableRecord
  2
STANDARD
 70
     0
  3

  4

  5

  6

  7

 40
1.0
 41
0.18
 42
0.0625
 43
0.38
 44
0.18
 45
0.0
 46
0.0
 47
0.0
 48
0.0
140
0.18
141
0.09
142
0.0
143
25.4
144
1.0
145
0.0
146
1.0
147
0.09
 71
     0
 72
     0
 73
     1
 74
     1
 75
     0
 76
     0
 77
     0
 78
     0
170
     0
171
     2
172
     0
173
     0
174
     0
175
     0
176
     0
177
     0
178
     0
270
     2
271
     4
272
     4
273
     2
274
     2
340
F
275
     0
280
     0
281
     0
282
     0
283
     1
284
     0
285
     0
286
     0
287
     3
288
     0
   0
DIMSTYLE
 105
3F
 100
AcDbSymbolTableRecord
 100
AcDbDimStyleTableRecord
   2
GMM001
  70
0
   3

   4

   5

   6
_OPEN
   7
_OPEN
  40
 1.0000000000000
  41
 3.0000000000000
  42
 1.0000000000000
  43
 0.10000000000000E-5
  44
 2.0000000000000
  45
0.0
  46
0.0
  47
0.0
  48
0.0
 140
 4.0000000000000
 141
 1.0000000000000
 142
0.0
 143
 0.39400000000000E-1
 144
 1.0000000000000
 145
0.0
 146
 0.62500000000000
 147
 0.79998779296875
  71
0
  72
0
  73
0
  74
0
  75
0
  76
0
  77
3
  78
0
 170
0
 171
2
 172
1
 173
1
 174
0
 175
0
 176
3
 177
3
 178
3
 270
2
 271
0
 272
0
 273
2
 274
2
 340
3E
 275
1
 280
0
 281
0
 282
0
 283
1
 284
0
 285
0
 286
0
 287
3
 288
1
   0
DIMSTYLE
 105
40
 100
AcDbSymbolTableRecord
 100
AcDbDimStyleTableRecord
   2
GMM002
  70
0
   3

   4

   5

   6
_OPEN
   7
_OPEN
  40
 1.0000000000000
  41
 3.0000000000000
  42
 1.0000000000000
  43
 0.10000000000000E-5
  44
 2.0000000000000
  45
0.0
  46
0.0
  47
0.0
  48
0.0
 140
 4.0000000000000
 141
 1.0000000000000
 142
0.0
 143
 0.39400000000000E-1
 144
 1.0000000000000
 145
0.0
 146
 0.62500000000000
 147
 0.80000305175781
  71
0
  72
0
  73
0
  74
0
  75
1
  76
0
  77
3
  78
0
 170
0
 171
2
 172
1
 173
1
 174
0
 175
0
 176
3
 177
3
 178
3
 270
2
 271
0
 272
0
 273
2
 274
2
 340
3E
 275
1
 280
0
 281
0
 282
0
 283
1
 284
0
 285
0
 286
0
 287
3
 288
1
   0
DIMSTYLE
 105
41
 100
AcDbSymbolTableRecord
 100
AcDbDimStyleTableRecord
   2
GMM003
  70
0
   3

   4

   5

   6
_OPEN
   7
_OPEN
  40
 1.0000000000000
  41
 3.0000000000000
  42
 1.0000000000000
  43
 0.10000000000000E-5
  44
 2.0000000000000
  45
0.0
  46
0.0
  47
0.0
  48
0.0
 140
 4.0000000000000
 141
 1.0000000000000
 142
0.0
 143
 0.39400000000000E-1
 144
 1.0000000000000
 145
0.0
 146
 0.62500000000000
 147
0.0
  71
0
  72
0
  73
0
  74
0
  75
0
  76
0
  77
1
  78
0
 170
0
 171
2
 172
1
 173
1
 174
0
 175
0
 176
3
 177
3
 178
7
 270
2
 271
0
 272
0
 273
2
 274
2
 340
F
 275
1
 280
0
 281
0
 282
0
 283
1
 284
0
 285
0
 286
0
 287
3
 288
1
   0
DIMSTYLE
 105
42
 100
AcDbSymbolTableRecord
 100
AcDbDimStyleTableRecord
   2
GMM004
  70
0
   3

   4

   5

   6
_OPEN
   7
_OPEN
  40
 1.0000000000000
  41
 3.0000000000000
  42
 1.0000000000000
  43
 8.0000000000000
  44
 2.0000000000000
  45
0.0
  46
0.0
  47
0.0
  48
0.0
 140
 4.0000000000000
 141
 1.0000000000000
 142
0.0
 143
 0.39400000000000E-1
 144
 1.0000000000000
 145
0.0
 146
 0.62500000000000
 147
 0.80000000000000
  71
0
  72
0
  73
0
  74
0
  75
0
  76
0
  77
3
  78
8
 170
0
 171
2
 172
1
 173
1
 174
0
 175
0
 176
3
 177
3
 178
3
 270
2
 271
2
 272
0
 273
2
 274
2
 340
3E
 275
0
 280
0
 281
0
 282
0
 283
1
 284
0
 285
0
 286
0
 287
3
 288
0
   0
DIMSTYLE
 105
43
 100
AcDbSymbolTableRecord
 100
AcDbDimStyleTableRecord
   2
GMM005
  70
0
   3

   4

   5

   6
_OPEN
   7
_OPEN
  40
 1.0000000000000
  41
 3.0000000000000
  42
 1.0000000000000
  43
 8.0000000000000
  44
 2.0000000000000
  45
0.0
  46
0.0
  47
0.0
  48
0.0
 140
 4.0000000000000
 141
 1.0000000000000
 142
0.0
 143
 0.39400000000000E-1
 144
 1.0000000000000
 145
0.0
 146
 0.62500000000000
 147
 0.80000000000000
  71
0
  72
0
  73
0
  74
0
  75
1
  76
1
  77
3
  78
8
 170
0
 171
2
 172
1
 173
1
 174
0
 175
0
 176
3
 177
3
 178
3
 270
2
 271
2
 272
0
 273
2
 274
2
 340
3E
 275
0
 280
0
 281
0
 282
0
 283
1
 284
0
 285
0
 286
0
 287
3
 288
0
   0
ENDTAB
  0
TABLE
  2
BLOCK_RECORD
  5
1
100
AcDbSymbolTable
 70
     0
  0
BLOCK_RECORD
  5
18
100
AcDbSymbolTableRecord
100
AcDbBlockTableRecord
  2
*MODEL_SPACE
  0
BLOCK_RECORD
  5
15
100
AcDbSymbolTableRecord
100
AcDbBlockTableRecord
  2
*PAPER_SPACE
   0
BLOCK_RECORD
   5
44
 100
AcDbSymbolTableRecord
 100
AcDbBlockTableRecord
   2
*D1
   0
BLOCK_RECORD
   5
45
 100
AcDbSymbolTableRecord
 100
AcDbBlockTableRecord
   2
*D2
   0
BLOCK_RECORD
   5
46
 100
AcDbSymbolTableRecord
 100
AcDbBlockTableRecord
   2
*D3
   0
BLOCK_RECORD
   5
47
 100
AcDbSymbolTableRecord
 100
AcDbBlockTableRecord
   2
*D5
   0
BLOCK_RECORD
   5
48
 100
AcDbSymbolTableRecord
 100
AcDbBlockTableRecord
   2
*D6
   0
BLOCK_RECORD
   5
49
 100
AcDbSymbolTableRecord
 100
AcDbBlockTableRecord
   2
*D7
   0
BLOCK_RECORD
   5
4A
 100
AcDbSymbolTableRecord
 100
AcDbBlockTableRecord
   2
_ARCHTICK
   0
BLOCK_RECORD
   5
4B
 100
AcDbSymbolTableRecord
 100
AcDbBlockTableRecord
   2
_BOXBLANK
   0
BLOCK_RECORD
   5
4C
 100
AcDbSymbolTableRecord
 100
AcDbBlockTableRecord
   2
_BOXFILLED
   0
BLOCK_RECORD
   5
4D
 100
AcDbSymbolTableRecord
 100
AcDbBlockTableRecord
   2
_CLOSED
   0
BLOCK_RECORD
   5
4E
 100
AcDbSymbolTableRecord
 100
AcDbBlockTableRecord
   2
_CLOSEDBLANK
   0
BLOCK_RECORD
   5
4F
 100
AcDbSymbolTableRecord
 100
AcDbBlockTableRecord
   2
_DATUMBLANK
   0
BLOCK_RECORD
   5
50
 100
AcDbSymbolTableRecord
 100
AcDbBlockTableRecord
   2
_DATUMFILLED
   0
BLOCK_RECORD
   5
51
 100
AcDbSymbolTableRecord
 100
AcDbBlockTableRecord
   2
_DOT
   0
BLOCK_RECORD
   5
52
 100
AcDbSymbolTableRecord
 100
AcDbBlockTableRecord
   2
_DOTBLANK
   0
BLOCK_RECORD
   5
53
 100
AcDbSymbolTableRecord
 100
AcDbBlockTableRecord
   2
_DOTSMALL
   0
BLOCK_RECORD
   5
54
 100
AcDbSymbolTableRecord
 100
AcDbBlockTableRecord
   2
_INTEGRAL
   0
BLOCK_RECORD
   5
55
 100
AcDbSymbolTableRecord
 100
AcDbBlockTableRecord
   2
_NONE
   0
BLOCK_RECORD
   5
56
 100
AcDbSymbolTableRecord
 100
AcDbBlockTableRecord
   2
_OBLIQUE
   0
BLOCK_RECORD
   5
57
 100
AcDbSymbolTableRecord
 100
AcDbBlockTableRecord
   2
_OPEN
   0
BLOCK_RECORD
   5
58
 100
AcDbSymbolTableRecord
 100
AcDbBlockTableRecord
   2
_OPEN30
   0
BLOCK_RECORD
   5
59
 100
AcDbSymbolTableRecord
 100
AcDbBlockTableRecord
   2
_OPEN90
   0
BLOCK_RECORD
   5
5A
 100
AcDbSymbolTableRecord
 100
AcDbBlockTableRecord
   2
_ORIGIN
   0
ENDTAB
   0
ENDSEC
  0
SECTION
  2
BLOCKS
  0
BLOCK
  5
19
100
AcDbEntity
  8
0
100
AcDbBlockBegin
  2
*MODEL_SPACE
 70
     0
 10
0.0
 20
0.0
 30
0.0
  3
*MODEL_SPACE
  1

  0
ENDBLK
  5
1A
100
AcDbEntity
  8
0
100
AcDbBlockEnd
  0
BLOCK
  5
16
100
AcDbEntity
 67
     1
  8
0
100
AcDbBlockBegin
  2
*PAPER_SPACE
 70
     0
 10
0.0
 20
0.0
 30
0.0
  3
*PAPER_SPACE
  1

  0
ENDBLK
  5
17
100
AcDbEntity
 67
     1
  8
0
100
AcDbBlockEnd
   0
BLOCK
   5
5B
 100
AcDbEntity
   8
0
 100
AcDbBlockBegin
   2
_ARCHTICK
  70
0
  10
0.0
  20
0.0
  30
0.0
   3
_ARCHTICK
   0
POLYLINE
   5
5C
 100
AcDbEntity
   8
0
   6
BYBLOCK
  62
0
 100
AcDb2dPolyline
  66
1
  10
0.0
  20
0.0
  30
0.0
  70
1
  40
 0.15000000000000
  41
 0.15000000000000
   0
VERTEX
   5
5D
 100
AcDbEntity
   8
0
   6
BYBLOCK
  62
0
 100
AcDbVertex
 100
AcDb2dVertex
  10
-0.50000000000000
  20
-0.50000000000000
  30
0.0
  40
 0.15000000000000
  41
 0.15000000000000
   0
VERTEX
   5
5E
 100
AcDbEntity
   8
0
   6
BYBLOCK
  62
0
 100
AcDbVertex
 100
AcDb2dVertex
  10
 0.50000000000000
  20
 0.50000000000000
  30
0.0
  40
 0.15000000000000
  41
 0.15000000000000
   0
SEQEND
   5
5F
 100
AcDbEntity
   8
0
   6
BYBLOCK
  62
0
   0
ENDBLK
   5
60
 100
AcDbEntity
   8
0
 100
AcDbBlockEnd
   0
BLOCK
   5
61
 100
AcDbEntity
   8
0
 100
AcDbBlockBegin
   2
_OBLIQUE
  70
0
  10
0.0
  20
0.0
  30
0.0
   3
_OBLIQUE
   0
LINE
   5
62
 100
AcDbEntity
   8
0
 100
AcDbLine
   6
BYBLOCK
  62
0
  10
-0.50000000000000
  20
-0.50000000000000
  30
0.0
  11
 0.50000000000000
  21
 0.50000000000000
  31
0.0
   0
ENDBLK
   5
63
 100
AcDbEntity
   8
0
 100
AcDbBlockEnd
   0
BLOCK
   5
64
 100
AcDbEntity
   8
0
 100
AcDbBlockBegin
   2
_BOXBLANK
  70
0
  10
0.0
  20
0.0
  30
0.0
   3
_BOXBLANK
   0
LINE
   5
65
 100
AcDbEntity
   8
0
 100
AcDbLine
   6
BYBLOCK
  62
0
  10
-0.50000000000000
  20
-0.50000000000000
  30
0.0
  11
 0.50000000000000
  21
-0.50000000000000
  31
0.0
   0
LINE
   5
66
 100
AcDbEntity
   8
0
 100
AcDbLine
   6
BYBLOCK
  62
0
  10
 0.50000000000000
  20
-0.50000000000000
  30
0.0
  11
 0.50000000000000
  21
 0.50000000000000
  31
0.0
   0
LINE
   5
67
 100
AcDbEntity
   8
0
 100
AcDbLine
   6
BYBLOCK
  62
0
  10
 0.50000000000000
  20
 0.50000000000000
  30
0.0
  11
-0.50000000000000
  21
 0.50000000000000
  31
0.0
   0
LINE
   5
68
 100
AcDbEntity
   8
0
 100
AcDbLine
   6
BYBLOCK
  62
0
  10
-0.50000000000000
  20
 0.50000000000000
  30
0.0
  11
-0.50000000000000
  21
-0.50000000000000
  31
0.0
   0
LINE
   5
69
 100
AcDbEntity
   8
0
 100
AcDbLine
   6
BYBLOCK
  62
0
  10
-0.50000000000000
  20
0.0
  30
0.0
  11
-1.0000000000000
  21
0.0
  31
0.0
   0
ENDBLK
   5
6A
 100
AcDbEntity
   8
0
 100
AcDbBlockEnd
   0
BLOCK
   5
6B
 100
AcDbEntity
   8
0
 100
AcDbBlockBegin
   2
_BOXFILLED
  70
0
  10
0.0
  20
0.0
  30
0.0
   3
_BOXFILLED
   0
SOLID
   5
6C
 100
AcDbEntity
   8
0
 100
AcDbTrace
   6
BYBLOCK
  62
0
  10
-0.50000000000000
  20
 0.50000000000000
  30
0.0
  11
 0.50000000000000
  21
 0.50000000000000
  31
0.0
  12
-0.50000000000000
  22
-0.50000000000000
  32
0.0
  13
 0.50000000000000
  23
-0.50000000000000
  33
0.0
   0
LINE
   5
6D
 100
AcDbEntity
   8
0
 100
AcDbLine
   6
BYBLOCK
  62
0
  10
-0.50000000000000
  20
0.0
  30
0.0
  11
-1.0000000000000
  21
0.0
  31
0.0
   0
ENDBLK
   5
6E
 100
AcDbEntity
   8
0
 100
AcDbBlockEnd
   0
BLOCK
   5
6F
 100
AcDbEntity
   8
0
 100
AcDbBlockBegin
   2
_CLOSED
  70
0
  10
0.0
  20
0.0
  30
0.0
   3
_CLOSED
   0
LINE
   5
70
 100
AcDbEntity
   8
0
 100
AcDbLine
   6
BYBLOCK
  62
0
  10
-1.0000000000000
  20
 0.16666666666667
  30
0.0
  11
0.0
  21
0.0
  31
0.0
   0
LINE
   5
71
 100
AcDbEntity
   8
0
 100
AcDbLine
   6
BYBLOCK
  62
0
  10
0.0
  20
0.0
  30
0.0
  11
-1.0000000000000
  21
-0.16666666666667
  31
0.0
   0
LINE
   5
72
 100
AcDbEntity
   8
0
 100
AcDbLine
   6
BYBLOCK
  62
0
  10
-1.0000000000000
  20
 0.16666666666667
  30
0.0
  11
-1.0000000000000
  21
-0.16666666666667
  31
0.0
   0
LINE
   5
73
 100
AcDbEntity
   8
0
 100
AcDbLine
   6
BYBLOCK
  62
0
  10
0.0
  20
0.0
  30
0.0
  11
-1.0000000000000
  21
0.0
  31
0.0
   0
ENDBLK
   5
74
 100
AcDbEntity
   8
0
 100
AcDbBlockEnd
   0
BLOCK
   5
75
 100
AcDbEntity
   8
0
 100
AcDbBlockBegin
   2
_OPEN
  70
0
  10
0.0
  20
0.0
  30
0.0
   3
_OPEN
   0
LINE
   5
76
 100
AcDbEntity
   8
0
 100
AcDbLine
   6
BYBLOCK
  62
0
  10
-1.0000000000000
  20
 0.16666666666667
  30
0.0
  11
0.0
  21
0.0
  31
0.0
   0
LINE
   5
77
 100
AcDbEntity
   8
0
 100
AcDbLine
   6
BYBLOCK
  62
0
  10
0.0
  20
0.0
  30
0.0
  11
-1.0000000000000
  21
-0.16666666666667
  31
0.0
   0
LINE
   5
78
 100
AcDbEntity
   8
0
 100
AcDbLine
   6
BYBLOCK
  62
0
  10
0.0
  20
0.0
  30
0.0
  11
-1.0000000000000
  21
0.0
  31
0.0
   0
ENDBLK
   5
79
 100
AcDbEntity
   8
0
 100
AcDbBlockEnd
   0
BLOCK
   5
7A
 100
AcDbEntity
   8
0
 100
AcDbBlockBegin
   2
_OPEN30
  70
0
  10
0.0
  20
0.0
  30
0.0
   3
_OPEN30
   0
LINE
   5
7B
 100
AcDbEntity
   8
0
 100
AcDbLine
   6
BYBLOCK
  62
0
  10
-1.0000000000000
  20
 0.26794919243110
  30
0.0
  11
0.0
  21
0.0
  31
0.0
   0
LINE
   5
7C
 100
AcDbEntity
   8
0
 100
AcDbLine
   6
BYBLOCK
  62
0
  10
0.0
  20
0.0
  30
0.0
  11
-1.0000000000000
  21
-0.26794919243110
  31
0.0
   0
LINE
   5
7D
 100
AcDbEntity
   8
0
 100
AcDbLine
   6
BYBLOCK
  62
0
  10
0.0
  20
0.0
  30
0.0
  11
-1.0000000000000
  21
0.0
  31
0.0
   0
ENDBLK
   5
7E
 100
AcDbEntity
   8
0
 100
AcDbBlockEnd
   0
BLOCK
   5
7F
 100
AcDbEntity
   8
0
 100
AcDbBlockBegin
   2
_OPEN90
  70
0
  10
0.0
  20
0.0
  30
0.0
   3
_OPEN90
   0
LINE
   5
80
 100
AcDbEntity
   8
0
 100
AcDbLine
   6
BYBLOCK
  62
0
  10
-0.50000000000000
  20
 0.50000000000000
  30
0.0
  11
0.0
  21
0.0
  31
0.0
   0
LINE
   5
81
 100
AcDbEntity
   8
0
 100
AcDbLine
   6
BYBLOCK
  62
0
  10
0.0
  20
0.0
  30
0.0
  11
-0.50000000000000
  21
-0.50000000000000
  31
0.0
   0
LINE
   5
82
 100
AcDbEntity
   8
0
 100
AcDbLine
   6
BYBLOCK
  62
0
  10
0.0
  20
0.0
  30
0.0
  11
-1.0000000000000
  21
0.0
  31
0.0
   0
ENDBLK
   5
83
 100
AcDbEntity
   8
0
 100
AcDbBlockEnd
   0
BLOCK
   5
84
 100
AcDbEntity
   8
0
 100
AcDbBlockBegin
   2
_CLOSEDBLANK
  70
0
  10
0.0
  20
0.0
  30
0.0
   3
_CLOSEDBLANK
   0
LINE
   5
85
 100
AcDbEntity
   8
0
 100
AcDbLine
   6
BYBLOCK
  62
0
  10
-1.0000000000000
  20
 0.16666666666667
  30
0.0
  11
0.0
  21
0.0
  31
0.0
   0
LINE
   5
86
 100
AcDbEntity
   8
0
 100
AcDbLine
   6
BYBLOCK
  62
0
  10
0.0
  20
0.0
  30
0.0
  11
-1.0000000000000
  21
-0.16666666666667
  31
0.0
   0
LINE
   5
87
 100
AcDbEntity
   8
0
 100
AcDbLine
   6
BYBLOCK
  62
0
  10
-1.0000000000000
  20
 0.16666666666667
  30
0.0
  11
-1.0000000000000
  21
-0.16666666666667
  31
0.0
   0
ENDBLK
   5
88
 100
AcDbEntity
   8
0
 100
AcDbBlockEnd
   0
BLOCK
   5
89
 100
AcDbEntity
   8
0
 100
AcDbBlockBegin
   2
_DOT
  70
0
  10
0.0
  20
0.0
  30
0.0
   3
_DOT
   0
POLYLINE
   5
8A
 100
AcDbEntity
   8
0
   6
BYBLOCK
  62
0
 100
AcDb2dPolyline
  66
1
  10
0.0
  20
0.0
  30
0.0
  70
1
  40
 0.50000000000000
  41
 0.50000000000000
   0
VERTEX
   5
8B
 100
AcDbEntity
   8
0
   6
BYBLOCK
  62
0
 100
AcDbVertex
 100
AcDb2dVertex
  10
-0.25000000000000
  20
0.0
  30
0.0
  42
 1.0000000000000
  40
 0.50000000000000
  41
 0.50000000000000
   0
VERTEX
   5
8C
 100
AcDbEntity
   8
0
   6
BYBLOCK
  62
0
 100
AcDbVertex
 100
AcDb2dVertex
  10
 0.25000000000000
  20
0.0
  30
0.0
  42
 1.0000000000000
  40
 0.50000000000000
  41
 0.50000000000000
   0
SEQEND
   5
8D
 100
AcDbEntity
   8
0
   6
BYBLOCK
  62
0
   0
LINE
   5
8E
 100
AcDbEntity
   8
0
 100
AcDbLine
   6
BYBLOCK
  62
0
  10
-0.50000000000000
  20
0.0
  30
0.0
  11
-1.0000000000000
  21
0.0
  31
0.0
   0
ENDBLK
   5
8F
 100
AcDbEntity
   8
0
 100
AcDbBlockEnd
   0
BLOCK
   5
90
 100
AcDbEntity
   8
0
 100
AcDbBlockBegin
   2
_DOTSMALL
  70
0
  10
0.0
  20
0.0
  30
0.0
   3
_DOTSMALL
   0
POLYLINE
   5
91
 100
AcDbEntity
   8
0
   6
BYBLOCK
  62
0
 100
AcDb2dPolyline
  66
1
  10
0.0
  20
0.0
  30
0.0
  70
1
  40
 0.50000000000000
  41
 0.50000000000000
   0
VERTEX
   5
92
 100
AcDbEntity
   8
0
   6
BYBLOCK
  62
0
 100
AcDbVertex
 100
AcDb2dVertex
  10
-0.62500000000000E-1
  20
0.0
  30
0.0
  42
 1.0000000000000
  40
 0.50000000000000
  41
 0.50000000000000
   0
VERTEX
   5
93
 100
AcDbEntity
   8
0
   6
BYBLOCK
  62
0
 100
AcDbVertex
 100
AcDb2dVertex
  10
 0.62500000000000E-1
  20
0.0
  30
0.0
  42
 1.0000000000000
  40
 0.50000000000000
  41
 0.50000000000000
   0
SEQEND
   5
94
 100
AcDbEntity
   8
0
   6
BYBLOCK
  62
0
   0
ENDBLK
   5
95
 100
AcDbEntity
   8
0
 100
AcDbBlockEnd
   0
BLOCK
   5
96
 100
AcDbEntity
   8
0
 100
AcDbBlockBegin
   2
_DATUMBLANK
  70
0
  10
0.0
  20
0.0
  30
0.0
   3
_DATUMBLANK
   0
LINE
   5
97
 100
AcDbEntity
   8
0
 100
AcDbLine
   6
BYBLOCK
  62
0
  10
0.0
  20
 0.57735027000000
  30
0.0
  11
-1.0000000000000
  21
0.0
  31
0.0
   0
LINE
   5
98
 100
AcDbEntity
   8
0
 100
AcDbLine
   6
BYBLOCK
  62
0
  10
-1.0000000000000
  20
0.0
  30
0.0
  11
0.0
  21
-0.57735027000000
  31
0.0
   0
LINE
   5
99
 100
AcDbEntity
   8
0
 100
AcDbLine
   6
BYBLOCK
  62
0
  10
0.0
  20
-0.57735027000000
  30
0.0
  11
0.0
  21
 0.57735027000000
  31
0.0
   0
ENDBLK
   5
9A
 100
AcDbEntity
   8
0
 100
AcDbBlockEnd
   0
BLOCK
   5
9B
 100
AcDbEntity
   8
0
 100
AcDbBlockBegin
   2
_DATUMFILLED
  70
0
  10
0.0
  20
0.0
  30
0.0
   3
_DATUMFILLED
   0
SOLID
   5
9C
 100
AcDbEntity
   8
0
 100
AcDbTrace
   6
BYBLOCK
  62
0
  10
0.0
  20
 0.57735027000000
  30
0.0
  11
-1.0000000000000
  21
0.0
  31
0.0
  12
0.0
  22
-0.57735027000000
  32
0.0
  13
0.0
  23
-0.57735027000000
  33
0.0
   0
ENDBLK
   5
9D
 100
AcDbEntity
   8
0
 100
AcDbBlockEnd
   0
BLOCK
   5
9E
 100
AcDbEntity
   8
0
 100
AcDbBlockBegin
   2
_ORIGIN
  70
0
  10
0.0
  20
0.0
  30
0.0
   3
_ORIGIN
   0
CIRCLE
   5
9F
 100
AcDbEntity
   8
0
 100
AcDbCircle
   6
BYBLOCK
  62
0
  10
0.0
  20
0.0
  30
0.0
  40
 0.50000000000000
   0
LINE
   5
A0
 100
AcDbEntity
   8
0
 100
AcDbLine
   6
BYBLOCK
  62
0
  10
0.0
  20
0.0
  30
0.0
  11
-1.0000000000000
  21
0.0
  31
0.0
   0
ENDBLK
   5
A1
 100
AcDbEntity
   8
0
 100
AcDbBlockEnd
   0
BLOCK
   5
A2
 100
AcDbEntity
   8
0
 100
AcDbBlockBegin
   2
_NONE
  70
0
  10
0.0
  20
0.0
  30
0.0
   3
_NONE
   0
CIRCLE
   5
A3
 100
AcDbEntity
   8
0
 100
AcDbCircle
   6
BYBLOCK
  62
0
  10
0.0
  20
0.0
  30
0.0
  40
 0.25000000000000
   0
ENDBLK
   5
A4
 100
AcDbEntity
   8
0
 100
AcDbBlockEnd
   0
BLOCK
   5
A5
 100
AcDbEntity
   8
0
 100
AcDbBlockBegin
   2
_DOTBLANK
  70
0
  10
0.0
  20
0.0
  30
0.0
   3
_DOTBLANK
   0
CIRCLE
   5
A6
 100
AcDbEntity
   8
0
 100
AcDbCircle
   6
BYBLOCK
  62
0
  10
0.0
  20
0.0
  30
0.0
  40
 0.50000000000000
   0
LINE
   5
A7
 100
AcDbEntity
   8
0
 100
AcDbLine
   6
BYBLOCK
  62
0
  10
-0.50000000000000
  20
0.0
  30
0.0
  11
-1.0000000000000
  21
0.0
  31
0.0
   0
ENDBLK
   5
A8
 100
AcDbEntity
   8
0
 100
AcDbBlockEnd
   0
BLOCK
   5
A9
 100
AcDbEntity
   8
0
 100
AcDbBlockBegin
   2
_INTEGRAL
  70
0
  10
0.0
  20
0.0
  30
0.0
   3
_INTEGRAL
   0
ARC
   5
AA
 100
AcDbEntity
   8
0
   6
BYBLOCK
  62
0
 100
AcDbCircle
  10
 0.44488800000000
  20
-0.91335000000000E-1
  30
0.0
  40
 0.45416700000000
 100
AcDbArc
  50
 102.00000000000
  51
 168.00000000000
   0
ARC
   5
AB
 100
AcDbEntity
   8
0
   6
BYBLOCK
  62
0
 100
AcDbCircle
  10
-0.44488800000000
  20
 0.91335000000000E-1
  30
0.0
  40
 0.45416700000000
 100
AcDbArc
  50
 282.00000000000
  51
 348.00000000000
   0
ENDBLK
   5
AC
 100
AcDbEntity
   8
0
 100
AcDbBlockEnd
   0
BLOCK
   5
AD
 100
AcDbEntity
   8
0
 100
AcDbBlockBegin
   2
*D1
  70
65
  10
0.0
  20
0.0
  30
0.0
   3
*D1
   0
LINE
   5
AE
 100
AcDbEntity
   8
LEVEL003
 100
AcDbLine
   6
CONTINUOUS
  62
3
  10
 61.500000000000
  20
 231.10000610352
  30
0.0
  11
 61.500000000000
  21
 253.10000610352
  31
0.0
   0
LINE
   5
AF
 100
AcDbEntity
   8
LEVEL003
 100
AcDbLine
   6
CONTINUOUS
  62
3
  10
 181.50000000000
  20
 231.10000610352
  30
0.0
  11
 181.50000000000
  21
 253.10000610352
  31
0.0
   0
LINE
   5
B0
 100
AcDbEntity
   8
LEVEL003
 100
AcDbLine
   6
CONTINUOUS
  62
3
  10
 61.500000000000
  20
 251.10000610352
  30
0.0
  11
 113.66875000000
  21
 251.10000610352
  31
0.0
   0
LINE
   5
B1
 100
AcDbEntity
   8
LEVEL003
 100
AcDbLine
   6
CONTINUOUS
  62
3
  10
 181.50000000000
  20
 251.10000610352
  30
0.0
  11
 129.33125000000
  21
 251.10000610352
  31
0.0
   0
INSERT
   5
B2
 100
AcDbEntity
   8
LEVEL003
   6
CONTINUOUS
  62
3
 100
AcDbBlockReference
   2
_OPEN
  10
 61.500000000000
  20
 251.10000610352
  30
0.0
  41
 3.0000000000000
  42
 3.0000000000000
  43
 3.0000000000000
  50
 180.00000000000
   0
INSERT
   5
B3
 100
AcDbEntity
   8
LEVEL003
   6
CONTINUOUS
  62
3
 100
AcDbBlockReference
   2
_OPEN
  10
 181.50000000000
  20
 251.10000610352
  30
0.0
  41
 3.0000000000000
  42
 3.0000000000000
  43
 3.0000000000000
  50
0.0
   0
MTEXT
   5
B4
 100
AcDbEntity
   8
LEVEL003
  62
3
 100
AcDbMText
  10
 121.50000000000
  20
 251.89999389649
  30
0.0
  40
 4.0000000000000
  41
0.0
  71
8
  72
1
   1
\A1;%%c120
   7
GMM001
   0
ENDBLK
   5
B5
 100
AcDbEntity
   8
0
 100
AcDbBlockEnd
   0
BLOCK
   5
B6
 100
AcDbEntity
   8
0
 100
AcDbBlockBegin
   2
*D2
  70
65
  10
0.0
  20
0.0
  30
0.0
   3
*D2
   0
LINE
   5
B7
 100
AcDbEntity
   8
LEVEL003
 100
AcDbLine
   6
CONTINUOUS
  62
3
  10
 205.50000000000
  20
 230.10000610352
  30
0.0
  11
 248.50000000000
  21
 230.10000610352
  31
0.0
   0
LINE
   5
B8
 100
AcDbEntity
   8
LEVEL003
 100
AcDbLine
   6
CONTINUOUS
  62
3
  10
 246.50000000000
  20
 234.85000610352
  30
0.0
  11
 246.50000000000
  21
 227.94593904727
  31
0.0
   0
LINE
   5
B9
 100
AcDbEntity
   8
LEVEL003
 100
AcDbLine
   6
CONTINUOUS
  62
3
  10
 246.50000000000
  20
 225.23343904727
  30
0.0
  11
 246.50000000000
  21
 225.23343904727
  31
0.0
   0
INSERT
   5
BA
 100
AcDbEntity
   8
LEVEL003
   6
CONTINUOUS
  62
3
 100
AcDbBlockReference
   2
_OPEN
  10
 246.50000000000
  20
 231.10000610352
  30
0.0
  41
 3.0000000000000
  42
 3.0000000000000
  43
 3.0000000000000
  50
 270.00000000000
   0
INSERT
   5
BB
 100
AcDbEntity
   8
LEVEL003
   6
CONTINUOUS
  62
3
 100
AcDbBlockReference
   2
_OPEN
  10
 246.50000000000
  20
 230.10000610352
  30
0.0
  41
 3.0000000000000
  42
 3.0000000000000
  43
 3.0000000000000
  50
 90.000000000000
   0
MTEXT
   5
BC
 100
AcDbEntity
   8
LEVEL003
  62
3
 100
AcDbMText
  10
 245.69999694824
  20
 227.94593904727
  30
0.0
  40
 4.0000000000000
  41
0.0
  71
9
  72
1
   1
\A1;1
   7
GMM001
  11
0.0
  21
 1.0000000000000
  31
0.0
   0
ENDBLK
   5
BD
 100
AcDbEntity
   8
0
 100
AcDbBlockEnd
   0
BLOCK
   5
BE
 100
AcDbEntity
   8
0
 100
AcDbBlockBegin
   2
*D3
  70
65
  10
0.0
  20
0.0
  30
0.0
   3
*D3
   0
LINE
   5
BF
 100
AcDbEntity
   8
LEVEL003
 100
AcDbLine
   6
CONTINUOUS
  62
3
  10
 36.500000000000
  20
 91.100006103516
  30
0.0
  11
 36.500000000000
  21
 64.100006103516
  31
0.0
   0
LINE
   5
C0
 100
AcDbEntity
   8
LEVEL003
 100
AcDbLine
   6
CONTINUOUS
  62
3
  10
 206.50000000000
  20
 91.100006103516
  30
0.0
  11
 206.50000000000
  21
 64.100006103516
  31
0.0
   0
LINE
   5
C1
 100
AcDbEntity
   8
LEVEL003
 100
AcDbLine
   6
CONTINUOUS
  62
3
  10
 36.500000000000
  20
 66.100006103516
  30
0.0
  11
 113.66875000000
  21
 66.100006103516
  31
0.0
   0
LINE
   5
C2
 100
AcDbEntity
   8
LEVEL003
 100
AcDbLine
   6
CONTINUOUS
  62
3
  10
 206.50000000000
  20
 66.100006103516
  30
0.0
  11
 129.33125000000
  21
 66.100006103516
  31
0.0
   0
INSERT
   5
C3
 100
AcDbEntity
   8
LEVEL003
   6
CONTINUOUS
  62
3
 100
AcDbBlockReference
   2
_OPEN
  10
 36.500000000000
  20
 66.100006103516
  30
0.0
  41
 3.0000000000000
  42
 3.0000000000000
  43
 3.0000000000000
  50
 180.00000000000
   0
INSERT
   5
C4
 100
AcDbEntity
   8
LEVEL003
   6
CONTINUOUS
  62
3
 100
AcDbBlockReference
   2
_OPEN
  10
 206.50000000000
  20
 66.100006103516
  30
0.0
  41
 3.0000000000000
  42
 3.0000000000000
  43
 3.0000000000000
  50
0.0
   0
MTEXT
   5
C5
 100
AcDbEntity
   8
LEVEL003
  62
3
 100
AcDbMText
  10
 121.50000000000
  20
 66.899993896485
  30
0.0
  40
 4.0000000000000
  41
0.0
  71
8
  72
1
   1
\A1;%%c170
   7
GMM001
   0
ENDBLK
   5
C6
 100
AcDbEntity
   8
0
 100
AcDbBlockEnd
   0
BLOCK
   5
C7
 100
AcDbEntity
   8
0
 100
AcDbBlockBegin
   2
*D5
  70
65
  10
0.0
  20
0.0
  30
0.0
   3
*D5
   0
LINE
   5
C8
 100
AcDbEntity
   8
LEVEL003
 100
AcDbLine
   6
CONTINUOUS
  62
3
  10
 205.50000000000
  20
 90.100006103516
  30
0.0
  11
 281.30939535000
  21
 90.100006103516
  31
0.0
   0
LINE
   5
C9
 100
AcDbEntity
   8
LEVEL003
 100
AcDbLine
   6
CONTINUOUS
  62
3
  10
 277.50000000000
  20
 114.10000610352
  30
0.0
  11
 281.30939535000
  21
 114.10000610352
  31
0.0
   0
LINE
   5
CA
 100
AcDbEntity
   8
LEVEL003
 100
AcDbLine
   6
CONTINUOUS
  62
3
  10
 279.30939535000
  20
 90.100006103516
  30
0.0
  11
 279.30939535000
  21
 98.075006103520
  31
0.0
   0
LINE
   5
CB
 100
AcDbEntity
   8
LEVEL003
 100
AcDbLine
   6
CONTINUOUS
  62
3
  10
 279.30939535000
  20
 114.10000610352
  30
0.0
  11
 279.30939535000
  21
 106.12500610352
  31
0.0
   0
INSERT
   5
CC
 100
AcDbEntity
   8
LEVEL003
   6
CONTINUOUS
  62
3
 100
AcDbBlockReference
   2
_OPEN
  10
 279.30939535000
  20
 90.100006103516
  30
0.0
  41
 3.0000000000000
  42
 3.0000000000000
  43
 3.0000000000000
  50
 270.00000000000
   0
INSERT
   5
CD
 100
AcDbEntity
   8
LEVEL003
   6
CONTINUOUS
  62
3
 100
AcDbBlockReference
   2
_OPEN
  10
 279.30939535000
  20
 114.10000610352
  30
0.0
  41
 3.0000000000000
  42
 3.0000000000000
  43
 3.0000000000000
  50
 90.000000000000
   0
MTEXT
   5
CE
 100
AcDbEntity
   8
LEVEL003
  62
3
 100
AcDbMText
  10
 278.50939535000
  20
 102.10000610352
  30
0.0
  40
 4.0000000000000
  41
0.0
  71
8
  72
1
   1
\A1;24
   7
GMM001
  11
0.0
  21
 1.0000000000000
  31
0.0
   0
ENDBLK
   5
CF
 100
AcDbEntity
   8
0
 100
AcDbBlockEnd
   0
BLOCK
   5
D0
 100
AcDbEntity
   8
0
 100
AcDbBlockBegin
   2
*D6
  70
65
  10
0.0
  20
0.0
  30
0.0
   3
*D6
   0
LINE
   5
D1
 100
AcDbEntity
   8
LEVEL003
 100
AcDbLine
   6
CONTINUOUS
  62
3
  10
 280.30939535000
  20
 90.100006103516
  30
0.0
  11
 291.62189535000
  21
 90.100006103516
  31
0.0
   0
LINE
   5
D2
 100
AcDbEntity
   8
LEVEL003
 100
AcDbLine
   6
CONTINUOUS
  62
3
  10
 181.50000000000
  20
 231.10000610352
  30
0.0
  11
 291.62189535000
  21
 231.10000610352
  31
0.0
   0
LINE
   5
D3
 100
AcDbEntity
   8
LEVEL003
 100
AcDbLine
   6
CONTINUOUS
  62
3
  10
 289.62189535000
  20
 90.100006103516
  30
0.0
  11
 289.62189535000
  21
 155.87500610352
  31
0.0
   0
LINE
   5
D4
 100
AcDbEntity
   8
LEVEL003
 100
AcDbLine
   6
CONTINUOUS
  62
3
  10
 289.62189535000
  20
 231.10000610352
  30
0.0
  11
 289.62189535000
  21
 165.32500610352
  31
0.0
   0
INSERT
   5
D5
 100
AcDbEntity
   8
LEVEL003
   6
CONTINUOUS
  62
3
 100
AcDbBlockReference
   2
_OPEN
  10
 289.62189535000
  20
 90.100006103516
  30
0.0
  41
 3.0000000000000
  42
 3.0000000000000
  43
 3.0000000000000
  50
 270.00000000000
   0
INSERT
   5
D6
 100
AcDbEntity
   8
LEVEL003
   6
CONTINUOUS
  62
3
 100
AcDbBlockReference
   2
_OPEN
  10
 289.62189535000
  20
 231.10000610352
  30
0.0
  41
 3.0000000000000
  42
 3.0000000000000
  43
 3.0000000000000
  50
 90.000000000000
   0
MTEXT
   5
D7
 100
AcDbEntity
   8
LEVEL003
  62
3
 100
AcDbMText
  10
 288.82189535000
  20
 160.60000610352
  30
0.0
  40
 4.0000000000000
  41
0.0
  71
8
  72
1
   1
\A1;141
   7
GMM001
  11
0.0
  21
 1.0000000000000
  31
0.0
   0
ENDBLK
   5
D8
 100
AcDbEntity
   8
0
 100
AcDbBlockEnd
   0
BLOCK
   5
D9
 100
AcDbEntity
   8
0
 100
AcDbBlockBegin
   2
*D7
  70
65
  10
0.0
  20
0.0
  30
0.0
   3
*D7
   0
LINE
   5
DA
 100
AcDbEntity
   8
LEVEL003
 100
AcDbLine
   6
CONTINUOUS
  62
3
  10
 54.000000000000
  20
 145.00000000000
  30
0.0
  11
 113.31875000000
  21
 145.00000000000
  31
0.0
   0
LINE
   5
DB
 100
AcDbEntity
   8
LEVEL003
 100
AcDbLine
   6
CONTINUOUS
  62
3
  10
 189.00000000000
  20
 145.00000000000
  30
0.0
  11
 129.68125000000
  21
 145.00000000000
  31
0.0
   0
INSERT
   5
DC
 100
AcDbEntity
   8
LEVEL003
   6
CONTINUOUS
  62
3
 100
AcDbBlockReference
   2
_OPEN
  10
 54.000000000000
  20
 145.00000000000
  30
0.0
  41
 3.0000000000000
  42
 3.0000000000000
  43
 3.0000000000000
  50
 180.00000000000
   0
INSERT
   5
DD
 100
AcDbEntity
   8
LEVEL003
   6
CONTINUOUS
  62
3
 100
AcDbBlockReference
   2
_OPEN
  10
 189.00000000000
  20
 145.00000000000
  30
0.0
  41
 3.0000000000000
  42
 3.0000000000000
  43
 3.0000000000000
  50
0.0
   0
MTEXT
   5
DE
 100
AcDbEntity
   8
LEVEL003
  62
3
 100
AcDbMText
  10
 121.50000000000
  20
 145.80000000000
  30
0.0
  40
 4.0000000000000
  41
0.0
  71
8
  72
1
   1
\A1;%%c135
   7
GMM001
   0
ENDBLK
   5
DF
 100
AcDbEntity
   8
0
 100
AcDbBlockEnd
   0
ENDSEC
   0
SECTION
   2
ENTITIES
   0
LINE
   5
E0
 100
AcDbEntity
   8
LEVEL001
 100
AcDbLine
   6
CONTINUOUS
  62
7
  10
 181.50000000000
  20
 230.10000610352
  30
0.0
  11
 180.50000000000
  21
 231.10000610352
  31
0.0
   0
LINE
   5
E1
 100
AcDbEntity
   8
LEVEL001
 100
AcDbLine
   6
CONTINUOUS
  62
7
  10
 206.50000000000
  20
 92.100006103516
  30
0.0
  11
 204.50000000000
  21
 90.100006103516
  31
0.0
   0
LINE
   5
E2
 100
AcDbEntity
   8
LEVEL001
 100
AcDbLine
   6
CONTINUOUS
  62
7
  10
 206.50000000000
  20
 228.10000610352
  30
0.0
  11
 204.50000000000
  21
 230.10000610352
  31
0.0
   0
LINE
   5
E3
 100
AcDbEntity
   8
LEVEL001
 100
AcDbLine
   6
CONTINUOUS
  62
7
  10
 36.500000000000
  20
 92.100006103516
  30
0.0
  11
 38.500000000000
  21
 90.100006103516
  31
0.0
   0
LINE
   5
E4
 100
AcDbEntity
   8
LEVEL001
 100
AcDbLine
   6
CONTINUOUS
  62
7
  10
 36.500000000000
  20
 228.10000610352
  30
0.0
  11
 36.500000000000
  21
 92.100006103516
  31
0.0
   0
LINE
   5
E5
 100
AcDbEntity
   8
LEVEL001
 100
AcDbLine
   6
CONTINUOUS
  62
7
  10
 36.500000000000
  20
 228.10000610352
  30
0.0
  11
 38.500000000000
  21
 230.10000610352
  31
0.0
   0
LINE
   5
E6
 100
AcDbEntity
   8
LEVEL001
 100
AcDbLine
   6
CONTINUOUS
  62
7
  10
 61.500000000000
  20
 230.10000610352
  30
0.0
  11
 62.500000000000
  21
 231.10000610352
  31
0.0
   0
LINE
   5
E7
 100
AcDbEntity
   8
LEVEL001
 100
AcDbLine
   6
CONTINUOUS
  62
7
  10
 38.500000000000
  20
 230.10000610352
  30
0.0
  11
 121.50000000000
  21
 230.10000610352
  31
0.0
   0
LINE
   5
E8
 100
AcDbEntity
   8
LEVEL001
 100
AcDbLine
   6
CONTINUOUS
  62
7
  10
 36.500000000000
  20
 228.10000610352
  30
0.0
  11
 121.50000000000
  21
 228.10000610352
  31
0.0
   0
LINE
   5
E9
 100
AcDbEntity
   8
LEVEL001
 100
AcDbLine
   6
CONTINUOUS
  62
7
  10
 121.50000000000
  20
 92.100006103516
  30
0.0
  11
 36.500000000000
  21
 92.100006103516
  31
0.0
   0
LINE
   5
EA
 100
AcDbEntity
   8
LEVEL001
 100
AcDbLine
   6
CONTINUOUS
  62
7
  10
 180.50000000000
  20
 231.10000610352
  30
0.0
  11
 62.500000000000
  21
 231.10000610352
  31
0.0
   0
LINE
   5
EB
 100
AcDbEntity
   8
LEVEL001
 100
AcDbLine
   6
CONTINUOUS
  62
7
  10
 38.500000000000
  20
 90.100006103516
  30
0.0
  11
 204.50000000000
  21
 90.100006103516
  31
0.0
   0
LINE
   5
EC
 100
AcDbEntity
   8
LEVEL001
 100
AcDbLine
   6
DASHDOT
  62
1
  10
 121.50000000000
  20
 86.100006103516
  30
0.0
  11
 121.50000000000
  21
 236.10000610352
  31
0.0
   0
DIMENSION
   5
ED
 100
AcDbEntity
   8
LEVEL003
   6
CONTINUOUS
  62
3
 100
AcDbDimension
   2
*D1
  10
 181.50000000000
  20
 251.10000610352
  30
0.0
  11
 121.50000000000
  21
 251.10000610352
  31
0.0
  70
128
   1
\A1;%%c120
   3
GMM001
 100
AcDbAlignedDimension
  13
 61.500000000000
  23
 230.10000610352
  33
0.0
  14
 181.50000000000
  24
 230.10000610352
  34
0.0
 100
AcDbRotatedDimension
   0
DIMENSION
   5
EF
 100
AcDbEntity
   8
LEVEL003
   6
CONTINUOUS
  62
3
 100
AcDbDimension
   2
*D2
  10
 246.50000000000
  20
 230.10000610352
  30
0.0
  11
 246.50000000000
  21
 227.94593904727
  31
0.0
  70
128
   1
\A1;1
   3
GMM002
 100
AcDbAlignedDimension
  13
 246.50000000000
  23
 231.10000610352
  33
0.0
  14
 204.50000000000
  24
 230.10000610352
  34
0.0
  50
 270.00000000000
 100
AcDbRotatedDimension
   0
DIMENSION
   5
F1
 100
AcDbEntity
   8
LEVEL003
   6
CONTINUOUS
  62
3
 100
AcDbDimension
   2
*D3
  10
 206.50000000000
  20
 66.100006103516
  30
0.0
  11
 121.50000000000
  21
 66.100006103516
  31
0.0
  70
128
   1
\A1;%%c170
   3
GMM001
 100
AcDbAlignedDimension
  13
 36.500000000000
  23
 92.100006103516
  33
0.0
  14
 206.50000000000
  24
 92.100006103516
  34
0.0
 100
AcDbRotatedDimension
   0
ARC
   5
F3
 100
AcDbEntity
   8
LEVEL001
   6
CONTINUOUS
  62
7
 100
AcDbCircle
  10
 121.50001988571
  20
 144.10000610351
  30
0.0
  40
 32.500000000000
 100
AcDbArc
  50
 108.37970576227
  51
 269.99996547371
   0
ARC
   5
F4
 100
AcDbEntity
   8
LEVEL001
   6
DASHDOT
  62
1
 100
AcDbCircle
  10
 121.50000000000
  20
 144.10000610352
  30
0.0
  40
 38.000000000000
 100
AcDbArc
  50
 90.000000000000
  51
 270.00000000000
   0
ARC
   5
F5
 100
AcDbEntity
   8
LEVEL001
   6
CONTINUOUS
  62
7
 100
AcDbCircle
  10
 121.49999623224
  20
 144.10000610352
  30
0.0
  40
 43.500000000000
 100
AcDbArc
  50
 105.86941729110
  51
 270.00000568097
   0
LINE
   5
F6
 100
AcDbEntity
   8
LEVEL001
 100
AcDbLine
   6
CONTINUOUS
  62
3
  10
 216.50000000000
  20
 122.74351501465
  30
0.0
  11
 212.88366699219
  21
 121.77452087402
  31
0.0
   0
LINE
   5
F7
 100
AcDbEntity
   8
LEVEL001
 100
AcDbLine
   6
CONTINUOUS
  62
3
  10
 216.50000000000
  20
 105.45649719238
  30
0.0
  11
 212.88363647461
  21
 106.42550659180
  31
0.0
   0
LINE
   5
F8
 100
AcDbEntity
   8
LEVEL001
 100
AcDbLine
   6
CONTINUOUS
  62
7
  10
 216.50000000000
  20
 122.74351501465
  30
0.0
  11
 217.98352050781
  21
 123.60003662109
  31
0.0
   0
LINE
   5
F9
 100
AcDbEntity
   8
LEVEL001
 100
AcDbLine
   6
CONTINUOUS
  62
7
  10
 233.50000000000
  20
 123.60000610352
  30
0.0
  11
 217.98352050781
  21
 123.60000610352
  31
0.0
   0
LINE
   5
FA
 100
AcDbEntity
   8
LEVEL001
 100
AcDbLine
   6
CONTINUOUS
  62
7
  10
 216.50000000000
  20
 105.45649719238
  30
0.0
  11
 217.98352050781
  21
 104.60000610352
  31
0.0
   0
LINE
   5
FB
 100
AcDbEntity
   8
LEVEL001
 100
AcDbLine
   6
CONTINUOUS
  62
7
  10
 233.50000000000
  20
 104.60000610352
  30
0.0
  11
 217.98352050781
  21
 104.60000610352
  31
0.0
   0
ARC
   5
FC
 100
AcDbEntity
   8
LEVEL001
   6
CONTINUOUS
  62
7
 100
AcDbCircle
  10
 235.00000000000
  20
 127.10000610352
  30
0.0
  40
 1.5000000000000
 100
AcDbArc
  50
 90.000000000000
  51
 179.99999999997
   0
LINE
   5
FD
 100
AcDbEntity
   8
LEVEL001
 100
AcDbLine
   6
CONTINUOUS
  62
7
  10
 235.00000000000
  20
 128.60000610352
  30
0.0
  11
 240.00000000000
  21
 128.60000610352
  31
0.0
   0
ARC
   5
FE
 100
AcDbEntity
   8
LEVEL001
   6
CONTINUOUS
  62
7
 100
AcDbCircle
  10
 235.00000000000
  20
 101.10000610352
  30
0.0
  40
 1.5000000000000
 100
AcDbArc
  50
 180.00000000000
  51
 270.00000000000
   0
LINE
   5
FF
 100
AcDbEntity
   8
LEVEL001
 100
AcDbLine
   6
CONTINUOUS
  62
7
  10
 233.50000000000
  20
 101.10000610352
  30
0.0
  11
 233.50000000000
  21
 127.10000610352
  31
0.0
   0
LINE
   5
100
 100
AcDbEntity
   8
LEVEL001
 100
AcDbLine
   6
CONTINUOUS
  62
7
  10
 235.00000000000
  20
 99.600006103516
  30
0.0
  11
 240.00000000000
  21
 99.600006103516
  31
0.0
   0
ARC
   5
101
 100
AcDbEntity
   8
LEVEL001
   6
CONTINUOUS
  62
7
 100
AcDbCircle
  10
 256.00000000000
  20
 127.10000610352
  30
0.0
  40
 1.5000000000000
 100
AcDbArc
  50
0.0
  51
 90.000000000026
   0
LINE
   5
102
 100
AcDbEntity
   8
LEVEL001
 100
AcDbLine
   6
CONTINUOUS
  62
7
  10
 251.00000000000
  20
 128.60000610352
  30
0.0
  11
 256.00000000000
  21
 128.60000610352
  31
0.0
   0
ARC
   5
103
 100
AcDbEntity
   8
LEVEL001
   6
CONTINUOUS
  62
7
 100
AcDbCircle
  10
 256.00000000000
  20
 101.10000610352
  30
0.0
  40
 1.5000000000000
 100
AcDbArc
  50
 270.00000000000
  51
 0.32568879938186E-11
   0
LINE
   5
104
 100
AcDbEntity
   8
LEVEL001
 100
AcDbLine
   6
CONTINUOUS
  62
7
  10
 251.00000000000
  20
 99.600006103516
  30
0.0
  11
 256.00000000000
  21
 99.600006103516
  31
0.0
   0
LINE
   5
105
 100
AcDbEntity
   8
LEVEL001
 100
AcDbLine
   6
CONTINUOUS
  62
7
  10
 257.50000000000
  20
 127.10000610352
  30
0.0
  11
 257.50000000000
  21
 101.10000610352
  31
0.0
   0
ARC
   5
106
 100
AcDbEntity
   8
LEVEL001
   6
DASHDOT
  62
1
 100
AcDbCircle
  10
 266.50000000000
  20
 127.10000610352
  30
0.0
  40
 1.0000000000000
 100
AcDbArc
  50
0.0
  51
 90.000000000039
   0
LINE
   5
107
 100
AcDbEntity
   8
LEVEL001
 100
AcDbLine
   6
DASHDOT
  62
1
  10
 258.50000000000
  20
 128.10000610352
  30
0.0
  11
 266.50000000000
  21
 128.10000610352
  31
0.0
   0
ARC
   5
108
 100
AcDbEntity
   8
LEVEL001
   6
DASHDOT
  62
1
 100
AcDbCircle
  10
 266.50000000000
  20
 101.10000610352
  30
0.0
  40
 1.0000000000000
 100
AcDbArc
  50
 270.00000000000
  51
 0.37454211928914E-10
   0
LINE
   5
109
 100
AcDbEntity
   8
LEVEL001
 100
AcDbLine
   6
DASHDOT
  62
1
  10
 258.50000000000
  20
 100.10000610352
  30
0.0
  11
 266.50000000000
  21
 100.10000610352
  31
0.0
   0
LINE
   5
10A
 100
AcDbEntity
   8
LEVEL001
 100
AcDbLine
   6
DASHDOT
  62
1
  10
 267.50000000000
  20
 127.10000610352
  30
0.0
  11
 267.50000000000
  21
 101.10000610352
  31
0.0
   0
CIRCLE
   5
10B
 100
AcDbEntity
   8
LEVEL001
 100
AcDbCircle
   6
DASHDOT
  62
1
  10
 270.50000000000
  20
 114.10000610352
  30
0.0
  40
 1.5000000000000
   0
ARC
   5
10C
 100
AcDbEntity
   8
LEVEL001
   6
DASHDOT
  62
1
 100
AcDbCircle
  10
 258.50000000000
  20
 101.10000610352
  30
0.0
  40
 1.0000000000000
 100
AcDbArc
  50
 180.00000000000
  51
 269.99999999996
   0
ARC
   5
10D
 100
AcDbEntity
   8
LEVEL001
   6
DASHDOT
  62
1
 100
AcDbCircle
  10
 258.50000000000
  20
 127.10000610352
  30
0.0
  40
 1.0000000000000
 100
AcDbArc
  50
 90.000000000000
  51
 179.99999999996
   0
ARC
   5
10E
 100
AcDbEntity
   8
LEVEL001
   6
DASHDOT
  62
1
 100
AcDbCircle
  10
 269.50000000000
  20
 119.60000610352
  30
0.0
  40
 2.0000000000000
 100
AcDbArc
  50
 180.00000000000
  51
 270.00000000001
   0
ARC
   5
10F
 100
AcDbEntity
   8
LEVEL001
   6
DASHDOT
  62
1
 100
AcDbCircle
  10
 269.50000000000
  20
 108.60000610352
  30
0.0
  40
 2.0000000000000
 100
AcDbArc
  50
 90.000000000000
  51
 180.00000000000
   0
LINE
   5
110
 100
AcDbEntity
   8
LEVEL001
 100
AcDbLine
   6
DASHDOT
  62
1
  10
 269.50000000000
  20
 117.60000610352
  30
0.0
  11
 270.00000000000
  21
 117.60000610352
  31
0.0
   0
LINE
   5
111
 100
AcDbEntity
   8
LEVEL001
 100
AcDbLine
   6
DASHDOT
  62
1
  10
 269.50000000000
  20
 110.60000610352
  30
0.0
  11
 270.00000000000
  21
 110.60000610352
  31
0.0
   0
ARC
   5
112
 100
AcDbEntity
   8
LEVEL001
   6
DASHDOT
  62
1
 100
AcDbCircle
  10
 270.00000000000
  20
 114.10000610352
  30
0.0
  40
 3.5000000000000
 100
AcDbArc
  50
 270.00000000000
  51
 90.000000000000
   0
LINE
   5
113
 100
AcDbEntity
   8
LEVEL001
 100
AcDbLine
   6
CONTINUOUS
  62
7
  10
 217.98352050781
  20
 104.60000610352
  30
0.0
  11
 217.98352050781
  21
 108.26905822754
  31
0.0
   0
LINE
   5
114
 100
AcDbEntity
   8
LEVEL001
 100
AcDbLine
   6
CONTINUOUS
  62
7
  10
 217.98352050781
  20
 119.93095397949
  30
0.0
  11
 217.98352050781
  21
 123.60002136230
  31
0.0
   0
LINE
   5
115
 100
AcDbEntity
   8
LEVEL001
 100
AcDbLine
   6
CONTINUOUS
  62
7
  10
 212.50000000000
  20
 110.06082153320
  30
0.0
  11
 226.50000000000
  21
 119.93095397949
  31
0.0
   0
LINE
   5
116
 100
AcDbEntity
   8
LEVEL001
 100
AcDbLine
   6
CONTINUOUS
  62
7
  10
 212.50000000000
  20
 118.13919067383
  30
0.0
  11
 226.50000000000
  21
 108.26905822754
  31
0.0
   0
LINE
   5
117
 100
AcDbEntity
   8
LEVEL001
 100
AcDbLine
   6
CONTINUOUS
  62
3
  10
 212.88366699219
  20
 121.77450561523
  30
0.0
  11
 212.88366699219
  21
 118.13919067383
  31
0.0
   0
LINE
   5
118
 100
AcDbEntity
   8
LEVEL001
 100
AcDbLine
   6
CONTINUOUS
  62
3
  10
 212.88363647461
  20
 110.06082153320
  30
0.0
  11
 212.88363647461
  21
 106.42550659180
  31
0.0
   0
LINE
   5
119
 100
AcDbEntity
   8
LEVEL001
 100
AcDbLine
   6
CONTINUOUS
  62
7
  10
 216.50000000000
  20
 122.74351501465
  30
0.0
  11
 216.50000000000
  21
 118.39654541016
  31
0.0
   0
LINE
   5
11A
 100
AcDbEntity
   8
LEVEL001
 100
AcDbLine
   6
CONTINUOUS
  62
7
  10
 216.50000000000
  20
 109.80346679688
  30
0.0
  11
 216.50000000000
  21
 105.45649719238
  31
0.0
   0
LINE
   5
11B
 100
AcDbEntity
   8
LEVEL001
 100
AcDbLine
   6
CONTINUOUS
  62
3
  10
 240.00000000000
  20
 101.10000610352
  30
0.0
  11
 251.00000000000
  21
 101.10000610352
  31
0.0
   0
LINE
   5
11C
 100
AcDbEntity
   8
LEVEL001
 100
AcDbLine
   6
CONTINUOUS
  62
3
  10
 240.00000000000
  20
 103.10000610352
  30
0.0
  11
 251.00000000000
  21
 103.10000610352
  31
0.0
   0
LINE
   5
11D
 100
AcDbEntity
   8
LEVEL001
 100
AcDbLine
   6
CONTINUOUS
  62
3
  10
 240.00000000000
  20
 105.10000610352
  30
0.0
  11
 251.00000000000
  21
 105.10000610352
  31
0.0
   0
LINE
   5
11E
 100
AcDbEntity
   8
LEVEL001
 100
AcDbLine
   6
CONTINUOUS
  62
3
  10
 240.00000000000
  20
 107.10000610352
  30
0.0
  11
 251.00000000000
  21
 107.10000610352
  31
0.0
   0
LINE
   5
11F
 100
AcDbEntity
   8
LEVEL001
 100
AcDbLine
   6
CONTINUOUS
  62
3
  10
 240.00000000000
  20
 109.10000610352
  30
0.0
  11
 251.00000000000
  21
 109.10000610352
  31
0.0
   0
LINE
   5
120
 100
AcDbEntity
   8
LEVEL001
 100
AcDbLine
   6
CONTINUOUS
  62
3
  10
 240.00000000000
  20
 111.10000610352
  30
0.0
  11
 251.00000000000
  21
 111.10000610352
  31
0.0
   0
LINE
   5
121
 100
AcDbEntity
   8
LEVEL001
 100
AcDbLine
   6
CONTINUOUS
  62
3
  10
 240.00000000000
  20
 113.10000610352
  30
0.0
  11
 251.00000000000
  21
 113.10000610352
  31
0.0
   0
LINE
   5
122
 100
AcDbEntity
   8
LEVEL001
 100
AcDbLine
   6
CONTINUOUS
  62
3
  10
 240.00000000000
  20
 115.10000610352
  30
0.0
  11
 251.00000000000
  21
 115.10000610352
  31
0.0
   0
LINE
   5
123
 100
AcDbEntity
   8
LEVEL001
 100
AcDbLine
   6
CONTINUOUS
  62
3
  10
 240.00000000000
  20
 117.10000610352
  30
0.0
  11
 251.00000000000
  21
 117.10000610352
  31
0.0
   0
LINE
   5
124
 100
AcDbEntity
   8
LEVEL001
 100
AcDbLine
   6
CONTINUOUS
  62
3
  10
 240.00000000000
  20
 119.10000610352
  30
0.0
  11
 251.00000000000
  21
 119.10000610352
  31
0.0
   0
LINE
   5
125
 100
AcDbEntity
   8
LEVEL001
 100
AcDbLine
   6
CONTINUOUS
  62
3
  10
 240.00000000000
  20
 121.10000610352
  30
0.0
  11
 251.00000000000
  21
 121.10000610352
  31
0.0
   0
LINE
   5
126
 100
AcDbEntity
   8
LEVEL001
 100
AcDbLine
   6
CONTINUOUS
  62
3
  10
 240.00000000000
  20
 123.10000610352
  30
0.0
  11
 251.00000000000
  21
 123.10000610352
  31
0.0
   0
LINE
   5
127
 100
AcDbEntity
   8
LEVEL001
 100
AcDbLine
   6
CONTINUOUS
  62
3
  10
 240.00000000000
  20
 125.10000610352
  30
0.0
  11
 251.00000000000
  21
 125.10000610352
  31
0.0
   0
LINE
   5
128
 100
AcDbEntity
   8
LEVEL001
 100
AcDbLine
   6
CONTINUOUS
  62
3
  10
 240.00000000000
  20
 127.10000610352
  30
0.0
  11
 251.00000000000
  21
 127.10000610352
  31
0.0
   0
LINE
   5
129
 100
AcDbEntity
   8
LEVEL001
 100
AcDbLine
   6
CONTINUOUS
  62
7
  10
 212.50000000000
  20
 110.06082153320
  30
0.0
  11
 212.50000000000
  21
 118.13919067383
  31
0.0
   0
LINE
   5
12A
 100
AcDbEntity
   8
LEVEL001
 100
AcDbLine
   6
CONTINUOUS
  62
7
  10
 212.50000000000
  20
 118.13919067383
  30
0.0
  11
 216.50000000000
  21
 118.39654541016
  31
0.0
   0
LINE
   5
12B
 100
AcDbEntity
   8
LEVEL001
 100
AcDbLine
   6
CONTINUOUS
  62
7
  10
 216.50000000000
  20
 118.39654541016
  30
0.0
  11
 217.98352050781
  21
 119.93095397949
  31
0.0
   0
LINE
   5
12C
 100
AcDbEntity
   8
LEVEL001
 100
AcDbLine
   6
CONTINUOUS
  62
7
  10
 217.98352050781
  20
 119.93095397949
  30
0.0
  11
 226.50000000000
  21
 119.93095397949
  31
0.0
   0
LINE
   5
12D
 100
AcDbEntity
   8
LEVEL001
 100
AcDbLine
   6
CONTINUOUS
  62
7
  10
 226.50000000000
  20
 119.93095397949
  30
0.0
  11
 226.50000000000
  21
 108.26905822754
  31
0.0
   0
LINE
   5
12E
 100
AcDbEntity
   8
LEVEL001
 100
AcDbLine
   6
CONTINUOUS
  62
7
  10
 226.50000000000
  20
 108.26905822754
  30
0.0
  11
 217.98352050781
  21
 108.26905822754
  31
0.0
   0
LINE
   5
12F
 100
AcDbEntity
   8
LEVEL001
 100
AcDbLine
   6
CONTINUOUS
  62
7
  10
 217.98352050781
  20
 108.26905822754
  30
0.0
  11
 216.50000000000
  21
 109.80346679688
  31
0.0
   0
LINE
   5
130
 100
AcDbEntity
   8
LEVEL001
 100
AcDbLine
   6
CONTINUOUS
  62
7
  10
 216.50000000000
  20
 109.80346679688
  30
0.0
  11
 212.50000000000
  21
 110.06082153320
  31
0.0
   0
LINE
   5
131
 100
AcDbEntity
   8
LEVEL001
 100
AcDbLine
   6
CONTINUOUS
  62
7
  10
 240.00000000000
  20
 99.100006103516
  30
0.0
  11
 240.00000000000
  21
 129.10000610352
  31
0.0
   0
LINE
   5
132
 100
AcDbEntity
   8
LEVEL001
 100
AcDbLine
   6
CONTINUOUS
  62
7
  10
 240.00000000000
  20
 129.10000610352
  30
0.0
  11
 251.00000000000
  21
 129.10000610352
  31
0.0
   0
LINE
   5
133
 100
AcDbEntity
   8
LEVEL001
 100
AcDbLine
   6
CONTINUOUS
  62
7
  10
 251.00000000000
  20
 129.10000610352
  30
0.0
  11
 251.00000000000
  21
 99.100006103516
  31
0.0
   0
LINE
   5
134
 100
AcDbEntity
   8
LEVEL001
 100
AcDbLine
   6
CONTINUOUS
  62
7
  10
 251.00000000000
  20
 99.100006103516
  30
0.0
  11
 240.00000000000
  21
 99.100006103516
  31
0.0
   0
LEADER
   5
135
 100
AcDbEntity
   8
LEVEL003
   6
CONTINUOUS
  62
3
 100
AcDbLeader
   3
GMM003
  73
0
  74
1
  75
0
  40
 4.0000000000000
  41
0.0
  76
3
  10
 208.90173339844
  20
 105.69394683838
  30
0.0
  10
 216.50000000000
  20
 79.100006103516
  30
0.0
  10
 241.50000000000
  20
 79.100006103516
  30
0.0
  77
3
   0
TEXT
   5
136
 100
AcDbEntity
   8
LEVEL003
  62
3
 100
AcDbText
  10
 216.50000000000
  20
 79.100006103516
  30
0.0
  40
 4.0000000000000
   1
ＮＰＴ３／８
   7
STANDARD
 100
AcDbText
   0
DIMENSION
   5
137
 100
AcDbEntity
   8
LEVEL003
   6
CONTINUOUS
  62
3
 100
AcDbDimension
   2
*D5
  10
 279.30939535000
  20
 114.10000610352
  30
0.0
  11
 279.30939535000
  21
 102.10000610352
  31
0.0
  70
0
   1
\A1;24
   3
GMM004
 100
AcDbAlignedDimension
  13
 204.50000000000
  23
 90.100006103516
  33
0.0
  14
 276.50000000000
  24
 114.10000610352
  34
0.0
  50
 90.000000000000
 100
AcDbRotatedDimension
   0
DIMENSION
   5
139
 100
AcDbEntity
   8
LEVEL003
   6
CONTINUOUS
  62
3
 100
AcDbDimension
   2
*D6
  10
 289.62189535000
  20
 231.10000610352
  30
0.0
  11
 289.62189535000
  21
 160.60000610352
  31
0.0
  70
0
   1
\A1;141
   3
GMM004
 100
AcDbAlignedDimension
  13
 279.30939535000
  23
 90.100006103516
  33
0.0
  14
 180.50000000000
  24
 231.10000610352
  34
0.0
  50
 90.000000000000
 100
AcDbRotatedDimension
   0
ARC
   5
13B
 100
AcDbEntity
   8
LEVEL001
   6
CONTINUOUS
  62
7
 100
AcDbCircle
  10
 121.50000000000
  20
 182.10000610352
  30
0.0
  40
 12.500000000000
 100
AcDbArc
  50
 90.000000000000
  51
 270.00000000000
   0
ARC
   5
13C
 100
AcDbEntity
   8
LEVEL001
   6
CONTINUOUS
  62
7
 100
AcDbCircle
  10
 121.50000000000
  20
 182.10000610352
  30
0.0
  40
 11.500000000000
 100
AcDbArc
  50
 90.000000000000
  51
 270.00000000000
   0
LINE
   5
13D
 100
AcDbEntity
   8
LEVEL001
 100
AcDbLine
   6
CONTINUOUS
  62
7
  10
 206.50000000000
  20
 228.10000610352
  30
0.0
  11
 206.50000000000
  21
 92.100006103516
  31
0.0
   0
LINE
   5
13E
 100
AcDbEntity
   8
LEVEL001
 100
AcDbLine
   6
CONTINUOUS
  62
7
  10
 216.50000000000
  20
 105.45649719238
  30
0.0
  11
 206.50000000000
  21
 105.76901167881
  31
0.0
   0
LINE
   5
13F
 100
AcDbEntity
   8
LEVEL001
 100
AcDbLine
   6
CONTINUOUS
  62
3
  10
 212.88363647461
  20
 106.42550659180
  30
0.0
  11
 206.50000000000
  21
 106.62500444654
  31
0.0
   0
LINE
   5
140
 100
AcDbEntity
   8
LEVEL001
 100
AcDbLine
   6
CONTINUOUS
  62
7
  10
 216.50000000000
  20
 122.74351501465
  30
0.0
  11
 206.50000000000
  21
 122.43100052823
  31
0.0
   0
LINE
   5
141
 100
AcDbEntity
   8
LEVEL001
 100
AcDbLine
   6
CONTINUOUS
  62
3
  10
 212.88366699219
  20
 121.77450561523
  30
0.0
  11
 206.50000000000
  21
 121.57500764453
  31
0.0
   0
LINE
   5
142
 100
AcDbEntity
   8
LEVEL001
 100
AcDbLine
   6
DASHDOT
  62
1
  10
 276.50000000000
  20
 114.10000610352
  30
0.0
  11
 189.00000000000
  21
 114.10000610352
  31
0.0
   0
LINE
   5
143
 100
AcDbEntity
   8
LEVEL001
 100
AcDbLine
   6
DOT
  62
3
  10
 189.00000000000
  20
 196.98199462891
  30
0.0
  11
 189.00000000000
  21
 119.10000341079
  31
0.0
   0
LINE
   5
144
 100
AcDbEntity
   8
LEVEL001
 100
AcDbLine
   6
DOT
  62
3
  10
 181.50000000000
  20
 230.10000610352
  30
0.0
  11
 181.50000000000
  21
 151.60000610352
  31
0.0
   0
ARC
   5
145
 100
AcDbEntity
   8
LEVEL001
   6
CONTINUOUS
  62
7
 100
AcDbCircle
  10
 121.49998011429
  20
 144.10000610351
  30
0.0
  40
 32.500000000000
 100
AcDbArc
  50
 270.00003452629
  51
 71.620294237728
   0
ARC
   5
146
 100
AcDbEntity
   8
LEVEL001
   6
DASHDOT
  62
1
 100
AcDbCircle
  10
 121.50000000000
  20
 144.10000610352
  30
0.0
  40
 38.000000000000
 100
AcDbArc
  50
 270.00000000000
  51
 90.000000000000
   0
ARC
   5
147
 100
AcDbEntity
   8
LEVEL001
   6
CONTINUOUS
  62
7
 100
AcDbCircle
  10
 121.50000376776
  20
 144.10000610352
  30
0.0
  40
 43.500000000000
 100
AcDbArc
  50
 269.99999431903
  51
 74.130582708904
   0
ARC
   5
148
 100
AcDbEntity
   8
LEVEL001
   6
CONTINUOUS
  62
7
 100
AcDbCircle
  10
 121.50000000000
  20
 182.10000610352
  30
0.0
  40
 12.500000000000
 100
AcDbArc
  50
 270.00000000000
  51
 90.000000000000
   0
ARC
   5
149
 100
AcDbEntity
   8
LEVEL001
   6
CONTINUOUS
  62
7
 100
AcDbCircle
  10
 121.50000000000
  20
 182.10000610352
  30
0.0
  40
 11.500000000000
 100
AcDbArc
  50
 270.00000000000
  51
 90.000000000000
   0
LINE
   5
14A
 100
AcDbEntity
   8
LEVEL001
 100
AcDbLine
   6
DOT
  62
3
  10
 54.000000000000
  20
 196.98199462891
  30
0.0
  11
 54.000000000000
  21
 119.10000341079
  31
0.0
   0
LINE
   5
14B
 100
AcDbEntity
   8
LEVEL001
 100
AcDbLine
   6
DOT
  62
3
  10
 61.500000000000
  20
 230.10000610352
  30
0.0
  11
 61.500000000000
  21
 151.60000610352
  31
0.0
   0
LINE
   5
14C
 100
AcDbEntity
   8
LEVEL001
 100
AcDbLine
   6
CONTINUOUS
  62
7
  10
 121.50000000000
  20
 92.100006103516
  30
0.0
  11
 206.50000000000
  21
 92.100006103516
  31
0.0
   0
LINE
   5
14D
 100
AcDbEntity
   8
LEVEL001
 100
AcDbLine
   6
CONTINUOUS
  62
7
  10
 206.50000000000
  20
 228.10000610352
  30
0.0
  11
 121.50000000000
  21
 228.10000610352
  31
0.0
   0
LINE
   5
14E
 100
AcDbEntity
   8
LEVEL001
 100
AcDbLine
   6
CONTINUOUS
  62
7
  10
 204.50000000000
  20
 230.10000610352
  30
0.0
  11
 121.50000000000
  21
 230.10000610352
  31
0.0
   0
DIMENSION
   5
14F
 100
AcDbEntity
   8
LEVEL003
   6
CONTINUOUS
  62
3
 100
AcDbDimension
   2
*D7
  10
 189.00000000000
  20
 145.00000000000
  30
0.0
  11
 121.50000000000
  21
 145.00000000000
  31
0.0
  70
0
   1
\A1;%%c135
   3
GMM005
 100
AcDbAlignedDimension
  13
 54.000000000000
  23
 145.00000000000
  33
0.0
  14
 189.00000000000
  24
 145.00000000000
  34
0.0
 100
AcDbRotatedDimension
   0
TEXT
   5
151
 100
AcDbEntity
   8
LEVEL003
  62
7
 100
AcDbText
  10
 303.21926232773
  20
 15.032635513295
  30
0.0
  40
 10.000000000000
   1
ＯＳＡＫＡ ＪＡＣＫ
   7
STANDARD
 100
AcDbText
   0
CIRCLE
   5
152
 100
AcDbEntity
   8
LEVEL003
 100
AcDbCircle
   6
CONTINUOUS
  62
7
  10
 282.77284847737
  20
 21.746607350826
  30
0.0
  40
 3.0000000000000
   0
LINE
   5
153
 100
AcDbEntity
   8
LEVEL003
 100
AcDbLine
   6
CONTINUOUS
  62
7
  10
 288.66084847737
  20
 24.746607350826
  30
0.0
  11
 284.85184847737
  21
 18.146607350826
  31
0.0
   0
LINE
   5
154
 100
AcDbEntity
   8
LEVEL003
 100
AcDbLine
   6
CONTINUOUS
  62
7
  10
 284.85184847737
  20
 18.146607350826
  30
0.0
  11
 277.23084847737
  21
 18.146607350826
  31
0.0
   0
LINE
   5
155
 100
AcDbEntity
   8
LEVEL003
 100
AcDbLine
   6
CONTINUOUS
  62
7
  10
 276.36384847737
  20
 16.646607350826
  30
0.0
  11
 289.98484847737
  21
 16.646607350826
  31
0.0
   0
LINE
   5
156
 100
AcDbEntity
   8
LEVEL003
 100
AcDbLine
   6
CONTINUOUS
  62
7
  10
 289.98484847737
  20
 16.646607350826
  30
0.0
  11
 294.66084847737
  21
 24.746607350826
  31
0.0
   0
LINE
   5
157
 100
AcDbEntity
   8
LEVEL003
 100
AcDbLine
   6
CONTINUOUS
  62
7
  10
 294.66084847737
  20
 24.746607350826
  30
0.0
  11
 288.66084847737
  21
 24.746607350826
  31
0.0
   0
LINE
   5
158
 100
AcDbEntity
   8
LEVEL003
 100
AcDbLine
   6
CONTINUOUS
  62
7
  10
 277.23084847737
  20
 18.146607350826
  30
0.0
  11
 276.36384847737
  21
 16.646607350826
  31
0.0
   0
TEXT
   5
159
 100
AcDbEntity
   8
LEVEL003
  62
7
 100
AcDbText
  10
 306.13026232773
  20
 31.926035513295
  30
0.0
  40
 6.0000000000000
   1
Model : ＥＬ１００Ｓ５.５
   7
STANDARD
 100
AcDbText
   0
ENDSEC
  0
SECTION
  2
OBJECTS
  0
DICTIONARY
  5
C
100
AcDbDictionary
  3
ACAD_GROUP
350
D
  3
ACAD_MLINESTYLE
350
1B
  0
DICTIONARY
  5
D
102
{ACAD_REACTORS
330
C
102
}
100
AcDbDictionary
  0
DICTIONARY
  5
1B
102
{ACAD_REACTORS
330
C
102
}
100
AcDbDictionary
  3
STANDARD
350
1C
  0
MLINESTYLE
  5
1C
102
{ACAD_REACTORS
330
1B
102
}
100
AcDbMlineStyle
  2
STANDARD
 70
     0
  3

 62
   256
 51
90.0
 52
90.0
 71
     2
 49
0.5
 62
   256
  6
BYLAYER
 49
-0.5
 62
   256
  6
BYLAYER
  0
ENDSEC
   0
EOF
