   0
SECTION
   2
HEADER
   9
$ACADVER
   1
AC1014
   9
$LIMMIN
  10
0.0
  20
0.0
   9
$LIMMAX
  10
 420.00000000000
  20
 297.00000000000
   9
$EXTMIN
  10
0.0
  20
0.0
  30
0.0
   9
$EXTMAX
  10
 420.00000000000
  20
 297.00000000000
  30
0.0
   9
$LTSCALE
  40
 8.4000000000000
   9
$HANDSEED
   5
15E
   0
ENDSEC
   0
SECTION
   2
TABLES
  0
TABLE
  2
VPORT
  5
8
100
AcDbSymbolTable
 70
     1
  0
VPORT
  5
15D
100
AcDbSymbolTableRecord
100
AcDbViewportTableRecord
  2
*ACTIVE
 70
     0
 10
0.0
 20
0.0
 11
1.0
 21
1.0
  12
 210.00000000000
  22
 148.50000000000
 13
0.0
 23
0.0
 14
1.0
 24
1.0
 15
0.0
 25
0.0
 16
0.0
 26
0.0
 36
1.0
 17
0.0
 27
0.0
 37
0.0
  40
 420.00000000000
  41
 1.4787878787879
 42
50.0
 43
0.0
 44
0.0
 50
0.0
 51
0.0
 71
     0
 72
   100
 73
     1
 74
     1
 75
     0
 76
     0
 77
     0
 78
     0
  0
ENDTAB
  0
TABLE
  2
LTYPE
  5
5
100
AcDbSymbolTable
 70
    25
  0
LTYPE
  5
12
100
AcDbSymbolTableRecord
100
AcDbLinetypeTableRecord
  2
BYBLOCK
 70
     0
  3

 72
    65
 73
     0
 40
0.0
  0
LTYPE
  5
13
100
AcDbSymbolTableRecord
100
AcDbLinetypeTableRecord
  2
BYLAYER
 70
     0
  3

 72
    65
 73
     0
 40
0.0
  0
LTYPE
  5
14
100
AcDbSymbolTableRecord
100
AcDbLinetypeTableRecord
  2
CONTINUOUS
 70
     0
  3
Solid line
 72
    65
 73
     0
 40
0.0
  0
LTYPE
  5
20
100
AcDbSymbolTableRecord
100
AcDbLinetypeTableRecord
  2
BORDER
 70
     0
  3
__ __ . __ __ . __ __ . __ __ . __ __ . __ __ .
 72
    65
 73
     6
 40
1.75
 49
0.5
 74
     0
 49
-0.25
 74
     0
 49
0.5
 74
     0
 49
-0.25
 74
     0
 49
0.0
 74
     0
 49
-0.25
 74
     0
  0
LTYPE
  5
21
100
AcDbSymbolTableRecord
100
AcDbLinetypeTableRecord
  2
BORDER2
 70
     0
  3
__.__.__.__.__.__.__.__.__.__.__.__.__.__.__.__
 72
    65
 73
     6
 40
0.875
 49
0.25
 74
     0
 49
-0.125
 74
     0
 49
0.25
 74
     0
 49
-0.125
 74
     0
 49
0.0
 74
     0
 49
-0.125
 74
     0
  0
LTYPE
  5
22
100
AcDbSymbolTableRecord
100
AcDbLinetypeTableRecord
  2
BORDERX2
 70
     0
  3
____  ____  .  ____  ____  .  ____  ____  .  __
 72
    65
 73
     6
 40
3.5
 49
1.0
 74
     0
 49
-0.5
 74
     0
 49
1.0
 74
     0
 49
-0.5
 74
     0
 49
0.0
 74
     0
 49
-0.5
 74
     0
  0
LTYPE
  5
23
100
AcDbSymbolTableRecord
100
AcDbLinetypeTableRecord
  2
CENTER
 70
     0
  3
____ _ ____ _ ____ _ ____ _ ____ _ ____ _ ____ 
 72
    65
 73
     4
 40
2.0
 49
1.25
 74
     0
 49
-0.25
 74
     0
 49
0.25
 74
     0
 49
-0.25
 74
     0
  0
LTYPE
  5
24
100
AcDbSymbolTableRecord
100
AcDbLinetypeTableRecord
  2
CENTER2
 70
     0
  3
___ _ ___ _ ___ _ ___ _ ___ _ ___ _ ___ _ ___ _
 72
    65
 73
     4
 40
1.125
 49
0.75
 74
     0
 49
-0.125
 74
     0
 49
0.125
 74
     0
 49
-0.125
 74
     0
  0
LTYPE
  5
25
100
AcDbSymbolTableRecord
100
AcDbLinetypeTableRecord
  2
CENTERX2
 70
     0
  3
________  __  ________  __  ________  __  _____
 72
    65
 73
     4
 40
4.0
 49
2.5
 74
     0
 49
-0.5
 74
     0
 49
0.5
 74
     0
 49
-0.5
 74
     0
  0
LTYPE
  5
26
100
AcDbSymbolTableRecord
100
AcDbLinetypeTableRecord
  2
DASHDOT
 70
     0
  3
__ . __ . __ . __ . __ . __ . __ . __ . __ . __
 72
    65
 73
     4
 40
1.0
 49
0.5
 74
     0
 49
-0.25
 74
     0
 49
0.0
 74
     0
 49
-0.25
 74
     0
  0
LTYPE
  5
27
100
AcDbSymbolTableRecord
100
AcDbLinetypeTableRecord
  2
DASHDOT2
 70
     0
  3
_._._._._._._._._._._._._._._._._._._._._._._._
 72
    65
 73
     4
 40
0.5
 49
0.25
 74
     0
 49
-0.125
 74
     0
 49
0.0
 74
     0
 49
-0.125
 74
     0
  0
LTYPE
  5
28
100
AcDbSymbolTableRecord
100
AcDbLinetypeTableRecord
  2
DASHDOTX2
 70
     0
  3
____  .  ____  .  ____  .  ____  .  ____  .  __
 72
    65
 73
     4
 40
2.0
 49
1.0
 74
     0
 49
-0.5
 74
     0
 49
0.0
 74
     0
 49
-0.5
 74
     0
  0
LTYPE
  5
29
100
AcDbSymbolTableRecord
100
AcDbLinetypeTableRecord
  2
DASHED
 70
     0
  3
__ __ __ __ __ __ __ __ __ __ __ __ __ __ __ __
 72
    65
 73
     2
 40
0.75
 49
0.5
 74
     0
 49
-0.25
 74
     0
  0
LTYPE
  5
2A
100
AcDbSymbolTableRecord
100
AcDbLinetypeTableRecord
  2
DASHED2
 70
     0
  3
_ _ _ _ _ _ _ _ _ _ _ _ _ _ _ _ _ _ _ _ _ _ _ _
 72
    65
 73
     2
 40
0.375
 49
0.25
 74
     0
 49
-0.125
 74
     0
  0
LTYPE
  5
2B
100
AcDbSymbolTableRecord
100
AcDbLinetypeTableRecord
  2
DASHEDX2
 70
     0
  3
____  ____  ____  ____  ____  ____  ____  ____ 
 72
    65
 73
     2
 40
1.5
 49
1.0
 74
     0
 49
-0.5
 74
     0
  0
LTYPE
  5
2C
100
AcDbSymbolTableRecord
100
AcDbLinetypeTableRecord
  2
DIVIDE
 70
     0
  3
____ . . ____ . . ____ . . ____ . . ____ . . __
 72
    65
 73
     6
 40
1.25
 49
0.5
 74
     0
 49
-0.25
 74
     0
 49
0.0
 74
     0
 49
-0.25
 74
     0
 49
0.0
 74
     0
 49
-0.25
 74
     0
  0
LTYPE
  5
2D
100
AcDbSymbolTableRecord
100
AcDbLinetypeTableRecord
  2
DIVIDE2
 70
     0
  3
__..__..__..__..__..__..__..__..__..__..__..__.
 72
    65
 73
     6
 40
0.625
 49
0.25
 74
     0
 49
-0.125
 74
     0
 49
0.0
 74
     0
 49
-0.125
 74
     0
 49
0.0
 74
     0
 49
-0.125
 74
     0
  0
LTYPE
  5
2E
100
AcDbSymbolTableRecord
100
AcDbLinetypeTableRecord
  2
DIVIDEX2
 70
     0
  3
________  .  .  ________  .  .  ________  .  . 
 72
    65
 73
     6
 40
2.5
 49
1.0
 74
     0
 49
-0.5
 74
     0
 49
0.0
 74
     0
 49
-0.5
 74
     0
 49
0.0
 74
     0
 49
-0.5
 74
     0
  0
LTYPE
  5
2F
100
AcDbSymbolTableRecord
100
AcDbLinetypeTableRecord
  2
DOT
 70
     0
  3
. . . . . . . . . . . . . . . . . . . . . . . .
 72
    65
 73
     2
 40
0.25
 49
0.0
 74
     0
 49
-0.25
 74
     0
  0
LTYPE
  5
30
100
AcDbSymbolTableRecord
100
AcDbLinetypeTableRecord
  2
DOT2
 70
     0
  3
...............................................
 72
    65
 73
     2
 40
0.125
 49
0.0
 74
     0
 49
-0.125
 74
     0
  0
LTYPE
  5
31
100
AcDbSymbolTableRecord
100
AcDbLinetypeTableRecord
  2
DOTX2
 70
     0
  3
.  .  .  .  .  .  .  .  .  .  .  .  .  .  .  . 
 72
    65
 73
     2
 40
0.5
 49
0.0
 74
     0
 49
-0.5
 74
     0
  0
LTYPE
  5
32
100
AcDbSymbolTableRecord
100
AcDbLinetypeTableRecord
  2
HIDDEN
 70
     0
  3
__ __ __ __ __ __ __ __ __ __ __ __ __ __ __ __
 72
    65
 73
     2
 40
0.375
 49
0.25
 74
     0
 49
-0.125
 74
     0
  0
LTYPE
  5
33
100
AcDbSymbolTableRecord
100
AcDbLinetypeTableRecord
  2
HIDDEN2
 70
     0
  3
_ _ _ _ _ _ _ _ _ _ _ _ _ _ _ _ _ _ _ _ _ _ _ _
 72
    65
 73
     2
 40
0.1875
 49
0.125
 74
     0
 49
-0.0625
 74
     0
  0
LTYPE
  5
34
100
AcDbSymbolTableRecord
100
AcDbLinetypeTableRecord
  2
HIDDENX2
 70
     0
  3
____ ____ ____ ____ ____ ____ ____ ____ ____ __
 72
    65
 73
     2
 40
0.75
 49
0.5
 74
     0
 49
-0.25
 74
     0
  0
LTYPE
  5
35
100
AcDbSymbolTableRecord
100
AcDbLinetypeTableRecord
  2
PHANTOM
 70
     0
  3
______  __  __  ______  __  __  ______  __  __ 
 72
    65
 73
     6
 40
2.5
 49
1.25
 74
     0
 49
-0.25
 74
     0
 49
0.25
 74
     0
 49
-0.25
 74
     0
 49
0.25
 74
     0
 49
-0.25
 74
     0
  0
LTYPE
  5
36
100
AcDbSymbolTableRecord
100
AcDbLinetypeTableRecord
  2
PHANTOM2
 70
     0
  3
___ _ _ ___ _ _ ___ _ _ ___ _ _ ___ _ _ ___ _ _
 72
    65
 73
     6
 40
1.25
 49
0.625
 74
     0
 49
-0.125
 74
     0
 49
0.125
 74
     0
 49
-0.125
 74
     0
 49
0.125
 74
     0
 49
-0.125
 74
     0
  0
LTYPE
  5
37
100
AcDbSymbolTableRecord
100
AcDbLinetypeTableRecord
  2
PHANTOMX2
 70
     0
  3
____________    ____    ____    ____________   
 72
    65
 73
     6
 40
5.0
 49
2.5
 74
     0
 49
-0.5
 74
     0
 49
0.5
 74
     0
 49
-0.5
 74
     0
 49
0.5
 74
     0
 49
-0.5
 74
     0
  0
ENDTAB
   0
TABLE
   2
LAYER
   5
2
 100
AcDbSymbolTable
  70
6
   0
LAYER
   5
E
 100
AcDbSymbolTableRecord
 100
AcDbLayerTableRecord
   2
0
  70
0
  62
7
   6
CONTINUOUS
   0
LAYER
   5
39
 100
AcDbSymbolTableRecord
 100
AcDbLayerTableRecord
   2
LEVEL001
  70
0
  62
7
   6
CONTINUOUS
   0
LAYER
   5
3A
 100
AcDbSymbolTableRecord
 100
AcDbLayerTableRecord
   2
LEVEL003
  70
0
  62
7
   6
CONTINUOUS
   0
LAYER
   5
3B
 100
AcDbSymbolTableRecord
 100
AcDbLayerTableRecord
   2
LEVEL020
  70
0
  62
7
   6
CONTINUOUS
   0
LAYER
   5
3C
 100
AcDbSymbolTableRecord
 100
AcDbLayerTableRecord
   2
LEVEL050
  70
0
  62
7
   6
CONTINUOUS
   0
LAYER
   5
3D
 100
AcDbSymbolTableRecord
 100
AcDbLayerTableRecord
   2
LEVEL110
  70
0
  62
7
   6
CONTINUOUS
   0
ENDTAB
  0
TABLE
  2
STYLE
  5
3
100
AcDbSymbolTable
  70
3
  0
STYLE
  5
F
100
AcDbSymbolTableRecord
100
AcDbTextStyleTableRecord
  2
STANDARD
 70
     0
 40
0.0
 41
1.0
 50
0.0
 71
     0
 42
0.2
  3
TXT
  4
BIGFONT
  0
STYLE
  5
38
100
AcDbSymbolTableRecord
100
AcDbTextStyleTableRecord
  2
STANDARD1
 70
     4
 40
0.0
 41
1.0
 50
0.0
 71
     0
 42
0.2
  3
TXT
  4
BIGFONT
   0
STYLE
   5
3E
 100
AcDbSymbolTableRecord
 100
AcDbTextStyleTableRecord
   2
GMM001
  70
0
  40
0.0
  41
 1.0000000000000
  50
0.0
  71
     0
  42
1.0
   3
txt.shx
   4
bigfont.shx
   0
ENDTAB
  0
TABLE
  2
VIEW
  5
6
100
AcDbSymbolTable
 70
     0
  0
ENDTAB
  0
TABLE
  2
UCS
  5
7
100
AcDbSymbolTable
 70
     0
  0
ENDTAB
  0
TABLE
  2
APPID
  5
9
100
AcDbSymbolTable
 70
     1
  0
APPID
  5
10
100
AcDbSymbolTableRecord
100
AcDbRegAppTableRecord
  2
ACAD
 70
     0
  0
ENDTAB
   0
TABLE
   2
DIMSTYLE
   5
A
 100
AcDbSymbolTable
  70
9
  0
DIMSTYLE
105
1D
100
AcDbSymbolTableRecord
100
AcDbDimStyleTableRecord
  2
STANDARD
 70
     0
  3

  4

  5

  6

  7

 40
1.0
 41
0.18
 42
0.0625
 43
0.38
 44
0.18
 45
0.0
 46
0.0
 47
0.0
 48
0.0
140
0.18
141
0.09
142
0.0
143
25.4
144
1.0
145
0.0
146
1.0
147
0.09
 71
     0
 72
     0
 73
     1
 74
     1
 75
     0
 76
     0
 77
     0
 78
     0
170
     0
171
     2
172
     0
173
     0
174
     0
175
     0
176
     0
177
     0
178
     0
270
     2
271
     4
272
     4
273
     2
274
     2
340
F
275
     0
280
     0
281
     0
282
     0
283
     1
284
     0
285
     0
286
     0
287
     3
288
     0
   0
DIMSTYLE
 105
3F
 100
AcDbSymbolTableRecord
 100
AcDbDimStyleTableRecord
   2
GMM001
  70
0
   3

   4

   5

   6
_OPEN
   7
_OPEN
  40
 1.0000000000000
  41
 3.0000000000000
  42
 1.0000000000000
  43
 0.10000000000000E-5
  44
 2.0000000000000
  45
0.0
  46
0.0
  47
0.0
  48
0.0
 140
 4.0000000000000
 141
 1.0000000000000
 142
0.0
 143
 0.39400000000000E-1
 144
 1.0000000000000
 145
0.0
 146
 0.62500000000000
 147
 0.80000305175781
  71
0
  72
0
  73
0
  74
0
  75
0
  76
0
  77
3
  78
0
 170
0
 171
2
 172
1
 173
1
 174
0
 175
0
 176
3
 177
3
 178
3
 270
2
 271
0
 272
0
 273
2
 274
2
 340
3E
 275
1
 280
0
 281
0
 282
0
 283
1
 284
0
 285
0
 286
0
 287
3
 288
1
   0
DIMSTYLE
 105
40
 100
AcDbSymbolTableRecord
 100
AcDbDimStyleTableRecord
   2
GMM002
  70
0
   3

   4

   5

   6
_OPEN
   7
_OPEN
  40
 1.0000000000000
  41
 3.0000000000000
  42
 1.0000000000000
  43
 0.10000000000000E-5
  44
 2.0000000000000
  45
0.0
  46
0.0
  47
0.0
  48
0.0
 140
 4.0000000000000
 141
 1.0000000000000
 142
0.0
 143
 0.39400000000000E-1
 144
 1.0000000000000
 145
0.0
 146
 0.62500000000000
 147
 0.80000305175781
  71
0
  72
0
  73
0
  74
0
  75
1
  76
0
  77
3
  78
0
 170
0
 171
2
 172
1
 173
1
 174
0
 175
0
 176
3
 177
3
 178
3
 270
2
 271
0
 272
0
 273
2
 274
2
 340
3E
 275
1
 280
0
 281
0
 282
0
 283
1
 284
0
 285
0
 286
0
 287
3
 288
1
   0
DIMSTYLE
 105
41
 100
AcDbSymbolTableRecord
 100
AcDbDimStyleTableRecord
   2
GMM003
  70
0
   3

   4

   5

   6
_OPEN
   7
_OPEN
  40
 1.0000000000000
  41
 3.0000000000000
  42
 1.0000000000000
  43
 0.10000000000000E-5
  44
 2.0000000000000
  45
0.0
  46
0.0
  47
0.0
  48
0.0
 140
 4.0000000000000
 141
 1.0000000000000
 142
0.0
 143
 0.39400000000000E-1
 144
 1.0000000000000
 145
0.0
 146
 0.62500000000000
 147
0.0
  71
0
  72
0
  73
0
  74
0
  75
0
  76
0
  77
1
  78
0
 170
0
 171
2
 172
1
 173
1
 174
0
 175
0
 176
3
 177
3
 178
7
 270
2
 271
0
 272
0
 273
2
 274
2
 340
F
 275
1
 280
0
 281
0
 282
0
 283
1
 284
0
 285
0
 286
0
 287
3
 288
1
   0
DIMSTYLE
 105
42
 100
AcDbSymbolTableRecord
 100
AcDbDimStyleTableRecord
   2
GMM004
  70
0
   3

   4

   5

   6
_OPEN
   7
_OPEN
  40
 1.0000000000000
  41
 3.0000000000000
  42
 1.0000000000000
  43
 0.10000000000000E-5
  44
 2.0000000000000
  45
0.0
  46
0.0
  47
0.0
  48
0.0
 140
 4.0000000000000
 141
 1.0000000000000
 142
0.0
 143
 0.39400000000000E-1
 144
 1.0000000000000
 145
0.0
 146
 0.62500000000000
 147
 0.79998779296875
  71
0
  72
0
  73
0
  74
0
  75
0
  76
0
  77
3
  78
0
 170
0
 171
2
 172
1
 173
1
 174
0
 175
0
 176
3
 177
3
 178
3
 270
2
 271
0
 272
0
 273
2
 274
2
 340
3E
 275
1
 280
0
 281
0
 282
0
 283
1
 284
0
 285
0
 286
0
 287
3
 288
1
   0
DIMSTYLE
 105
43
 100
AcDbSymbolTableRecord
 100
AcDbDimStyleTableRecord
   2
GMM005
  70
0
   3

   4

   5

   6
_OPEN
   7
_OPEN
  40
 1.0000000000000
  41
 3.0000000000000
  42
 1.0000000000000
  43
 0.10000000000000E-5
  44
 2.0000000000000
  45
0.0
  46
0.0
  47
0.0
  48
0.0
 140
 4.0000000000000
 141
 1.0000000000000
 142
0.0
 143
 0.39400000000000E-1
 144
 1.0000000000000
 145
0.0
 146
 0.62500000000000
 147
 0.80000305175781
  71
0
  72
0
  73
0
  74
0
  75
0
  76
0
  77
3
  78
0
 170
0
 171
2
 172
1
 173
1
 174
0
 175
0
 176
3
 177
3
 178
3
 270
2
 271
0
 272
0
 273
2
 274
2
 340
3E
 275
1
 280
0
 281
0
 282
0
 283
1
 284
0
 285
0
 286
0
 287
3
 288
1
   0
DIMSTYLE
 105
44
 100
AcDbSymbolTableRecord
 100
AcDbDimStyleTableRecord
   2
GMM006
  70
0
   3

   4

   5

   6
_OPEN
   7
_OPEN
  40
 1.0000000000000
  41
 3.0000000000000
  42
 1.0000000000000
  43
 0.10000000000000E-5
  44
 2.0000000000000
  45
0.0
  46
0.0
  47
0.0
  48
0.0
 140
 4.0000000000000
 141
 1.0000000000000
 142
0.0
 143
 0.39400000000000E-1
 144
 1.0000000000000
 145
0.0
 146
 0.62500000000000
 147
 5.5210420936920
  71
0
  72
0
  73
1
  74
1
  75
1
  76
0
  77
3
  78
0
 170
0
 171
2
 172
1
 173
1
 174
0
 175
0
 176
3
 177
3
 178
3
 270
2
 271
0
 272
0
 273
2
 274
2
 340
3E
 275
0
 280
0
 281
0
 282
0
 283
1
 284
0
 285
0
 286
0
 287
3
 288
1
   0
DIMSTYLE
 105
45
 100
AcDbSymbolTableRecord
 100
AcDbDimStyleTableRecord
   2
GMM007
  70
0
   3

   4

   5

   6
_OPEN
   7
_OPEN
  40
 1.0000000000000
  41
 3.0000000000000
  42
 1.0000000000000
  43
 8.0000000000000
  44
 2.0000000000000
  45
0.0
  46
0.0
  47
0.0
  48
0.0
 140
 4.0000000000000
 141
 1.0000000000000
 142
0.0
 143
 0.39400000000000E-1
 144
 1.0000000000000
 145
0.0
 146
 0.62500000000000
 147
 0.80000000000000
  71
0
  72
0
  73
0
  74
0
  75
1
  76
1
  77
3
  78
8
 170
0
 171
2
 172
1
 173
1
 174
0
 175
0
 176
3
 177
3
 178
3
 270
2
 271
2
 272
0
 273
2
 274
2
 340
3E
 275
0
 280
0
 281
0
 282
0
 283
1
 284
0
 285
0
 286
0
 287
3
 288
0
   0
ENDTAB
  0
TABLE
  2
BLOCK_RECORD
  5
1
100
AcDbSymbolTable
 70
     0
  0
BLOCK_RECORD
  5
18
100
AcDbSymbolTableRecord
100
AcDbBlockTableRecord
  2
*MODEL_SPACE
  0
BLOCK_RECORD
  5
15
100
AcDbSymbolTableRecord
100
AcDbBlockTableRecord
  2
*PAPER_SPACE
   0
BLOCK_RECORD
   5
46
 100
AcDbSymbolTableRecord
 100
AcDbBlockTableRecord
   2
*D1
   0
BLOCK_RECORD
   5
47
 100
AcDbSymbolTableRecord
 100
AcDbBlockTableRecord
   2
*D2
   0
BLOCK_RECORD
   5
48
 100
AcDbSymbolTableRecord
 100
AcDbBlockTableRecord
   2
*D3
   0
BLOCK_RECORD
   5
49
 100
AcDbSymbolTableRecord
 100
AcDbBlockTableRecord
   2
*D5
   0
BLOCK_RECORD
   5
4A
 100
AcDbSymbolTableRecord
 100
AcDbBlockTableRecord
   2
*D6
   0
BLOCK_RECORD
   5
4B
 100
AcDbSymbolTableRecord
 100
AcDbBlockTableRecord
   2
*D7
   0
BLOCK_RECORD
   5
4C
 100
AcDbSymbolTableRecord
 100
AcDbBlockTableRecord
   2
*D8
   0
BLOCK_RECORD
   5
4D
 100
AcDbSymbolTableRecord
 100
AcDbBlockTableRecord
   2
_ARCHTICK
   0
BLOCK_RECORD
   5
4E
 100
AcDbSymbolTableRecord
 100
AcDbBlockTableRecord
   2
_BOXBLANK
   0
BLOCK_RECORD
   5
4F
 100
AcDbSymbolTableRecord
 100
AcDbBlockTableRecord
   2
_BOXFILLED
   0
BLOCK_RECORD
   5
50
 100
AcDbSymbolTableRecord
 100
AcDbBlockTableRecord
   2
_CLOSED
   0
BLOCK_RECORD
   5
51
 100
AcDbSymbolTableRecord
 100
AcDbBlockTableRecord
   2
_CLOSEDBLANK
   0
BLOCK_RECORD
   5
52
 100
AcDbSymbolTableRecord
 100
AcDbBlockTableRecord
   2
_DATUMBLANK
   0
BLOCK_RECORD
   5
53
 100
AcDbSymbolTableRecord
 100
AcDbBlockTableRecord
   2
_DATUMFILLED
   0
BLOCK_RECORD
   5
54
 100
AcDbSymbolTableRecord
 100
AcDbBlockTableRecord
   2
_DOT
   0
BLOCK_RECORD
   5
55
 100
AcDbSymbolTableRecord
 100
AcDbBlockTableRecord
   2
_DOTBLANK
   0
BLOCK_RECORD
   5
56
 100
AcDbSymbolTableRecord
 100
AcDbBlockTableRecord
   2
_DOTSMALL
   0
BLOCK_RECORD
   5
57
 100
AcDbSymbolTableRecord
 100
AcDbBlockTableRecord
   2
_INTEGRAL
   0
BLOCK_RECORD
   5
58
 100
AcDbSymbolTableRecord
 100
AcDbBlockTableRecord
   2
_NONE
   0
BLOCK_RECORD
   5
59
 100
AcDbSymbolTableRecord
 100
AcDbBlockTableRecord
   2
_OBLIQUE
   0
BLOCK_RECORD
   5
5A
 100
AcDbSymbolTableRecord
 100
AcDbBlockTableRecord
   2
_OPEN
   0
BLOCK_RECORD
   5
5B
 100
AcDbSymbolTableRecord
 100
AcDbBlockTableRecord
   2
_OPEN30
   0
BLOCK_RECORD
   5
5C
 100
AcDbSymbolTableRecord
 100
AcDbBlockTableRecord
   2
_OPEN90
   0
BLOCK_RECORD
   5
5D
 100
AcDbSymbolTableRecord
 100
AcDbBlockTableRecord
   2
_ORIGIN
   0
ENDTAB
   0
ENDSEC
  0
SECTION
  2
BLOCKS
  0
BLOCK
  5
19
100
AcDbEntity
  8
0
100
AcDbBlockBegin
  2
*MODEL_SPACE
 70
     0
 10
0.0
 20
0.0
 30
0.0
  3
*MODEL_SPACE
  1

  0
ENDBLK
  5
1A
100
AcDbEntity
  8
0
100
AcDbBlockEnd
  0
BLOCK
  5
16
100
AcDbEntity
 67
     1
  8
0
100
AcDbBlockBegin
  2
*PAPER_SPACE
 70
     0
 10
0.0
 20
0.0
 30
0.0
  3
*PAPER_SPACE
  1

  0
ENDBLK
  5
17
100
AcDbEntity
 67
     1
  8
0
100
AcDbBlockEnd
   0
BLOCK
   5
5E
 100
AcDbEntity
   8
0
 100
AcDbBlockBegin
   2
_ARCHTICK
  70
0
  10
0.0
  20
0.0
  30
0.0
   3
_ARCHTICK
   0
POLYLINE
   5
5F
 100
AcDbEntity
   8
0
   6
BYBLOCK
  62
0
 100
AcDb2dPolyline
  66
1
  10
0.0
  20
0.0
  30
0.0
  70
1
  40
 0.15000000000000
  41
 0.15000000000000
   0
VERTEX
   5
60
 100
AcDbEntity
   8
0
   6
BYBLOCK
  62
0
 100
AcDbVertex
 100
AcDb2dVertex
  10
-0.50000000000000
  20
-0.50000000000000
  30
0.0
  40
 0.15000000000000
  41
 0.15000000000000
   0
VERTEX
   5
61
 100
AcDbEntity
   8
0
   6
BYBLOCK
  62
0
 100
AcDbVertex
 100
AcDb2dVertex
  10
 0.50000000000000
  20
 0.50000000000000
  30
0.0
  40
 0.15000000000000
  41
 0.15000000000000
   0
SEQEND
   5
62
 100
AcDbEntity
   8
0
   6
BYBLOCK
  62
0
   0
ENDBLK
   5
63
 100
AcDbEntity
   8
0
 100
AcDbBlockEnd
   0
BLOCK
   5
64
 100
AcDbEntity
   8
0
 100
AcDbBlockBegin
   2
_OBLIQUE
  70
0
  10
0.0
  20
0.0
  30
0.0
   3
_OBLIQUE
   0
LINE
   5
65
 100
AcDbEntity
   8
0
 100
AcDbLine
   6
BYBLOCK
  62
0
  10
-0.50000000000000
  20
-0.50000000000000
  30
0.0
  11
 0.50000000000000
  21
 0.50000000000000
  31
0.0
   0
ENDBLK
   5
66
 100
AcDbEntity
   8
0
 100
AcDbBlockEnd
   0
BLOCK
   5
67
 100
AcDbEntity
   8
0
 100
AcDbBlockBegin
   2
_BOXBLANK
  70
0
  10
0.0
  20
0.0
  30
0.0
   3
_BOXBLANK
   0
LINE
   5
68
 100
AcDbEntity
   8
0
 100
AcDbLine
   6
BYBLOCK
  62
0
  10
-0.50000000000000
  20
-0.50000000000000
  30
0.0
  11
 0.50000000000000
  21
-0.50000000000000
  31
0.0
   0
LINE
   5
69
 100
AcDbEntity
   8
0
 100
AcDbLine
   6
BYBLOCK
  62
0
  10
 0.50000000000000
  20
-0.50000000000000
  30
0.0
  11
 0.50000000000000
  21
 0.50000000000000
  31
0.0
   0
LINE
   5
6A
 100
AcDbEntity
   8
0
 100
AcDbLine
   6
BYBLOCK
  62
0
  10
 0.50000000000000
  20
 0.50000000000000
  30
0.0
  11
-0.50000000000000
  21
 0.50000000000000
  31
0.0
   0
LINE
   5
6B
 100
AcDbEntity
   8
0
 100
AcDbLine
   6
BYBLOCK
  62
0
  10
-0.50000000000000
  20
 0.50000000000000
  30
0.0
  11
-0.50000000000000
  21
-0.50000000000000
  31
0.0
   0
LINE
   5
6C
 100
AcDbEntity
   8
0
 100
AcDbLine
   6
BYBLOCK
  62
0
  10
-0.50000000000000
  20
0.0
  30
0.0
  11
-1.0000000000000
  21
0.0
  31
0.0
   0
ENDBLK
   5
6D
 100
AcDbEntity
   8
0
 100
AcDbBlockEnd
   0
BLOCK
   5
6E
 100
AcDbEntity
   8
0
 100
AcDbBlockBegin
   2
_BOXFILLED
  70
0
  10
0.0
  20
0.0
  30
0.0
   3
_BOXFILLED
   0
SOLID
   5
6F
 100
AcDbEntity
   8
0
 100
AcDbTrace
   6
BYBLOCK
  62
0
  10
-0.50000000000000
  20
 0.50000000000000
  30
0.0
  11
 0.50000000000000
  21
 0.50000000000000
  31
0.0
  12
-0.50000000000000
  22
-0.50000000000000
  32
0.0
  13
 0.50000000000000
  23
-0.50000000000000
  33
0.0
   0
LINE
   5
70
 100
AcDbEntity
   8
0
 100
AcDbLine
   6
BYBLOCK
  62
0
  10
-0.50000000000000
  20
0.0
  30
0.0
  11
-1.0000000000000
  21
0.0
  31
0.0
   0
ENDBLK
   5
71
 100
AcDbEntity
   8
0
 100
AcDbBlockEnd
   0
BLOCK
   5
72
 100
AcDbEntity
   8
0
 100
AcDbBlockBegin
   2
_CLOSED
  70
0
  10
0.0
  20
0.0
  30
0.0
   3
_CLOSED
   0
LINE
   5
73
 100
AcDbEntity
   8
0
 100
AcDbLine
   6
BYBLOCK
  62
0
  10
-1.0000000000000
  20
 0.16666666666667
  30
0.0
  11
0.0
  21
0.0
  31
0.0
   0
LINE
   5
74
 100
AcDbEntity
   8
0
 100
AcDbLine
   6
BYBLOCK
  62
0
  10
0.0
  20
0.0
  30
0.0
  11
-1.0000000000000
  21
-0.16666666666667
  31
0.0
   0
LINE
   5
75
 100
AcDbEntity
   8
0
 100
AcDbLine
   6
BYBLOCK
  62
0
  10
-1.0000000000000
  20
 0.16666666666667
  30
0.0
  11
-1.0000000000000
  21
-0.16666666666667
  31
0.0
   0
LINE
   5
76
 100
AcDbEntity
   8
0
 100
AcDbLine
   6
BYBLOCK
  62
0
  10
0.0
  20
0.0
  30
0.0
  11
-1.0000000000000
  21
0.0
  31
0.0
   0
ENDBLK
   5
77
 100
AcDbEntity
   8
0
 100
AcDbBlockEnd
   0
BLOCK
   5
78
 100
AcDbEntity
   8
0
 100
AcDbBlockBegin
   2
_OPEN
  70
0
  10
0.0
  20
0.0
  30
0.0
   3
_OPEN
   0
LINE
   5
79
 100
AcDbEntity
   8
0
 100
AcDbLine
   6
BYBLOCK
  62
0
  10
-1.0000000000000
  20
 0.16666666666667
  30
0.0
  11
0.0
  21
0.0
  31
0.0
   0
LINE
   5
7A
 100
AcDbEntity
   8
0
 100
AcDbLine
   6
BYBLOCK
  62
0
  10
0.0
  20
0.0
  30
0.0
  11
-1.0000000000000
  21
-0.16666666666667
  31
0.0
   0
LINE
   5
7B
 100
AcDbEntity
   8
0
 100
AcDbLine
   6
BYBLOCK
  62
0
  10
0.0
  20
0.0
  30
0.0
  11
-1.0000000000000
  21
0.0
  31
0.0
   0
ENDBLK
   5
7C
 100
AcDbEntity
   8
0
 100
AcDbBlockEnd
   0
BLOCK
   5
7D
 100
AcDbEntity
   8
0
 100
AcDbBlockBegin
   2
_OPEN30
  70
0
  10
0.0
  20
0.0
  30
0.0
   3
_OPEN30
   0
LINE
   5
7E
 100
AcDbEntity
   8
0
 100
AcDbLine
   6
BYBLOCK
  62
0
  10
-1.0000000000000
  20
 0.26794919243110
  30
0.0
  11
0.0
  21
0.0
  31
0.0
   0
LINE
   5
7F
 100
AcDbEntity
   8
0
 100
AcDbLine
   6
BYBLOCK
  62
0
  10
0.0
  20
0.0
  30
0.0
  11
-1.0000000000000
  21
-0.26794919243110
  31
0.0
   0
LINE
   5
80
 100
AcDbEntity
   8
0
 100
AcDbLine
   6
BYBLOCK
  62
0
  10
0.0
  20
0.0
  30
0.0
  11
-1.0000000000000
  21
0.0
  31
0.0
   0
ENDBLK
   5
81
 100
AcDbEntity
   8
0
 100
AcDbBlockEnd
   0
BLOCK
   5
82
 100
AcDbEntity
   8
0
 100
AcDbBlockBegin
   2
_OPEN90
  70
0
  10
0.0
  20
0.0
  30
0.0
   3
_OPEN90
   0
LINE
   5
83
 100
AcDbEntity
   8
0
 100
AcDbLine
   6
BYBLOCK
  62
0
  10
-0.50000000000000
  20
 0.50000000000000
  30
0.0
  11
0.0
  21
0.0
  31
0.0
   0
LINE
   5
84
 100
AcDbEntity
   8
0
 100
AcDbLine
   6
BYBLOCK
  62
0
  10
0.0
  20
0.0
  30
0.0
  11
-0.50000000000000
  21
-0.50000000000000
  31
0.0
   0
LINE
   5
85
 100
AcDbEntity
   8
0
 100
AcDbLine
   6
BYBLOCK
  62
0
  10
0.0
  20
0.0
  30
0.0
  11
-1.0000000000000
  21
0.0
  31
0.0
   0
ENDBLK
   5
86
 100
AcDbEntity
   8
0
 100
AcDbBlockEnd
   0
BLOCK
   5
87
 100
AcDbEntity
   8
0
 100
AcDbBlockBegin
   2
_CLOSEDBLANK
  70
0
  10
0.0
  20
0.0
  30
0.0
   3
_CLOSEDBLANK
   0
LINE
   5
88
 100
AcDbEntity
   8
0
 100
AcDbLine
   6
BYBLOCK
  62
0
  10
-1.0000000000000
  20
 0.16666666666667
  30
0.0
  11
0.0
  21
0.0
  31
0.0
   0
LINE
   5
89
 100
AcDbEntity
   8
0
 100
AcDbLine
   6
BYBLOCK
  62
0
  10
0.0
  20
0.0
  30
0.0
  11
-1.0000000000000
  21
-0.16666666666667
  31
0.0
   0
LINE
   5
8A
 100
AcDbEntity
   8
0
 100
AcDbLine
   6
BYBLOCK
  62
0
  10
-1.0000000000000
  20
 0.16666666666667
  30
0.0
  11
-1.0000000000000
  21
-0.16666666666667
  31
0.0
   0
ENDBLK
   5
8B
 100
AcDbEntity
   8
0
 100
AcDbBlockEnd
   0
BLOCK
   5
8C
 100
AcDbEntity
   8
0
 100
AcDbBlockBegin
   2
_DOT
  70
0
  10
0.0
  20
0.0
  30
0.0
   3
_DOT
   0
POLYLINE
   5
8D
 100
AcDbEntity
   8
0
   6
BYBLOCK
  62
0
 100
AcDb2dPolyline
  66
1
  10
0.0
  20
0.0
  30
0.0
  70
1
  40
 0.50000000000000
  41
 0.50000000000000
   0
VERTEX
   5
8E
 100
AcDbEntity
   8
0
   6
BYBLOCK
  62
0
 100
AcDbVertex
 100
AcDb2dVertex
  10
-0.25000000000000
  20
0.0
  30
0.0
  42
 1.0000000000000
  40
 0.50000000000000
  41
 0.50000000000000
   0
VERTEX
   5
8F
 100
AcDbEntity
   8
0
   6
BYBLOCK
  62
0
 100
AcDbVertex
 100
AcDb2dVertex
  10
 0.25000000000000
  20
0.0
  30
0.0
  42
 1.0000000000000
  40
 0.50000000000000
  41
 0.50000000000000
   0
SEQEND
   5
90
 100
AcDbEntity
   8
0
   6
BYBLOCK
  62
0
   0
LINE
   5
91
 100
AcDbEntity
   8
0
 100
AcDbLine
   6
BYBLOCK
  62
0
  10
-0.50000000000000
  20
0.0
  30
0.0
  11
-1.0000000000000
  21
0.0
  31
0.0
   0
ENDBLK
   5
92
 100
AcDbEntity
   8
0
 100
AcDbBlockEnd
   0
BLOCK
   5
93
 100
AcDbEntity
   8
0
 100
AcDbBlockBegin
   2
_DOTSMALL
  70
0
  10
0.0
  20
0.0
  30
0.0
   3
_DOTSMALL
   0
POLYLINE
   5
94
 100
AcDbEntity
   8
0
   6
BYBLOCK
  62
0
 100
AcDb2dPolyline
  66
1
  10
0.0
  20
0.0
  30
0.0
  70
1
  40
 0.50000000000000
  41
 0.50000000000000
   0
VERTEX
   5
95
 100
AcDbEntity
   8
0
   6
BYBLOCK
  62
0
 100
AcDbVertex
 100
AcDb2dVertex
  10
-0.62500000000000E-1
  20
0.0
  30
0.0
  42
 1.0000000000000
  40
 0.50000000000000
  41
 0.50000000000000
   0
VERTEX
   5
96
 100
AcDbEntity
   8
0
   6
BYBLOCK
  62
0
 100
AcDbVertex
 100
AcDb2dVertex
  10
 0.62500000000000E-1
  20
0.0
  30
0.0
  42
 1.0000000000000
  40
 0.50000000000000
  41
 0.50000000000000
   0
SEQEND
   5
97
 100
AcDbEntity
   8
0
   6
BYBLOCK
  62
0
   0
ENDBLK
   5
98
 100
AcDbEntity
   8
0
 100
AcDbBlockEnd
   0
BLOCK
   5
99
 100
AcDbEntity
   8
0
 100
AcDbBlockBegin
   2
_DATUMBLANK
  70
0
  10
0.0
  20
0.0
  30
0.0
   3
_DATUMBLANK
   0
LINE
   5
9A
 100
AcDbEntity
   8
0
 100
AcDbLine
   6
BYBLOCK
  62
0
  10
0.0
  20
 0.57735027000000
  30
0.0
  11
-1.0000000000000
  21
0.0
  31
0.0
   0
LINE
   5
9B
 100
AcDbEntity
   8
0
 100
AcDbLine
   6
BYBLOCK
  62
0
  10
-1.0000000000000
  20
0.0
  30
0.0
  11
0.0
  21
-0.57735027000000
  31
0.0
   0
LINE
   5
9C
 100
AcDbEntity
   8
0
 100
AcDbLine
   6
BYBLOCK
  62
0
  10
0.0
  20
-0.57735027000000
  30
0.0
  11
0.0
  21
 0.57735027000000
  31
0.0
   0
ENDBLK
   5
9D
 100
AcDbEntity
   8
0
 100
AcDbBlockEnd
   0
BLOCK
   5
9E
 100
AcDbEntity
   8
0
 100
AcDbBlockBegin
   2
_DATUMFILLED
  70
0
  10
0.0
  20
0.0
  30
0.0
   3
_DATUMFILLED
   0
SOLID
   5
9F
 100
AcDbEntity
   8
0
 100
AcDbTrace
   6
BYBLOCK
  62
0
  10
0.0
  20
 0.57735027000000
  30
0.0
  11
-1.0000000000000
  21
0.0
  31
0.0
  12
0.0
  22
-0.57735027000000
  32
0.0
  13
0.0
  23
-0.57735027000000
  33
0.0
   0
ENDBLK
   5
A0
 100
AcDbEntity
   8
0
 100
AcDbBlockEnd
   0
BLOCK
   5
A1
 100
AcDbEntity
   8
0
 100
AcDbBlockBegin
   2
_ORIGIN
  70
0
  10
0.0
  20
0.0
  30
0.0
   3
_ORIGIN
   0
CIRCLE
   5
A2
 100
AcDbEntity
   8
0
 100
AcDbCircle
   6
BYBLOCK
  62
0
  10
0.0
  20
0.0
  30
0.0
  40
 0.50000000000000
   0
LINE
   5
A3
 100
AcDbEntity
   8
0
 100
AcDbLine
   6
BYBLOCK
  62
0
  10
0.0
  20
0.0
  30
0.0
  11
-1.0000000000000
  21
0.0
  31
0.0
   0
ENDBLK
   5
A4
 100
AcDbEntity
   8
0
 100
AcDbBlockEnd
   0
BLOCK
   5
A5
 100
AcDbEntity
   8
0
 100
AcDbBlockBegin
   2
_NONE
  70
0
  10
0.0
  20
0.0
  30
0.0
   3
_NONE
   0
CIRCLE
   5
A6
 100
AcDbEntity
   8
0
 100
AcDbCircle
   6
BYBLOCK
  62
0
  10
0.0
  20
0.0
  30
0.0
  40
 0.25000000000000
   0
ENDBLK
   5
A7
 100
AcDbEntity
   8
0
 100
AcDbBlockEnd
   0
BLOCK
   5
A8
 100
AcDbEntity
   8
0
 100
AcDbBlockBegin
   2
_DOTBLANK
  70
0
  10
0.0
  20
0.0
  30
0.0
   3
_DOTBLANK
   0
CIRCLE
   5
A9
 100
AcDbEntity
   8
0
 100
AcDbCircle
   6
BYBLOCK
  62
0
  10
0.0
  20
0.0
  30
0.0
  40
 0.50000000000000
   0
LINE
   5
AA
 100
AcDbEntity
   8
0
 100
AcDbLine
   6
BYBLOCK
  62
0
  10
-0.50000000000000
  20
0.0
  30
0.0
  11
-1.0000000000000
  21
0.0
  31
0.0
   0
ENDBLK
   5
AB
 100
AcDbEntity
   8
0
 100
AcDbBlockEnd
   0
BLOCK
   5
AC
 100
AcDbEntity
   8
0
 100
AcDbBlockBegin
   2
_INTEGRAL
  70
0
  10
0.0
  20
0.0
  30
0.0
   3
_INTEGRAL
   0
ARC
   5
AD
 100
AcDbEntity
   8
0
   6
BYBLOCK
  62
0
 100
AcDbCircle
  10
 0.44488800000000
  20
-0.91335000000000E-1
  30
0.0
  40
 0.45416700000000
 100
AcDbArc
  50
 102.00000000000
  51
 168.00000000000
   0
ARC
   5
AE
 100
AcDbEntity
   8
0
   6
BYBLOCK
  62
0
 100
AcDbCircle
  10
-0.44488800000000
  20
 0.91335000000000E-1
  30
0.0
  40
 0.45416700000000
 100
AcDbArc
  50
 282.00000000000
  51
 348.00000000000
   0
ENDBLK
   5
AF
 100
AcDbEntity
   8
0
 100
AcDbBlockEnd
   0
BLOCK
   5
B0
 100
AcDbEntity
   8
0
 100
AcDbBlockBegin
   2
*D1
  70
65
  10
0.0
  20
0.0
  30
0.0
   3
*D1
   0
LINE
   5
B1
 100
AcDbEntity
   8
LEVEL003
 100
AcDbLine
   6
CONTINUOUS
  62
3
  10
 172.50000000000
  20
 85.500000000000
  30
0.0
  11
 172.50000000000
  21
 63.000000000006
  31
0.0
   0
LINE
   5
B2
 100
AcDbEntity
   8
LEVEL003
 100
AcDbLine
   6
CONTINUOUS
  62
3
  10
 87.500000000000
  20
 85.500000000000
  30
0.0
  11
 87.500000000000
  21
 63.000000000006
  31
0.0
   0
LINE
   5
B3
 100
AcDbEntity
   8
LEVEL003
 100
AcDbLine
   6
CONTINUOUS
  62
3
  10
 172.50000000000
  20
 65.000000000006
  30
0.0
  11
 136.82499819035
  21
 65.000000000006
  31
0.0
   0
LINE
   5
B4
 100
AcDbEntity
   8
LEVEL003
 100
AcDbLine
   6
CONTINUOUS
  62
3
  10
 87.500000000000
  20
 65.000000000006
  30
0.0
  11
 123.17499819035
  21
 65.000000000006
  31
0.0
   0
INSERT
   5
B5
 100
AcDbEntity
   8
LEVEL003
   6
CONTINUOUS
  62
3
 100
AcDbBlockReference
   2
_OPEN
  10
 172.50000000000
  20
 65.000000000006
  30
0.0
  41
 3.0000000000000
  42
 3.0000000000000
  43
 3.0000000000000
  50
0.0
   0
INSERT
   5
B6
 100
AcDbEntity
   8
LEVEL003
   6
CONTINUOUS
  62
3
 100
AcDbBlockReference
   2
_OPEN
  10
 87.500000000000
  20
 65.000000000006
  30
0.0
  41
 3.0000000000000
  42
 3.0000000000000
  43
 3.0000000000000
  50
 180.00000000000
   0
MTEXT
   5
B7
 100
AcDbEntity
   8
LEVEL003
  62
3
 100
AcDbMText
  10
 129.99999819035
  20
 65.800003051764
  30
0.0
  40
 4.0000000000000
  41
0.0
  71
8
  72
1
   1
\A1;%%c85
   7
GMM001
   0
ENDBLK
   5
B8
 100
AcDbEntity
   8
0
 100
AcDbBlockEnd
   0
BLOCK
   5
B9
 100
AcDbEntity
   8
0
 100
AcDbBlockBegin
   2
*D2
  70
65
  10
0.0
  20
0.0
  30
0.0
   3
*D2
   0
LINE
   5
BA
 100
AcDbEntity
   8
LEVEL003
 100
AcDbLine
   6
CONTINUOUS
  62
3
  10
 105.00000000000
  20
 185.00000000000
  30
0.0
  11
 105.00000000000
  21
 212.00000000000
  31
0.0
   0
LINE
   5
BB
 100
AcDbEntity
   8
LEVEL003
 100
AcDbLine
   6
CONTINUOUS
  62
3
  10
 155.00000000000
  20
 184.99998474121
  30
0.0
  11
 155.00000000000
  21
 212.00000000000
  31
0.0
   0
LINE
   5
BC
 100
AcDbEntity
   8
LEVEL003
 100
AcDbLine
   6
CONTINUOUS
  62
3
  10
 105.00000000000
  20
 210.00000000000
  30
0.0
  11
 123.52500000000
  21
 210.00000000000
  31
0.0
   0
LINE
   5
BD
 100
AcDbEntity
   8
LEVEL003
 100
AcDbLine
   6
CONTINUOUS
  62
3
  10
 155.00000000000
  20
 210.00000000000
  30
0.0
  11
 136.47500000000
  21
 210.00000000000
  31
0.0
   0
INSERT
   5
BE
 100
AcDbEntity
   8
LEVEL003
   6
CONTINUOUS
  62
3
 100
AcDbBlockReference
   2
_OPEN
  10
 105.00000000000
  20
 210.00000000000
  30
0.0
  41
 3.0000000000000
  42
 3.0000000000000
  43
 3.0000000000000
  50
 180.00000000000
   0
INSERT
   5
BF
 100
AcDbEntity
   8
LEVEL003
   6
CONTINUOUS
  62
3
 100
AcDbBlockReference
   2
_OPEN
  10
 155.00000000000
  20
 210.00000000000
  30
0.0
  41
 3.0000000000000
  42
 3.0000000000000
  43
 3.0000000000000
  50
0.0
   0
MTEXT
   5
C0
 100
AcDbEntity
   8
LEVEL003
  62
3
 100
AcDbMText
  10
 130.00000000000
  20
 210.80000305176
  30
0.0
  40
 4.0000000000000
  41
0.0
  71
8
  72
1
   1
\A1;%%c50
   7
GMM001
   0
ENDBLK
   5
C1
 100
AcDbEntity
   8
0
 100
AcDbBlockEnd
   0
BLOCK
   5
C2
 100
AcDbEntity
   8
0
 100
AcDbBlockBegin
   2
*D3
  70
65
  10
0.0
  20
0.0
  30
0.0
   3
*D3
   0
LINE
   5
C3
 100
AcDbEntity
   8
LEVEL003
 100
AcDbLine
   6
CONTINUOUS
  62
3
  10
 172.40385437012
  20
 184.00000000000
  30
0.0
  11
 212.25000000000
  21
 184.00000000000
  31
0.0
   0
LINE
   5
C4
 100
AcDbEntity
   8
LEVEL003
 100
AcDbLine
   6
CONTINUOUS
  62
3
  10
 210.25000000000
  20
 188.75000000000
  30
0.0
  11
 210.25000000000
  21
 182.07581059071
  31
0.0
   0
LINE
   5
C5
 100
AcDbEntity
   8
LEVEL003
 100
AcDbLine
   6
CONTINUOUS
  62
3
  10
 210.25000000000
  20
 179.36331059071
  30
0.0
  11
 210.25000000000
  21
 179.36331059071
  31
0.0
   0
INSERT
   5
C6
 100
AcDbEntity
   8
LEVEL003
   6
CONTINUOUS
  62
3
 100
AcDbBlockReference
   2
_OPEN
  10
 210.25000000000
  20
 185.00000000000
  30
0.0
  41
 3.0000000000000
  42
 3.0000000000000
  43
 3.0000000000000
  50
 270.00000000000
   0
INSERT
   5
C7
 100
AcDbEntity
   8
LEVEL003
   6
CONTINUOUS
  62
3
 100
AcDbBlockReference
   2
_OPEN
  10
 210.25000000000
  20
 184.00000000000
  30
0.0
  41
 3.0000000000000
  42
 3.0000000000000
  43
 3.0000000000000
  50
 90.000000000000
   0
MTEXT
   5
C8
 100
AcDbEntity
   8
LEVEL003
  62
3
 100
AcDbMText
  10
 209.44999694824
  20
 182.07581059071
  30
0.0
  40
 4.0000000000000
  41
0.0
  71
9
  72
1
   1
\A1;1
   7
GMM001
  11
0.0
  21
 1.0000000000000
  31
0.0
   0
ENDBLK
   5
C9
 100
AcDbEntity
   8
0
 100
AcDbBlockEnd
   0
BLOCK
   5
CA
 100
AcDbEntity
   8
0
 100
AcDbBlockBegin
   2
*D5
  70
65
  10
0.0
  20
0.0
  30
0.0
   3
*D5
   0
LINE
   5
CB
 100
AcDbEntity
   8
LEVEL003
 100
AcDbLine
   6
CONTINUOUS
  62
3
  10
 155.25000000000
  20
 185.00000000000
  30
0.0
  11
 267.00000000000
  21
 185.00000000000
  31
0.0
   0
LINE
   5
CC
 100
AcDbEntity
   8
LEVEL003
 100
AcDbLine
   6
CONTINUOUS
  62
3
  10
 172.25000000000
  20
 85.000000000000
  30
0.0
  11
 267.00000000000
  21
 85.000000000000
  31
0.0
   0
LINE
   5
CD
 100
AcDbEntity
   8
LEVEL003
 100
AcDbLine
   6
CONTINUOUS
  62
3
  10
 265.00000000000
  20
 185.00000000000
  30
0.0
  11
 265.00000000000
  21
 139.68125000000
  31
0.0
   0
LINE
   5
CE
 100
AcDbEntity
   8
LEVEL003
 100
AcDbLine
   6
CONTINUOUS
  62
3
  10
 265.00000000000
  20
 85.000000000000
  30
0.0
  11
 265.00000000000
  21
 130.31875000000
  31
0.0
   0
INSERT
   5
CF
 100
AcDbEntity
   8
LEVEL003
   6
CONTINUOUS
  62
3
 100
AcDbBlockReference
   2
_OPEN
  10
 265.00000000000
  20
 185.00000000000
  30
0.0
  41
 3.0000000000000
  42
 3.0000000000000
  43
 3.0000000000000
  50
 90.000000000000
   0
INSERT
   5
D0
 100
AcDbEntity
   8
LEVEL003
   6
CONTINUOUS
  62
3
 100
AcDbBlockReference
   2
_OPEN
  10
 265.00000000000
  20
 85.000000000000
  30
0.0
  41
 3.0000000000000
  42
 3.0000000000000
  43
 3.0000000000000
  50
 270.00000000000
   0
MTEXT
   5
D1
 100
AcDbEntity
   8
LEVEL003
  62
3
 100
AcDbMText
  10
 264.20001220703
  20
 135.00000000000
  30
0.0
  40
 4.0000000000000
  41
0.0
  71
8
  72
1
   1
\A1;100
   7
GMM001
  11
0.0
  21
 1.0000000000000
  31
0.0
   0
ENDBLK
   5
D2
 100
AcDbEntity
   8
0
 100
AcDbBlockEnd
   0
BLOCK
   5
D3
 100
AcDbEntity
   8
0
 100
AcDbBlockBegin
   2
*D6
  70
65
  10
0.0
  20
0.0
  30
0.0
   3
*D6
   0
LINE
   5
D4
 100
AcDbEntity
   8
LEVEL003
 100
AcDbLine
   6
CONTINUOUS
  62
3
  10
 173.75001525879
  20
 102.26858520508
  30
0.0
  11
 257.00000000000
  21
 102.26858520508
  31
0.0
   0
LINE
   5
D5
 100
AcDbEntity
   8
LEVEL003
 100
AcDbLine
   6
CONTINUOUS
  62
3
  10
 211.25000000000
  20
 85.000000000000
  30
0.0
  11
 257.00000000000
  21
 85.000000000000
  31
0.0
   0
LINE
   5
D6
 100
AcDbEntity
   8
LEVEL003
 100
AcDbLine
   6
CONTINUOUS
  62
3
  10
 255.00000000000
  20
 102.26858520508
  30
0.0
  11
 255.00000000000
  21
 97.003042602539
  31
0.0
   0
LINE
   5
D7
 100
AcDbEntity
   8
LEVEL003
 100
AcDbLine
   6
CONTINUOUS
  62
3
  10
 255.00000000000
  20
 85.000000000000
  30
0.0
  11
 255.00000000000
  21
 90.265542602539
  31
0.0
   0
INSERT
   5
D8
 100
AcDbEntity
   8
LEVEL003
   6
CONTINUOUS
  62
3
 100
AcDbBlockReference
   2
_OPEN
  10
 255.00000000000
  20
 102.26858520508
  30
0.0
  41
 3.0000000000000
  42
 3.0000000000000
  43
 3.0000000000000
  50
 90.000000000000
   0
INSERT
   5
D9
 100
AcDbEntity
   8
LEVEL003
   6
CONTINUOUS
  62
3
 100
AcDbBlockReference
   2
_OPEN
  10
 255.00000000000
  20
 85.000000000000
  30
0.0
  41
 3.0000000000000
  42
 3.0000000000000
  43
 3.0000000000000
  50
 270.00000000000
   0
MTEXT
   5
DA
 100
AcDbEntity
   8
LEVEL003
  62
3
 100
AcDbMText
  10
 254.19999694824
  20
 93.634292602539
  30
0.0
  40
 4.0000000000000
  41
0.0
  71
8
  72
1
   1
\A1;17
   7
GMM001
  11
0.0
  21
 1.0000000000000
  31
0.0
   0
ENDBLK
   5
DB
 100
AcDbEntity
   8
0
 100
AcDbBlockEnd
   0
BLOCK
   5
DC
 100
AcDbEntity
   8
0
 100
AcDbBlockBegin
   2
*D7
  70
65
  10
0.0
  20
0.0
  30
0.0
   3
*D7
   0
LINE
   5
DD
 100
AcDbEntity
   8
LEVEL003
 100
AcDbLine
   6
CONTINUOUS
  62
3
  10
 241.14818358556
  20
 114.32902855111
  30
0.0
  11
 255.72005227010
  21
 116.89844405790
  31
0.0
   0
ARC
   5
DE
 100
AcDbEntity
   8
LEVEL003
   6
CONTINUOUS
  62
3
 100
AcDbCircle
  10
 172.75006103516
  20
 102.26858520508
  30
0.0
  40
 82.249938964843
 100
AcDbArc
  50
0.0
  51
 1.3694913678171
   0
ARC
   5
DF
 100
AcDbEntity
   8
LEVEL003
   6
CONTINUOUS
  62
3
 100
AcDbCircle
  10
 172.75006103516
  20
 102.26858520508
  30
0.0
  40
 82.249938964843
 100
AcDbArc
  50
 5.2644888092655
  51
 10.000007239158
   0
INSERT
   5
E0
 100
AcDbEntity
   8
LEVEL003
   6
CONTINUOUS
  62
3
 100
AcDbBlockReference
   2
_OPEN
  10
 255.00000000000
  20
 102.26858520508
  30
0.0
  41
 3.0000000000000
  42
 3.0000000000000
  43
 3.0000000000000
  50
 270.00000000000
   0
INSERT
   5
E1
 100
AcDbEntity
   8
LEVEL003
   6
CONTINUOUS
  62
3
 100
AcDbBlockReference
   2
_OPEN
  10
 253.75043680796
  20
 116.55114745371
  30
0.0
  41
 3.0000000000000
  42
 3.0000000000000
  43
 3.0000000000000
  50
 100.00000723916
   0
MTEXT
   5
E2
 100
AcDbEntity
   8
LEVEL003
  62
3
 100
AcDbMText
  10
 249.42488702923
  20
 105.14863274674
  30
0.0
  40
 4.0000000000000
  41
0.0
  71
8
  72
1
   1
\A1;10%%d
   7
GMM001
   0
ENDBLK
   5
E3
 100
AcDbEntity
   8
0
 100
AcDbBlockEnd
   0
BLOCK
   5
E4
 100
AcDbEntity
   8
0
 100
AcDbBlockBegin
   2
*D8
  70
65
  10
0.0
  20
0.0
  30
0.0
   3
*D8
   0
LINE
   5
E5
 100
AcDbEntity
   8
LEVEL003
 100
AcDbLine
   6
CONTINUOUS
  62
3
  10
 100.00000000000
  20
 120.00000000000
  30
0.0
  11
 123.52500000000
  21
 120.00000000000
  31
0.0
   0
LINE
   5
E6
 100
AcDbEntity
   8
LEVEL003
 100
AcDbLine
   6
CONTINUOUS
  62
3
  10
 160.00000000000
  20
 120.00000000000
  30
0.0
  11
 136.47500000000
  21
 120.00000000000
  31
0.0
   0
INSERT
   5
E7
 100
AcDbEntity
   8
LEVEL003
   6
CONTINUOUS
  62
3
 100
AcDbBlockReference
   2
_OPEN
  10
 100.00000000000
  20
 120.00000000000
  30
0.0
  41
 3.0000000000000
  42
 3.0000000000000
  43
 3.0000000000000
  50
 180.00000000000
   0
INSERT
   5
E8
 100
AcDbEntity
   8
LEVEL003
   6
CONTINUOUS
  62
3
 100
AcDbBlockReference
   2
_OPEN
  10
 160.00000000000
  20
 120.00000000000
  30
0.0
  41
 3.0000000000000
  42
 3.0000000000000
  43
 3.0000000000000
  50
0.0
   0
MTEXT
   5
E9
 100
AcDbEntity
   8
LEVEL003
  62
3
 100
AcDbMText
  10
 130.00000000000
  20
 120.80000000000
  30
0.0
  40
 4.0000000000000
  41
0.0
  71
8
  72
1
   1
\A1;%%c60
   7
GMM001
   0
ENDBLK
   5
EA
 100
AcDbEntity
   8
0
 100
AcDbBlockEnd
   0
ENDSEC
   0
SECTION
   2
ENTITIES
   0
LINE
   5
EB
 100
AcDbEntity
   8
LEVEL001
 100
AcDbLine
   6
CONTINUOUS
  62
7
  10
 172.50000000000
  20
 86.500000000000
  30
0.0
  11
 171.00000000000
  21
 85.000000000000
  31
0.0
   0
LINE
   5
EC
 100
AcDbEntity
   8
LEVEL001
 100
AcDbLine
   6
CONTINUOUS
  62
7
  10
 172.50000000000
  20
 182.50000000000
  30
0.0
  11
 171.00000000000
  21
 184.00000000000
  31
0.0
   0
LINE
   5
ED
 100
AcDbEntity
   8
LEVEL001
 100
AcDbLine
   6
CONTINUOUS
  62
7
  10
 87.500000000000
  20
 182.50000000000
  30
0.0
  11
 89.000000000000
  21
 184.00000000000
  31
0.0
   0
LINE
   5
EE
 100
AcDbEntity
   8
LEVEL001
 100
AcDbLine
   6
CONTINUOUS
  62
7
  10
 87.500000000000
  20
 182.50000000000
  30
0.0
  11
 87.500000000000
  21
 86.500000000000
  31
0.0
   0
LINE
   5
EF
 100
AcDbEntity
   8
LEVEL001
 100
AcDbLine
   6
CONTINUOUS
  62
7
  10
 105.00000000000
  20
 184.00000000000
  30
0.0
  11
 106.00000000000
  21
 185.00000000000
  31
0.0
   0
LINE
   5
F0
 100
AcDbEntity
   8
LEVEL001
 100
AcDbLine
   6
CONTINUOUS
  62
7
  10
 87.500000000000
  20
 86.500000000000
  30
0.0
  11
 89.000000000000
  21
 85.000000000000
  31
0.0
   0
LINE
   5
F1
 100
AcDbEntity
   8
LEVEL001
 100
AcDbLine
   6
CONTINUOUS
  62
7
  10
 89.000000000000
  20
 184.00000000000
  30
0.0
  11
 130.00000000000
  21
 184.00000000000
  31
0.0
   0
LINE
   5
F2
 100
AcDbEntity
   8
LEVEL001
 100
AcDbLine
   6
CONTINUOUS
  62
7
  10
 130.00000000000
  20
 182.50000000000
  30
0.0
  11
 87.500000000000
  21
 182.50000000000
  31
0.0
   0
LINE
   5
F3
 100
AcDbEntity
   8
LEVEL001
 100
AcDbLine
   6
CONTINUOUS
  62
7
  10
 130.00000000000
  20
 86.500000000000
  30
0.0
  11
 87.500000000000
  21
 86.500000000000
  31
0.0
   0
LINE
   5
F4
 100
AcDbEntity
   8
LEVEL001
 100
AcDbLine
   6
CONTINUOUS
  62
7
  10
 154.00000000000
  20
 185.00000000000
  30
0.0
  11
 106.00000000000
  21
 185.00000000000
  31
0.0
   0
LINE
   5
F5
 100
AcDbEntity
   8
LEVEL001
 100
AcDbLine
   6
CONTINUOUS
  62
7
  10
 171.00000000000
  20
 85.000000000000
  30
0.0
  11
 89.000000000000
  21
 85.000000000000
  31
0.0
   0
DIMENSION
   5
F6
 100
AcDbEntity
   8
LEVEL003
   6
CONTINUOUS
  62
3
 100
AcDbDimension
   2
*D1
  10
 87.500000000000
  20
 65.000000000006
  30
0.0
  11
 129.99999819035
  21
 65.000000000006
  31
0.0
  70
128
   1
\A1;%%c85
   3
GMM001
 100
AcDbAlignedDimension
  13
 172.50000000000
  23
 86.500000000000
  33
0.0
  14
 87.500000000000
  24
 86.500000000000
  34
0.0
  50
 180.00000000000
 100
AcDbRotatedDimension
   0
DIMENSION
   5
F8
 100
AcDbEntity
   8
LEVEL003
   6
CONTINUOUS
  62
3
 100
AcDbDimension
   2
*D2
  10
 155.00000000000
  20
 210.00000000000
  30
0.0
  11
 130.00000000000
  21
 210.00000000000
  31
0.0
  70
128
   1
\A1;%%c50
   3
GMM001
 100
AcDbAlignedDimension
  13
 105.00000000000
  23
 184.00000000000
  33
0.0
  14
 155.00000000000
  24
 183.99998474121
  34
0.0
 100
AcDbRotatedDimension
   0
DIMENSION
   5
FA
 100
AcDbEntity
   8
LEVEL003
   6
CONTINUOUS
  62
3
 100
AcDbDimension
   2
*D3
  10
 210.25000000000
  20
 184.00000000000
  30
0.0
  11
 210.25000000000
  21
 182.07581059071
  31
0.0
  70
128
   1
\A1;1
   3
GMM002
 100
AcDbAlignedDimension
  13
 210.25000000000
  23
 185.00000000000
  33
0.0
  14
 171.40385437012
  24
 184.00000000000
  34
0.0
  50
 270.00000000000
 100
AcDbRotatedDimension
   0
TEXT
   5
FC
 100
AcDbEntity
   8
LEVEL003
  62
3
 100
AcDbText
  10
 185.25000000000
  20
 75.000000000000
  30
0.0
  40
 4.0000000000000
   1
ＮＰＴ３／８
   7
STANDARD
 100
AcDbText
   0
LINE
   5
FD
 100
AcDbEntity
   8
LEVEL001
 100
AcDbLine
   6
CONTINUOUS
  62
3
  10
 182.57585144043
  20
 95.224288940430
  30
0.0
  11
 178.84616088867
  21
 95.550598144531
  31
0.0
   0
LINE
   5
FE
 100
AcDbEntity
   8
LEVEL001
 100
AcDbLine
   6
CONTINUOUS
  62
7
  10
 196.16699218750
  20
 116.04417419434
  30
0.0
  11
 180.88624572754
  21
 113.34976959229
  31
0.0
   0
LINE
   5
FF
 100
AcDbEntity
   8
LEVEL001
 100
AcDbLine
   6
CONTINUOUS
  62
7
  10
 182.57585144043
  20
 95.224288940430
  30
0.0
  11
 184.18556213379
  21
 94.638420104980
  31
0.0
   0
LINE
   5
100
 100
AcDbEntity
   8
LEVEL001
 100
AcDbLine
   6
CONTINUOUS
  62
7
  10
 199.46630859375
  20
 97.332832336426
  30
0.0
  11
 184.18556213379
  21
 94.638420104980
  31
0.0
   0
ARC
   5
101
 100
AcDbEntity
   8
LEVEL001
   6
CONTINUOUS
  62
7
 100
AcDbCircle
  10
 197.03643049694
  20
 119.75147237648
  30
0.0
  40
 1.5000000000000
 100
AcDbArc
  50
 100.00011753243
  51
 190.00010842843
   0
LINE
   5
102
 100
AcDbEntity
   8
LEVEL001
 100
AcDbLine
   6
CONTINUOUS
  62
7
  10
 196.77595520020
  20
 121.22868347168
  30
0.0
  11
 201.69999694824
  21
 122.09692382813
  31
0.0
   0
ARC
   5
103
 100
AcDbEntity
   8
LEVEL001
   6
CONTINUOUS
  62
7
 100
AcDbCircle
  10
 201.55127725731
  20
 94.146476883659
  30
0.0
  40
 1.5000000000000
 100
AcDbArc
  50
 190.00011753243
  51
 280.00010842852
   0
LINE
   5
104
 100
AcDbEntity
   8
LEVEL001
 100
AcDbLine
   6
CONTINUOUS
  62
7
  10
 200.07406616211
  20
 93.886001586914
  30
0.0
  11
 195.55921936035
  21
 119.49099731445
  31
0.0
   0
LINE
   5
105
 100
AcDbEntity
   8
LEVEL001
 100
AcDbLine
   6
CONTINUOUS
  62
7
  10
 201.81175231934
  20
 92.669265747070
  30
0.0
  11
 206.73579406738
  21
 93.537506103516
  31
0.0
   0
ARC
   5
106
 100
AcDbEntity
   8
LEVEL001
   6
CONTINUOUS
  62
7
 100
AcDbCircle
  10
 217.71739689114
  20
 123.39809357909
  30
0.0
  40
 1.5000000000000
 100
AcDbArc
  50
 9.9995435444186
  51
 100.00000722059
   0
LINE
   5
107
 100
AcDbEntity
   8
LEVEL001
 100
AcDbLine
   6
CONTINUOUS
  62
7
  10
 212.53288269043
  20
 124.00706481934
  30
0.0
  11
 217.45692443848
  21
 124.87530517578
  31
0.0
   0
ARC
   5
108
 100
AcDbEntity
   8
LEVEL001
   6
CONTINUOUS
  62
7
 100
AcDbCircle
  10
 222.23224626087
  20
 97.793083287583
  30
0.0
  40
 1.5000000000000
 100
AcDbArc
  50
 280.00011753243
  51
 10.000108428534
   0
LINE
   5
109
 100
AcDbEntity
   8
LEVEL001
 100
AcDbLine
   6
CONTINUOUS
  62
7
  10
 217.56867980957
  20
 95.447631835938
  30
0.0
  11
 222.49272155762
  21
 96.315872192383
  31
0.0
   0
LINE
   5
10A
 100
AcDbEntity
   8
LEVEL001
 100
AcDbLine
   6
CONTINUOUS
  62
7
  10
 219.19461059570
  20
 123.65855407715
  30
0.0
  11
 223.70945739746
  21
 98.053558349609
  31
0.0
   0
ARC
   5
10B
 100
AcDbEntity
   8
LEVEL001
   6
DASHDOT
  62
1
 100
AcDbCircle
  10
 228.05787174295
  20
 125.22139811143
  30
0.0
  40
 1.0000000000000
 100
AcDbArc
  50
 10.000218740237
  51
 99.999534440823
   0
LINE
   5
10C
 100
AcDbEntity
   8
LEVEL001
 100
AcDbLine
   6
DASHDOT
  62
1
  10
 220.00576782227
  20
 124.81701660156
  30
0.0
  11
 227.88423156738
  21
 126.20620727539
  31
0.0
   0
ARC
   5
10D
 100
AcDbEntity
   8
LEVEL001
   6
DASHDOT
  62
1
 100
AcDbCircle
  10
 232.57273303426
  20
 99.616391487596
  30
0.0
  40
 1.0000000000000
 100
AcDbArc
  50
 280.00014283492
  51
 9.9999649314209
   0
LINE
   5
10E
 100
AcDbEntity
   8
LEVEL001
 100
AcDbLine
   6
DASHDOT
  62
1
  10
 224.86791992188
  20
 97.242401123047
  30
0.0
  11
 232.74638366699
  21
 98.631584167480
  31
0.0
   0
LINE
   5
10F
 100
AcDbEntity
   8
LEVEL001
 100
AcDbLine
   6
DASHDOT
  62
1
  10
 229.04267883301
  20
 125.39505004883
  30
0.0
  11
 233.55754089355
  21
 99.790039062500
  31
0.0
   0
CIRCLE
   5
110
 100
AcDbEntity
   8
LEVEL001
 100
AcDbCircle
   6
DASHDOT
  62
1
  10
 234.25453186035
  20
 113.11348724365
  30
0.0
  40
 1.5000000000000
   0
ARC
   5
111
 100
AcDbEntity
   8
LEVEL001
   6
DASHDOT
  62
1
 100
AcDbCircle
  10
 224.69426494764
  20
 98.227207677616
  30
0.0
  40
 1.0000000000000
 100
AcDbArc
  50
 190.00006692638
  51
 280.00039542236
   0
ARC
   5
112
 100
AcDbEntity
   8
LEVEL001
   6
DASHDOT
  62
1
 100
AcDbCircle
  10
 220.17941715027
  20
 123.83220905139
  30
0.0
  40
 1.0000000000000
 100
AcDbArc
  50
 100.00006692638
  51
 190.00039542240
   0
ARC
   5
113
 100
AcDbEntity
   8
LEVEL001
   6
DASHDOT
  62
1
 100
AcDbCircle
  10
 232.31466163730
  20
 118.35628869222
  30
0.0
  40
 2.0000000000000
 100
AcDbArc
  50
 190.00014283492
  51
 279.99996493153
   0
ARC
   5
114
 100
AcDbEntity
   8
LEVEL001
   6
DASHDOT
  62
1
 100
AcDbCircle
  10
 234.22478844808
  20
 107.52339683438
  30
0.0
  40
 2.0000000000000
 100
AcDbArc
  50
 100.00014283493
  51
 189.99996493150
   0
LINE
   5
115
 100
AcDbEntity
   8
LEVEL001
 100
AcDbLine
   6
DASHDOT
  62
1
  10
 232.66195678711
  20
 116.38667297363
  30
0.0
  11
 233.15435791016
  21
 116.47349548340
  31
0.0
   0
LINE
   5
116
 100
AcDbEntity
   8
LEVEL001
 100
AcDbLine
   6
DASHDOT
  62
1
  10
 233.87748718262
  20
 109.49301147461
  30
0.0
  11
 234.36990356445
  21
 109.57983398438
  31
0.0
   0
ARC
   5
117
 100
AcDbEntity
   8
LEVEL001
   6
DASHDOT
  62
1
 100
AcDbCircle
  10
 233.76213073730
  20
 113.02666473389
  30
0.0
  40
 3.5000042893116
 100
AcDbArc
  50
 280.00005752271
  51
 100.00005752271
   0
LINE
   5
118
 100
AcDbEntity
   8
LEVEL001
 100
AcDbLine
   6
CONTINUOUS
  62
7
  10
 184.18556213379
  20
 94.638420104980
  30
0.0
  11
 183.54843139648
  21
 98.251731872559
  31
0.0
   0
LINE
   5
119
 100
AcDbEntity
   8
LEVEL001
 100
AcDbLine
   6
CONTINUOUS
  62
7
  10
 177.83708190918
  20
 99.064071655273
  30
0.0
  11
 189.91046142578
  21
 111.21532440186
  31
0.0
   0
LINE
   5
11A
 100
AcDbEntity
   8
LEVEL001
 100
AcDbLine
   6
CONTINUOUS
  62
7
  10
 176.43428039551
  20
 107.01970672607
  30
0.0
  11
 191.93553161621
  21
 99.730598449707
  31
0.0
   0
LINE
   5
11B
 100
AcDbEntity
   8
LEVEL001
 100
AcDbLine
   6
CONTINUOUS
  62
7
  10
 181.82099914551
  20
 99.505218505859
  30
0.0
  11
 182.57585144043
  21
 95.224288940430
  31
0.0
   0
LINE
   5
11C
 100
AcDbEntity
   8
LEVEL001
 100
AcDbLine
   6
CONTINUOUS
  62
3
  10
 206.47532653809
  20
 95.014717102051
  30
0.0
  11
 217.30821228027
  21
 96.924842834473
  31
0.0
   0
LINE
   5
11D
 100
AcDbEntity
   8
LEVEL001
 100
AcDbLine
   6
CONTINUOUS
  62
3
  10
 206.12802124023
  20
 96.984329223633
  30
0.0
  11
 216.96090698242
  21
 98.894462585449
  31
0.0
   0
LINE
   5
11E
 100
AcDbEntity
   8
LEVEL001
 100
AcDbLine
   6
CONTINUOUS
  62
3
  10
 205.78073120117
  20
 98.953948974609
  30
0.0
  11
 216.61361694336
  21
 100.86407470703
  31
0.0
   0
LINE
   5
11F
 100
AcDbEntity
   8
LEVEL001
 100
AcDbLine
   6
CONTINUOUS
  62
3
  10
 205.43344116211
  20
 100.92356109619
  30
0.0
  11
 216.26631164551
  21
 102.83369445801
  31
0.0
   0
LINE
   5
120
 100
AcDbEntity
   8
LEVEL001
 100
AcDbLine
   6
CONTINUOUS
  62
3
  10
 205.08613586426
  20
 102.89318084717
  30
0.0
  11
 215.91902160645
  21
 104.80330657959
  31
0.0
   0
LINE
   5
121
 100
AcDbEntity
   8
LEVEL001
 100
AcDbLine
   6
CONTINUOUS
  62
3
  10
 204.73884582520
  20
 104.86279296875
  30
0.0
  11
 215.57173156738
  21
 106.77292633057
  31
0.0
   0
LINE
   5
122
 100
AcDbEntity
   8
LEVEL001
 100
AcDbLine
   6
CONTINUOUS
  62
3
  10
 204.39154052734
  20
 106.83240509033
  30
0.0
  11
 215.22442626953
  21
 108.74253845215
  31
0.0
   0
LINE
   5
123
 100
AcDbEntity
   8
LEVEL001
 100
AcDbLine
   6
CONTINUOUS
  62
3
  10
 204.04425048828
  20
 108.80202484131
  30
0.0
  11
 214.87713623047
  21
 110.71215057373
  31
0.0
   0
LINE
   5
124
 100
AcDbEntity
   8
LEVEL001
 100
AcDbLine
   6
CONTINUOUS
  62
3
  10
 203.69694519043
  20
 110.77163696289
  30
0.0
  11
 214.52983093262
  21
 112.68177032471
  31
0.0
   0
LINE
   5
125
 100
AcDbEntity
   8
LEVEL001
 100
AcDbLine
   6
CONTINUOUS
  62
3
  10
 203.34965515137
  20
 112.74125671387
  30
0.0
  11
 214.18254089355
  21
 114.65138244629
  31
0.0
   0
LINE
   5
126
 100
AcDbEntity
   8
LEVEL001
 100
AcDbLine
   6
CONTINUOUS
  62
3
  10
 203.00236511230
  20
 114.71087646484
  30
0.0
  11
 213.83525085449
  21
 116.62100219727
  31
0.0
   0
LINE
   5
127
 100
AcDbEntity
   8
LEVEL001
 100
AcDbLine
   6
CONTINUOUS
  62
3
  10
 202.65505981445
  20
 116.68048095703
  30
0.0
  11
 213.48794555664
  21
 118.59062194824
  31
0.0
   0
LINE
   5
128
 100
AcDbEntity
   8
LEVEL001
 100
AcDbLine
   6
CONTINUOUS
  62
3
  10
 202.30776977539
  20
 118.65010070801
  30
0.0
  11
 213.14065551758
  21
 120.56022644043
  31
0.0
   0
LINE
   5
129
 100
AcDbEntity
   8
LEVEL001
 100
AcDbLine
   6
CONTINUOUS
  62
3
  10
 201.96046447754
  20
 120.61972045898
  30
0.0
  11
 212.79335021973
  21
 122.52984619141
  31
0.0
   0
LINE
   5
12A
 100
AcDbEntity
   8
LEVEL001
 100
AcDbLine
   6
CONTINUOUS
  62
7
  10
 177.83708190918
  20
 99.064071655273
  30
0.0
  11
 176.43428039551
  21
 107.01970672607
  31
0.0
   0
LINE
   5
12B
 100
AcDbEntity
   8
LEVEL001
 100
AcDbLine
   6
CONTINUOUS
  62
7
  10
 176.43428039551
  20
 107.01970672607
  30
0.0
  11
 180.32882690430
  21
 107.96775054932
  31
0.0
   0
LINE
   5
12C
 100
AcDbEntity
   8
LEVEL001
 100
AcDbLine
   6
CONTINUOUS
  62
7
  10
 180.32882690430
  20
 107.96775054932
  30
0.0
  11
 181.52336120605
  21
 109.73645782471
  31
0.0
   0
LINE
   5
12D
 100
AcDbEntity
   8
LEVEL001
 100
AcDbLine
   6
CONTINUOUS
  62
7
  10
 181.52336120605
  20
 109.73645782471
  30
0.0
  11
 189.91046142578
  21
 111.21532440186
  31
0.0
   0
LINE
   5
12E
 100
AcDbEntity
   8
LEVEL001
 100
AcDbLine
   6
CONTINUOUS
  62
7
  10
 189.91046142578
  20
 111.21532440186
  30
0.0
  11
 191.93553161621
  21
 99.730598449707
  31
0.0
   0
LINE
   5
12F
 100
AcDbEntity
   8
LEVEL001
 100
AcDbLine
   6
CONTINUOUS
  62
7
  10
 191.93553161621
  20
 99.730598449707
  30
0.0
  11
 183.54843139648
  21
 98.251731872559
  31
0.0
   0
LINE
   5
130
 100
AcDbEntity
   8
LEVEL001
 100
AcDbLine
   6
CONTINUOUS
  62
7
  10
 183.54843139648
  20
 98.251731872559
  30
0.0
  11
 181.82099914551
  21
 99.505218505859
  31
0.0
   0
LINE
   5
131
 100
AcDbEntity
   8
LEVEL001
 100
AcDbLine
   6
CONTINUOUS
  62
7
  10
 181.82099914551
  20
 99.505218505859
  30
0.0
  11
 177.83708190918
  21
 99.064071655273
  31
0.0
   0
LINE
   5
132
 100
AcDbEntity
   8
LEVEL001
 100
AcDbLine
   6
CONTINUOUS
  62
7
  10
 206.82261657715
  20
 93.045097351074
  30
0.0
  11
 201.61317443848
  21
 122.58932495117
  31
0.0
   0
LINE
   5
133
 100
AcDbEntity
   8
LEVEL001
 100
AcDbLine
   6
CONTINUOUS
  62
7
  10
 201.61317443848
  20
 122.58932495117
  30
0.0
  11
 212.44606018066
  21
 124.49946594238
  31
0.0
   0
LINE
   5
134
 100
AcDbEntity
   8
LEVEL001
 100
AcDbLine
   6
CONTINUOUS
  62
7
  10
 212.44606018066
  20
 124.49946594238
  30
0.0
  11
 217.65550231934
  21
 94.955230712891
  31
0.0
   0
LINE
   5
135
 100
AcDbEntity
   8
LEVEL001
 100
AcDbLine
   6
CONTINUOUS
  62
7
  10
 217.65550231934
  20
 94.955230712891
  30
0.0
  11
 206.82261657715
  21
 93.045097351074
  31
0.0
   0
LEADER
   5
136
 100
AcDbEntity
   8
LEVEL003
   6
CONTINUOUS
  62
3
 100
AcDbLeader
   3
GMM003
  73
0
  74
1
  75
0
  40
 4.0000000000000
  41
0.0
  76
3
  10
 175.52636718750
  20
 94.207183837891
  30
0.0
  10
 185.25000000000
  20
 75.000000000000
  30
0.0
  10
 210.25000000000
  20
 75.000000000000
  30
0.0
  77
3
   0
DIMENSION
   5
137
 100
AcDbEntity
   8
LEVEL003
   6
CONTINUOUS
  62
3
 100
AcDbDimension
   2
*D5
  10
 265.00000000000
  20
 85.000000000000
  30
0.0
  11
 265.00000000000
  21
 135.00000000000
  31
0.0
  70
128
   1
\A1;100
   3
GMM004
 100
AcDbAlignedDimension
  13
 154.25000000000
  23
 185.00000000000
  33
0.0
  14
 171.25000000000
  24
 85.000000000000
  34
0.0
  50
 270.00000000000
 100
AcDbRotatedDimension
   0
LINE
   5
139
 100
AcDbEntity
   8
LEVEL001
 100
AcDbLine
   6
CONTINUOUS
  62
3
  10
 179.57398986816
  20
 112.24868011475
  30
0.0
  11
 176.18086242676
  21
 110.66643524170
  31
0.0
   0
LINE
   5
13A
 100
AcDbEntity
   8
LEVEL001
 100
AcDbLine
   6
CONTINUOUS
  62
7
  10
 179.57398986816
  20
 112.24868011475
  30
0.0
  11
 180.88623046875
  21
 113.34980010986
  31
0.0
   0
LINE
   5
13B
 100
AcDbEntity
   8
LEVEL001
 100
AcDbLine
   6
CONTINUOUS
  62
7
  10
 181.52336120605
  20
 109.73645782471
  30
0.0
  11
 180.88623046875
  21
 113.34978485107
  31
0.0
   0
LINE
   5
13C
 100
AcDbEntity
   8
LEVEL001
 100
AcDbLine
   6
CONTINUOUS
  62
3
  10
 178.21488952637
  20
 99.130683898926
  30
0.0
  11
 178.84616088867
  21
 95.550598144531
  31
0.0
   0
LINE
   5
13D
 100
AcDbEntity
   8
LEVEL001
 100
AcDbLine
   6
CONTINUOUS
  62
7
  10
 179.57398986816
  20
 112.24868011475
  30
0.0
  11
 180.32882690430
  21
 107.96775054932
  31
0.0
   0
LINE
   5
13E
 100
AcDbEntity
   8
LEVEL001
 100
AcDbLine
   6
CONTINUOUS
  62
3
  10
 176.18086242676
  20
 110.66641998291
  30
0.0
  11
 176.81211853027
  21
 107.08633422852
  31
0.0
   0
DIMENSION
   5
13F
 100
AcDbEntity
   8
LEVEL003
   6
CONTINUOUS
  62
3
 100
AcDbDimension
   2
*D6
  10
 255.00000000000
  20
 85.000000000000
  30
0.0
  11
 255.00000000000
  21
 93.634292602539
  31
0.0
  70
128
   1
\A1;17
   3
GMM005
 100
AcDbAlignedDimension
  13
 172.75001525879
  23
 102.26858520508
  33
0.0
  14
 210.25000000000
  24
 85.000000000000
  34
0.0
  50
 270.00000000000
 100
AcDbRotatedDimension
   0
DIMENSION
   5
141
 100
AcDbEntity
   8
LEVEL003
   6
CONTINUOUS
  62
3
 100
AcDbDimension
   2
*D7
  10
 253.75057962953
  20
 116.55033744924
  30
0.0
  11
 254.94203844288
  21
 105.35586710508
  31
0.0
  70
133
   1
\A1;10%%d
  53
0.0
   3
GMM006
 100
AcDb3PointAngularDimension
  13
 255.00000000000
  23
 102.26858520508
  33
0.0
  14
 240.16337585449
  24
 114.15538024902
  34
0.0
  15
 172.75006103516
  25
 102.26858520508
  35
0.0
   0
LINE
   5
143
 100
AcDbEntity
   8
LEVEL001
 100
AcDbLine
   6
DOT
  62
3
  10
 160.00000000000
  20
 166.00000000000
  30
0.0
  11
 160.00000000000
  21
 98.500000000000
  31
0.0
   0
LINE
   5
144
 100
AcDbEntity
   8
LEVEL001
 100
AcDbLine
   6
DOT
  62
3
  10
 155.00000000000
  20
 183.99998474121
  30
0.0
  11
 155.00000000000
  21
 126.50000000000
  31
0.0
   0
LINE
   5
145
 100
AcDbEntity
   8
LEVEL001
 100
AcDbLine
   6
CONTINUOUS
  62
7
  10
 172.50000000000
  20
 182.50000000000
  30
0.0
  11
 172.50000000000
  21
 86.500000000000
  31
0.0
   0
LINE
   5
146
 100
AcDbEntity
   8
LEVEL001
 100
AcDbLine
   6
CONTINUOUS
  62
3
  10
 178.84616088867
  20
 95.550598144531
  30
0.0
  11
 172.50000000000
  21
 94.634969651947
  31
0.0
   0
LINE
   5
147
 100
AcDbEntity
   8
LEVEL001
 100
AcDbLine
   6
CONTINUOUS
  62
7
  10
 182.57585144043
  20
 95.224288940430
  30
0.0
  11
 172.50000000000
  21
 93.770537874878
  31
0.0
   0
LINE
   5
148
 100
AcDbEntity
   8
LEVEL001
 100
AcDbLine
   6
CONTINUOUS
  62
3
  10
 176.18086242676
  20
 110.66641998291
  30
0.0
  11
 172.50000000000
  21
 109.89811675302
  31
0.0
   0
LINE
   5
149
 100
AcDbEntity
   8
LEVEL001
 100
AcDbLine
   6
CONTINUOUS
  62
7
  10
 179.57398986816
  20
 112.24868011475
  30
0.0
  11
 172.50000000000
  21
 110.77213312528
  31
0.0
   0
LINE
   5
14A
 100
AcDbEntity
   8
LEVEL001
 100
AcDbLine
   6
DASHDOT
  62
1
  10
 240.16337585449
  20
 114.15538024902
  30
0.0
  11
 160.00000000000
  21
 100.02040733434
  31
0.0
   0
LINE
   5
14B
 100
AcDbEntity
   8
LEVEL001
 100
AcDbLine
   6
CONTINUOUS
  62
7
  10
 130.00000000000
  20
 86.500000000000
  30
0.0
  11
 172.50000000000
  21
 86.500000000000
  31
0.0
   0
LINE
   5
14C
 100
AcDbEntity
   8
LEVEL001
 100
AcDbLine
   6
CONTINUOUS
  62
7
  10
 171.00000000000
  20
 184.00000000000
  30
0.0
  11
 130.00000000000
  21
 184.00000000000
  31
0.0
   0
LINE
   5
14D
 100
AcDbEntity
   8
LEVEL001
 100
AcDbLine
   6
CONTINUOUS
  62
7
  10
 130.00000000000
  20
 182.50000000000
  30
0.0
  11
 172.50000000000
  21
 182.50000000000
  31
0.0
   0
LINE
   5
14E
 100
AcDbEntity
   8
LEVEL001
 100
AcDbLine
   6
DOT
  62
3
  10
 100.00000000000
  20
 166.00000000000
  30
0.0
  11
 100.00000000000
  21
 98.500000000000
  31
0.0
   0
LINE
   5
14F
 100
AcDbEntity
   8
LEVEL001
 100
AcDbLine
   6
DOT
  62
3
  10
 105.00000000000
  20
 183.99998474121
  30
0.0
  11
 105.00000000000
  21
 126.50000000000
  31
0.0
   0
DIMENSION
   5
150
 100
AcDbEntity
   8
LEVEL003
   6
CONTINUOUS
  62
3
 100
AcDbDimension
   2
*D8
  10
 160.00000000000
  20
 120.00000000000
  30
0.0
  11
 130.00000000000
  21
 120.00000000000
  31
0.0
  70
0
   1
\A1;%%c60
   3
GMM007
 100
AcDbAlignedDimension
  13
 100.00000000000
  23
 120.00000000000
  33
0.0
  14
 160.00000000000
  24
 120.00000000000
  34
0.0
 100
AcDbRotatedDimension
   0
LINE
   5
152
 100
AcDbEntity
   8
LEVEL001
 100
AcDbLine
   6
DASHDOT
  62
1
  10
 130.00000000000
  20
 120.00000000000
  30
0.0
  11
 130.00000000000
  21
 80.000000000000
  31
0.0
   0
LINE
   5
153
 100
AcDbEntity
   8
LEVEL001
 100
AcDbLine
   6
DASHDOT
  62
1
  10
 130.00000000000
  20
 190.00000000000
  30
0.0
  11
 130.00000000000
  21
 125.00000000000
  31
0.0
   0
TEXT
   5
154
 100
AcDbEntity
   8
LEVEL003
  62
7
 100
AcDbText
  10
 308.30881456654
  20
 12.991590737175
  30
0.0
  40
 10.000000000000
   1
ＯＳＡＫＡ ＪＡＣＫ
   7
STANDARD
 100
AcDbText
   0
CIRCLE
   5
155
 100
AcDbEntity
   8
LEVEL003
 100
AcDbCircle
   6
CONTINUOUS
  62
7
  10
 287.86240071618
  20
 19.705562574706
  30
0.0
  40
 3.0000000000000
   0
LINE
   5
156
 100
AcDbEntity
   8
LEVEL003
 100
AcDbLine
   6
CONTINUOUS
  62
7
  10
 293.75040071618
  20
 22.705562574706
  30
0.0
  11
 289.94140071618
  21
 16.105562574706
  31
0.0
   0
LINE
   5
157
 100
AcDbEntity
   8
LEVEL003
 100
AcDbLine
   6
CONTINUOUS
  62
7
  10
 289.94140071618
  20
 16.105562574706
  30
0.0
  11
 282.32040071618
  21
 16.105562574706
  31
0.0
   0
LINE
   5
158
 100
AcDbEntity
   8
LEVEL003
 100
AcDbLine
   6
CONTINUOUS
  62
7
  10
 281.45340071618
  20
 14.605562574706
  30
0.0
  11
 295.07440071618
  21
 14.605562574706
  31
0.0
   0
LINE
   5
159
 100
AcDbEntity
   8
LEVEL003
 100
AcDbLine
   6
CONTINUOUS
  62
7
  10
 295.07440071618
  20
 14.605562574706
  30
0.0
  11
 299.75040071618
  21
 22.705562574706
  31
0.0
   0
LINE
   5
15A
 100
AcDbEntity
   8
LEVEL003
 100
AcDbLine
   6
CONTINUOUS
  62
7
  10
 299.75040071618
  20
 22.705562574706
  30
0.0
  11
 293.75040071618
  21
 22.705562574706
  31
0.0
   0
LINE
   5
15B
 100
AcDbEntity
   8
LEVEL003
 100
AcDbLine
   6
CONTINUOUS
  62
7
  10
 282.32040071618
  20
 16.105562574706
  30
0.0
  11
 281.45340071618
  21
 14.605562574706
  31
0.0
   0
TEXT
   5
15C
 100
AcDbEntity
   8
LEVEL003
  62
7
 100
AcDbText
  10
 311.21981456654
  20
 29.884990737175
  30
0.0
  40
 6.0000000000000
   1
Model : ＥＬ２０Ｓ４.５
   7
STANDARD
 100
AcDbText
   0
ENDSEC
  0
SECTION
  2
OBJECTS
  0
DICTIONARY
  5
C
100
AcDbDictionary
  3
ACAD_GROUP
350
D
  3
ACAD_MLINESTYLE
350
1B
  0
DICTIONARY
  5
D
102
{ACAD_REACTORS
330
C
102
}
100
AcDbDictionary
  0
DICTIONARY
  5
1B
102
{ACAD_REACTORS
330
C
102
}
100
AcDbDictionary
  3
STANDARD
350
1C
  0
MLINESTYLE
  5
1C
102
{ACAD_REACTORS
330
1B
102
}
100
AcDbMlineStyle
  2
STANDARD
 70
     0
  3

 62
   256
 51
90.0
 52
90.0
 71
     2
 49
0.5
 62
   256
  6
BYLAYER
 49
-0.5
 62
   256
  6
BYLAYER
  0
ENDSEC
   0
EOF
