   0
SECTION
   2
HEADER
   9
$ACADVER
   1
AC1014
   9
$LIMMIN
  10
0.0
  20
0.0
   9
$LIMMAX
  10
 1260.0000000000
  20
 891.00000000000
   9
$EXTMIN
  10
0.0
  20
0.0
  30
0.0
   9
$EXTMAX
  10
 1260.0000000000
  20
 891.00000000000
  30
0.0
   9
$LTSCALE
  40
 25.200000000000
   9
$HANDSEED
   5
229
   0
ENDSEC
   0
SECTION
   2
TABLES
  0
TABLE
  2
VPORT
  5
8
100
AcDbSymbolTable
 70
     1
  0
VPORT
  5
228
100
AcDbSymbolTableRecord
100
AcDbViewportTableRecord
  2
*ACTIVE
 70
     0
 10
0.0
 20
0.0
 11
1.0
 21
1.0
  12
 630.00000000000
  22
 445.50000000000
 13
0.0
 23
0.0
 14
1.0
 24
1.0
 15
0.0
 25
0.0
 16
0.0
 26
0.0
 36
1.0
 17
0.0
 27
0.0
 37
0.0
  40
 1260.0000000000
  41
 1.4787878787879
 42
50.0
 43
0.0
 44
0.0
 50
0.0
 51
0.0
 71
     0
 72
   100
 73
     1
 74
     1
 75
     0
 76
     0
 77
     0
 78
     0
  0
ENDTAB
  0
TABLE
  2
LTYPE
  5
5
100
AcDbSymbolTable
 70
    25
  0
LTYPE
  5
12
100
AcDbSymbolTableRecord
100
AcDbLinetypeTableRecord
  2
BYBLOCK
 70
     0
  3

 72
    65
 73
     0
 40
0.0
  0
LTYPE
  5
13
100
AcDbSymbolTableRecord
100
AcDbLinetypeTableRecord
  2
BYLAYER
 70
     0
  3

 72
    65
 73
     0
 40
0.0
  0
LTYPE
  5
14
100
AcDbSymbolTableRecord
100
AcDbLinetypeTableRecord
  2
CONTINUOUS
 70
     0
  3
Solid line
 72
    65
 73
     0
 40
0.0
  0
LTYPE
  5
20
100
AcDbSymbolTableRecord
100
AcDbLinetypeTableRecord
  2
BORDER
 70
     0
  3
__ __ . __ __ . __ __ . __ __ . __ __ . __ __ .
 72
    65
 73
     6
 40
1.75
 49
0.5
 74
     0
 49
-0.25
 74
     0
 49
0.5
 74
     0
 49
-0.25
 74
     0
 49
0.0
 74
     0
 49
-0.25
 74
     0
  0
LTYPE
  5
21
100
AcDbSymbolTableRecord
100
AcDbLinetypeTableRecord
  2
BORDER2
 70
     0
  3
__.__.__.__.__.__.__.__.__.__.__.__.__.__.__.__
 72
    65
 73
     6
 40
0.875
 49
0.25
 74
     0
 49
-0.125
 74
     0
 49
0.25
 74
     0
 49
-0.125
 74
     0
 49
0.0
 74
     0
 49
-0.125
 74
     0
  0
LTYPE
  5
22
100
AcDbSymbolTableRecord
100
AcDbLinetypeTableRecord
  2
BORDERX2
 70
     0
  3
____  ____  .  ____  ____  .  ____  ____  .  __
 72
    65
 73
     6
 40
3.5
 49
1.0
 74
     0
 49
-0.5
 74
     0
 49
1.0
 74
     0
 49
-0.5
 74
     0
 49
0.0
 74
     0
 49
-0.5
 74
     0
  0
LTYPE
  5
23
100
AcDbSymbolTableRecord
100
AcDbLinetypeTableRecord
  2
CENTER
 70
     0
  3
____ _ ____ _ ____ _ ____ _ ____ _ ____ _ ____ 
 72
    65
 73
     4
 40
2.0
 49
1.25
 74
     0
 49
-0.25
 74
     0
 49
0.25
 74
     0
 49
-0.25
 74
     0
  0
LTYPE
  5
24
100
AcDbSymbolTableRecord
100
AcDbLinetypeTableRecord
  2
CENTER2
 70
     0
  3
___ _ ___ _ ___ _ ___ _ ___ _ ___ _ ___ _ ___ _
 72
    65
 73
     4
 40
1.125
 49
0.75
 74
     0
 49
-0.125
 74
     0
 49
0.125
 74
     0
 49
-0.125
 74
     0
  0
LTYPE
  5
25
100
AcDbSymbolTableRecord
100
AcDbLinetypeTableRecord
  2
CENTERX2
 70
     0
  3
________  __  ________  __  ________  __  _____
 72
    65
 73
     4
 40
4.0
 49
2.5
 74
     0
 49
-0.5
 74
     0
 49
0.5
 74
     0
 49
-0.5
 74
     0
  0
LTYPE
  5
26
100
AcDbSymbolTableRecord
100
AcDbLinetypeTableRecord
  2
DASHDOT
 70
     0
  3
__ . __ . __ . __ . __ . __ . __ . __ . __ . __
 72
    65
 73
     4
 40
1.0
 49
0.5
 74
     0
 49
-0.25
 74
     0
 49
0.0
 74
     0
 49
-0.25
 74
     0
  0
LTYPE
  5
27
100
AcDbSymbolTableRecord
100
AcDbLinetypeTableRecord
  2
DASHDOT2
 70
     0
  3
_._._._._._._._._._._._._._._._._._._._._._._._
 72
    65
 73
     4
 40
0.5
 49
0.25
 74
     0
 49
-0.125
 74
     0
 49
0.0
 74
     0
 49
-0.125
 74
     0
  0
LTYPE
  5
28
100
AcDbSymbolTableRecord
100
AcDbLinetypeTableRecord
  2
DASHDOTX2
 70
     0
  3
____  .  ____  .  ____  .  ____  .  ____  .  __
 72
    65
 73
     4
 40
2.0
 49
1.0
 74
     0
 49
-0.5
 74
     0
 49
0.0
 74
     0
 49
-0.5
 74
     0
  0
LTYPE
  5
29
100
AcDbSymbolTableRecord
100
AcDbLinetypeTableRecord
  2
DASHED
 70
     0
  3
__ __ __ __ __ __ __ __ __ __ __ __ __ __ __ __
 72
    65
 73
     2
 40
0.75
 49
0.5
 74
     0
 49
-0.25
 74
     0
  0
LTYPE
  5
2A
100
AcDbSymbolTableRecord
100
AcDbLinetypeTableRecord
  2
DASHED2
 70
     0
  3
_ _ _ _ _ _ _ _ _ _ _ _ _ _ _ _ _ _ _ _ _ _ _ _
 72
    65
 73
     2
 40
0.375
 49
0.25
 74
     0
 49
-0.125
 74
     0
  0
LTYPE
  5
2B
100
AcDbSymbolTableRecord
100
AcDbLinetypeTableRecord
  2
DASHEDX2
 70
     0
  3
____  ____  ____  ____  ____  ____  ____  ____ 
 72
    65
 73
     2
 40
1.5
 49
1.0
 74
     0
 49
-0.5
 74
     0
  0
LTYPE
  5
2C
100
AcDbSymbolTableRecord
100
AcDbLinetypeTableRecord
  2
DIVIDE
 70
     0
  3
____ . . ____ . . ____ . . ____ . . ____ . . __
 72
    65
 73
     6
 40
1.25
 49
0.5
 74
     0
 49
-0.25
 74
     0
 49
0.0
 74
     0
 49
-0.25
 74
     0
 49
0.0
 74
     0
 49
-0.25
 74
     0
  0
LTYPE
  5
2D
100
AcDbSymbolTableRecord
100
AcDbLinetypeTableRecord
  2
DIVIDE2
 70
     0
  3
__..__..__..__..__..__..__..__..__..__..__..__.
 72
    65
 73
     6
 40
0.625
 49
0.25
 74
     0
 49
-0.125
 74
     0
 49
0.0
 74
     0
 49
-0.125
 74
     0
 49
0.0
 74
     0
 49
-0.125
 74
     0
  0
LTYPE
  5
2E
100
AcDbSymbolTableRecord
100
AcDbLinetypeTableRecord
  2
DIVIDEX2
 70
     0
  3
________  .  .  ________  .  .  ________  .  . 
 72
    65
 73
     6
 40
2.5
 49
1.0
 74
     0
 49
-0.5
 74
     0
 49
0.0
 74
     0
 49
-0.5
 74
     0
 49
0.0
 74
     0
 49
-0.5
 74
     0
  0
LTYPE
  5
2F
100
AcDbSymbolTableRecord
100
AcDbLinetypeTableRecord
  2
DOT
 70
     0
  3
. . . . . . . . . . . . . . . . . . . . . . . .
 72
    65
 73
     2
 40
0.25
 49
0.0
 74
     0
 49
-0.25
 74
     0
  0
LTYPE
  5
30
100
AcDbSymbolTableRecord
100
AcDbLinetypeTableRecord
  2
DOT2
 70
     0
  3
...............................................
 72
    65
 73
     2
 40
0.125
 49
0.0
 74
     0
 49
-0.125
 74
     0
  0
LTYPE
  5
31
100
AcDbSymbolTableRecord
100
AcDbLinetypeTableRecord
  2
DOTX2
 70
     0
  3
.  .  .  .  .  .  .  .  .  .  .  .  .  .  .  . 
 72
    65
 73
     2
 40
0.5
 49
0.0
 74
     0
 49
-0.5
 74
     0
  0
LTYPE
  5
32
100
AcDbSymbolTableRecord
100
AcDbLinetypeTableRecord
  2
HIDDEN
 70
     0
  3
__ __ __ __ __ __ __ __ __ __ __ __ __ __ __ __
 72
    65
 73
     2
 40
0.375
 49
0.25
 74
     0
 49
-0.125
 74
     0
  0
LTYPE
  5
33
100
AcDbSymbolTableRecord
100
AcDbLinetypeTableRecord
  2
HIDDEN2
 70
     0
  3
_ _ _ _ _ _ _ _ _ _ _ _ _ _ _ _ _ _ _ _ _ _ _ _
 72
    65
 73
     2
 40
0.1875
 49
0.125
 74
     0
 49
-0.0625
 74
     0
  0
LTYPE
  5
34
100
AcDbSymbolTableRecord
100
AcDbLinetypeTableRecord
  2
HIDDENX2
 70
     0
  3
____ ____ ____ ____ ____ ____ ____ ____ ____ __
 72
    65
 73
     2
 40
0.75
 49
0.5
 74
     0
 49
-0.25
 74
     0
  0
LTYPE
  5
35
100
AcDbSymbolTableRecord
100
AcDbLinetypeTableRecord
  2
PHANTOM
 70
     0
  3
______  __  __  ______  __  __  ______  __  __ 
 72
    65
 73
     6
 40
2.5
 49
1.25
 74
     0
 49
-0.25
 74
     0
 49
0.25
 74
     0
 49
-0.25
 74
     0
 49
0.25
 74
     0
 49
-0.25
 74
     0
  0
LTYPE
  5
36
100
AcDbSymbolTableRecord
100
AcDbLinetypeTableRecord
  2
PHANTOM2
 70
     0
  3
___ _ _ ___ _ _ ___ _ _ ___ _ _ ___ _ _ ___ _ _
 72
    65
 73
     6
 40
1.25
 49
0.625
 74
     0
 49
-0.125
 74
     0
 49
0.125
 74
     0
 49
-0.125
 74
     0
 49
0.125
 74
     0
 49
-0.125
 74
     0
  0
LTYPE
  5
37
100
AcDbSymbolTableRecord
100
AcDbLinetypeTableRecord
  2
PHANTOMX2
 70
     0
  3
____________    ____    ____    ____________   
 72
    65
 73
     6
 40
5.0
 49
2.5
 74
     0
 49
-0.5
 74
     0
 49
0.5
 74
     0
 49
-0.5
 74
     0
 49
0.5
 74
     0
 49
-0.5
 74
     0
  0
ENDTAB
   0
TABLE
   2
LAYER
   5
2
 100
AcDbSymbolTable
  70
7
   0
LAYER
   5
E
 100
AcDbSymbolTableRecord
 100
AcDbLayerTableRecord
   2
0
  70
0
  62
7
   6
CONTINUOUS
   0
LAYER
   5
39
 100
AcDbSymbolTableRecord
 100
AcDbLayerTableRecord
   2
LEVEL001
  70
0
  62
7
   6
CONTINUOUS
   0
LAYER
   5
3A
 100
AcDbSymbolTableRecord
 100
AcDbLayerTableRecord
   2
LEVEL002
  70
0
  62
7
   6
CONTINUOUS
   0
LAYER
   5
3B
 100
AcDbSymbolTableRecord
 100
AcDbLayerTableRecord
   2
LEVEL003
  70
0
  62
7
   6
CONTINUOUS
   0
LAYER
   5
3C
 100
AcDbSymbolTableRecord
 100
AcDbLayerTableRecord
   2
LEVEL020
  70
0
  62
7
   6
CONTINUOUS
   0
LAYER
   5
3D
 100
AcDbSymbolTableRecord
 100
AcDbLayerTableRecord
   2
LEVEL050
  70
0
  62
7
   6
CONTINUOUS
   0
LAYER
   5
3E
 100
AcDbSymbolTableRecord
 100
AcDbLayerTableRecord
   2
LEVEL100
  70
0
  62
-7
   6
CONTINUOUS
   0
ENDTAB
  0
TABLE
  2
STYLE
  5
3
100
AcDbSymbolTable
  70
3
  0
STYLE
  5
F
100
AcDbSymbolTableRecord
100
AcDbTextStyleTableRecord
  2
STANDARD
 70
     0
 40
0.0
 41
1.0
 50
0.0
 71
     0
 42
0.2
  3
TXT
  4
BIGFONT
  0
STYLE
  5
38
100
AcDbSymbolTableRecord
100
AcDbTextStyleTableRecord
  2
STANDARD1
 70
     4
 40
0.0
 41
1.0
 50
0.0
 71
     0
 42
0.2
  3
TXT
  4
BIGFONT
   0
STYLE
   5
3F
 100
AcDbSymbolTableRecord
 100
AcDbTextStyleTableRecord
   2
GMM001
  70
0
  40
0.0
  41
 1.0000000000000
  50
0.0
  71
     0
  42
1.0
   3
txt.shx
   4
bigfont.shx
   0
ENDTAB
  0
TABLE
  2
VIEW
  5
6
100
AcDbSymbolTable
 70
     0
  0
ENDTAB
  0
TABLE
  2
UCS
  5
7
100
AcDbSymbolTable
 70
     0
  0
ENDTAB
  0
TABLE
  2
APPID
  5
9
100
AcDbSymbolTable
 70
     1
  0
APPID
  5
10
100
AcDbSymbolTableRecord
100
AcDbRegAppTableRecord
  2
ACAD
 70
     0
  0
ENDTAB
   0
TABLE
   2
DIMSTYLE
   5
A
 100
AcDbSymbolTable
  70
14
  0
DIMSTYLE
105
1D
100
AcDbSymbolTableRecord
100
AcDbDimStyleTableRecord
  2
STANDARD
 70
     0
  3

  4

  5

  6

  7

 40
1.0
 41
0.18
 42
0.0625
 43
0.38
 44
0.18
 45
0.0
 46
0.0
 47
0.0
 48
0.0
140
0.18
141
0.09
142
0.0
143
25.4
144
1.0
145
0.0
146
1.0
147
0.09
 71
     0
 72
     0
 73
     1
 74
     1
 75
     0
 76
     0
 77
     0
 78
     0
170
     0
171
     2
172
     0
173
     0
174
     0
175
     0
176
     0
177
     0
178
     0
270
     2
271
     4
272
     4
273
     2
274
     2
340
F
275
     0
280
     0
281
     0
282
     0
283
     1
284
     0
285
     0
286
     0
287
     3
288
     0
   0
DIMSTYLE
 105
40
 100
AcDbSymbolTableRecord
 100
AcDbDimStyleTableRecord
   2
GMM001
  70
0
   3

   4

   5

   6
_OPEN
   7
_OPEN
  40
 1.0000000000000
  41
 7.5000000000000
  42
 1.5000000000000
  43
 24.000000000000
  44
 6.0000000000000
  45
0.0
  46
0.0
  47
0.0
  48
0.0
 140
 9.4500000000000
 141
 3.0000000000000
 142
0.0
 143
 0.39400000000000E-1
 144
 1.0000000000000
 145
0.0
 146
 0.62500000000000
 147
0.0
  71
0
  72
0
  73
0
  74
0
  75
0
  76
0
  77
1
  78
8
 170
0
 171
2
 172
1
 173
1
 174
0
 175
0
 176
1
 177
1
 178
7
 270
2
 271
2
 272
0
 273
2
 274
2
 340
F
 275
0
 280
0
 281
0
 282
0
 283
1
 284
0
 285
0
 286
0
 287
3
 288
1
   0
DIMSTYLE
 105
41
 100
AcDbSymbolTableRecord
 100
AcDbDimStyleTableRecord
   2
GMM002
  70
0
   3

   4

   5

   6
_OPEN
   7
_OPEN
  40
 1.0000000000000
  41
 7.5000000000000
  42
 3.0000000000000
  43
 24.000000000000
  44
 6.0000000000000
  45
0.0
  46
0.0
  47
0.0
  48
0.0
 140
 12.000000000000
 141
 3.0000000000000
 142
0.0
 143
 0.39400000000000E-1
 144
 1.0000000000000
 145
0.0
 146
 0.62500000000000
 147
0.0
  71
0
  72
0
  73
0
  74
0
  75
0
  76
0
  77
1
  78
8
 170
0
 171
2
 172
1
 173
1
 174
0
 175
0
 176
1
 177
1
 178
7
 270
2
 271
2
 272
0
 273
2
 274
2
 340
F
 275
0
 280
0
 281
0
 282
0
 283
1
 284
0
 285
0
 286
0
 287
3
 288
1
   0
DIMSTYLE
 105
42
 100
AcDbSymbolTableRecord
 100
AcDbDimStyleTableRecord
   2
GMM003
  70
0
   3

   4

   5

   6
_OPEN
   7
_OPEN
  40
 1.0000000000000
  41
 9.0000000000000
  42
 3.0000000000000
  43
 24.000000000000
  44
 6.0000000000000
  45
0.0
  46
0.0
  47
0.0
  48
0.0
 140
 12.000000000000
 141
 3.0000000000000
 142
0.0
 143
 0.39400000000000E-1
 144
 1.0000000000000
 145
0.0
 146
 0.62500000000000
 147
 2.4000000000000
  71
0
  72
0
  73
0
  74
0
  75
0
  76
0
  77
3
  78
8
 170
0
 171
2
 172
1
 173
1
 174
0
 175
0
 176
3
 177
3
 178
3
 270
2
 271
2
 272
0
 273
2
 274
2
 340
3F
 275
0
 280
0
 281
0
 282
0
 283
1
 284
0
 285
0
 286
0
 287
3
 288
0
   0
DIMSTYLE
 105
43
 100
AcDbSymbolTableRecord
 100
AcDbDimStyleTableRecord
   2
GMM004
  70
0
   3

   4

   5

   6
_OPEN
   7
_OPEN
  40
 1.0000000000000
  41
 9.0000000000000
  42
 3.0000000000000
  43
 24.000000000000
  44
 6.0000000000000
  45
0.0
  46
0.0
  47
0.0
  48
0.0
 140
 12.000000000000
 141
 3.0000000000000
 142
0.0
 143
 0.39400000000000E-1
 144
 1.0000000000000
 145
0.0
 146
 0.62500000000000
 147
0.0
  71
0
  72
0
  73
0
  74
0
  75
0
  76
0
  77
1
  78
8
 170
0
 171
2
 172
1
 173
1
 174
0
 175
0
 176
3
 177
3
 178
7
 270
2
 271
2
 272
0
 273
2
 274
2
 340
F
 275
0
 280
0
 281
0
 282
0
 283
1
 284
0
 285
0
 286
0
 287
3
 288
1
   0
DIMSTYLE
 105
44
 100
AcDbSymbolTableRecord
 100
AcDbDimStyleTableRecord
   2
GMM005
  70
0
   3

   4

   5

   6
_OPEN
   7
_OPEN
  40
 1.0000000000000
  41
 9.0000000000000
  42
 3.0000000000000
  43
 24.000000000000
  44
 6.0000000000000
  45
0.0
  46
0.0
  47
0.0
  48
0.0
 140
 12.000000000000
 141
 3.0000000000000
 142
0.0
 143
 0.39400000000000E-1
 144
 1.0000000000000
 145
0.0
 146
 0.62500000000000
 147
 2.4000000000000
  71
0
  72
0
  73
0
  74
0
  75
0
  76
0
  77
3
  78
8
 170
0
 171
2
 172
1
 173
1
 174
0
 175
0
 176
3
 177
3
 178
3
 270
2
 271
2
 272
0
 273
2
 274
2
 340
3F
 275
0
 280
0
 281
0
 282
0
 283
1
 284
0
 285
0
 286
0
 287
3
 288
0
   0
DIMSTYLE
 105
45
 100
AcDbSymbolTableRecord
 100
AcDbDimStyleTableRecord
   2
GMM006
  70
0
   3

   4

   5

   6
_OPEN
   7
_OPEN
  40
 1.0000000000000
  41
 9.0000000000000
  42
 3.0000000000000
  43
 24.000000000000
  44
 6.0000000000000
  45
0.0
  46
0.0
  47
0.0
  48
0.0
 140
 12.000000000000
 141
 3.0000000000000
 142
0.0
 143
 0.39400000000000E-1
 144
 1.0000000000000
 145
0.0
 146
 0.62500000000000
 147
0.0
  71
0
  72
0
  73
0
  74
0
  75
0
  76
0
  77
1
  78
8
 170
0
 171
2
 172
1
 173
1
 174
0
 175
0
 176
3
 177
3
 178
7
 270
2
 271
2
 272
0
 273
2
 274
2
 340
F
 275
0
 280
0
 281
0
 282
0
 283
1
 284
0
 285
0
 286
0
 287
3
 288
1
   0
DIMSTYLE
 105
46
 100
AcDbSymbolTableRecord
 100
AcDbDimStyleTableRecord
   2
GMM007
  70
0
   3

   4

   5

   6
_OPEN
   7
_OPEN
  40
 1.0000000000000
  41
 9.0000000000000
  42
 3.0000000000000
  43
 24.000000000000
  44
 6.0000000000000
  45
0.0
  46
0.0
  47
0.0
  48
0.0
 140
 12.000000000000
 141
 3.0000000000000
 142
0.0
 143
 0.39400000000000E-1
 144
 1.0000000000000
 145
0.0
 146
 0.62500000000000
 147
 2.4000000000000
  71
0
  72
0
  73
0
  74
0
  75
0
  76
0
  77
3
  78
8
 170
0
 171
2
 172
1
 173
1
 174
0
 175
0
 176
3
 177
3
 178
3
 270
2
 271
2
 272
0
 273
2
 274
2
 340
3F
 275
0
 280
0
 281
0
 282
0
 283
1
 284
0
 285
0
 286
0
 287
3
 288
0
   0
DIMSTYLE
 105
47
 100
AcDbSymbolTableRecord
 100
AcDbDimStyleTableRecord
   2
GMM008
  70
0
   3

   4

   5

   6
_OPEN
   7
_OPEN
  40
 1.0000000000000
  41
 9.0000000000000
  42
 3.0000000000000
  43
 24.000000000000
  44
 6.0000000000000
  45
0.0
  46
0.0
  47
0.0
  48
0.0
 140
 12.000000000000
 141
 3.0000000000000
 142
0.0
 143
 0.39400000000000E-1
 144
 1.0000000000000
 145
0.0
 146
 0.62500000000000
 147
0.0
  71
0
  72
0
  73
0
  74
0
  75
0
  76
0
  77
1
  78
8
 170
0
 171
2
 172
1
 173
1
 174
0
 175
0
 176
3
 177
3
 178
7
 270
2
 271
2
 272
0
 273
2
 274
2
 340
F
 275
0
 280
0
 281
0
 282
0
 283
1
 284
0
 285
0
 286
0
 287
3
 288
1
   0
DIMSTYLE
 105
48
 100
AcDbSymbolTableRecord
 100
AcDbDimStyleTableRecord
   2
GMM009
  70
0
   3

   4

   5

   6
_OPEN
   7
_OPEN
  40
 1.0000000000000
  41
 9.0000000000000
  42
 3.0000000000000
  43
 24.000000000000
  44
 6.0000000000000
  45
0.0
  46
0.0
  47
0.0
  48
0.0
 140
 12.000000000000
 141
 3.0000000000000
 142
0.0
 143
 0.39400000000000E-1
 144
 1.0000000000000
 145
0.0
 146
 0.62500000000000
 147
 2.4000000000000
  71
0
  72
0
  73
0
  74
0
  75
0
  76
0
  77
3
  78
8
 170
0
 171
2
 172
1
 173
1
 174
0
 175
0
 176
3
 177
3
 178
3
 270
2
 271
2
 272
0
 273
2
 274
2
 340
3F
 275
0
 280
0
 281
0
 282
0
 283
1
 284
0
 285
0
 286
0
 287
3
 288
0
   0
DIMSTYLE
 105
49
 100
AcDbSymbolTableRecord
 100
AcDbDimStyleTableRecord
   2
GMM010
  70
0
   3

   4

   5

   6
_OPEN
   7
_NONE
  40
 1.0000000000000
  41
 9.0000000000000
  42
 3.0000000000000
  43
 24.000000000000
  44
 6.0000000000000
  45
0.0
  46
0.0
  47
0.0
  48
0.0
 140
 12.000000000000
 141
 3.0000000000000
 142
0.0
 143
 0.39400000000000E-1
 144
 1.0000000000000
 145
0.0
 146
 0.62500000000000
 147
 2.4000000000000
  71
0
  72
0
  73
0
  74
0
  75
0
  76
1
  77
3
  78
8
 170
0
 171
2
 172
1
 173
1
 174
0
 175
0
 176
3
 177
3
 178
3
 270
2
 271
2
 272
0
 273
2
 274
2
 340
3F
 275
0
 280
0
 281
0
 282
0
 283
1
 284
0
 285
0
 286
0
 287
3
 288
1
   0
DIMSTYLE
 105
4A
 100
AcDbSymbolTableRecord
 100
AcDbDimStyleTableRecord
   2
GMM011
  70
0
   3

   4

   5

   6
_OPEN
   7
_OPEN
  40
 1.0000000000000
  41
 9.0000000000000
  42
 3.0000000000000
  43
 24.000000000000
  44
 6.0000000000000
  45
0.0
  46
0.0
  47
0.0
  48
0.0
 140
 12.000000000000
 141
 3.0000000000000
 142
0.0
 143
 0.39400000000000E-1
 144
 1.0000000000000
 145
0.0
 146
 0.62500000000000
 147
 2.4000000000000
  71
0
  72
0
  73
0
  74
0
  75
1
  76
1
  77
3
  78
8
 170
0
 171
2
 172
1
 173
1
 174
0
 175
0
 176
3
 177
3
 178
3
 270
2
 271
2
 272
0
 273
2
 274
2
 340
3F
 275
0
 280
0
 281
0
 282
0
 283
1
 284
0
 285
0
 286
0
 287
3
 288
0
   0
DIMSTYLE
 105
4B
 100
AcDbSymbolTableRecord
 100
AcDbDimStyleTableRecord
   2
GMM012
  70
0
   3

   4

   5

   6
_OPEN
   7
_OPEN
  40
 1.0000000000000
  41
 9.0000000000000
  42
 3.0000000000000
  43
 24.000000000000
  44
 6.0000000000000
  45
0.0
  46
0.0
  47
0.0
  48
0.0
 140
 12.000000000000
 141
 3.0000000000000
 142
0.0
 143
 0.39400000000000E-1
 144
 1.0000000000000
 145
0.0
 146
 0.62500000000000
 147
0.0
  71
0
  72
0
  73
0
  74
0
  75
0
  76
0
  77
1
  78
8
 170
0
 171
2
 172
1
 173
1
 174
0
 175
0
 176
3
 177
3
 178
7
 270
2
 271
2
 272
0
 273
2
 274
2
 340
F
 275
0
 280
0
 281
0
 282
0
 283
1
 284
0
 285
0
 286
0
 287
3
 288
1
   0
ENDTAB
  0
TABLE
  2
BLOCK_RECORD
  5
1
100
AcDbSymbolTable
 70
     0
  0
BLOCK_RECORD
  5
18
100
AcDbSymbolTableRecord
100
AcDbBlockTableRecord
  2
*MODEL_SPACE
  0
BLOCK_RECORD
  5
15
100
AcDbSymbolTableRecord
100
AcDbBlockTableRecord
  2
*PAPER_SPACE
   0
BLOCK_RECORD
   5
4C
 100
AcDbSymbolTableRecord
 100
AcDbBlockTableRecord
   2
*D7
   0
BLOCK_RECORD
   5
4D
 100
AcDbSymbolTableRecord
 100
AcDbBlockTableRecord
   2
*D8
   0
BLOCK_RECORD
   5
4E
 100
AcDbSymbolTableRecord
 100
AcDbBlockTableRecord
   2
*D10
   0
BLOCK_RECORD
   5
4F
 100
AcDbSymbolTableRecord
 100
AcDbBlockTableRecord
   2
*D13
   0
BLOCK_RECORD
   5
50
 100
AcDbSymbolTableRecord
 100
AcDbBlockTableRecord
   2
*D15
   0
BLOCK_RECORD
   5
51
 100
AcDbSymbolTableRecord
 100
AcDbBlockTableRecord
   2
*D16
   0
BLOCK_RECORD
   5
52
 100
AcDbSymbolTableRecord
 100
AcDbBlockTableRecord
   2
*D17
   0
BLOCK_RECORD
   5
53
 100
AcDbSymbolTableRecord
 100
AcDbBlockTableRecord
   2
*D18
   0
BLOCK_RECORD
   5
54
 100
AcDbSymbolTableRecord
 100
AcDbBlockTableRecord
   2
*D19
   0
BLOCK_RECORD
   5
55
 100
AcDbSymbolTableRecord
 100
AcDbBlockTableRecord
   2
*D20
   0
BLOCK_RECORD
   5
56
 100
AcDbSymbolTableRecord
 100
AcDbBlockTableRecord
   2
*D21
   0
BLOCK_RECORD
   5
57
 100
AcDbSymbolTableRecord
 100
AcDbBlockTableRecord
   2
_ARCHTICK
   0
BLOCK_RECORD
   5
58
 100
AcDbSymbolTableRecord
 100
AcDbBlockTableRecord
   2
_BOXBLANK
   0
BLOCK_RECORD
   5
59
 100
AcDbSymbolTableRecord
 100
AcDbBlockTableRecord
   2
_BOXFILLED
   0
BLOCK_RECORD
   5
5A
 100
AcDbSymbolTableRecord
 100
AcDbBlockTableRecord
   2
_CLOSED
   0
BLOCK_RECORD
   5
5B
 100
AcDbSymbolTableRecord
 100
AcDbBlockTableRecord
   2
_CLOSEDBLANK
   0
BLOCK_RECORD
   5
5C
 100
AcDbSymbolTableRecord
 100
AcDbBlockTableRecord
   2
_DATUMBLANK
   0
BLOCK_RECORD
   5
5D
 100
AcDbSymbolTableRecord
 100
AcDbBlockTableRecord
   2
_DATUMFILLED
   0
BLOCK_RECORD
   5
5E
 100
AcDbSymbolTableRecord
 100
AcDbBlockTableRecord
   2
_DOT
   0
BLOCK_RECORD
   5
5F
 100
AcDbSymbolTableRecord
 100
AcDbBlockTableRecord
   2
_DOTBLANK
   0
BLOCK_RECORD
   5
60
 100
AcDbSymbolTableRecord
 100
AcDbBlockTableRecord
   2
_DOTSMALL
   0
BLOCK_RECORD
   5
61
 100
AcDbSymbolTableRecord
 100
AcDbBlockTableRecord
   2
_INTEGRAL
   0
BLOCK_RECORD
   5
62
 100
AcDbSymbolTableRecord
 100
AcDbBlockTableRecord
   2
_NONE
   0
BLOCK_RECORD
   5
63
 100
AcDbSymbolTableRecord
 100
AcDbBlockTableRecord
   2
_OBLIQUE
   0
BLOCK_RECORD
   5
64
 100
AcDbSymbolTableRecord
 100
AcDbBlockTableRecord
   2
_OPEN
   0
BLOCK_RECORD
   5
65
 100
AcDbSymbolTableRecord
 100
AcDbBlockTableRecord
   2
_OPEN30
   0
BLOCK_RECORD
   5
66
 100
AcDbSymbolTableRecord
 100
AcDbBlockTableRecord
   2
_OPEN90
   0
BLOCK_RECORD
   5
67
 100
AcDbSymbolTableRecord
 100
AcDbBlockTableRecord
   2
_ORIGIN
   0
ENDTAB
   0
ENDSEC
  0
SECTION
  2
BLOCKS
  0
BLOCK
  5
19
100
AcDbEntity
  8
0
100
AcDbBlockBegin
  2
*MODEL_SPACE
 70
     0
 10
0.0
 20
0.0
 30
0.0
  3
*MODEL_SPACE
  1

  0
ENDBLK
  5
1A
100
AcDbEntity
  8
0
100
AcDbBlockEnd
  0
BLOCK
  5
16
100
AcDbEntity
 67
     1
  8
0
100
AcDbBlockBegin
  2
*PAPER_SPACE
 70
     0
 10
0.0
 20
0.0
 30
0.0
  3
*PAPER_SPACE
  1

  0
ENDBLK
  5
17
100
AcDbEntity
 67
     1
  8
0
100
AcDbBlockEnd
   0
BLOCK
   5
68
 100
AcDbEntity
   8
0
 100
AcDbBlockBegin
   2
_ARCHTICK
  70
0
  10
0.0
  20
0.0
  30
0.0
   3
_ARCHTICK
   0
POLYLINE
   5
69
 100
AcDbEntity
   8
0
   6
BYBLOCK
  62
0
 100
AcDb2dPolyline
  66
1
  10
0.0
  20
0.0
  30
0.0
  70
1
  40
 0.15000000000000
  41
 0.15000000000000
   0
VERTEX
   5
6A
 100
AcDbEntity
   8
0
   6
BYBLOCK
  62
0
 100
AcDbVertex
 100
AcDb2dVertex
  10
-0.50000000000000
  20
-0.50000000000000
  30
0.0
  40
 0.15000000000000
  41
 0.15000000000000
   0
VERTEX
   5
6B
 100
AcDbEntity
   8
0
   6
BYBLOCK
  62
0
 100
AcDbVertex
 100
AcDb2dVertex
  10
 0.50000000000000
  20
 0.50000000000000
  30
0.0
  40
 0.15000000000000
  41
 0.15000000000000
   0
SEQEND
   5
6C
 100
AcDbEntity
   8
0
   6
BYBLOCK
  62
0
   0
ENDBLK
   5
6D
 100
AcDbEntity
   8
0
 100
AcDbBlockEnd
   0
BLOCK
   5
6E
 100
AcDbEntity
   8
0
 100
AcDbBlockBegin
   2
_OBLIQUE
  70
0
  10
0.0
  20
0.0
  30
0.0
   3
_OBLIQUE
   0
LINE
   5
6F
 100
AcDbEntity
   8
0
 100
AcDbLine
   6
BYBLOCK
  62
0
  10
-0.50000000000000
  20
-0.50000000000000
  30
0.0
  11
 0.50000000000000
  21
 0.50000000000000
  31
0.0
   0
ENDBLK
   5
70
 100
AcDbEntity
   8
0
 100
AcDbBlockEnd
   0
BLOCK
   5
71
 100
AcDbEntity
   8
0
 100
AcDbBlockBegin
   2
_BOXBLANK
  70
0
  10
0.0
  20
0.0
  30
0.0
   3
_BOXBLANK
   0
LINE
   5
72
 100
AcDbEntity
   8
0
 100
AcDbLine
   6
BYBLOCK
  62
0
  10
-0.50000000000000
  20
-0.50000000000000
  30
0.0
  11
 0.50000000000000
  21
-0.50000000000000
  31
0.0
   0
LINE
   5
73
 100
AcDbEntity
   8
0
 100
AcDbLine
   6
BYBLOCK
  62
0
  10
 0.50000000000000
  20
-0.50000000000000
  30
0.0
  11
 0.50000000000000
  21
 0.50000000000000
  31
0.0
   0
LINE
   5
74
 100
AcDbEntity
   8
0
 100
AcDbLine
   6
BYBLOCK
  62
0
  10
 0.50000000000000
  20
 0.50000000000000
  30
0.0
  11
-0.50000000000000
  21
 0.50000000000000
  31
0.0
   0
LINE
   5
75
 100
AcDbEntity
   8
0
 100
AcDbLine
   6
BYBLOCK
  62
0
  10
-0.50000000000000
  20
 0.50000000000000
  30
0.0
  11
-0.50000000000000
  21
-0.50000000000000
  31
0.0
   0
LINE
   5
76
 100
AcDbEntity
   8
0
 100
AcDbLine
   6
BYBLOCK
  62
0
  10
-0.50000000000000
  20
0.0
  30
0.0
  11
-1.0000000000000
  21
0.0
  31
0.0
   0
ENDBLK
   5
77
 100
AcDbEntity
   8
0
 100
AcDbBlockEnd
   0
BLOCK
   5
78
 100
AcDbEntity
   8
0
 100
AcDbBlockBegin
   2
_BOXFILLED
  70
0
  10
0.0
  20
0.0
  30
0.0
   3
_BOXFILLED
   0
SOLID
   5
79
 100
AcDbEntity
   8
0
 100
AcDbTrace
   6
BYBLOCK
  62
0
  10
-0.50000000000000
  20
 0.50000000000000
  30
0.0
  11
 0.50000000000000
  21
 0.50000000000000
  31
0.0
  12
-0.50000000000000
  22
-0.50000000000000
  32
0.0
  13
 0.50000000000000
  23
-0.50000000000000
  33
0.0
   0
LINE
   5
7A
 100
AcDbEntity
   8
0
 100
AcDbLine
   6
BYBLOCK
  62
0
  10
-0.50000000000000
  20
0.0
  30
0.0
  11
-1.0000000000000
  21
0.0
  31
0.0
   0
ENDBLK
   5
7B
 100
AcDbEntity
   8
0
 100
AcDbBlockEnd
   0
BLOCK
   5
7C
 100
AcDbEntity
   8
0
 100
AcDbBlockBegin
   2
_CLOSED
  70
0
  10
0.0
  20
0.0
  30
0.0
   3
_CLOSED
   0
LINE
   5
7D
 100
AcDbEntity
   8
0
 100
AcDbLine
   6
BYBLOCK
  62
0
  10
-1.0000000000000
  20
 0.16666666666667
  30
0.0
  11
0.0
  21
0.0
  31
0.0
   0
LINE
   5
7E
 100
AcDbEntity
   8
0
 100
AcDbLine
   6
BYBLOCK
  62
0
  10
0.0
  20
0.0
  30
0.0
  11
-1.0000000000000
  21
-0.16666666666667
  31
0.0
   0
LINE
   5
7F
 100
AcDbEntity
   8
0
 100
AcDbLine
   6
BYBLOCK
  62
0
  10
-1.0000000000000
  20
 0.16666666666667
  30
0.0
  11
-1.0000000000000
  21
-0.16666666666667
  31
0.0
   0
LINE
   5
80
 100
AcDbEntity
   8
0
 100
AcDbLine
   6
BYBLOCK
  62
0
  10
0.0
  20
0.0
  30
0.0
  11
-1.0000000000000
  21
0.0
  31
0.0
   0
ENDBLK
   5
81
 100
AcDbEntity
   8
0
 100
AcDbBlockEnd
   0
BLOCK
   5
82
 100
AcDbEntity
   8
0
 100
AcDbBlockBegin
   2
_OPEN
  70
0
  10
0.0
  20
0.0
  30
0.0
   3
_OPEN
   0
LINE
   5
83
 100
AcDbEntity
   8
0
 100
AcDbLine
   6
BYBLOCK
  62
0
  10
-1.0000000000000
  20
 0.16666666666667
  30
0.0
  11
0.0
  21
0.0
  31
0.0
   0
LINE
   5
84
 100
AcDbEntity
   8
0
 100
AcDbLine
   6
BYBLOCK
  62
0
  10
0.0
  20
0.0
  30
0.0
  11
-1.0000000000000
  21
-0.16666666666667
  31
0.0
   0
LINE
   5
85
 100
AcDbEntity
   8
0
 100
AcDbLine
   6
BYBLOCK
  62
0
  10
0.0
  20
0.0
  30
0.0
  11
-1.0000000000000
  21
0.0
  31
0.0
   0
ENDBLK
   5
86
 100
AcDbEntity
   8
0
 100
AcDbBlockEnd
   0
BLOCK
   5
87
 100
AcDbEntity
   8
0
 100
AcDbBlockBegin
   2
_OPEN30
  70
0
  10
0.0
  20
0.0
  30
0.0
   3
_OPEN30
   0
LINE
   5
88
 100
AcDbEntity
   8
0
 100
AcDbLine
   6
BYBLOCK
  62
0
  10
-1.0000000000000
  20
 0.26794919243110
  30
0.0
  11
0.0
  21
0.0
  31
0.0
   0
LINE
   5
89
 100
AcDbEntity
   8
0
 100
AcDbLine
   6
BYBLOCK
  62
0
  10
0.0
  20
0.0
  30
0.0
  11
-1.0000000000000
  21
-0.26794919243110
  31
0.0
   0
LINE
   5
8A
 100
AcDbEntity
   8
0
 100
AcDbLine
   6
BYBLOCK
  62
0
  10
0.0
  20
0.0
  30
0.0
  11
-1.0000000000000
  21
0.0
  31
0.0
   0
ENDBLK
   5
8B
 100
AcDbEntity
   8
0
 100
AcDbBlockEnd
   0
BLOCK
   5
8C
 100
AcDbEntity
   8
0
 100
AcDbBlockBegin
   2
_OPEN90
  70
0
  10
0.0
  20
0.0
  30
0.0
   3
_OPEN90
   0
LINE
   5
8D
 100
AcDbEntity
   8
0
 100
AcDbLine
   6
BYBLOCK
  62
0
  10
-0.50000000000000
  20
 0.50000000000000
  30
0.0
  11
0.0
  21
0.0
  31
0.0
   0
LINE
   5
8E
 100
AcDbEntity
   8
0
 100
AcDbLine
   6
BYBLOCK
  62
0
  10
0.0
  20
0.0
  30
0.0
  11
-0.50000000000000
  21
-0.50000000000000
  31
0.0
   0
LINE
   5
8F
 100
AcDbEntity
   8
0
 100
AcDbLine
   6
BYBLOCK
  62
0
  10
0.0
  20
0.0
  30
0.0
  11
-1.0000000000000
  21
0.0
  31
0.0
   0
ENDBLK
   5
90
 100
AcDbEntity
   8
0
 100
AcDbBlockEnd
   0
BLOCK
   5
91
 100
AcDbEntity
   8
0
 100
AcDbBlockBegin
   2
_CLOSEDBLANK
  70
0
  10
0.0
  20
0.0
  30
0.0
   3
_CLOSEDBLANK
   0
LINE
   5
92
 100
AcDbEntity
   8
0
 100
AcDbLine
   6
BYBLOCK
  62
0
  10
-1.0000000000000
  20
 0.16666666666667
  30
0.0
  11
0.0
  21
0.0
  31
0.0
   0
LINE
   5
93
 100
AcDbEntity
   8
0
 100
AcDbLine
   6
BYBLOCK
  62
0
  10
0.0
  20
0.0
  30
0.0
  11
-1.0000000000000
  21
-0.16666666666667
  31
0.0
   0
LINE
   5
94
 100
AcDbEntity
   8
0
 100
AcDbLine
   6
BYBLOCK
  62
0
  10
-1.0000000000000
  20
 0.16666666666667
  30
0.0
  11
-1.0000000000000
  21
-0.16666666666667
  31
0.0
   0
ENDBLK
   5
95
 100
AcDbEntity
   8
0
 100
AcDbBlockEnd
   0
BLOCK
   5
96
 100
AcDbEntity
   8
0
 100
AcDbBlockBegin
   2
_DOT
  70
0
  10
0.0
  20
0.0
  30
0.0
   3
_DOT
   0
POLYLINE
   5
97
 100
AcDbEntity
   8
0
   6
BYBLOCK
  62
0
 100
AcDb2dPolyline
  66
1
  10
0.0
  20
0.0
  30
0.0
  70
1
  40
 0.50000000000000
  41
 0.50000000000000
   0
VERTEX
   5
98
 100
AcDbEntity
   8
0
   6
BYBLOCK
  62
0
 100
AcDbVertex
 100
AcDb2dVertex
  10
-0.25000000000000
  20
0.0
  30
0.0
  42
 1.0000000000000
  40
 0.50000000000000
  41
 0.50000000000000
   0
VERTEX
   5
99
 100
AcDbEntity
   8
0
   6
BYBLOCK
  62
0
 100
AcDbVertex
 100
AcDb2dVertex
  10
 0.25000000000000
  20
0.0
  30
0.0
  42
 1.0000000000000
  40
 0.50000000000000
  41
 0.50000000000000
   0
SEQEND
   5
9A
 100
AcDbEntity
   8
0
   6
BYBLOCK
  62
0
   0
LINE
   5
9B
 100
AcDbEntity
   8
0
 100
AcDbLine
   6
BYBLOCK
  62
0
  10
-0.50000000000000
  20
0.0
  30
0.0
  11
-1.0000000000000
  21
0.0
  31
0.0
   0
ENDBLK
   5
9C
 100
AcDbEntity
   8
0
 100
AcDbBlockEnd
   0
BLOCK
   5
9D
 100
AcDbEntity
   8
0
 100
AcDbBlockBegin
   2
_DOTSMALL
  70
0
  10
0.0
  20
0.0
  30
0.0
   3
_DOTSMALL
   0
POLYLINE
   5
9E
 100
AcDbEntity
   8
0
   6
BYBLOCK
  62
0
 100
AcDb2dPolyline
  66
1
  10
0.0
  20
0.0
  30
0.0
  70
1
  40
 0.50000000000000
  41
 0.50000000000000
   0
VERTEX
   5
9F
 100
AcDbEntity
   8
0
   6
BYBLOCK
  62
0
 100
AcDbVertex
 100
AcDb2dVertex
  10
-0.62500000000000E-1
  20
0.0
  30
0.0
  42
 1.0000000000000
  40
 0.50000000000000
  41
 0.50000000000000
   0
VERTEX
   5
A0
 100
AcDbEntity
   8
0
   6
BYBLOCK
  62
0
 100
AcDbVertex
 100
AcDb2dVertex
  10
 0.62500000000000E-1
  20
0.0
  30
0.0
  42
 1.0000000000000
  40
 0.50000000000000
  41
 0.50000000000000
   0
SEQEND
   5
A1
 100
AcDbEntity
   8
0
   6
BYBLOCK
  62
0
   0
ENDBLK
   5
A2
 100
AcDbEntity
   8
0
 100
AcDbBlockEnd
   0
BLOCK
   5
A3
 100
AcDbEntity
   8
0
 100
AcDbBlockBegin
   2
_DATUMBLANK
  70
0
  10
0.0
  20
0.0
  30
0.0
   3
_DATUMBLANK
   0
LINE
   5
A4
 100
AcDbEntity
   8
0
 100
AcDbLine
   6
BYBLOCK
  62
0
  10
0.0
  20
 0.57735027000000
  30
0.0
  11
-1.0000000000000
  21
0.0
  31
0.0
   0
LINE
   5
A5
 100
AcDbEntity
   8
0
 100
AcDbLine
   6
BYBLOCK
  62
0
  10
-1.0000000000000
  20
0.0
  30
0.0
  11
0.0
  21
-0.57735027000000
  31
0.0
   0
LINE
   5
A6
 100
AcDbEntity
   8
0
 100
AcDbLine
   6
BYBLOCK
  62
0
  10
0.0
  20
-0.57735027000000
  30
0.0
  11
0.0
  21
 0.57735027000000
  31
0.0
   0
ENDBLK
   5
A7
 100
AcDbEntity
   8
0
 100
AcDbBlockEnd
   0
BLOCK
   5
A8
 100
AcDbEntity
   8
0
 100
AcDbBlockBegin
   2
_DATUMFILLED
  70
0
  10
0.0
  20
0.0
  30
0.0
   3
_DATUMFILLED
   0
SOLID
   5
A9
 100
AcDbEntity
   8
0
 100
AcDbTrace
   6
BYBLOCK
  62
0
  10
0.0
  20
 0.57735027000000
  30
0.0
  11
-1.0000000000000
  21
0.0
  31
0.0
  12
0.0
  22
-0.57735027000000
  32
0.0
  13
0.0
  23
-0.57735027000000
  33
0.0
   0
ENDBLK
   5
AA
 100
AcDbEntity
   8
0
 100
AcDbBlockEnd
   0
BLOCK
   5
AB
 100
AcDbEntity
   8
0
 100
AcDbBlockBegin
   2
_ORIGIN
  70
0
  10
0.0
  20
0.0
  30
0.0
   3
_ORIGIN
   0
CIRCLE
   5
AC
 100
AcDbEntity
   8
0
 100
AcDbCircle
   6
BYBLOCK
  62
0
  10
0.0
  20
0.0
  30
0.0
  40
 0.50000000000000
   0
LINE
   5
AD
 100
AcDbEntity
   8
0
 100
AcDbLine
   6
BYBLOCK
  62
0
  10
0.0
  20
0.0
  30
0.0
  11
-1.0000000000000
  21
0.0
  31
0.0
   0
ENDBLK
   5
AE
 100
AcDbEntity
   8
0
 100
AcDbBlockEnd
   0
BLOCK
   5
AF
 100
AcDbEntity
   8
0
 100
AcDbBlockBegin
   2
_NONE
  70
0
  10
0.0
  20
0.0
  30
0.0
   3
_NONE
   0
CIRCLE
   5
B0
 100
AcDbEntity
   8
0
 100
AcDbCircle
   6
BYBLOCK
  62
0
  10
0.0
  20
0.0
  30
0.0
  40
 0.25000000000000
   0
ENDBLK
   5
B1
 100
AcDbEntity
   8
0
 100
AcDbBlockEnd
   0
BLOCK
   5
B2
 100
AcDbEntity
   8
0
 100
AcDbBlockBegin
   2
_DOTBLANK
  70
0
  10
0.0
  20
0.0
  30
0.0
   3
_DOTBLANK
   0
CIRCLE
   5
B3
 100
AcDbEntity
   8
0
 100
AcDbCircle
   6
BYBLOCK
  62
0
  10
0.0
  20
0.0
  30
0.0
  40
 0.50000000000000
   0
LINE
   5
B4
 100
AcDbEntity
   8
0
 100
AcDbLine
   6
BYBLOCK
  62
0
  10
-0.50000000000000
  20
0.0
  30
0.0
  11
-1.0000000000000
  21
0.0
  31
0.0
   0
ENDBLK
   5
B5
 100
AcDbEntity
   8
0
 100
AcDbBlockEnd
   0
BLOCK
   5
B6
 100
AcDbEntity
   8
0
 100
AcDbBlockBegin
   2
_INTEGRAL
  70
0
  10
0.0
  20
0.0
  30
0.0
   3
_INTEGRAL
   0
ARC
   5
B7
 100
AcDbEntity
   8
0
   6
BYBLOCK
  62
0
 100
AcDbCircle
  10
 0.44488800000000
  20
-0.91335000000000E-1
  30
0.0
  40
 0.45416700000000
 100
AcDbArc
  50
 102.00000000000
  51
 168.00000000000
   0
ARC
   5
B8
 100
AcDbEntity
   8
0
   6
BYBLOCK
  62
0
 100
AcDbCircle
  10
-0.44488800000000
  20
 0.91335000000000E-1
  30
0.0
  40
 0.45416700000000
 100
AcDbArc
  50
 282.00000000000
  51
 348.00000000000
   0
ENDBLK
   5
B9
 100
AcDbEntity
   8
0
 100
AcDbBlockEnd
   0
BLOCK
   5
BA
 100
AcDbEntity
   8
0
 100
AcDbBlockBegin
   2
*D7
  70
65
  10
0.0
  20
0.0
  30
0.0
   3
*D7
   0
LINE
   5
BB
 100
AcDbEntity
   8
LEVEL003
 100
AcDbLine
   6
CONTINUOUS
  62
3
  10
 340.00003051758
  20
 691.50000000000
  30
0.0
  11
 340.00003051758
  21
 756.00000000000
  31
0.0
   0
LINE
   5
BC
 100
AcDbEntity
   8
LEVEL003
 100
AcDbLine
   6
CONTINUOUS
  62
3
  10
 410.00000000000
  20
 693.00000000000
  30
0.0
  11
 410.00000000000
  21
 756.00000000000
  31
0.0
   0
LINE
   5
BD
 100
AcDbEntity
   8
LEVEL003
 100
AcDbLine
   6
CONTINUOUS
  62
3
  10
 340.00003051758
  20
 750.00000000000
  30
0.0
  11
 363.97501525879
  21
 750.00000000000
  31
0.0
   0
LINE
   5
BE
 100
AcDbEntity
   8
LEVEL003
 100
AcDbLine
   6
CONTINUOUS
  62
3
  10
 410.00000000000
  20
 750.00000000000
  30
0.0
  11
 386.02501525879
  21
 750.00000000000
  31
0.0
   0
INSERT
   5
BF
 100
AcDbEntity
   8
LEVEL003
   6
CONTINUOUS
  62
3
 100
AcDbBlockReference
   2
_OPEN
  10
 340.00003051758
  20
 750.00000000000
  30
0.0
  41
 9.0000000000000
  42
 9.0000000000000
  43
 9.0000000000000
  50
 180.00000000000
   0
INSERT
   5
C0
 100
AcDbEntity
   8
LEVEL003
   6
CONTINUOUS
  62
3
 100
AcDbBlockReference
   2
_OPEN
  10
 410.00000000000
  20
 750.00000000000
  30
0.0
  41
 9.0000000000000
  42
 9.0000000000000
  43
 9.0000000000000
  50
0.0
   0
MTEXT
   5
C1
 100
AcDbEntity
   8
LEVEL003
  62
3
 100
AcDbMText
  10
 375.00001525879
  20
 752.40000000000
  30
0.0
  40
 12.000000000000
  41
0.0
  71
8
  72
1
   1
\A1;70
   7
GMM001
   0
ENDBLK
   5
C2
 100
AcDbEntity
   8
0
 100
AcDbBlockEnd
   0
BLOCK
   5
C3
 100
AcDbEntity
   8
0
 100
AcDbBlockBegin
   2
*D8
  70
65
  10
0.0
  20
0.0
  30
0.0
   3
*D8
   0
LINE
   5
C4
 100
AcDbEntity
   8
LEVEL003
 100
AcDbLine
   6
CONTINUOUS
  62
3
  10
 340.00003051758
  20
 691.50000000000
  30
0.0
  11
 340.00003051758
  21
 786.00000000000
  31
0.0
   0
LINE
   5
C5
 100
AcDbEntity
   8
LEVEL003
 100
AcDbLine
   6
CONTINUOUS
  62
3
  10
 430.00003051758
  20
 703.00000000000
  30
0.0
  11
 430.00003051758
  21
 786.00000000000
  31
0.0
   0
LINE
   5
C6
 100
AcDbEntity
   8
LEVEL003
 100
AcDbLine
   6
CONTINUOUS
  62
3
  10
 340.00003051758
  20
 780.00000000000
  30
0.0
  11
 373.97503051758
  21
 780.00000000000
  31
0.0
   0
LINE
   5
C7
 100
AcDbEntity
   8
LEVEL003
 100
AcDbLine
   6
CONTINUOUS
  62
3
  10
 430.00003051758
  20
 780.00000000000
  30
0.0
  11
 396.02503051758
  21
 780.00000000000
  31
0.0
   0
INSERT
   5
C8
 100
AcDbEntity
   8
LEVEL003
   6
CONTINUOUS
  62
3
 100
AcDbBlockReference
   2
_OPEN
  10
 340.00003051758
  20
 780.00000000000
  30
0.0
  41
 9.0000000000000
  42
 9.0000000000000
  43
 9.0000000000000
  50
 180.00000000000
   0
INSERT
   5
C9
 100
AcDbEntity
   8
LEVEL003
   6
CONTINUOUS
  62
3
 100
AcDbBlockReference
   2
_OPEN
  10
 430.00003051758
  20
 780.00000000000
  30
0.0
  41
 9.0000000000000
  42
 9.0000000000000
  43
 9.0000000000000
  50
0.0
   0
MTEXT
   5
CA
 100
AcDbEntity
   8
LEVEL003
  62
3
 100
AcDbMText
  10
 385.00003051758
  20
 782.40000000000
  30
0.0
  40
 12.000000000000
  41
0.0
  71
8
  72
1
   1
\A1;90
   7
GMM001
   0
ENDBLK
   5
CB
 100
AcDbEntity
   8
0
 100
AcDbBlockEnd
   0
BLOCK
   5
CC
 100
AcDbEntity
   8
0
 100
AcDbBlockBegin
   2
*D10
  70
65
  10
0.0
  20
0.0
  30
0.0
   3
*D10
   0
LINE
   5
CD
 100
AcDbEntity
   8
LEVEL003
 100
AcDbLine
   6
CONTINUOUS
  62
3
  10
 268.00003051758
  20
 545.00000000000
  30
0.0
  11
 219.00000000000
  21
 545.00000000000
  31
0.0
   0
LINE
   5
CE
 100
AcDbEntity
   8
LEVEL003
 100
AcDbLine
   6
CONTINUOUS
  62
3
  10
 268.00003051758
  20
 655.00000000000
  30
0.0
  11
 219.00000000000
  21
 655.00000000000
  31
0.0
   0
LINE
   5
CF
 100
AcDbEntity
   8
LEVEL003
 100
AcDbLine
   6
CONTINUOUS
  62
3
  10
 225.00000000000
  20
 545.00000000000
  30
0.0
  11
 225.00000000000
  21
 578.47500000000
  31
0.0
   0
LINE
   5
D0
 100
AcDbEntity
   8
LEVEL003
 100
AcDbLine
   6
CONTINUOUS
  62
3
  10
 225.00000000000
  20
 655.00000000000
  30
0.0
  11
 225.00000000000
  21
 621.52500000000
  31
0.0
   0
INSERT
   5
D1
 100
AcDbEntity
   8
LEVEL003
   6
CONTINUOUS
  62
3
 100
AcDbBlockReference
   2
_OPEN
  10
 225.00000000000
  20
 545.00000000000
  30
0.0
  41
 9.0000000000000
  42
 9.0000000000000
  43
 9.0000000000000
  50
 270.00000000000
   0
INSERT
   5
D2
 100
AcDbEntity
   8
LEVEL003
   6
CONTINUOUS
  62
3
 100
AcDbBlockReference
   2
_OPEN
  10
 225.00000000000
  20
 655.00000000000
  30
0.0
  41
 9.0000000000000
  42
 9.0000000000000
  43
 9.0000000000000
  50
 90.000000000000
   0
MTEXT
   5
D3
 100
AcDbEntity
   8
LEVEL003
  62
3
 100
AcDbMText
  10
 222.60000000000
  20
 600.00000000000
  30
0.0
  40
 12.000000000000
  41
0.0
  71
8
  72
1
   1
\A1;%%c110
   7
GMM001
  11
0.0
  21
 1.0000000000000
  31
0.0
   0
ENDBLK
   5
D4
 100
AcDbEntity
   8
0
 100
AcDbBlockEnd
   0
BLOCK
   5
D5
 100
AcDbEntity
   8
0
 100
AcDbBlockBegin
   2
*D13
  70
65
  10
0.0
  20
0.0
  30
0.0
   3
*D13
   0
LINE
   5
D6
 100
AcDbEntity
   8
LEVEL003
 100
AcDbLine
   6
CONTINUOUS
  62
3
  10
 959.00001525879
  20
 703.00000000000
  30
0.0
  11
 959.00001525879
  21
 756.00000000000
  31
0.0
   0
LINE
   5
D7
 100
AcDbEntity
   8
LEVEL003
 100
AcDbLine
   6
CONTINUOUS
  62
3
  10
 1025.0000152588
  20
 691.00000000000
  30
0.0
  11
 1025.0000152588
  21
 756.00000000000
  31
0.0
   0
LINE
   5
D8
 100
AcDbEntity
   8
LEVEL003
 100
AcDbLine
   6
CONTINUOUS
  62
3
  10
 959.00001525879
  20
 750.00000000000
  30
0.0
  11
 979.92501525879
  21
 750.00000000000
  31
0.0
   0
LINE
   5
D9
 100
AcDbEntity
   8
LEVEL003
 100
AcDbLine
   6
CONTINUOUS
  62
3
  10
 1025.0000152588
  20
 750.00000000000
  30
0.0
  11
 1004.0750152588
  21
 750.00000000000
  31
0.0
   0
INSERT
   5
DA
 100
AcDbEntity
   8
LEVEL003
   6
CONTINUOUS
  62
3
 100
AcDbBlockReference
   2
_OPEN
  10
 959.00001525879
  20
 750.00000000000
  30
0.0
  41
 9.0000000000000
  42
 9.0000000000000
  43
 9.0000000000000
  50
 180.00000000000
   0
INSERT
   5
DB
 100
AcDbEntity
   8
LEVEL003
   6
CONTINUOUS
  62
3
 100
AcDbBlockReference
   2
_OPEN
  10
 1025.0000152588
  20
 750.00000000000
  30
0.0
  41
 9.0000000000000
  42
 9.0000000000000
  43
 9.0000000000000
  50
0.0
   0
MTEXT
   5
DC
 100
AcDbEntity
   8
LEVEL003
  62
3
 100
AcDbMText
  10
 992.00001525879
  20
 752.40000000000
  30
0.0
  40
 12.000000000000
  41
0.0
  71
8
  72
1
   1
\A1;66
   7
GMM001
   0
ENDBLK
   5
DD
 100
AcDbEntity
   8
0
 100
AcDbBlockEnd
   0
BLOCK
   5
DE
 100
AcDbEntity
   8
0
 100
AcDbBlockBegin
   2
*D15
  70
65
  10
0.0
  20
0.0
  30
0.0
   3
*D15
   0
LINE
   5
DF
 100
AcDbEntity
   8
LEVEL003
 100
AcDbLine
   6
CONTINUOUS
  62
3
  10
 270.00003051758
  20
 543.00000000000
  30
0.0
  11
 270.00003051758
  21
 414.00000000000
  31
0.0
   0
LINE
   5
E0
 100
AcDbEntity
   8
LEVEL003
 100
AcDbLine
   6
CONTINUOUS
  62
3
  10
 1025.0000152588
  20
 509.00000000000
  30
0.0
  11
 1025.0000152588
  21
 414.00000000000
  31
0.0
   0
LINE
   5
E1
 100
AcDbEntity
   8
LEVEL003
 100
AcDbLine
   6
CONTINUOUS
  62
3
  10
 270.00003051758
  20
 420.00000000000
  30
0.0
  11
 604.18752288818
  21
 420.00000000000
  31
0.0
   0
LINE
   5
E2
 100
AcDbEntity
   8
LEVEL003
 100
AcDbLine
   6
CONTINUOUS
  62
3
  10
 1025.0000152588
  20
 420.00000000000
  30
0.0
  11
 690.81252288818
  21
 420.00000000000
  31
0.0
   0
INSERT
   5
E3
 100
AcDbEntity
   8
LEVEL003
   6
CONTINUOUS
  62
3
 100
AcDbBlockReference
   2
_OPEN
  10
 270.00003051758
  20
 420.00000000000
  30
0.0
  41
 9.0000000000000
  42
 9.0000000000000
  43
 9.0000000000000
  50
 180.00000000000
   0
INSERT
   5
E4
 100
AcDbEntity
   8
LEVEL003
   6
CONTINUOUS
  62
3
 100
AcDbBlockReference
   2
_OPEN
  10
 1025.0000152588
  20
 420.00000000000
  30
0.0
  41
 9.0000000000000
  42
 9.0000000000000
  43
 9.0000000000000
  50
0.0
   0
MTEXT
   5
E5
 100
AcDbEntity
   8
LEVEL003
  62
3
 100
AcDbMText
  10
 647.50002288818
  20
 422.40000000000
  30
0.0
  40
 12.000000000000
  41
0.0
  71
8
  72
1
   1
\A1;(305+ST)
   7
GMM001
   0
ENDBLK
   5
E6
 100
AcDbEntity
   8
0
 100
AcDbBlockEnd
   0
BLOCK
   5
E7
 100
AcDbEntity
   8
0
 100
AcDbBlockBegin
   2
*D16
  70
65
  10
0.0
  20
0.0
  30
0.0
   3
*D16
   0
LINE
   5
E8
 100
AcDbEntity
   8
LEVEL003
 100
AcDbLine
   6
CONTINUOUS
  62
3
  10
 340.00003051758
  20
 507.99996948242
  30
0.0
  11
 340.00003051758
  21
 444.00000000000
  31
0.0
   0
LINE
   5
E9
 100
AcDbEntity
   8
LEVEL003
 100
AcDbLine
   6
CONTINUOUS
  62
3
  10
 1025.0000152588
  20
 509.00000000000
  30
0.0
  11
 1025.0000152588
  21
 444.00000000000
  31
0.0
   0
LINE
   5
EA
 100
AcDbEntity
   8
LEVEL003
 100
AcDbLine
   6
CONTINUOUS
  62
3
  10
 340.00003051758
  20
 450.00000000000
  30
0.0
  11
 638.13752288818
  21
 450.00000000000
  31
0.0
   0
LINE
   5
EB
 100
AcDbEntity
   8
LEVEL003
 100
AcDbLine
   6
CONTINUOUS
  62
3
  10
 1025.0000152588
  20
 450.00000000000
  30
0.0
  11
 726.86252288818
  21
 450.00000000000
  31
0.0
   0
INSERT
   5
EC
 100
AcDbEntity
   8
LEVEL003
   6
CONTINUOUS
  62
3
 100
AcDbBlockReference
   2
_OPEN
  10
 340.00003051758
  20
 450.00000000000
  30
0.0
  41
 9.0000000000000
  42
 9.0000000000000
  43
 9.0000000000000
  50
 180.00000000000
   0
INSERT
   5
ED
 100
AcDbEntity
   8
LEVEL003
   6
CONTINUOUS
  62
3
 100
AcDbBlockReference
   2
_OPEN
  10
 1025.0000152588
  20
 450.00000000000
  30
0.0
  41
 9.0000000000000
  42
 9.0000000000000
  43
 9.0000000000000
  50
0.0
   0
MTEXT
   5
EE
 100
AcDbEntity
   8
LEVEL003
  62
3
 100
AcDbMText
  10
 682.50002288818
  20
 452.40000000000
  30
0.0
  40
 12.000000000000
  41
0.0
  71
8
  72
1
   1
\A1;(235+ST)
   7
GMM001
   0
ENDBLK
   5
EF
 100
AcDbEntity
   8
0
 100
AcDbBlockEnd
   0
BLOCK
   5
F0
 100
AcDbEntity
   8
0
 100
AcDbBlockBegin
   2
*D17
  70
65
  10
0.0
  20
0.0
  30
0.0
   3
*D17
   0
LINE
   5
F1
 100
AcDbEntity
   8
LEVEL003
 100
AcDbLine
   6
CONTINUOUS
  62
3
  10
 270.00003051758
  20
 543.00000000000
  30
0.0
  11
 270.00003051758
  21
 444.00000000000
  31
0.0
   0
LINE
   5
F2
 100
AcDbEntity
   8
LEVEL003
 100
AcDbLine
   6
CONTINUOUS
  62
3
  10
 227.03297053502
  20
 450.00000000000
  30
0.0
  11
 227.03297053502
  21
 450.00000000000
  31
0.0
   0
LINE
   5
F3
 100
AcDbEntity
   8
LEVEL003
 100
AcDbLine
   6
CONTINUOUS
  62
3
  10
 296.25003051758
  20
 450.00000000000
  30
0.0
  11
 247.24547053502
  21
 450.00000000000
  31
0.0
   0
INSERT
   5
F4
 100
AcDbEntity
   8
LEVEL003
   6
CONTINUOUS
  62
3
 100
AcDbBlockReference
   2
_OPEN
  10
 270.00003051758
  20
 450.00000000000
  30
0.0
  41
 9.0000000000000
  42
 9.0000000000000
  43
 9.0000000000000
  50
0.0
   0
MTEXT
   5
F5
 100
AcDbEntity
   8
LEVEL003
  62
3
 100
AcDbMText
  10
 247.24547053502
  20
 452.40000000000
  30
0.0
  40
 12.000000000000
  41
0.0
  71
9
  72
1
   1
\A1;15
   7
GMM001
   0
ENDBLK
   5
F6
 100
AcDbEntity
   8
0
 100
AcDbBlockEnd
   0
BLOCK
   5
F7
 100
AcDbEntity
   8
0
 100
AcDbBlockBegin
   2
*D18
  70
65
  10
0.0
  20
0.0
  30
0.0
   3
*D18
   0
LINE
   5
F8
 100
AcDbEntity
   8
LEVEL003
 100
AcDbLine
   6
CONTINUOUS
  62
3
  10
 285.00003051758
  20
 553.50000000000
  30
0.0
  11
 285.00003051758
  21
 444.00000000000
  31
0.0
   0
LINE
   5
F9
 100
AcDbEntity
   8
LEVEL003
 100
AcDbLine
   6
CONTINUOUS
  62
3
  10
 335.00003051758
  20
 547.99996948242
  30
0.0
  11
 335.00003051758
  21
 444.00000000000
  31
0.0
   0
LINE
   5
FA
 100
AcDbEntity
   8
LEVEL003
 100
AcDbLine
   6
CONTINUOUS
  62
3
  10
 285.00003051758
  20
 450.00000000000
  30
0.0
  11
 298.97503051758
  21
 450.00000000000
  31
0.0
   0
LINE
   5
FB
 100
AcDbEntity
   8
LEVEL003
 100
AcDbLine
   6
CONTINUOUS
  62
3
  10
 335.00003051758
  20
 450.00000000000
  30
0.0
  11
 321.02503051758
  21
 450.00000000000
  31
0.0
   0
INSERT
   5
FC
 100
AcDbEntity
   8
LEVEL003
   6
CONTINUOUS
  62
3
 100
AcDbBlockReference
   2
_OPEN
  10
 285.00003051758
  20
 450.00000000000
  30
0.0
  41
 9.0000000000000
  42
 9.0000000000000
  43
 9.0000000000000
  50
 180.00000000000
   0
INSERT
   5
FD
 100
AcDbEntity
   8
LEVEL003
   6
CONTINUOUS
  62
3
 100
AcDbBlockReference
   2
_OPEN
  10
 335.00003051758
  20
 450.00000000000
  30
0.0
  41
 9.0000000000000
  42
 9.0000000000000
  43
 9.0000000000000
  50
0.0
   0
MTEXT
   5
FE
 100
AcDbEntity
   8
LEVEL003
  62
3
 100
AcDbMText
  10
 310.00003051758
  20
 452.40000000000
  30
0.0
  40
 12.000000000000
  41
0.0
  71
8
  72
1
   1
\A1;50
   7
GMM001
   0
ENDBLK
   5
FF
 100
AcDbEntity
   8
0
 100
AcDbBlockEnd
   0
BLOCK
   5
100
 100
AcDbEntity
   8
0
 100
AcDbBlockBegin
   2
*D19
  70
65
  10
0.0
  20
0.0
  30
0.0
   3
*D19
   0
LINE
   5
101
 100
AcDbEntity
   8
LEVEL003
 100
AcDbLine
   6
CONTINUOUS
  62
3
  10
 765.00000000000
  20
 650.00000000000
  30
0.0
  11
 765.00000000000
  21
 622.44375000000
  31
0.0
   0
LINE
   5
102
 100
AcDbEntity
   8
LEVEL003
 100
AcDbLine
   6
CONTINUOUS
  62
3
  10
 765.00000000000
  20
 550.00000000000
  30
0.0
  11
 765.00000000000
  21
 577.55625000000
  31
0.0
   0
INSERT
   5
103
 100
AcDbEntity
   8
LEVEL003
   6
CONTINUOUS
  62
3
 100
AcDbBlockReference
   2
_OPEN
  10
 765.00000000000
  20
 650.00000000000
  30
0.0
  41
 9.0000000000000
  42
 9.0000000000000
  43
 9.0000000000000
  50
 90.000000000000
   0
INSERT
   5
104
 100
AcDbEntity
   8
LEVEL003
   6
CONTINUOUS
  62
3
 100
AcDbBlockReference
   2
_OPEN
  10
 765.00000000000
  20
 550.00000000000
  30
0.0
  41
 9.0000000000000
  42
 9.0000000000000
  43
 9.0000000000000
  50
 270.00000000000
   0
MTEXT
   5
105
 100
AcDbEntity
   8
LEVEL003
  62
3
 100
AcDbMText
  10
 762.60000000000
  20
 600.00000000000
  30
0.0
  40
 12.000000000000
  41
0.0
  71
8
  72
1
   1
\A1;%%c100
   7
GMM001
  11
0.0
  21
 1.0000000000000
  31
0.0
   0
ENDBLK
   5
106
 100
AcDbEntity
   8
0
 100
AcDbBlockEnd
   0
BLOCK
   5
107
 100
AcDbEntity
   8
0
 100
AcDbBlockBegin
   2
*D20
  70
65
  10
0.0
  20
0.0
  30
0.0
   3
*D20
   0
LINE
   5
108
 100
AcDbEntity
   8
LEVEL003
 100
AcDbLine
   6
CONTINUOUS
  62
3
  10
 795.00000000000
  20
 667.50000000000
  30
0.0
  11
 795.00000000000
  21
 624.54375000000
  31
0.0
   0
LINE
   5
109
 100
AcDbEntity
   8
LEVEL003
 100
AcDbLine
   6
CONTINUOUS
  62
3
  10
 795.00000000000
  20
 532.50000000000
  30
0.0
  11
 795.00000000000
  21
 575.45625000000
  31
0.0
   0
INSERT
   5
10A
 100
AcDbEntity
   8
LEVEL003
   6
CONTINUOUS
  62
3
 100
AcDbBlockReference
   2
_OPEN
  10
 795.00000000000
  20
 667.50000000000
  30
0.0
  41
 9.0000000000000
  42
 9.0000000000000
  43
 9.0000000000000
  50
 90.000000000000
   0
INSERT
   5
10B
 100
AcDbEntity
   8
LEVEL003
   6
CONTINUOUS
  62
3
 100
AcDbBlockReference
   2
_OPEN
  10
 795.00000000000
  20
 532.50000000000
  30
0.0
  41
 9.0000000000000
  42
 9.0000000000000
  43
 9.0000000000000
  50
 270.00000000000
   0
MTEXT
   5
10C
 100
AcDbEntity
   8
LEVEL003
  62
3
 100
AcDbMText
  10
 792.60000000000
  20
 600.00000000000
  30
0.0
  40
 12.000000000000
  41
0.0
  71
8
  72
1
   1
\A1;%%c135
   7
GMM001
  11
0.0
  21
 1.0000000000000
  31
0.0
   0
ENDBLK
   5
10D
 100
AcDbEntity
   8
0
 100
AcDbBlockEnd
   0
BLOCK
   5
10E
 100
AcDbEntity
   8
0
 100
AcDbBlockBegin
   2
*D21
  70
65
  10
0.0
  20
0.0
  30
0.0
   3
*D21
   0
LINE
   5
10F
 100
AcDbEntity
   8
LEVEL003
 100
AcDbLine
   6
CONTINUOUS
  62
3
  10
 825.00000000000
  20
 690.00000000000
  30
0.0
  11
 825.00000000000
  21
 623.49375000000
  31
0.0
   0
LINE
   5
110
 100
AcDbEntity
   8
LEVEL003
 100
AcDbLine
   6
CONTINUOUS
  62
3
  10
 825.00000000000
  20
 510.00000000000
  30
0.0
  11
 825.00000000000
  21
 576.50625000000
  31
0.0
   0
INSERT
   5
111
 100
AcDbEntity
   8
LEVEL003
   6
CONTINUOUS
  62
3
 100
AcDbBlockReference
   2
_OPEN
  10
 825.00000000000
  20
 690.00000000000
  30
0.0
  41
 9.0000000000000
  42
 9.0000000000000
  43
 9.0000000000000
  50
 90.000000000000
   0
INSERT
   5
112
 100
AcDbEntity
   8
LEVEL003
   6
CONTINUOUS
  62
3
 100
AcDbBlockReference
   2
_OPEN
  10
 825.00000000000
  20
 510.00000000000
  30
0.0
  41
 9.0000000000000
  42
 9.0000000000000
  43
 9.0000000000000
  50
 270.00000000000
   0
MTEXT
   5
113
 100
AcDbEntity
   8
LEVEL003
  62
3
 100
AcDbMText
  10
 822.60000000000
  20
 600.00000000000
  30
0.0
  40
 12.000000000000
  41
0.0
  71
8
  72
1
   1
\A1;%%c180
   7
GMM001
  11
0.0
  21
 1.0000000000000
  31
0.0
   0
ENDBLK
   5
114
 100
AcDbEntity
   8
0
 100
AcDbBlockEnd
   0
ENDSEC
   0
SECTION
   2
ENTITIES
   0
LINE
   5
115
 100
AcDbEntity
   8
LEVEL100
 100
AcDbLine
   6
CONTINUOUS
  62
7
  10
 933.75000000000
  20
 192.00000000000
  30
0.0
  11
 933.75000000000
  21
 171.00000000000
  31
0.0
   0
LINE
   5
116
 100
AcDbEntity
   8
LEVEL100
 100
AcDbLine
   6
CONTINUOUS
  62
7
  10
 1023.7500000000
  20
 192.00000000000
  30
0.0
  11
 1023.7500000000
  21
 123.00000000000
  31
0.0
   0
LINE
   5
117
 100
AcDbEntity
   8
LEVEL100
 100
AcDbLine
   6
CONTINUOUS
  62
7
  10
 1083.7500000000
  20
 192.00000000000
  30
0.0
  11
 1083.7500000000
  21
 171.00000000000
  31
0.0
   0
LINE
   5
118
 100
AcDbEntity
   8
LEVEL100
 100
AcDbLine
   6
CONTINUOUS
  62
7
  10
 1107.7500000000
  20
 192.00000000000
  30
0.0
  11
 1107.7500000000
  21
 171.00000000000
  31
0.0
   0
LINE
   5
119
 100
AcDbEntity
   8
LEVEL100
 100
AcDbLine
   6
CONTINUOUS
  62
7
  10
 1142.2500000000
  20
 192.00000000000
  30
0.0
  11
 1142.2500000000
  21
 171.00000000000
  31
0.0
   0
LINE
   5
11A
 100
AcDbEntity
   8
LEVEL100
 100
AcDbLine
   6
CONTINUOUS
  62
7
  10
 995.25000000000
  20
 171.00000000000
  30
0.0
  11
 995.25000000000
  21
 123.00000000000
  31
0.0
   0
LINE
   5
11B
 100
AcDbEntity
   8
LEVEL100
 100
AcDbLine
   6
CONTINUOUS
  62
7
  10
 945.75000000000
  20
 79.500000000000
  30
0.0
  11
 960.75000000000
  21
 94.500000000000
  31
0.0
   0
CIRCLE
   5
11C
 100
AcDbEntity
   8
LEVEL100
 100
AcDbCircle
   6
CONTINUOUS
  62
7
  10
 924.75000000000
  20
 34.500000000000
  30
0.0
  40
 1.2000000178814
   0
CIRCLE
   5
11D
 100
AcDbEntity
   8
LEVEL100
 100
AcDbCircle
   6
CONTINUOUS
  62
7
  10
 945.75000000000
  20
 34.500000000000
  30
0.0
  40
 1.2000000178814
   0
CIRCLE
   5
11E
 100
AcDbEntity
   8
LEVEL100
 100
AcDbCircle
   6
CONTINUOUS
  62
7
  10
 924.75000000000
  20
 34.500000000000
  30
0.0
  40
 0.75000000000000
   0
CIRCLE
   5
11F
 100
AcDbEntity
   8
LEVEL100
 100
AcDbCircle
   6
CONTINUOUS
  62
7
  10
 945.75000000000
  20
 34.500000000000
  30
0.0
  40
 0.75000000000000
   0
LINE
   5
120
 100
AcDbEntity
   8
LEVEL100
 100
AcDbLine
   6
CONTINUOUS
  62
7
  10
 1038.0000000000
  20
 46.500000000000
  30
0.0
  11
 1038.0000000000
  21
 49.500000000000
  31
0.0
   0
LINE
   5
121
 100
AcDbEntity
   8
LEVEL100
 100
AcDbLine
   6
CONTINUOUS
  62
7
  10
 1038.0000000000
  20
 49.500000000000
  30
0.0
  11
 1047.0000000000
  21
 49.500000000000
  31
0.0
   0
LINE
   5
122
 100
AcDbEntity
   8
LEVEL100
 100
AcDbLine
   6
CONTINUOUS
  62
7
  10
 1047.0000000000
  20
 49.500000000000
  30
0.0
  11
 1047.0000000000
  21
 46.500000000000
  31
0.0
   0
LINE
   5
123
 100
AcDbEntity
   8
LEVEL100
 100
AcDbLine
   6
CONTINUOUS
  62
7
  10
 1047.0000000000
  20
 46.500000000000
  30
0.0
  11
 1038.0000000000
  21
 46.500000000000
  31
0.0
   0
LINE
   5
124
 100
AcDbEntity
   8
LEVEL100
 100
AcDbLine
   6
CONTINUOUS
  62
7
  10
 903.75000000000
  20
 30.000000000000
  30
0.0
  11
 903.75000000000
  21
 192.00000000000
  31
0.0
   0
LINE
   5
125
 100
AcDbEntity
   8
LEVEL100
 100
AcDbLine
   6
CONTINUOUS
  62
7
  10
 966.75000000000
  20
 171.00000000000
  30
0.0
  11
 966.75000000000
  21
 30.000000000000
  31
0.0
   0
LINE
   5
126
 100
AcDbEntity
   8
LEVEL100
 100
AcDbLine
   6
CONTINUOUS
  62
7
  10
 903.75000000000
  20
 99.000000000000
  30
0.0
  11
 966.75000000000
  21
 99.000000000000
  31
0.0
   0
TEXT
   5
127
 100
AcDbEntity
   8
LEVEL100
  62
7
 100
AcDbText
  10
 977.25000000000
  20
 40.500000000000
  30
0.0
  40
 15.000000000000
   1
ＯＪ
  41
 0.70000000000000
   7
STANDARD
 100
AcDbText
   0
LINE
   5
128
 100
AcDbEntity
   8
LEVEL100
 100
AcDbLine
   6
CONTINUOUS
  62
7
  10
 903.75000000000
  20
 171.00000000000
  30
0.0
  11
 1224.4500732422
  21
 171.00000000000
  31
0.0
   0
LINE
   5
129
 100
AcDbEntity
   8
LEVEL100
 100
AcDbLine
   6
CONTINUOUS
  62
7
  10
 903.75000000000
  20
 159.00000000000
  30
0.0
  11
 1224.4500732422
  21
 159.00000000000
  31
0.0
   0
LINE
   5
12A
 100
AcDbEntity
   8
LEVEL100
 100
AcDbLine
   6
CONTINUOUS
  62
7
  10
 903.75000000000
  20
 192.00000000000
  30
0.0
  11
 1224.4500732422
  21
 192.00000000000
  31
0.0
   0
LINE
   5
12B
 100
AcDbEntity
   8
LEVEL100
 100
AcDbLine
   6
CONTINUOUS
  62
7
  10
 981.45007324219
  20
 789.00000000000
  30
0.0
  11
 981.45007324219
  21
 864.00000000000
  31
0.0
   0
LINE
   5
12C
 100
AcDbEntity
   8
LEVEL100
 100
AcDbLine
   6
CONTINUOUS
  62
7
  10
 981.45007324219
  20
 849.00000000000
  30
0.0
  11
 1224.4500732422
  21
 849.00000000000
  31
0.0
   0
LINE
   5
12D
 100
AcDbEntity
   8
LEVEL100
 100
AcDbLine
   6
CONTINUOUS
  62
7
  10
 981.45007324219
  20
 834.00000000000
  30
0.0
  11
 1224.4500732422
  21
 834.00000000000
  31
0.0
   0
LINE
   5
12E
 100
AcDbEntity
   8
LEVEL100
 100
AcDbLine
   6
CONTINUOUS
  62
7
  10
 1008.4500732422
  20
 849.00000000000
  30
0.0
  11
 1008.4500732422
  21
 834.00000000000
  31
0.0
   0
LINE
   5
12F
 100
AcDbEntity
   8
LEVEL100
 100
AcDbLine
   6
CONTINUOUS
  62
7
  10
 1164.4500732422
  20
 849.00000000000
  30
0.0
  11
 1164.4500732422
  21
 834.00000000000
  31
0.0
   0
LINE
   5
130
 100
AcDbEntity
   8
LEVEL100
 100
AcDbLine
   6
CONTINUOUS
  62
7
  10
 1200.4500732422
  20
 849.00000000000
  30
0.0
  11
 1200.4500732422
  21
 834.00000000000
  31
0.0
   0
LINE
   5
131
 100
AcDbEntity
   8
LEVEL100
 100
AcDbLine
   6
CONTINUOUS
  62
7
  10
 903.75000000000
  20
 123.00000000000
  30
0.0
  11
 1224.4500732422
  21
 123.00000000000
  31
0.0
   0
LINE
   5
132
 100
AcDbEntity
   8
LEVEL100
 100
AcDbLine
   6
CONTINUOUS
  62
7
  10
 903.75000000000
  20
 75.000000000000
  30
0.0
  11
 1224.4500732422
  21
 75.000000000000
  31
0.0
   0
LINE
   5
133
 100
AcDbEntity
   8
LEVEL100
 100
AcDbLine
   6
CONTINUOUS
  62
7
  10
 1140.4500732422
  20
 75.000000000000
  30
0.0
  11
 1140.4500732422
  21
 30.000000000000
  31
0.0
   0
LINE
   5
134
 100
AcDbEntity
   8
LEVEL100
 100
AcDbLine
   6
CONTINUOUS
  62
7
  10
 1152.4500732422
  20
 30.000000000000
  30
0.0
  11
 1203.4500732422
  21
 60.000000000000
  31
0.0
   0
LINE
   5
135
 100
AcDbEntity
   8
LEVEL100
 100
AcDbLine
   6
CONTINUOUS
  62
7
  10
 75.000000000000
  20
 864.00000000000
  30
0.0
  11
 1224.4500732422
  21
 864.00000000000
  31
0.0
   0
LINE
   5
136
 100
AcDbEntity
   8
LEVEL100
 100
AcDbLine
   6
CONTINUOUS
  62
7
  10
 1224.4500732422
  20
 864.00000000000
  30
0.0
  11
 1224.4500732422
  21
 30.000000000000
  31
0.0
   0
LINE
   5
137
 100
AcDbEntity
   8
LEVEL100
 100
AcDbLine
   6
CONTINUOUS
  62
7
  10
 1224.4500732422
  20
 30.000000000000
  30
0.0
  11
 75.000000000000
  21
 30.000000000000
  31
0.0
   0
LINE
   5
138
 100
AcDbEntity
   8
LEVEL100
 100
AcDbLine
   6
CONTINUOUS
  62
7
  10
 75.000000000000
  20
 837.60003662109
  30
0.0
  11
 225.45007324219
  21
 837.60003662109
  31
0.0
   0
LINE
   5
139
 100
AcDbEntity
   8
LEVEL100
 100
AcDbLine
   6
CONTINUOUS
  62
7
  10
 225.45007324219
  20
 837.60003662109
  30
0.0
  11
 225.45007324219
  21
 864.00000000000
  31
0.0
   0
TEXT
   5
13A
 100
AcDbEntity
   8
LEVEL100
  62
7
 100
AcDbText
  10
 222.45005035400
  20
 858.30001831055
  30
0.0
  40
 15.000000000000
   1
ＯＪ．
  50
 180.00000000000
  41
 0.90000000000000
   7
STANDARD
 100
AcDbText
   0
LINE
   5
13B
 100
AcDbEntity
   8
LEVEL100
 100
AcDbLine
   6
CONTINUOUS
  62
7
  10
 171.45007324219
  20
 852.30001831055
  30
0.0
  11
 162.45007324219
  21
 852.30001831055
  31
0.0
   0
LINE
   5
13C
 100
AcDbEntity
   8
LEVEL100
 100
AcDbLine
   6
CONTINUOUS
  62
7
  10
 162.45007324219
  20
 852.30001831055
  30
0.0
  11
 162.45007324219
  21
 849.30001831055
  31
0.0
   0
LINE
   5
13D
 100
AcDbEntity
   8
LEVEL100
 100
AcDbLine
   6
CONTINUOUS
  62
7
  10
 162.45007324219
  20
 849.30001831055
  30
0.0
  11
 171.45007324219
  21
 849.30001831055
  31
0.0
   0
LINE
   5
13E
 100
AcDbEntity
   8
LEVEL100
 100
AcDbLine
   6
CONTINUOUS
  62
7
  10
 171.45007324219
  20
 849.30001831055
  30
0.0
  11
 171.45007324219
  21
 852.30001831055
  31
0.0
   0
TEXT
   5
13F
 100
AcDbEntity
   8
LEVEL100
  62
7
 100
AcDbText
  10
 936.75000000000
  20
 174.00000000000
  30
0.0
  40
 12.000000000000
   1
水田和弘
  41
 0.62500000000000
   7
STANDARD
 100
AcDbText
   0
TEXT
   5
140
 100
AcDbEntity
   8
LEVEL020
  62
6
 100
AcDbText
  10
 150.00000000000
  20
 252.00000000000
  30
0.0
  40
 15.000000000000
   1
揚　　　力
   7
STANDARD
 100
AcDbText
   0
LINE
   5
141
 100
AcDbEntity
   8
LEVEL020
 100
AcDbLine
   6
CONTINUOUS
  62
6
  10
 150.00000000000
  20
 270.00000000000
  30
0.0
  11
 450.00000000000
  21
 270.00000000000
  31
0.0
   0
LINE
   5
142
 100
AcDbEntity
   8
LEVEL020
 100
AcDbLine
   6
CONTINUOUS
  62
6
  10
 150.00000000000
  20
 249.00000000000
  30
0.0
  11
 450.00000000000
  21
 249.00000000000
  31
0.0
   0
TEXT
   5
143
 100
AcDbEntity
   8
LEVEL020
  62
6
 100
AcDbText
  10
 150.00000000000
  20
 210.00000000000
  30
0.0
  40
 15.000000000000
   1
ストローク
   7
STANDARD
 100
AcDbText
   0
TEXT
   5
144
 100
AcDbEntity
   8
LEVEL020
  62
6
 100
AcDbText
  10
 405.00000000000
  20
 210.00000000000
  30
0.0
  40
 15.000000000000
   1
ｍｍ
  41
 0.70000000000000
   7
STANDARD
 100
AcDbText
   0
LINE
   5
145
 100
AcDbEntity
   8
LEVEL020
 100
AcDbLine
   6
CONTINUOUS
  62
6
  10
 150.00000000000
  20
 207.00000000000
  30
0.0
  11
 450.00000000000
  21
 207.00000000000
  31
0.0
   0
LINE
   5
146
 100
AcDbEntity
   8
LEVEL020
 100
AcDbLine
   6
CONTINUOUS
  62
6
  10
 150.00000000000
  20
 186.00000000000
  30
0.0
  11
 450.00000000000
  21
 186.00000000000
  31
0.0
   0
LINE
   5
147
 100
AcDbEntity
   8
LEVEL020
 100
AcDbLine
   6
CONTINUOUS
  62
6
  10
 150.00000000000
  20
 228.00000000000
  30
0.0
  11
 450.00000000000
  21
 228.00000000000
  31
0.0
   0
TEXT
   5
148
 100
AcDbEntity
   8
LEVEL020
  62
6
 100
AcDbText
  10
 150.00000000000
  20
 231.00000000000
  30
0.0
  40
 15.000000000000
   1
引　　　力
   7
STANDARD
 100
AcDbText
   0
TEXT
   5
149
 100
AcDbEntity
   8
LEVEL020
  62
6
 100
AcDbText
  10
 150.00000000000
  20
 126.00000000000
  30
0.0
  40
 15.000000000000
   1
最低高さ
   7
STANDARD
 100
AcDbText
   0
TEXT
   5
14A
 100
AcDbEntity
   8
LEVEL020
  62
6
 100
AcDbText
  10
 405.00000000000
  20
 126.00000000000
  30
0.0
  40
 15.000000000000
   1
ｍｍ
  41
 0.70000000000000
   7
STANDARD
 100
AcDbText
   0
LINE
   5
14B
 100
AcDbEntity
   8
LEVEL020
 100
AcDbLine
   6
CONTINUOUS
  62
6
  10
 150.00000000000
  20
 144.00000000000
  30
0.0
  11
 450.00000000000
  21
 144.00000000000
  31
0.0
   0
LINE
   5
14C
 100
AcDbEntity
   8
LEVEL020
 100
AcDbLine
   6
CONTINUOUS
  62
6
  10
 150.00000000000
  20
 123.00000000000
  30
0.0
  11
 450.00000000000
  21
 123.00000000000
  31
0.0
   0
LINE
   5
14D
 100
AcDbEntity
   8
LEVEL020
 100
AcDbLine
   6
CONTINUOUS
  62
6
  10
 150.00000000000
  20
 165.00000000000
  30
0.0
  11
 450.00000000000
  21
 165.00000000000
  31
0.0
   0
TEXT
   5
14E
 100
AcDbEntity
   8
LEVEL020
  62
6
 100
AcDbText
  10
 150.00000000000
  20
 147.00000000000
  30
0.0
  40
 15.000000000000
   1
試験圧力
   7
STANDARD
 100
AcDbText
   0
TEXT
   5
14F
 100
AcDbEntity
   8
LEVEL020
  62
6
 100
AcDbText
  10
 150.00000000000
  20
 273.00000000000
  30
0.0
  40
 15.000000000000
   1
形　　　式
   7
STANDARD
 100
AcDbText
   0
TEXT
   5
150
 100
AcDbEntity
   8
LEVEL020
  62
6
 100
AcDbText
  10
 362.99999494851
  20
 231.00000178814
  30
0.0
  40
 15.000000000000
   1
４５０
  41
 0.70000000000000
   7
STANDARD
  72
2
  11
 394.49999494851
  21
 231.00000178814
  31
0.0
 100
AcDbText
   0
TEXT
   5
151
 100
AcDbEntity
   8
LEVEL020
  62
6
 100
AcDbText
  10
 352.49999494851
  20
 252.00000116229
  30
0.0
  40
 15.000000000000
   1
１０００
  41
 0.70000000000000
   7
STANDARD
  72
2
  11
 394.49999494851
  21
 252.00000116229
  31
0.0
 100
AcDbText
   0
TEXT
   5
152
 100
AcDbEntity
   8
LEVEL020
  62
6
 100
AcDbText
  10
 404.99999463558
  20
 231.00000178814
  30
0.0
  40
 15.000000000000
   1
ｋＮ
  41
 0.70000000000000
   7
STANDARD
 100
AcDbText
   0
TEXT
   5
153
 100
AcDbEntity
   8
LEVEL020
  62
6
 100
AcDbText
  10
 404.99999463558
  20
 252.00000116229
  30
0.0
  40
 15.000000000000
   1
ｋＮ
  41
 0.70000000000000
   7
STANDARD
 100
AcDbText
   0
TEXT
   5
154
 100
AcDbEntity
   8
LEVEL020
  62
6
 100
AcDbText
  10
 149.99999329448
  20
 168.00000688434
  30
0.0
  40
 15.000000000000
   1
最高使用圧力
  41
 0.82000000000000
   7
STANDARD
 100
AcDbText
   0
TEXT
   5
155
 100
AcDbEntity
   8
LEVEL020
  62
6
 100
AcDbText
  10
 149.99999329448
  20
 168.00000625849
  30
0.0
  40
 15.000000000000
   1
　　　　（引力）
   7
STANDARD
 100
AcDbText
   0
TEXT
   5
156
 100
AcDbEntity
   8
LEVEL020
  62
6
 100
AcDbText
  10
 149.99999329448
  20
 189.00000625849
  30
0.0
  40
 15.000000000000
   1
最高使用圧力
  41
 0.82000000000000
   7
STANDARD
 100
AcDbText
   0
TEXT
   5
157
 100
AcDbEntity
   8
LEVEL020
  62
6
 100
AcDbText
  10
 149.99999329448
  20
 189.00000625849
  30
0.0
  40
 15.000000000000
   1
        （揚力）
   7
STANDARD
 100
AcDbText
   0
TEXT
   5
158
 100
AcDbEntity
   8
LEVEL020
  62
6
 100
AcDbText
  10
 331.49999494851
  20
 189.00000303984
  30
0.0
  40
 15.000000000000
   1
約　６９．９
  41
 0.70000000000000
   7
STANDARD
  72
2
  11
 394.49999494851
  21
 189.00000303984
  31
0.0
 100
AcDbText
   0
TEXT
   5
159
 100
AcDbEntity
   8
LEVEL020
  62
6
 100
AcDbText
  10
 404.99999463558
  20
 189.00000303984
  30
0.0
  40
 15.000000000000
   1
ＭＰａ
  41
 0.70000000000000
   7
STANDARD
 100
AcDbText
   0
TEXT
   5
15A
 100
AcDbEntity
   8
LEVEL020
  62
6
 100
AcDbText
  10
 331.49999494851
  20
 168.00000366569
  30
0.0
  40
 15.000000000000
   1
約　６９．７
  41
 0.70000000000000
   7
STANDARD
  72
2
  11
 394.49999494851
  21
 168.00000366569
  31
0.0
 100
AcDbText
   0
TEXT
   5
15B
 100
AcDbEntity
   8
LEVEL020
  62
6
 100
AcDbText
  10
 404.99999463558
  20
 168.00000366569
  30
0.0
  40
 15.000000000000
   1
ＭＰａ
  41
 0.70000000000000
   7
STANDARD
 100
AcDbText
   0
TEXT
   5
15C
 100
AcDbEntity
   8
LEVEL020
  62
6
 100
AcDbText
  10
 404.99999463558
  20
 147.00000429153
  30
0.0
  40
 15.000000000000
   1
ＭＰａ
  41
 0.70000000000000
   7
STANDARD
 100
AcDbText
   0
TEXT
   5
15D
 100
AcDbEntity
   8
LEVEL020
  62
6
 100
AcDbText
  10
 373.49999494851
  20
 147.00000429153
  30
0.0
  40
 15.000000000000
   1
７２
  41
 0.70000000000000
   7
STANDARD
  72
2
  11
 394.49999494851
  21
 147.00000429153
  31
0.0
 100
AcDbText
   0
TEXT
   5
15E
 100
AcDbEntity
   8
LEVEL020
  62
6
 100
AcDbText
  10
 150.00000000000
  20
 294.00000000000
  30
0.0
  40
 15.000000000000
   1
仕　　　様
   7
STANDARD
 100
AcDbText
   0
LINE
   5
15F
 100
AcDbEntity
   8
LEVEL020
 100
AcDbLine
   6
CONTINUOUS
  62
6
  10
 150.00000000000
  20
 291.00000000000
  30
0.0
  11
 225.00000000000
  21
 291.00000000000
  31
0.0
   0
TEXT
   5
160
 100
AcDbEntity
   8
LEVEL020
  62
6
 100
AcDbText
  10
 310.49999494851
  20
 126.00000000000
  30
0.0
  40
 15.000000000000
   1
（３０５＋ＳＴ）
  41
 0.70000000000000
   7
STANDARD
  72
2
  11
 394.49999494851
  21
 126.00000000000
  31
0.0
 100
AcDbText
   0
TEXT
   5
161
 100
AcDbEntity
   8
LEVEL020
  62
6
 100
AcDbText
  10
 299.99999494851
  20
 210.00000000000
  30
0.0
  40
 15.000000000000
   1
（～１０００）ＳＴ
  41
 0.70000000000000
   7
STANDARD
  72
2
  11
 394.49999494851
  21
 210.00000000000
  31
0.0
 100
AcDbText
   0
LINE
   5
162
 100
AcDbEntity
   8
LEVEL020
 100
AcDbLine
   6
CONTINUOUS
  62
6
  10
 150.00000000000
  20
 102.00000000000
  30
0.0
  11
 450.00000000000
  21
 102.00000000000
  31
0.0
   0
TEXT
   5
163
 100
AcDbEntity
   8
LEVEL020
  62
6
 100
AcDbText
  10
 405.00000000000
  20
 105.00000000000
  30
0.0
  40
 15.000000000000
   1
ｋｇ
  41
 0.70000000000000
   7
STANDARD
 100
AcDbText
   0
TEXT
   5
164
 100
AcDbEntity
   8
LEVEL020
  62
6
 100
AcDbText
  10
 150.00000223517
  20
 105.00000616908
  30
0.0
  40
 14.999999552965
   1
質　　　量
   7
STANDARD
 100
AcDbText
   0
TEXT
   5
165
 100
AcDbEntity
   8
LEVEL020
  62
6
 100
AcDbText
  10
 270.49999494851
  20
 105.00000000000
  30
0.0
  40
 15.000000000000
   1
約｛５２＋（０.１４３×ＳＴ）｝
  41
 0.53333333333333
   7
STANDARD
  72
2
  11
 394.49999494851
  21
 105.00000000000
  31
0.0
 100
AcDbText
   0
LINE
   5
166
 100
AcDbEntity
   8
LEVEL020
 100
AcDbLine
   6
CONTINUOUS
  62
6
  10
 150.00000000000
  20
 81.000000000000
  30
0.0
  11
 450.00000000000
  21
 81.000000000000
  31
0.0
   0
LINE
   5
167
 100
AcDbEntity
   8
LEVEL020
 100
AcDbLine
   6
CONTINUOUS
  62
6
  10
 150.00000000000
  20
 60.000000000000
  30
0.0
  11
 450.00000000000
  21
 60.000000000000
  31
0.0
   0
TEXT
   5
168
 100
AcDbEntity
   8
LEVEL020
  62
6
 100
AcDbText
  10
 150.00000223517
  20
 84.000006169081
  30
0.0
  40
 14.999999552965
   1
許容横荷重
   7
STANDARD
 100
AcDbText
   0
TEXT
   5
169
 100
AcDbEntity
   8
LEVEL020
  62
6
 100
AcDbText
  10
 318.49999494851
  20
 84.000000000000
  30
0.0
  40
 15.000000000000
   1
（１／４０）　２.５
  41
 0.53333333333333
   7
STANDARD
  72
2
  11
 394.49999494851
  21
 84.000000000000
  31
0.0
 100
AcDbText
   0
TEXT
   5
16A
 100
AcDbEntity
   8
LEVEL020
  62
6
 100
AcDbText
  10
 150.00000223517
  20
 63.000006169081
  30
0.0
  40
 14.999999552965
   1
端末係数
   7
STANDARD
 100
AcDbText
   0
TEXT
   5
16B
 100
AcDbEntity
   8
LEVEL020
  62
6
 100
AcDbText
  10
 242.49999494851
  20
 63.000000000000
  30
0.0
  40
 15.000000000000
   1
（ピストンロッド支持条件）　ｎ＝１以上
  41
 0.53333333333333
   7
STANDARD
  72
2
  11
 394.49999494851
  21
 63.000000000000
  31
0.0
 100
AcDbText
   0
LEADER
   5
16C
 100
AcDbEntity
   8
LEVEL003
   6
CONTINUOUS
  62
1
 100
AcDbLeader
   3
GMM001
  73
0
  74
1
  75
0
  40
 9.4500000000000
  41
0.0
  76
3
  10
 352.55001360774
  20
 291.00002181530
  30
0.0
  10
 352.55001360774
  20
 336.00002181530
  30
0.0
  10
 472.55001360774
  20
 336.00002181530
  30
0.0
  77
1
   0
TEXT
   5
16D
 100
AcDbEntity
   8
LEVEL003
  62
1
 100
AcDbText
  10
 352.55001360774
  20
 336.00002181530
  30
0.0
  40
 12.000000000000
   1
摺動構造・・Ｓ；ショート形、Ｌ；ロング形
  41
 0.50000000000000
   7
STANDARD
 100
AcDbText
   0
TEXT
   5
16E
 100
AcDbEntity
   8
LEVEL003
  62
1
 100
AcDbText
  10
 382.55001360774
  20
 321.00002181530
  30
0.0
  40
 12.000000000000
   1
オプション
  41
 0.78750000000000
   7
STANDARD
 100
AcDbText
   0
LEADER
   5
16F
 100
AcDbEntity
   8
LEVEL003
   6
CONTINUOUS
  62
1
 100
AcDbLeader
   3
GMM001
  73
0
  74
1
  75
0
  40
 9.4500000000000
  41
0.0
  76
3
  10
 342.60001662075
  20
 291.00002181530
  30
0.0
  10
 342.60001662075
  20
 351.00002181530
  30
0.0
  10
 402.60001662075
  20
 351.00002181530
  30
0.0
  77
1
   0
TEXT
   5
170
 100
AcDbEntity
   8
LEVEL003
  62
1
 100
AcDbText
  10
 342.60001662075
  20
 351.00002181530
  30
0.0
  40
 12.000000000000
   1
ストローク（ｃｍ）
  41
 0.50000000000000
   7
STANDARD
 100
AcDbText
   0
LINE
   5
171
 100
AcDbEntity
   8
LEVEL003
 100
AcDbLine
   6
CONTINUOUS
  62
1
  10
 370.00001059473
  20
 291.00002181530
  30
0.0
  11
 370.00001059473
  21
 298.50002181530
  31
0.0
   0
LINE
   5
172
 100
AcDbEntity
   8
LEVEL003
 100
AcDbLine
   6
CONTINUOUS
  62
1
  10
 370.00001059473
  20
 298.50002181530
  30
0.0
  11
 392.50001059473
  21
 298.50002181530
  31
0.0
   0
LINE
   5
173
 100
AcDbEntity
   8
LEVEL003
 100
AcDbLine
   6
CONTINUOUS
  62
1
  10
 392.50001059473
  20
 298.50002181530
  30
0.0
  11
 392.50001059473
  21
 291.00002181530
  31
0.0
   0
TEXT
   5
174
 100
AcDbEntity
   8
LEVEL003
  62
1
 100
AcDbText
  10
 243.80001360774
  20
 336.00002181530
  30
0.0
  40
 12.000000000000
   1
容量（ｔｆ）
  41
 0.50000000000000
   7
STANDARD
 100
AcDbText
   0
TEXT
   5
175
 100
AcDbEntity
   8
LEVEL003
  62
1
 100
AcDbText
  10
 243.80001360774
  20
 351.00002181530
  30
0.0
  40
 12.000000000000
   1
複動（油圧戻り）
  41
 0.50000000000000
   7
STANDARD
 100
AcDbText
   0
LEADER
   5
176
 100
AcDbEntity
   8
LEVEL003
   6
CONTINUOUS
  62
1
 100
AcDbLeader
   3
GMM001
  73
0
  74
1
  75
0
  40
 9.4500000000000
  41
0.0
  76
3
  10
 331.30002894103
  20
 291.00002181530
  30
0.0
  10
 331.30002894103
  20
 351.00002181530
  30
0.0
  10
 240.00002592802
  20
 351.00002181530
  30
0.0
  77
1
   0
LEADER
   5
177
 100
AcDbEntity
   8
LEVEL003
   6
CONTINUOUS
  62
1
 100
AcDbLeader
   3
GMM001
  73
0
  74
1
  75
0
  40
 9.4500000000000
  41
0.0
  76
3
  10
 315.00002592802
  20
 291.00002181530
  30
0.0
  10
 315.00002592802
  20
 336.00002181530
  30
0.0
  10
 240.00002592802
  20
 336.00002181530
  30
0.0
  77
1
   0
TEXT
   5
178
 100
AcDbEntity
   8
LEVEL003
  62
1
 100
AcDbText
  10
 243.80001360774
  20
 321.00002181530
  30
0.0
  40
 12.000000000000
   1
カスタムストローク
  41
 0.50000000000000
   7
STANDARD
 100
AcDbText
   0
TEXT
   5
179
 100
AcDbEntity
   8
LEVEL003
  62
1
 100
AcDbText
  10
 408.80001360774
  20
 306.00002181530
  30
0.0
  40
 12.000000000000
   1
チューブネジ・・・無し；無記号、有り；Ｍ
  41
 0.50000000000000
   7
STANDARD
 100
AcDbText
   0
TEXT
   5
17A
 100
AcDbEntity
   8
LEVEL003
  62
1
 100
AcDbText
  10
 408.80001360774
  20
 290.00002181530
  30
0.0
  40
 12.000000000000
   1
キャップ・・・無し；無記号、有り；Ｃ
  41
 0.50000000000000
   7
STANDARD
 100
AcDbText
   0
TEXT
   5
17B
 100
AcDbEntity
   8
LEVEL003
  62
1
 100
AcDbText
  10
 408.80001360774
  20
 274.00002181530
  30
0.0
  40
 12.000000000000
   1
加圧ポート・・・チューブ外周Ｒｃ３／８；無記号、ジャッキエンド端面；Ａ３（Ｒｃ３／８）
  41
 0.50000000000000
   7
STANDARD
 100
AcDbText
   0
TEXT
   5
17C
 100
AcDbEntity
   8
LEVEL003
  62
1
 100
AcDbText
  10
 408.80001360774
  20
 258.00002181530
  30
0.0
  40
 12.000000000000
   1
　　　　　　　　　　　　　　　　　　　　　　　　　　　　　　　　　　Ａ４（Ｒｃ１／２）
  41
 0.50000000000000
   7
STANDARD
 100
AcDbText
   0
TEXT
   5
17D
 100
AcDbEntity
   8
LEVEL003
  62
1
 100
AcDbText
  10
 408.80001360774
  20
 242.00002181530
  30
0.0
  40
 12.000000000000
   1
　　　　　　　　　　　　　　　　　　　　　　　　　　　　　　　　　　Ａ６（Ｒｃ３／４）
  41
 0.50000000000000
   7
STANDARD
 100
AcDbText
   0
LEADER
   5
17E
 100
AcDbEntity
   8
LEVEL003
   6
CONTINUOUS
  62
1
 100
AcDbLeader
   3
GMM002
  73
0
  74
1
  75
0
  40
 12.000000000000
  41
0.0
  76
3
  10
 382.55001360774
  20
 298.50002181530
  30
0.0
  10
 382.55001360774
  20
 321.00002181530
  30
0.0
  10
 540.00002592802
  20
 321.00002181530
  30
0.0
  77
1
   0
TEXT
   5
17F
 100
AcDbEntity
   8
LEVEL020
  62
7
 100
AcDbText
  10
 273.74999854714
  20
 273.00000000000
  30
0.0
  40
 14.999999552965
   1
ＥＫ１００Ｈ※Ｌ－※ ※
  41
 0.70000000000000
   7
STANDARD
  72
2
  11
 394.49999494851
  21
 273.00000000000
  31
0.0
 100
AcDbText
   0
LINE
   5
180
 100
AcDbEntity
   8
LEVEL003
 100
AcDbLine
   6
CONTINUOUS
  62
1
  10
 274.32451326216
  20
 291.00002181530
  30
0.0
  11
 293.07451326216
  21
 291.00002181530
  31
0.0
   0
LEADER
   5
181
 100
AcDbEntity
   8
LEVEL003
   6
CONTINUOUS
  62
1
 100
AcDbLeader
   3
GMM002
  73
0
  74
1
  75
0
  40
 12.000000000000
  41
0.0
  76
3
  10
 285.57451326216
  20
 291.00002181530
  30
0.0
  10
 285.57451326216
  20
 321.00002181530
  30
0.0
  10
 240.00002592802
  20
 321.00002181530
  30
0.0
  77
1
   0
LINE
   5
182
 100
AcDbEntity
   8
LEVEL020
 100
AcDbLine
   6
CONTINUOUS
  62
6
  10
 150.00000000000
  20
 38.999999374151
  30
0.0
  11
 450.00000000000
  21
 38.999999374151
  31
0.0
   0
TEXT
   5
183
 100
AcDbEntity
   8
LEVEL020
  62
6
 100
AcDbText
  10
 266.49999494851
  20
 41.999999374151
  30
0.0
  40
 15.000000000000
   1
Ｂ６－Ｊ（左記以外は、別途指示）
  41
 0.53333333333333
   7
STANDARD
  72
2
  11
 394.49999494851
  21
 41.999999374151
  31
0.0
 100
AcDbText
   0
TEXT
   5
184
 100
AcDbEntity
   8
LEVEL020
  62
6
 100
AcDbText
  10
 150.00000223517
  20
 42.000005543232
  30
0.0
  40
 14.999999552965
   1
標準付属継手
   7
STANDARD
 100
AcDbText
   0
LINE
   5
185
 100
AcDbEntity
   8
LEVEL001
 100
AcDbLine
   6
DASHDOT
  62
1
  10
 710.00000000000
  20
 500.00000000000
  30
0.0
  11
 690.00000000000
  21
 700.00000000000
  31
0.0
   0
LINE
   5
186
 100
AcDbEntity
   8
LEVEL001
 100
AcDbLine
   6
DASHDOT
  62
1
  10
 700.00000000000
  20
 500.00000000000
  30
0.0
  11
 680.00000000000
  21
 700.00000000000
  31
0.0
   0
LINE
   5
187
 100
AcDbEntity
   8
LEVEL001
 100
AcDbLine
   6
DASHDOT
  62
1
  10
 410.00000000000
  20
 688.50000000000
  30
0.0
  11
 415.59808349609
  21
 690.00000000000
  31
0.0
   0
LINE
   5
188
 100
AcDbEntity
   8
LEVEL001
 100
AcDbLine
   6
CONTINUOUS
  62
7
  10
 341.00003051758
  20
 690.00000000000
  30
0.0
  11
 340.00003051758
  21
 689.00003051758
  31
0.0
   0
LINE
   5
189
 100
AcDbEntity
   8
LEVEL001
 100
AcDbLine
   6
CONTINUOUS
  62
7
  10
 335.00003051758
  20
 649.00003051758
  30
0.0
  11
 338.00003051758
  21
 650.00000000000
  31
0.0
   0
LINE
   5
18A
 100
AcDbEntity
   8
LEVEL001
 100
AcDbLine
   6
CONTINUOUS
  62
7
  10
 341.00003051758
  20
 690.00000000000
  30
0.0
  11
 681.00000000000
  21
 690.00000000000
  31
0.0
   0
LINE
   5
18B
 100
AcDbEntity
   8
LEVEL001
 100
AcDbLine
   6
DASHDOT
  62
1
  10
 430.00003051758
  20
 700.00000000000
  30
0.0
  11
 430.00003051758
  21
 667.50000000000
  31
0.0
   0
LINE
   5
18C
 100
AcDbEntity
   8
LEVEL001
 100
AcDbLine
   6
DASHDOT
  62
1
  10
 410.00000000000
  20
 511.50000000000
  30
0.0
  11
 415.59808349609
  21
 510.00000000000
  31
0.0
   0
LINE
   5
18D
 100
AcDbEntity
   8
LEVEL001
 100
AcDbLine
   6
CONTINUOUS
  62
7
  10
 341.00003051758
  20
 510.00000000000
  30
0.0
  11
 340.00003051758
  21
 510.99996948242
  31
0.0
   0
LINE
   5
18E
 100
AcDbEntity
   8
LEVEL001
 100
AcDbLine
   6
CONTINUOUS
  62
7
  10
 335.00003051758
  20
 550.99996948242
  30
0.0
  11
 338.00003051758
  21
 550.00000000000
  31
0.0
   0
LINE
   5
18F
 100
AcDbEntity
   8
LEVEL001
 100
AcDbLine
   6
CONTINUOUS
  62
7
  10
 341.00003051758
  20
 510.00000000000
  30
0.0
  11
 699.00000000001
  21
 510.00000000000
  31
0.0
   0
LINE
   5
190
 100
AcDbEntity
   8
LEVEL001
 100
AcDbLine
   6
DASHDOT
  62
1
  10
 341.00003051758
  20
 511.50000000000
  30
0.0
  11
 410.00000000000
  21
 511.50000000000
  31
0.0
   0
LINE
   5
191
 100
AcDbEntity
   8
LEVEL001
 100
AcDbLine
   6
DASHDOT
  62
1
  10
 410.00000000000
  20
 511.50000000000
  30
0.0
  11
 410.00000000000
  21
 510.00000000000
  31
0.0
   0
LINE
   5
192
 100
AcDbEntity
   8
LEVEL001
 100
AcDbLine
   6
DASHDOT
  62
1
  10
 340.00003051758
  20
 688.50000000000
  30
0.0
  11
 410.00000000000
  21
 688.50000000000
  31
0.0
   0
LINE
   5
193
 100
AcDbEntity
   8
LEVEL001
 100
AcDbLine
   6
DASHDOT
  62
1
  10
 410.00000000000
  20
 688.50000000000
  30
0.0
  11
 410.00000000000
  21
 690.00000000000
  31
0.0
   0
DIMENSION
   5
194
 100
AcDbEntity
   8
LEVEL003
   6
CONTINUOUS
  62
3
 100
AcDbDimension
   2
*D7
  10
 410.00000000000
  20
 750.00000000000
  30
0.0
  11
 375.00001525879
  21
 750.00000000000
  31
0.0
  70
0
   1
\A1;70
   3
GMM003
 100
AcDbAlignedDimension
  13
 340.00003051758
  23
 688.50000000000
  33
0.0
  14
 410.00000000000
  24
 690.00000000000
  34
0.0
 100
AcDbRotatedDimension
   0
DIMENSION
   5
196
 100
AcDbEntity
   8
LEVEL003
   6
CONTINUOUS
  62
3
 100
AcDbDimension
   2
*D8
  10
 430.00003051758
  20
 780.00000000000
  30
0.0
  11
 385.00003051758
  21
 780.00000000000
  31
0.0
  70
0
   1
\A1;90
   3
GMM003
 100
AcDbAlignedDimension
  13
 340.00003051758
  23
 688.50000000000
  33
0.0
  14
 430.00003051758
  24
 700.00000000000
  34
0.0
 100
AcDbRotatedDimension
   0
LEADER
   5
198
 100
AcDbEntity
   8
LEVEL003
   6
CONTINUOUS
  62
3
 100
AcDbLeader
   3
GMM004
  73
0
  74
1
  75
0
  40
 12.000000000000
  41
0.0
  76
3
  10
 430.00003051758
  20
 690.00000000000
  30
0.0
  10
 450.00000000000
  20
 750.00000000000
  30
0.0
  10
 510.00000000000
  20
 750.00000000000
  30
0.0
  77
3
   0
ARC
   5
199
 100
AcDbEntity
   8
LEVEL001
   6
CONTINUOUS
  62
7
 100
AcDbCircle
  10
 331.50003051758
  20
 555.00000000000
  30
0.0
  40
 1.5000000000000
 100
AcDbArc
  50
 90.000000000004
  51
 180.00000000016
   0
ARC
   5
19A
 100
AcDbEntity
   8
LEVEL001
   6
CONTINUOUS
  62
7
 100
AcDbCircle
  10
 333.50003051758
  20
 555.00000000000
  30
0.0
  40
 1.5000000000000
 100
AcDbArc
  50
0.0
  51
 89.999999999744
   0
LINE
   5
19B
 100
AcDbEntity
   8
LEVEL001
 100
AcDbLine
   6
CONTINUOUS
  62
3
  10
 325.50003051758
  20
 556.50000000000
  30
0.0
  11
 331.50003051758
  21
 556.50000000000
  31
0.0
   0
LINE
   5
19C
 100
AcDbEntity
   8
LEVEL001
 100
AcDbLine
   6
CONTINUOUS
  62
7
  10
 327.00003051758
  20
 546.00000000000
  30
0.0
  11
 326.00003051758
  21
 545.00000000000
  31
0.0
   0
LINE
   5
19D
 100
AcDbEntity
   8
LEVEL001
 100
AcDbLine
   6
CONTINUOUS
  62
7
  10
 271.00003051758
  20
 545.00000000000
  30
0.0
  11
 326.00003051758
  21
 545.00000000000
  31
0.0
   0
LINE
   5
19E
 100
AcDbEntity
   8
LEVEL001
 100
AcDbLine
   6
CONTINUOUS
  62
7
  10
 271.00003051758
  20
 545.00000000000
  30
0.0
  11
 270.00003051758
  21
 546.00000000000
  31
0.0
   0
LINE
   5
19F
 100
AcDbEntity
   8
LEVEL001
 100
AcDbLine
   6
CONTINUOUS
  62
7
  10
 270.00003051758
  20
 600.00000000000
  30
0.0
  11
 270.00003051758
  21
 546.00000000000
  31
0.0
   0
ARC
   5
1A0
 100
AcDbEntity
   8
LEVEL001
   6
CONTINUOUS
  62
7
 100
AcDbCircle
  10
 331.50003051758
  20
 645.00000000000
  30
0.0
  40
 1.5000000000000
 100
AcDbArc
  50
 180.00000000000
  51
 269.99999999993
   0
ARC
   5
1A1
 100
AcDbEntity
   8
LEVEL001
   6
CONTINUOUS
  62
7
 100
AcDbCircle
  10
 333.50003051758
  20
 644.99999999999
  30
0.0
  40
 1.5000000000000
 100
AcDbArc
  50
 270.00000000000
  51
 0.37345648995787E-9
   0
LINE
   5
1A2
 100
AcDbEntity
   8
LEVEL001
 100
AcDbLine
   6
CONTINUOUS
  62
7
  10
 331.50003051758
  20
 643.50000000000
  30
0.0
  11
 333.50003051758
  21
 643.50000000000
  31
0.0
   0
LINE
   5
1A3
 100
AcDbEntity
   8
LEVEL001
 100
AcDbLine
   6
CONTINUOUS
  62
3
  10
 325.50003051758
  20
 643.50000000000
  30
0.0
  11
 331.50003051758
  21
 643.50000000000
  31
0.0
   0
LINE
   5
1A4
 100
AcDbEntity
   8
LEVEL001
 100
AcDbLine
   6
CONTINUOUS
  62
7
  10
 327.00003051758
  20
 654.00000000000
  30
0.0
  11
 326.00003051758
  21
 655.00000000000
  31
0.0
   0
LINE
   5
1A5
 100
AcDbEntity
   8
LEVEL001
 100
AcDbLine
   6
CONTINUOUS
  62
7
  10
 271.00003051758
  20
 655.00000000000
  30
0.0
  11
 326.00003051758
  21
 655.00000000000
  31
0.0
   0
LINE
   5
1A6
 100
AcDbEntity
   8
LEVEL001
 100
AcDbLine
   6
CONTINUOUS
  62
7
  10
 271.00003051758
  20
 655.00000000000
  30
0.0
  11
 270.00003051758
  21
 654.00000000000
  31
0.0
   0
LINE
   5
1A7
 100
AcDbEntity
   8
LEVEL001
 100
AcDbLine
   6
CONTINUOUS
  62
7
  10
 270.00003051758
  20
 600.00000000000
  30
0.0
  11
 270.00003051758
  21
 654.00000000000
  31
0.0
   0
DIMENSION
   5
1A8
 100
AcDbEntity
   8
LEVEL003
   6
CONTINUOUS
  62
3
 100
AcDbDimension
   2
*D10
  10
 225.00000000000
  20
 655.00000000000
  30
0.0
  11
 225.00000000000
  21
 600.00000000000
  31
0.0
  70
0
   1
\A1;%%c110
   3
GMM005
 100
AcDbAlignedDimension
  13
 271.00003051758
  23
 545.00000000000
  33
0.0
  14
 271.00003051758
  24
 655.00000000000
  34
0.0
  50
 90.000000000000
 100
AcDbRotatedDimension
   0
LEADER
   5
1AA
 100
AcDbEntity
   8
LEVEL003
   6
CONTINUOUS
  62
3
 100
AcDbLeader
   3
GMM006
  73
0
  74
1
  75
0
  40
 12.000000000000
  41
0.0
  76
3
  10
 296.21858759931
  20
 645.00000000000
  30
0.0
  10
 255.00000000000
  20
 675.00000000000
  30
0.0
  10
 180.00000000000
  20
 675.00000000000
  30
0.0
  77
3
   0
TEXT
   5
1AB
 100
AcDbEntity
   8
LEVEL003
  62
3
 100
AcDbText
  10
 180.00000000000
  20
 675.00000000000
  30
0.0
  40
 12.000000000000
   1
Ｍ９０×３
   7
STANDARD
 100
AcDbText
   0
LINE
   5
1AC
 100
AcDbEntity
   8
LEVEL001
 100
AcDbLine
   6
CONTINUOUS
  62
7
  10
 331.50003051758
  20
 556.50000000000
  30
0.0
  11
 333.50003051758
  21
 556.50000000000
  31
0.0
   0
LEADER
   5
1AD
 100
AcDbEntity
   8
LEVEL003
   6
CONTINUOUS
  62
3
 100
AcDbLeader
   3
GMM004
  73
0
  74
1
  75
0
  40
 12.000000000000
  41
0.0
  76
3
  10
 350.33799392097
  20
 690.00000000000
  30
0.0
  10
 330.00000000000
  20
 765.00000000000
  30
0.0
  10
 240.00000000000
  20
 765.00000000000
  30
0.0
  77
3
   0
LINE
   5
1AE
 100
AcDbEntity
   8
LEVEL001
 100
AcDbLine
   6
CONTINUOUS
  62
7
  10
 1023.0000000000
  20
 690.00000000000
  30
0.0
  11
 1025.0000152588
  21
 688.00000000000
  31
0.0
   0
LINE
   5
1AF
 100
AcDbEntity
   8
LEVEL001
 100
AcDbLine
   6
CONTINUOUS
  62
7
  10
 1023.0000000000
  20
 510.00000000000
  30
0.0
  11
 1025.0000152588
  21
 512.00000000000
  31
0.0
   0
LINE
   5
1B0
 100
AcDbEntity
   8
LEVEL001
 100
AcDbLine
   6
CONTINUOUS
  62
7
  10
 1025.0000152588
  20
 688.00000000000
  30
0.0
  11
 1025.0000152588
  21
 512.00000000000
  31
0.0
   0
LINE
   5
1B1
 100
AcDbEntity
   8
LEVEL001
 100
AcDbLine
   6
CONTINUOUS
  62
7
  10
 709.00000000000
  20
 510.00000000000
  30
0.0
  11
 1023.0000000000
  21
 510.00000000000
  31
0.0
   0
LINE
   5
1B2
 100
AcDbEntity
   8
LEVEL001
 100
AcDbLine
   6
CONTINUOUS
  62
7
  10
 691.00000000000
  20
 690.00000000000
  30
0.0
  11
 1023.0000000000
  21
 690.00000000000
  31
0.0
   0
LINE
   5
1B3
 100
AcDbEntity
   8
LEVEL001
 100
AcDbLine
   6
DASHDOT
  62
1
  10
 265.00003051758
  20
 600.00000000000
  30
0.0
  11
 1032.5000152588
  21
 600.00000000000
  31
0.0
   0
LINE
   5
1B4
 100
AcDbEntity
   8
LEVEL001
 100
AcDbLine
   6
DASHDOT
  62
1
  10
 959.00001525879
  20
 700.00000000000
  30
0.0
  11
 959.00001525879
  21
 667.50000000000
  31
0.0
   0
DIMENSION
   5
1B5
 100
AcDbEntity
   8
LEVEL003
   6
CONTINUOUS
  62
3
 100
AcDbDimension
   2
*D13
  10
 1025.0000152588
  20
 750.00000000000
  30
0.0
  11
 992.00001525879
  21
 750.00000000000
  31
0.0
  70
0
   1
\A1;66
   3
GMM007
 100
AcDbAlignedDimension
  13
 959.00001525879
  23
 700.00000000000
  33
0.0
  14
 1025.0000152588
  24
 688.00000000000
  34
0.0
 100
AcDbRotatedDimension
   0
LEADER
   5
1B7
 100
AcDbEntity
   8
LEVEL003
   6
CONTINUOUS
  62
3
 100
AcDbLeader
   3
GMM008
  73
0
  74
1
  75
0
  40
 12.000000000000
  41
0.0
  76
3
  10
 959.00001525879
  20
 690.00000000000
  30
0.0
  10
 935.00000000000
  20
 765.00000000000
  30
0.0
  10
 860.00000000000
  20
 765.00000000000
  30
0.0
  77
3
   0
DIMENSION
   5
1B8
 100
AcDbEntity
   8
LEVEL003
   6
CONTINUOUS
  62
3
 100
AcDbDimension
   2
*D15
  10
 1025.0000152588
  20
 420.00000000000
  30
0.0
  11
 647.50002288818
  21
 420.00000000000
  31
0.0
  70
0
   1
\A1;(305+ST)
   3
GMM009
 100
AcDbAlignedDimension
  13
 270.00003051758
  23
 546.00000000000
  33
0.0
  14
 1025.0000152588
  24
 512.00000000000
  34
0.0
 100
AcDbRotatedDimension
   0
DIMENSION
   5
1BA
 100
AcDbEntity
   8
LEVEL003
   6
CONTINUOUS
  62
3
 100
AcDbDimension
   2
*D16
  10
 1025.0000152588
  20
 450.00000000000
  30
0.0
  11
 682.50002288818
  21
 450.00000000000
  31
0.0
  70
0
   1
\A1;(235+ST)
   3
GMM005
 100
AcDbAlignedDimension
  13
 340.00003051758
  23
 510.99996948242
  33
0.0
  14
 1025.0000152588
  24
 512.00000000000
  34
0.0
 100
AcDbRotatedDimension
   0
DIMENSION
   5
1BC
 100
AcDbEntity
   8
LEVEL003
   6
CONTINUOUS
  62
3
 100
AcDbDimension
   2
*D17
  10
 285.00003051758
  20
 450.00000000000
  30
0.0
  11
 247.24547053502
  21
 450.00000000000
  31
0.0
  70
128
   1
\A1;15
   3
GMM010
 100
AcDbAlignedDimension
  13
 270.00003051758
  23
 546.00000000000
  33
0.0
  14
 285.00003051758
  24
 556.50000000000
  34
0.0
 100
AcDbRotatedDimension
   0
DIMENSION
   5
1BE
 100
AcDbEntity
   8
LEVEL003
   6
CONTINUOUS
  62
3
 100
AcDbDimension
   2
*D18
  10
 335.00003051758
  20
 450.00000000000
  30
0.0
  11
 310.00003051758
  21
 450.00000000000
  31
0.0
  70
0
   1
\A1;50
   3
GMM003
 100
AcDbAlignedDimension
  13
 285.00003051758
  23
 556.50000000000
  33
0.0
  14
 335.00003051758
  24
 550.99996948242
  34
0.0
 100
AcDbRotatedDimension
   0
ARC
   5
1C0
 100
AcDbEntity
   8
LEVEL001
   6
CONTINUOUS
  62
7
 100
AcDbCircle
  10
 513.99999839867
  20
 600.00000000000
  30
0.0
  40
 50.500000000000
 100
AcDbArc
  50
 190.84302052456
  51
 169.15697947544
   0
LINE
   5
1C1
 100
AcDbEntity
   8
LEVEL001
 100
AcDbLine
   6
CONTINUOUS
  62
7
  10
 455.00000000000
  20
 608.50000000000
  30
0.0
  11
 454.00000000000
  21
 609.50000000000
  31
0.0
   0
LINE
   5
1C2
 100
AcDbEntity
   8
LEVEL001
 100
AcDbLine
   6
CONTINUOUS
  62
7
  10
 454.00000000000
  20
 590.50000000000
  30
0.0
  11
 486.00000000000
  21
 590.50000000000
  31
0.0
   0
LINE
   5
1C3
 100
AcDbEntity
   8
LEVEL001
 100
AcDbLine
   6
CONTINUOUS
  62
7
  10
 486.00000000000
  20
 590.50000000000
  30
0.0
  11
 486.00000000000
  21
 609.50000000000
  31
0.0
   0
LINE
   5
1C4
 100
AcDbEntity
   8
LEVEL001
 100
AcDbLine
   6
CONTINUOUS
  62
7
  10
 486.00000000000
  20
 609.50000000000
  30
0.0
  11
 454.00000000000
  21
 609.50000000000
  31
0.0
   0
LINE
   5
1C5
 100
AcDbEntity
   8
LEVEL001
 100
AcDbLine
   6
CONTINUOUS
  62
7
  10
 454.00000000000
  20
 609.50000000000
  30
0.0
  11
 454.00000000000
  21
 590.50000000000
  31
0.0
   0
LINE
   5
1C6
 100
AcDbEntity
   8
LEVEL001
 100
AcDbLine
   6
CONTINUOUS
  62
7
  10
 455.00000000000
  20
 591.50000000000
  30
0.0
  11
 485.00000000000
  21
 591.50000000000
  31
0.0
   0
LINE
   5
1C7
 100
AcDbEntity
   8
LEVEL001
 100
AcDbLine
   6
CONTINUOUS
  62
7
  10
 485.00000000000
  20
 591.50000000000
  30
0.0
  11
 485.00000000000
  21
 608.50000000000
  31
0.0
   0
LINE
   5
1C8
 100
AcDbEntity
   8
LEVEL001
 100
AcDbLine
   6
CONTINUOUS
  62
7
  10
 485.00000000000
  20
 608.50000000000
  30
0.0
  11
 455.00000000000
  21
 608.50000000000
  31
0.0
   0
LINE
   5
1C9
 100
AcDbEntity
   8
LEVEL001
 100
AcDbLine
   6
CONTINUOUS
  62
7
  10
 455.00000000000
  20
 608.50000000000
  30
0.0
  11
 455.00000000000
  21
 591.50000000000
  31
0.0
   0
ARC
   5
1CA
 100
AcDbEntity
   8
LEVEL001
   6
CONTINUOUS
  62
7
 100
AcDbCircle
  10
 513.99998089600
  20
 600.00000000000
  30
0.0
  40
 37.500000000000
 100
AcDbArc
  50
 194.67484974286
  51
 165.32515025714
   0
LINE
   5
1CB
 100
AcDbEntity
   8
LEVEL001
 100
AcDbLine
   6
CONTINUOUS
  62
7
  10
 485.00000000000
  20
 608.50000000000
  30
0.0
  11
 486.00000000000
  21
 609.50000000000
  31
0.0
   0
LINE
   5
1CC
 100
AcDbEntity
   8
LEVEL001
 100
AcDbLine
   6
CONTINUOUS
  62
7
  10
 455.00000000000
  20
 591.50000000000
  30
0.0
  11
 454.00000000000
  21
 590.50000000000
  31
0.0
   0
LINE
   5
1CD
 100
AcDbEntity
   8
LEVEL001
 100
AcDbLine
   6
CONTINUOUS
  62
7
  10
 485.00000000000
  20
 591.50000000000
  30
0.0
  11
 486.00000000000
  21
 590.50000000000
  31
0.0
   0
CIRCLE
   5
1CE
 100
AcDbEntity
   8
LEVEL001
 100
AcDbCircle
   6
DASHDOT
  62
1
  10
 514.00000000000
  20
 600.00000000000
  30
0.0
  40
 44.000000000000
   0
LINE
   5
1CF
 100
AcDbEntity
   8
LEVEL001
 100
AcDbLine
   6
DOT
  62
3
  10
 421.66903686523
  20
 690.00000000000
  30
0.0
  11
 422.55264282227
  21
 689.11639404297
  31
0.0
   0
LINE
   5
1D0
 100
AcDbEntity
   8
LEVEL001
 100
AcDbLine
   6
DOT
  62
3
  10
 423.18130493164
  20
 669.00000000000
  30
0.0
  11
 423.18130493164
  21
 668.50000000000
  31
0.0
   0
LINE
   5
1D1
 100
AcDbEntity
   8
LEVEL001
 100
AcDbLine
   6
DOT
  62
3
  10
 422.21231079102
  20
 672.61639404297
  30
0.0
  11
 437.78775024414
  21
 672.61639404297
  31
0.0
   0
LINE
   5
1D2
 100
AcDbEntity
   8
LEVEL001
 100
AcDbLine
   6
DOT
  62
3
  10
 437.44741821289
  20
 689.11639404297
  30
0.0
  11
 436.81872558594
  21
 669.00000000000
  31
0.0
   0
LINE
   5
1D3
 100
AcDbEntity
   8
LEVEL001
 100
AcDbLine
   6
DOT
  62
3
  10
 436.81872558594
  20
 669.00000000000
  30
0.0
  11
 423.18130493164
  21
 669.00000000000
  31
0.0
   0
LINE
   5
1D4
 100
AcDbEntity
   8
LEVEL001
 100
AcDbLine
   6
DOT
  62
3
  10
 423.18130493164
  20
 669.00000000000
  30
0.0
  11
 422.55264282227
  21
 689.11639404297
  31
0.0
   0
LINE
   5
1D5
 100
AcDbEntity
   8
LEVEL001
 100
AcDbLine
   6
DOT
  62
3
  10
 423.18130493164
  20
 669.00000000000
  30
0.0
  11
 422.21231079102
  21
 672.61639404297
  31
0.0
   0
LINE
   5
1D6
 100
AcDbEntity
   8
LEVEL001
 100
AcDbLine
   6
DOT
  62
3
  10
 422.21231079102
  20
 672.61639404297
  30
0.0
  11
 421.66905532536
  21
 690.00000057690
  31
0.0
   0
LINE
   5
1D7
 100
AcDbEntity
   8
LEVEL001
 100
AcDbLine
   6
DOT
  62
3
  10
 422.55262756348
  20
 689.11639404297
  30
0.0
  11
 437.44741821289
  21
 689.11639404297
  31
0.0
   0
LINE
   5
1D8
 100
AcDbEntity
   8
LEVEL001
 100
AcDbLine
   6
DOT
  62
3
  10
 438.33102416992
  20
 690.00000000000
  30
0.0
  11
 437.44741821289
  21
 689.11639404297
  31
0.0
   0
LINE
   5
1D9
 100
AcDbEntity
   8
LEVEL001
 100
AcDbLine
   6
DOT
  62
3
  10
 436.81872558594
  20
 669.00000000000
  30
0.0
  11
 436.81872558594
  21
 668.50000000000
  31
0.0
   0
LINE
   5
1DA
 100
AcDbEntity
   8
LEVEL001
 100
AcDbLine
   6
DOT
  62
3
  10
 436.81872558594
  20
 669.00000000000
  30
0.0
  11
 437.78775024414
  21
 672.61639404297
  31
0.0
   0
LINE
   5
1DB
 100
AcDbEntity
   8
LEVEL001
 100
AcDbLine
   6
DOT
  62
3
  10
 437.78775024414
  20
 672.61639404297
  30
0.0
  11
 438.33100732295
  21
 690.00000052649
  31
0.0
   0
LINE
   5
1DC
 100
AcDbEntity
   8
LEVEL001
 100
AcDbLine
   6
DOT
  62
3
  10
 950.66902160645
  20
 690.00000000000
  30
0.0
  11
 951.55261230469
  21
 689.11639404297
  31
0.0
   0
LINE
   5
1DD
 100
AcDbEntity
   8
LEVEL001
 100
AcDbLine
   6
DOT
  62
3
  10
 952.18130493164
  20
 669.00000000000
  30
0.0
  11
 952.18130493164
  21
 668.50000000000
  31
0.0
   0
LINE
   5
1DE
 100
AcDbEntity
   8
LEVEL001
 100
AcDbLine
   6
DOT
  62
3
  10
 951.21229553223
  20
 672.61639404297
  30
0.0
  11
 966.78771972656
  21
 672.61639404297
  31
0.0
   0
LINE
   5
1DF
 100
AcDbEntity
   8
LEVEL001
 100
AcDbLine
   6
DOT
  62
3
  10
 966.44740295410
  20
 689.11639404297
  30
0.0
  11
 965.81872558594
  21
 669.00000000000
  31
0.0
   0
LINE
   5
1E0
 100
AcDbEntity
   8
LEVEL001
 100
AcDbLine
   6
DOT
  62
3
  10
 965.81872558594
  20
 669.00000000000
  30
0.0
  11
 952.18130493164
  21
 669.00000000000
  31
0.0
   0
LINE
   5
1E1
 100
AcDbEntity
   8
LEVEL001
 100
AcDbLine
   6
DOT
  62
3
  10
 952.18130493164
  20
 669.00000000000
  30
0.0
  11
 951.55261230469
  21
 689.11639404297
  31
0.0
   0
LINE
   5
1E2
 100
AcDbEntity
   8
LEVEL001
 100
AcDbLine
   6
DOT
  62
3
  10
 952.18130493164
  20
 669.00000000000
  30
0.0
  11
 951.21229553223
  21
 672.61639404297
  31
0.0
   0
LINE
   5
1E3
 100
AcDbEntity
   8
LEVEL001
 100
AcDbLine
   6
DOT
  62
3
  10
 951.21229553223
  20
 672.61639404297
  30
0.0
  11
 950.66901425692
  21
 689.99999977031
  31
0.0
   0
LINE
   5
1E4
 100
AcDbEntity
   8
LEVEL001
 100
AcDbLine
   6
DOT
  62
3
  10
 951.55261230469
  20
 689.11639404297
  30
0.0
  11
 966.44740295410
  21
 689.11639404297
  31
0.0
   0
LINE
   5
1E5
 100
AcDbEntity
   8
LEVEL001
 100
AcDbLine
   6
DOT
  62
3
  10
 967.33099365234
  20
 690.00000000000
  30
0.0
  11
 966.44740295410
  21
 689.11639404297
  31
0.0
   0
LINE
   5
1E6
 100
AcDbEntity
   8
LEVEL001
 100
AcDbLine
   6
DOT
  62
3
  10
 965.81872558594
  20
 669.00000000000
  30
0.0
  11
 965.81872558594
  21
 668.50000000000
  31
0.0
   0
LINE
   5
1E7
 100
AcDbEntity
   8
LEVEL001
 100
AcDbLine
   6
DOT
  62
3
  10
 965.81872558594
  20
 669.00000000000
  30
0.0
  11
 966.78771972656
  21
 672.61639404297
  31
0.0
   0
LINE
   5
1E8
 100
AcDbEntity
   8
LEVEL001
 100
AcDbLine
   6
DOT
  62
3
  10
 966.78771972656
  20
 672.61639404297
  30
0.0
  11
 967.33102842483
  21
 689.99999891322
  31
0.0
   0
DIMENSION
   5
1E9
 100
AcDbEntity
   8
LEVEL003
   6
CONTINUOUS
  62
3
 100
AcDbDimension
   2
*D19
  10
 765.00000000000
  20
 550.00000000000
  30
0.0
  11
 765.00000000000
  21
 600.00000000000
  31
0.0
  70
0
   1
\A1;%%c100
   3
GMM011
 100
AcDbAlignedDimension
  13
 765.00000000000
  23
 650.00000000000
  33
0.0
  14
 765.00000000000
  24
 550.00000000000
  34
0.0
  50
 270.00000000000
 100
AcDbRotatedDimension
   0
DIMENSION
   5
1EB
 100
AcDbEntity
   8
LEVEL003
   6
CONTINUOUS
  62
3
 100
AcDbDimension
   2
*D20
  10
 795.00000000000
  20
 532.50000000000
  30
0.0
  11
 795.00000000000
  21
 600.00000000000
  31
0.0
  70
0
   1
\A1;%%c135
   3
GMM011
 100
AcDbAlignedDimension
  13
 795.00000000000
  23
 667.50000000000
  33
0.0
  14
 795.00000000000
  24
 532.50000000000
  34
0.0
  50
 270.00000000000
 100
AcDbRotatedDimension
   0
DIMENSION
   5
1ED
 100
AcDbEntity
   8
LEVEL003
   6
CONTINUOUS
  62
3
 100
AcDbDimension
   2
*D21
  10
 825.00000000000
  20
 510.00000000000
  30
0.0
  11
 825.00000000000
  21
 600.00000000000
  31
0.0
  70
0
   1
\A1;%%c180
   3
GMM011
 100
AcDbAlignedDimension
  13
 825.00000000000
  23
 690.00000000000
  33
0.0
  14
 825.00000000000
  24
 510.00000000000
  34
0.0
  50
 270.00000000000
 100
AcDbRotatedDimension
   0
LINE
   5
1EF
 100
AcDbEntity
   8
LEVEL001
 100
AcDbLine
   6
DOT
  62
3
  10
 840.00000000000
  20
 650.00000000000
  30
0.0
  11
 750.00000000000
  21
 650.00000000000
  31
0.0
   0
LINE
   5
1F0
 100
AcDbEntity
   8
LEVEL001
 100
AcDbLine
   6
DOT
  62
3
  10
 750.00000000000
  20
 667.50000000000
  30
0.0
  11
 840.00000000000
  21
 667.50000000000
  31
0.0
   0
LINE
   5
1F1
 100
AcDbEntity
   8
LEVEL001
 100
AcDbLine
   6
DOT
  62
3
  10
 840.00000000000
  20
 550.00000000000
  30
0.0
  11
 750.00000000000
  21
 550.00000000000
  31
0.0
   0
LINE
   5
1F2
 100
AcDbEntity
   8
LEVEL001
 100
AcDbLine
   6
DOT
  62
3
  10
 750.00000000000
  20
 532.50000000000
  30
0.0
  11
 840.00000000000
  21
 532.50000000000
  31
0.0
   0
LINE
   5
1F3
 100
AcDbEntity
   8
LEVEL001
 100
AcDbLine
   6
CONTINUOUS
  62
7
  10
 340.00003051758
  20
 600.00000000000
  30
0.0
  11
 340.00003051758
  21
 689.00003051758
  31
0.0
   0
LINE
   5
1F4
 100
AcDbEntity
   8
LEVEL001
 100
AcDbLine
   6
CONTINUOUS
  62
7
  10
 340.00003051758
  20
 600.00000000000
  30
0.0
  11
 340.00003051758
  21
 510.99996948242
  31
0.0
   0
LINE
   5
1F5
 100
AcDbEntity
   8
LEVEL001
 100
AcDbLine
   6
CONTINUOUS
  62
7
  10
 335.00003051758
  20
 550.99996948242
  30
0.0
  11
 335.00003051758
  21
 649.00003051758
  31
0.0
   0
LINE
   5
1F6
 100
AcDbEntity
   8
LEVEL002
 100
AcDbLine
   6
CONTINUOUS
  62
7
  10
 338.00003051758
  20
 650.00000000000
  30
0.0
  11
 338.00003051758
  21
 550.00000000000
  31
0.0
   0
LINE
   5
1F7
 100
AcDbEntity
   8
LEVEL002
 100
AcDbLine
   6
CONTINUOUS
  62
7
  10
 338.00003051758
  20
 650.00000000000
  30
0.0
  11
 340.00003051758
  21
 650.00000000000
  31
0.0
   0
LINE
   5
1F8
 100
AcDbEntity
   8
LEVEL002
 100
AcDbLine
   6
CONTINUOUS
  62
7
  10
 338.00003051758
  20
 550.00000000000
  30
0.0
  11
 340.00003051758
  21
 550.00000000000
  31
0.0
   0
LINE
   5
1F9
 100
AcDbEntity
   8
LEVEL001
 100
AcDbLine
   6
CONTINUOUS
  62
7
  10
 327.00003051758
  20
 545.99999999993
  30
0.0
  11
 327.00003051758
  21
 654.00000000000
  31
0.0
   0
LINE
   5
1FA
 100
AcDbEntity
   8
LEVEL001
 100
AcDbLine
   6
DOT
  62
3
  10
 327.00003051758
  20
 645.00000000000
  30
0.0
  11
 325.50003051758
  21
 643.50000000000
  31
0.0
   0
LINE
   5
1FB
 100
AcDbEntity
   8
LEVEL001
 100
AcDbLine
   6
DOT
  62
3
  10
 325.50003051758
  20
 643.50000000000
  30
0.0
  11
 290.00003051758
  21
 643.50000000000
  31
0.0
   0
ARC
   5
1FC
 100
AcDbEntity
   8
LEVEL001
   6
DOT
  62
3
 100
AcDbCircle
  10
 288.50003051758
  20
 643.50000000000
  30
0.0
  40
 1.5000000000000
 100
AcDbArc
  50
0.0
  51
 89.999999999883
   0
ARC
   5
1FD
 100
AcDbEntity
   8
LEVEL001
   6
DOT
  62
3
 100
AcDbCircle
  10
 286.50003051758
  20
 643.50000000000
  30
0.0
  40
 1.5000000000000
 100
AcDbArc
  50
 90.000000000000
  51
 180.00000000003
   0
LINE
   5
1FE
 100
AcDbEntity
   8
LEVEL001
 100
AcDbLine
   6
DOT
  62
3
  10
 285.00003051758
  20
 643.50000000000
  30
0.0
  11
 290.00003051758
  21
 643.50000000000
  31
0.0
   0
LINE
   5
1FF
 100
AcDbEntity
   8
LEVEL001
 100
AcDbLine
   6
DOT
  62
3
  10
 285.00003051758
  20
 643.50000000000
  30
0.0
  11
 285.00003051758
  21
 600.00000000000
  31
0.0
   0
LINE
   5
200
 100
AcDbEntity
   8
LEVEL001
 100
AcDbLine
   6
DOT
  62
3
  10
 327.00003051758
  20
 555.00000000000
  30
0.0
  11
 325.50003051758
  21
 556.50000000000
  31
0.0
   0
LINE
   5
201
 100
AcDbEntity
   8
LEVEL001
 100
AcDbLine
   6
DOT
  62
3
  10
 325.50003051758
  20
 556.50000000000
  30
0.0
  11
 290.00003051758
  21
 556.50000000000
  31
0.0
   0
ARC
   5
202
 100
AcDbEntity
   8
LEVEL001
   6
DOT
  62
3
 100
AcDbCircle
  10
 288.50003051758
  20
 556.50000000000
  30
0.0
  40
 1.5000000000000
 100
AcDbArc
  50
 270.00000000000
  51
0.0
   0
ARC
   5
203
 100
AcDbEntity
   8
LEVEL001
   6
DOT
  62
3
 100
AcDbCircle
  10
 286.50003051758
  20
 556.50000000000
  30
0.0
  40
 1.5000000000000
 100
AcDbArc
  50
 180.00000000000
  51
 270.00000000007
   0
LINE
   5
204
 100
AcDbEntity
   8
LEVEL001
 100
AcDbLine
   6
DOT
  62
3
  10
 285.00003051758
  20
 556.50000000000
  30
0.0
  11
 290.00003051758
  21
 556.50000000000
  31
0.0
   0
LINE
   5
205
 100
AcDbEntity
   8
LEVEL001
 100
AcDbLine
   6
DOT
  62
3
  10
 285.00003051758
  20
 556.50000000000
  30
0.0
  11
 285.00003051758
  21
 600.00000000000
  31
0.0
   0
LINE
   5
206
 100
AcDbEntity
   8
LEVEL001
 100
AcDbLine
   6
DOT
  62
3
  10
 285.00003051758
  20
 643.50000000000
  30
0.0
  11
 286.50003051758
  21
 645.00000000000
  31
0.0
   0
LINE
   5
207
 100
AcDbEntity
   8
LEVEL001
 100
AcDbLine
   6
DOT
  62
3
  10
 286.50003051758
  20
 645.00000000000
  30
0.0
  11
 327.00003051758
  21
 645.00000000000
  31
0.0
   0
LINE
   5
208
 100
AcDbEntity
   8
LEVEL001
 100
AcDbLine
   6
DOT
  62
3
  10
 285.00003051758
  20
 556.50000000000
  30
0.0
  11
 286.50003051758
  21
 555.00000000000
  31
0.0
   0
LINE
   5
209
 100
AcDbEntity
   8
LEVEL001
 100
AcDbLine
   6
DOT
  62
3
  10
 286.50003051758
  20
 555.00000000000
  30
0.0
  11
 327.00003051758
  21
 555.00000000000
  31
0.0
   0
LINE
   5
20A
 100
AcDbEntity
   8
LEVEL002
 100
AcDbLine
   6
CONTINUOUS
  62
7
  10
 327.00003051758
  20
 645.00000000000
  30
0.0
  11
 330.00003051758
  21
 645.00000000000
  31
0.0
   0
LINE
   5
20B
 100
AcDbEntity
   8
LEVEL002
 100
AcDbLine
   6
CONTINUOUS
  62
7
  10
 330.00003051758
  20
 555.00000000000
  30
0.0
  11
 327.00003051758
  21
 555.00000000000
  31
0.0
   0
LINE
   5
20C
 100
AcDbEntity
   8
LEVEL002
 100
AcDbLine
   6
DASHDOT
  62
1
  10
 410.00000000000
  20
 511.50000000000
  30
0.0
  11
 410.00000000000
  21
 688.50000000000
  31
0.0
   0
TEXT
   5
20D
 100
AcDbEntity
   8
LEVEL003
  62
3
 100
AcDbText
  10
 1065.0000000000
  20
 630.00000000000
  30
0.0
  40
 12.000000000000
   1
オプション（加圧）
   7
STANDARD
 100
AcDbText
   0
TEXT
   5
20E
 100
AcDbEntity
   8
LEVEL003
  62
3
 100
AcDbText
  10
 1065.0000000000
  20
 614.00000000000
  30
0.0
  40
 12.000000000000
   1
Ａ３；Ｒｃ３／８
   7
STANDARD
 100
AcDbText
   0
TEXT
   5
20F
 100
AcDbEntity
   8
LEVEL003
  62
3
 100
AcDbText
  10
 1065.0000000000
  20
 598.00000000000
  30
0.0
  40
 12.000000000000
   1
Ａ４；Ｒｃ１／２
   7
STANDARD
 100
AcDbText
   0
TEXT
   5
210
 100
AcDbEntity
   8
LEVEL003
  62
3
 100
AcDbText
  10
 1065.0000000000
  20
 582.00000000000
  30
0.0
  40
 12.000000000000
   1
Ａ６；Ｒｃ３／４
   7
STANDARD
 100
AcDbText
   0
LEADER
   5
211
 100
AcDbEntity
   8
LEVEL003
   6
CONTINUOUS
  62
3
 100
AcDbLeader
   3
GMM012
  73
0
  74
1
  75
0
  40
 12.000000000000
  41
0.0
  76
3
  10
 1025.0000152588
  20
 600.00000000000
  30
0.0
  10
 1065.0000000000
  20
 630.00000000000
  30
0.0
  10
 1170.0000000000
  20
 630.00000000000
  30
0.0
  77
3
   0
TEXT
   5
212
 100
AcDbEntity
   8
LEVEL003
  62
3
 100
AcDbText
  10
 860.00000000000
  20
 765.00000000000
  30
0.0
  40
 12.000000000000
   1
加圧
   7
STANDARD
 100
AcDbText
   0
TEXT
   5
213
 100
AcDbEntity
   8
LEVEL003
  62
3
 100
AcDbText
  10
 860.00000000000
  20
 749.00000000000
  30
0.0
  40
 12.000000000000
   1
Ｒｃ３／８
   7
STANDARD
 100
AcDbText
   0
TEXT
   5
214
 100
AcDbEntity
   8
LEVEL003
  62
3
 100
AcDbText
  10
 860.00000000000
  20
 733.00000000000
  30
0.0
  40
 12.000000000000
   1
(Ｂ６－Ｊ付)
   7
STANDARD
 100
AcDbText
   0
TEXT
   5
215
 100
AcDbEntity
   8
LEVEL003
  62
3
 100
AcDbText
  10
 450.00000000000
  20
 750.00000000000
  30
0.0
  40
 12.000000000000
   1
戻り
   7
STANDARD
 100
AcDbText
   0
TEXT
   5
216
 100
AcDbEntity
   8
LEVEL003
  62
3
 100
AcDbText
  10
 450.00000000000
  20
 734.00000000000
  30
0.0
  40
 12.000000000000
   1
Ｒｃ３／８
   7
STANDARD
 100
AcDbText
   0
TEXT
   5
217
 100
AcDbEntity
   8
LEVEL003
  62
3
 100
AcDbText
  10
 450.00000000000
  20
 718.00000000000
  30
0.0
  40
 12.000000000000
   1
(Ｂ６－Ｊ付)
   7
STANDARD
 100
AcDbText
   0
TEXT
   5
218
 100
AcDbEntity
   8
LEVEL003
  62
3
 100
AcDbText
  10
 240.00000000000
  20
 765.00000000000
  30
0.0
  40
 12.000000000000
   1
オプション（Ｍ）
   7
STANDARD
 100
AcDbText
   0
TEXT
   5
219
 100
AcDbEntity
   8
LEVEL003
  62
3
 100
AcDbText
  10
 240.00000000000
  20
 749.00000000000
  30
0.0
  40
 12.000000000000
   1
（Ｍ１８０×３）
   7
STANDARD
 100
AcDbText
   0
TEXT
   5
21A
 100
AcDbEntity
   8
LEVEL003
  62
3
 100
AcDbText
  10
 150.00000000000
  20
 495.00000000000
  30
0.0
  40
 12.000000000000
   1
オプション（Ｃ）
   7
STANDARD
 100
AcDbText
   0
TEXT
   5
21B
 100
AcDbEntity
   8
LEVEL003
  62
3
 100
AcDbText
  10
 150.00000000000
  20
 479.00000000000
  30
0.0
  40
 12.000000000000
   1
キャップ　
   7
STANDARD
 100
AcDbText
   0
LEADER
   5
21C
 100
AcDbEntity
   8
LEVEL003
   6
CONTINUOUS
  62
3
 100
AcDbLeader
   3
GMM004
  73
0
  74
1
  75
0
  40
 12.000000000000
  41
0.0
  76
3
  10
 277.48671215320
  20
 563.63229417973
  30
0.0
  10
 240.00000000000
  20
 495.00000000000
  30
0.0
  10
 150.00000000000
  20
 495.00000000000
  30
0.0
  77
3
   0
TEXT
   5
21D
 100
AcDbEntity
   8
LEVEL020
  62
6
 100
AcDbText
  10
 405.00000000000
  20
 84.000000000000
  30
0.0
  40
 15.000000000000
   1
ｋＮ（ストロークによる）
  41
 0.70000000000000
   7
STANDARD
 100
AcDbText
   0
TEXT
   5
21E
 100
AcDbEntity
   8
LEVEL020
  62
6
 100
AcDbText
  10
 405.00000000000
  20
 63.000000000000
  30
0.0
  40
 15.000000000000
   1
（ストロークによる）
  41
 0.70000000000000
   7
STANDARD
 100
AcDbText
   0
TEXT
   5
21F
 100
AcDbEntity
   8
LEVEL002
  62
7
 100
AcDbText
  10
 966.07144324358
  20
 53.269535323384
  30
0.0
  40
 20.000000000000
   1
ＯＳＡＫＡ ＪＡＣＫ
   7
STANDARD
 100
AcDbText
   0
CIRCLE
   5
220
 100
AcDbEntity
   8
LEVEL002
 100
AcDbCircle
   6
CONTINUOUS
  62
7
  10
 925.17861554288
  20
 66.697478998446
  30
0.0
  40
 6.0000000000000
   0
LINE
   5
221
 100
AcDbEntity
   8
LEVEL002
 100
AcDbLine
   6
CONTINUOUS
  62
7
  10
 936.95461554288
  20
 72.697478998446
  30
0.0
  11
 929.33661554288
  21
 59.497478998446
  31
0.0
   0
LINE
   5
222
 100
AcDbEntity
   8
LEVEL002
 100
AcDbLine
   6
CONTINUOUS
  62
7
  10
 929.33661554288
  20
 59.497478998446
  30
0.0
  11
 914.09461554288
  21
 59.497478998446
  31
0.0
   0
LINE
   5
223
 100
AcDbEntity
   8
LEVEL002
 100
AcDbLine
   6
CONTINUOUS
  62
7
  10
 912.36061554288
  20
 56.497478998446
  30
0.0
  11
 939.60261554288
  21
 56.497478998446
  31
0.0
   0
LINE
   5
224
 100
AcDbEntity
   8
LEVEL002
 100
AcDbLine
   6
CONTINUOUS
  62
7
  10
 939.60261554288
  20
 56.497478998446
  30
0.0
  11
 948.95461554288
  21
 72.697478998446
  31
0.0
   0
LINE
   5
225
 100
AcDbEntity
   8
LEVEL002
 100
AcDbLine
   6
CONTINUOUS
  62
7
  10
 948.95461554288
  20
 72.697478998446
  30
0.0
  11
 936.95461554288
  21
 72.697478998446
  31
0.0
   0
LINE
   5
226
 100
AcDbEntity
   8
LEVEL002
 100
AcDbLine
   6
CONTINUOUS
  62
7
  10
 914.09461554288
  20
 59.497478998446
  30
0.0
  11
 912.36061554288
  21
 56.497478998446
  31
0.0
   0
TEXT
   5
227
 100
AcDbEntity
   8
LEVEL002
  62
7
 100
AcDbText
  10
 971.89344324358
  20
 87.056335323384
  30
0.0
  40
 12.000000000000
   1
Model : ＥＫ１００Ｈ※Ｌ形
   7
STANDARD
 100
AcDbText
   0
ENDSEC
  0
SECTION
  2
OBJECTS
  0
DICTIONARY
  5
C
100
AcDbDictionary
  3
ACAD_GROUP
350
D
  3
ACAD_MLINESTYLE
350
1B
  0
DICTIONARY
  5
D
102
{ACAD_REACTORS
330
C
102
}
100
AcDbDictionary
  0
DICTIONARY
  5
1B
102
{ACAD_REACTORS
330
C
102
}
100
AcDbDictionary
  3
STANDARD
350
1C
  0
MLINESTYLE
  5
1C
102
{ACAD_REACTORS
330
1B
102
}
100
AcDbMlineStyle
  2
STANDARD
 70
     0
  3

 62
   256
 51
90.0
 52
90.0
 71
     2
 49
0.5
 62
   256
  6
BYLAYER
 49
-0.5
 62
   256
  6
BYLAYER
  0
ENDSEC
   0
EOF
