   0
SECTION
   2
HEADER
   9
$ACADVER
   1
AC1014
   9
$LIMMIN
  10
0.0
  20
0.0
   9
$LIMMAX
  10
 630.00000000000
  20
 446.00000000000
   9
$EXTMIN
  10
0.0
  20
0.0
  30
0.0
   9
$EXTMAX
  10
 630.00000000000
  20
 446.00000000000
  30
0.0
   9
$LTSCALE
  40
 12.600000000000
   9
$HANDSEED
   5
228
   0
ENDSEC
   0
SECTION
   2
TABLES
  0
TABLE
  2
VPORT
  5
8
100
AcDbSymbolTable
 70
     1
  0
VPORT
  5
227
100
AcDbSymbolTableRecord
100
AcDbViewportTableRecord
  2
*ACTIVE
 70
     0
 10
0.0
 20
0.0
 11
1.0
 21
1.0
  12
 315.00000000000
  22
 223.00000000000
 13
0.0
 23
0.0
 14
1.0
 24
1.0
 15
0.0
 25
0.0
 16
0.0
 26
0.0
 36
1.0
 17
0.0
 27
0.0
 37
0.0
  40
 630.00000000000
  41
 1.4787878787879
 42
50.0
 43
0.0
 44
0.0
 50
0.0
 51
0.0
 71
     0
 72
   100
 73
     1
 74
     1
 75
     0
 76
     0
 77
     0
 78
     0
  0
ENDTAB
  0
TABLE
  2
LTYPE
  5
5
100
AcDbSymbolTable
 70
    25
  0
LTYPE
  5
12
100
AcDbSymbolTableRecord
100
AcDbLinetypeTableRecord
  2
BYBLOCK
 70
     0
  3

 72
    65
 73
     0
 40
0.0
  0
LTYPE
  5
13
100
AcDbSymbolTableRecord
100
AcDbLinetypeTableRecord
  2
BYLAYER
 70
     0
  3

 72
    65
 73
     0
 40
0.0
  0
LTYPE
  5
14
100
AcDbSymbolTableRecord
100
AcDbLinetypeTableRecord
  2
CONTINUOUS
 70
     0
  3
Solid line
 72
    65
 73
     0
 40
0.0
  0
LTYPE
  5
20
100
AcDbSymbolTableRecord
100
AcDbLinetypeTableRecord
  2
BORDER
 70
     0
  3
__ __ . __ __ . __ __ . __ __ . __ __ . __ __ .
 72
    65
 73
     6
 40
1.75
 49
0.5
 74
     0
 49
-0.25
 74
     0
 49
0.5
 74
     0
 49
-0.25
 74
     0
 49
0.0
 74
     0
 49
-0.25
 74
     0
  0
LTYPE
  5
21
100
AcDbSymbolTableRecord
100
AcDbLinetypeTableRecord
  2
BORDER2
 70
     0
  3
__.__.__.__.__.__.__.__.__.__.__.__.__.__.__.__
 72
    65
 73
     6
 40
0.875
 49
0.25
 74
     0
 49
-0.125
 74
     0
 49
0.25
 74
     0
 49
-0.125
 74
     0
 49
0.0
 74
     0
 49
-0.125
 74
     0
  0
LTYPE
  5
22
100
AcDbSymbolTableRecord
100
AcDbLinetypeTableRecord
  2
BORDERX2
 70
     0
  3
____  ____  .  ____  ____  .  ____  ____  .  __
 72
    65
 73
     6
 40
3.5
 49
1.0
 74
     0
 49
-0.5
 74
     0
 49
1.0
 74
     0
 49
-0.5
 74
     0
 49
0.0
 74
     0
 49
-0.5
 74
     0
  0
LTYPE
  5
23
100
AcDbSymbolTableRecord
100
AcDbLinetypeTableRecord
  2
CENTER
 70
     0
  3
____ _ ____ _ ____ _ ____ _ ____ _ ____ _ ____ 
 72
    65
 73
     4
 40
2.0
 49
1.25
 74
     0
 49
-0.25
 74
     0
 49
0.25
 74
     0
 49
-0.25
 74
     0
  0
LTYPE
  5
24
100
AcDbSymbolTableRecord
100
AcDbLinetypeTableRecord
  2
CENTER2
 70
     0
  3
___ _ ___ _ ___ _ ___ _ ___ _ ___ _ ___ _ ___ _
 72
    65
 73
     4
 40
1.125
 49
0.75
 74
     0
 49
-0.125
 74
     0
 49
0.125
 74
     0
 49
-0.125
 74
     0
  0
LTYPE
  5
25
100
AcDbSymbolTableRecord
100
AcDbLinetypeTableRecord
  2
CENTERX2
 70
     0
  3
________  __  ________  __  ________  __  _____
 72
    65
 73
     4
 40
4.0
 49
2.5
 74
     0
 49
-0.5
 74
     0
 49
0.5
 74
     0
 49
-0.5
 74
     0
  0
LTYPE
  5
26
100
AcDbSymbolTableRecord
100
AcDbLinetypeTableRecord
  2
DASHDOT
 70
     0
  3
__ . __ . __ . __ . __ . __ . __ . __ . __ . __
 72
    65
 73
     4
 40
1.0
 49
0.5
 74
     0
 49
-0.25
 74
     0
 49
0.0
 74
     0
 49
-0.25
 74
     0
  0
LTYPE
  5
27
100
AcDbSymbolTableRecord
100
AcDbLinetypeTableRecord
  2
DASHDOT2
 70
     0
  3
_._._._._._._._._._._._._._._._._._._._._._._._
 72
    65
 73
     4
 40
0.5
 49
0.25
 74
     0
 49
-0.125
 74
     0
 49
0.0
 74
     0
 49
-0.125
 74
     0
  0
LTYPE
  5
28
100
AcDbSymbolTableRecord
100
AcDbLinetypeTableRecord
  2
DASHDOTX2
 70
     0
  3
____  .  ____  .  ____  .  ____  .  ____  .  __
 72
    65
 73
     4
 40
2.0
 49
1.0
 74
     0
 49
-0.5
 74
     0
 49
0.0
 74
     0
 49
-0.5
 74
     0
  0
LTYPE
  5
29
100
AcDbSymbolTableRecord
100
AcDbLinetypeTableRecord
  2
DASHED
 70
     0
  3
__ __ __ __ __ __ __ __ __ __ __ __ __ __ __ __
 72
    65
 73
     2
 40
0.75
 49
0.5
 74
     0
 49
-0.25
 74
     0
  0
LTYPE
  5
2A
100
AcDbSymbolTableRecord
100
AcDbLinetypeTableRecord
  2
DASHED2
 70
     0
  3
_ _ _ _ _ _ _ _ _ _ _ _ _ _ _ _ _ _ _ _ _ _ _ _
 72
    65
 73
     2
 40
0.375
 49
0.25
 74
     0
 49
-0.125
 74
     0
  0
LTYPE
  5
2B
100
AcDbSymbolTableRecord
100
AcDbLinetypeTableRecord
  2
DASHEDX2
 70
     0
  3
____  ____  ____  ____  ____  ____  ____  ____ 
 72
    65
 73
     2
 40
1.5
 49
1.0
 74
     0
 49
-0.5
 74
     0
  0
LTYPE
  5
2C
100
AcDbSymbolTableRecord
100
AcDbLinetypeTableRecord
  2
DIVIDE
 70
     0
  3
____ . . ____ . . ____ . . ____ . . ____ . . __
 72
    65
 73
     6
 40
1.25
 49
0.5
 74
     0
 49
-0.25
 74
     0
 49
0.0
 74
     0
 49
-0.25
 74
     0
 49
0.0
 74
     0
 49
-0.25
 74
     0
  0
LTYPE
  5
2D
100
AcDbSymbolTableRecord
100
AcDbLinetypeTableRecord
  2
DIVIDE2
 70
     0
  3
__..__..__..__..__..__..__..__..__..__..__..__.
 72
    65
 73
     6
 40
0.625
 49
0.25
 74
     0
 49
-0.125
 74
     0
 49
0.0
 74
     0
 49
-0.125
 74
     0
 49
0.0
 74
     0
 49
-0.125
 74
     0
  0
LTYPE
  5
2E
100
AcDbSymbolTableRecord
100
AcDbLinetypeTableRecord
  2
DIVIDEX2
 70
     0
  3
________  .  .  ________  .  .  ________  .  . 
 72
    65
 73
     6
 40
2.5
 49
1.0
 74
     0
 49
-0.5
 74
     0
 49
0.0
 74
     0
 49
-0.5
 74
     0
 49
0.0
 74
     0
 49
-0.5
 74
     0
  0
LTYPE
  5
2F
100
AcDbSymbolTableRecord
100
AcDbLinetypeTableRecord
  2
DOT
 70
     0
  3
. . . . . . . . . . . . . . . . . . . . . . . .
 72
    65
 73
     2
 40
0.25
 49
0.0
 74
     0
 49
-0.25
 74
     0
  0
LTYPE
  5
30
100
AcDbSymbolTableRecord
100
AcDbLinetypeTableRecord
  2
DOT2
 70
     0
  3
...............................................
 72
    65
 73
     2
 40
0.125
 49
0.0
 74
     0
 49
-0.125
 74
     0
  0
LTYPE
  5
31
100
AcDbSymbolTableRecord
100
AcDbLinetypeTableRecord
  2
DOTX2
 70
     0
  3
.  .  .  .  .  .  .  .  .  .  .  .  .  .  .  . 
 72
    65
 73
     2
 40
0.5
 49
0.0
 74
     0
 49
-0.5
 74
     0
  0
LTYPE
  5
32
100
AcDbSymbolTableRecord
100
AcDbLinetypeTableRecord
  2
HIDDEN
 70
     0
  3
__ __ __ __ __ __ __ __ __ __ __ __ __ __ __ __
 72
    65
 73
     2
 40
0.375
 49
0.25
 74
     0
 49
-0.125
 74
     0
  0
LTYPE
  5
33
100
AcDbSymbolTableRecord
100
AcDbLinetypeTableRecord
  2
HIDDEN2
 70
     0
  3
_ _ _ _ _ _ _ _ _ _ _ _ _ _ _ _ _ _ _ _ _ _ _ _
 72
    65
 73
     2
 40
0.1875
 49
0.125
 74
     0
 49
-0.0625
 74
     0
  0
LTYPE
  5
34
100
AcDbSymbolTableRecord
100
AcDbLinetypeTableRecord
  2
HIDDENX2
 70
     0
  3
____ ____ ____ ____ ____ ____ ____ ____ ____ __
 72
    65
 73
     2
 40
0.75
 49
0.5
 74
     0
 49
-0.25
 74
     0
  0
LTYPE
  5
35
100
AcDbSymbolTableRecord
100
AcDbLinetypeTableRecord
  2
PHANTOM
 70
     0
  3
______  __  __  ______  __  __  ______  __  __ 
 72
    65
 73
     6
 40
2.5
 49
1.25
 74
     0
 49
-0.25
 74
     0
 49
0.25
 74
     0
 49
-0.25
 74
     0
 49
0.25
 74
     0
 49
-0.25
 74
     0
  0
LTYPE
  5
36
100
AcDbSymbolTableRecord
100
AcDbLinetypeTableRecord
  2
PHANTOM2
 70
     0
  3
___ _ _ ___ _ _ ___ _ _ ___ _ _ ___ _ _ ___ _ _
 72
    65
 73
     6
 40
1.25
 49
0.625
 74
     0
 49
-0.125
 74
     0
 49
0.125
 74
     0
 49
-0.125
 74
     0
 49
0.125
 74
     0
 49
-0.125
 74
     0
  0
LTYPE
  5
37
100
AcDbSymbolTableRecord
100
AcDbLinetypeTableRecord
  2
PHANTOMX2
 70
     0
  3
____________    ____    ____    ____________   
 72
    65
 73
     6
 40
5.0
 49
2.5
 74
     0
 49
-0.5
 74
     0
 49
0.5
 74
     0
 49
-0.5
 74
     0
 49
0.5
 74
     0
 49
-0.5
 74
     0
  0
ENDTAB
   0
TABLE
   2
LAYER
   5
2
 100
AcDbSymbolTable
  70
7
   0
LAYER
   5
E
 100
AcDbSymbolTableRecord
 100
AcDbLayerTableRecord
   2
0
  70
0
  62
7
   6
CONTINUOUS
   0
LAYER
   5
39
 100
AcDbSymbolTableRecord
 100
AcDbLayerTableRecord
   2
LEVEL001
  70
0
  62
7
   6
CONTINUOUS
   0
LAYER
   5
3A
 100
AcDbSymbolTableRecord
 100
AcDbLayerTableRecord
   2
LEVEL003
  70
0
  62
7
   6
CONTINUOUS
   0
LAYER
   5
3B
 100
AcDbSymbolTableRecord
 100
AcDbLayerTableRecord
   2
LEVEL020
  70
0
  62
7
   6
CONTINUOUS
   0
LAYER
   5
3C
 100
AcDbSymbolTableRecord
 100
AcDbLayerTableRecord
   2
LEVEL050
  70
0
  62
7
   6
CONTINUOUS
   0
LAYER
   5
3D
 100
AcDbSymbolTableRecord
 100
AcDbLayerTableRecord
   2
LEVEL100
  70
0
  62
-7
   6
CONTINUOUS
   0
LAYER
   5
3E
 100
AcDbSymbolTableRecord
 100
AcDbLayerTableRecord
   2
LEVEL110
  70
0
  62
7
   6
CONTINUOUS
   0
ENDTAB
  0
TABLE
  2
STYLE
  5
3
100
AcDbSymbolTable
  70
3
  0
STYLE
  5
F
100
AcDbSymbolTableRecord
100
AcDbTextStyleTableRecord
  2
STANDARD
 70
     0
 40
0.0
 41
1.0
 50
0.0
 71
     0
 42
0.2
  3
TXT
  4
BIGFONT
  0
STYLE
  5
38
100
AcDbSymbolTableRecord
100
AcDbTextStyleTableRecord
  2
STANDARD1
 70
     4
 40
0.0
 41
1.0
 50
0.0
 71
     0
 42
0.2
  3
TXT
  4
BIGFONT
   0
STYLE
   5
3F
 100
AcDbSymbolTableRecord
 100
AcDbTextStyleTableRecord
   2
GMM001
  70
0
  40
0.0
  41
 1.0000000000000
  50
0.0
  71
     0
  42
1.0
   3
txt.shx
   4
bigfont.shx
   0
ENDTAB
  0
TABLE
  2
VIEW
  5
6
100
AcDbSymbolTable
 70
     0
  0
ENDTAB
  0
TABLE
  2
UCS
  5
7
100
AcDbSymbolTable
 70
     0
  0
ENDTAB
  0
TABLE
  2
APPID
  5
9
100
AcDbSymbolTable
 70
     1
  0
APPID
  5
10
100
AcDbSymbolTableRecord
100
AcDbRegAppTableRecord
  2
ACAD
 70
     0
  0
ENDTAB
   0
TABLE
   2
DIMSTYLE
   5
A
 100
AcDbSymbolTable
  70
12
  0
DIMSTYLE
105
1D
100
AcDbSymbolTableRecord
100
AcDbDimStyleTableRecord
  2
STANDARD
 70
     0
  3

  4

  5

  6

  7

 40
1.0
 41
0.18
 42
0.0625
 43
0.38
 44
0.18
 45
0.0
 46
0.0
 47
0.0
 48
0.0
140
0.18
141
0.09
142
0.0
143
25.4
144
1.0
145
0.0
146
1.0
147
0.09
 71
     0
 72
     0
 73
     1
 74
     1
 75
     0
 76
     0
 77
     0
 78
     0
170
     0
171
     2
172
     0
173
     0
174
     0
175
     0
176
     0
177
     0
178
     0
270
     2
271
     4
272
     4
273
     2
274
     2
340
F
275
     0
280
     0
281
     0
282
     0
283
     1
284
     0
285
     0
286
     0
287
     3
288
     0
   0
DIMSTYLE
 105
40
 100
AcDbSymbolTableRecord
 100
AcDbDimStyleTableRecord
   2
GMM001
  70
0
   3

   4

   5

   6
_OPEN
   7
_OPEN
  40
 1.0000000000000
  41
 4.5000000000000
  42
 1.5000000000000
  43
 12.000000000000
  44
 3.0000000000000
  45
0.0
  46
0.0
  47
0.0
  48
0.0
 140
 6.0000000000000
 141
 1.5000000000000
 142
0.0
 143
 0.39400000000000E-1
 144
 1.0000000000000
 145
0.0
 146
 0.62500000000000
 147
0.0
  71
0
  72
0
  73
0
  74
0
  75
0
  76
0
  77
1
  78
8
 170
0
 171
2
 172
1
 173
1
 174
0
 175
0
 176
3
 177
3
 178
7
 270
2
 271
2
 272
0
 273
2
 274
2
 340
F
 275
0
 280
0
 281
0
 282
0
 283
1
 284
0
 285
0
 286
0
 287
3
 288
1
   0
DIMSTYLE
 105
41
 100
AcDbSymbolTableRecord
 100
AcDbDimStyleTableRecord
   2
GMM002
  70
0
   3

   4

   5

   6
_OPEN
   7
_OPEN
  40
 1.0000000000000
  41
 4.5000000000000
  42
 1.5000000000000
  43
 12.000000000000
  44
 3.0000000000000
  45
0.0
  46
0.0
  47
0.0
  48
0.0
 140
 6.0000000000000
 141
 1.5000000000000
 142
0.0
 143
 0.39400000000000E-1
 144
 1.0000000000000
 145
0.0
 146
 0.62500000000000
 147
 1.2000000000000
  71
0
  72
0
  73
0
  74
0
  75
0
  76
0
  77
3
  78
8
 170
0
 171
2
 172
1
 173
1
 174
0
 175
0
 176
3
 177
3
 178
3
 270
2
 271
2
 272
0
 273
2
 274
2
 340
3F
 275
0
 280
0
 281
0
 282
0
 283
1
 284
0
 285
0
 286
0
 287
3
 288
0
   0
DIMSTYLE
 105
42
 100
AcDbSymbolTableRecord
 100
AcDbDimStyleTableRecord
   2
GMM003
  70
0
   3

   4

   5

   6
_OPEN
   7
_OPEN
  40
 1.0000000000000
  41
 4.5000000000000
  42
 1.5000000000000
  43
 12.000000000000
  44
 3.0000000000000
  45
0.0
  46
0.0
  47
0.0
  48
0.0
 140
 6.0000000000000
 141
 1.5000000000000
 142
0.0
 143
 0.39400000000000E-1
 144
 1.0000000000000
 145
0.0
 146
 0.62500000000000
 147
0.0
  71
0
  72
0
  73
0
  74
0
  75
0
  76
0
  77
1
  78
8
 170
0
 171
2
 172
1
 173
1
 174
0
 175
0
 176
3
 177
3
 178
7
 270
2
 271
2
 272
0
 273
2
 274
2
 340
F
 275
0
 280
0
 281
0
 282
0
 283
1
 284
0
 285
0
 286
0
 287
3
 288
1
   0
DIMSTYLE
 105
43
 100
AcDbSymbolTableRecord
 100
AcDbDimStyleTableRecord
   2
GMM004
  70
0
   3

   4

   5

   6
_OPEN
   7
_OPEN
  40
 1.0000000000000
  41
 4.5000000000000
  42
 1.5000000000000
  43
 12.000000000000
  44
 3.0000000000000
  45
0.0
  46
0.0
  47
0.0
  48
0.0
 140
 6.0000000000000
 141
 1.5000000000000
 142
0.0
 143
 0.39400000000000E-1
 144
 1.0000000000000
 145
0.0
 146
 0.62500000000000
 147
 1.2000000000000
  71
0
  72
0
  73
0
  74
0
  75
0
  76
1
  77
3
  78
8
 170
0
 171
2
 172
1
 173
1
 174
0
 175
0
 176
3
 177
3
 178
3
 270
2
 271
2
 272
0
 273
2
 274
2
 340
3F
 275
0
 280
0
 281
0
 282
0
 283
1
 284
0
 285
0
 286
0
 287
3
 288
0
   0
DIMSTYLE
 105
44
 100
AcDbSymbolTableRecord
 100
AcDbDimStyleTableRecord
   2
GMM005
  70
0
   3

   4

   5

   6
_OPEN
   7
_OPEN
  40
 1.0000000000000
  41
 4.5000000000000
  42
 1.5000000000000
  43
 12.000000000000
  44
 3.0000000000000
  45
0.0
  46
0.0
  47
0.0
  48
0.0
 140
 6.0000000000000
 141
 1.5000000000000
 142
0.0
 143
 0.39400000000000E-1
 144
 1.0000000000000
 145
0.0
 146
 0.62500000000000
 147
 1.2000000000000
  71
0
  72
0
  73
0
  74
0
  75
0
  76
0
  77
3
  78
8
 170
0
 171
2
 172
1
 173
1
 174
0
 175
0
 176
3
 177
3
 178
3
 270
2
 271
2
 272
0
 273
2
 274
2
 340
3F
 275
0
 280
0
 281
0
 282
0
 283
1
 284
0
 285
0
 286
0
 287
3
 288
0
   0
DIMSTYLE
 105
45
 100
AcDbSymbolTableRecord
 100
AcDbDimStyleTableRecord
   2
GMM006
  70
0
   3

   4

   5

   6
_OPEN
   7
_OPEN
  40
 1.0000000000000
  41
 4.5000000000000
  42
 1.5000000000000
  43
 0.10000000000000E-5
  44
 3.0000000000000
  45
0.0
  46
0.0
  47
0.0
  48
0.0
 140
 6.0000000000000
 141
 1.5000000000000
 142
0.0
 143
 0.39400000000000E-1
 144
 1.0000000000000
 145
0.0
 146
 0.62500000000000
 147
 1.2000045418738
  71
0
  72
0
  73
0
  74
0
  75
1
  76
1
  77
3
  78
0
 170
0
 171
2
 172
1
 173
1
 174
0
 175
0
 176
3
 177
3
 178
3
 270
2
 271
0
 272
0
 273
2
 274
2
 340
3F
 275
1
 280
0
 281
0
 282
0
 283
1
 284
0
 285
0
 286
0
 287
3
 288
1
   0
DIMSTYLE
 105
46
 100
AcDbSymbolTableRecord
 100
AcDbDimStyleTableRecord
   2
GMM007
  70
0
   3

   4

   5

   6
_OPEN
   7
_OPEN
  40
 1.0000000000000
  41
 4.5000000000000
  42
 1.5000000000000
  43
 12.000000000000
  44
 3.0000000000000
  45
0.0
  46
0.0
  47
0.0
  48
0.0
 140
 6.0000000000000
 141
 1.5000000000000
 142
0.0
 143
 0.39400000000000E-1
 144
 1.0000000000000
 145
0.0
 146
 0.62500000000000
 147
0.0
  71
0
  72
0
  73
0
  74
0
  75
0
  76
0
  77
1
  78
8
 170
0
 171
2
 172
1
 173
1
 174
0
 175
0
 176
3
 177
3
 178
7
 270
2
 271
2
 272
0
 273
2
 274
2
 340
F
 275
0
 280
0
 281
0
 282
0
 283
1
 284
0
 285
0
 286
0
 287
3
 288
1
   0
DIMSTYLE
 105
47
 100
AcDbSymbolTableRecord
 100
AcDbDimStyleTableRecord
   2
GMM008
  70
0
   3

   4

   5

   6
_OPEN
   7
_OPEN
  40
 1.0000000000000
  41
 3.7500000000000
  42
 0.75000000000000
  43
 12.000000000000
  44
 3.0000000000000
  45
0.0
  46
0.0
  47
0.0
  48
0.0
 140
 4.7250000000000
 141
 1.5000000000000
 142
0.0
 143
 0.39400000000000E-1
 144
 1.0000000000000
 145
0.0
 146
 0.62500000000000
 147
0.0
  71
0
  72
0
  73
0
  74
0
  75
0
  76
0
  77
1
  78
8
 170
0
 171
2
 172
1
 173
1
 174
0
 175
0
 176
1
 177
1
 178
7
 270
2
 271
2
 272
0
 273
2
 274
2
 340
F
 275
0
 280
0
 281
0
 282
0
 283
1
 284
0
 285
0
 286
0
 287
3
 288
1
   0
DIMSTYLE
 105
48
 100
AcDbSymbolTableRecord
 100
AcDbDimStyleTableRecord
   2
GMM009
  70
0
   3

   4

   5

   6
_OPEN
   7
_OPEN
  40
 1.0000000000000
  41
 3.7500000000000
  42
 1.5000000000000
  43
 12.000000000000
  44
 3.0000000000000
  45
0.0
  46
0.0
  47
0.0
  48
0.0
 140
 6.0000000000000
 141
 1.5000000000000
 142
0.0
 143
 0.39400000000000E-1
 144
 1.0000000000000
 145
0.0
 146
 0.62500000000000
 147
0.0
  71
0
  72
0
  73
0
  74
0
  75
0
  76
0
  77
1
  78
8
 170
0
 171
2
 172
1
 173
1
 174
0
 175
0
 176
1
 177
1
 178
7
 270
2
 271
2
 272
0
 273
2
 274
2
 340
F
 275
0
 280
0
 281
0
 282
0
 283
1
 284
0
 285
0
 286
0
 287
3
 288
1
   0
DIMSTYLE
 105
49
 100
AcDbSymbolTableRecord
 100
AcDbDimStyleTableRecord
   2
GMM010
  70
0
   3

   4

   5

   6
_OPEN
   7
_OPEN
  40
 1.0000000000000
  41
 4.5000000000000
  42
 1.5000000000000
  43
 12.000000000000
  44
 3.0000000000000
  45
0.0
  46
0.0
  47
0.0
  48
0.0
 140
 6.0000000000000
 141
 1.5000000000000
 142
0.0
 143
 0.39400000000000E-1
 144
 1.0000000000000
 145
0.0
 146
 0.62500000000000
 147
 1.2000000000000
  71
0
  72
0
  73
0
  74
0
  75
0
  76
0
  77
3
  78
8
 170
0
 171
2
 172
1
 173
1
 174
0
 175
0
 176
3
 177
3
 178
3
 270
2
 271
2
 272
0
 273
2
 274
2
 340
3F
 275
0
 280
0
 281
0
 282
0
 283
1
 284
0
 285
0
 286
0
 287
3
 288
0
   0
ENDTAB
  0
TABLE
  2
BLOCK_RECORD
  5
1
100
AcDbSymbolTable
 70
     0
  0
BLOCK_RECORD
  5
18
100
AcDbSymbolTableRecord
100
AcDbBlockTableRecord
  2
*MODEL_SPACE
  0
BLOCK_RECORD
  5
15
100
AcDbSymbolTableRecord
100
AcDbBlockTableRecord
  2
*PAPER_SPACE
   0
BLOCK_RECORD
   5
4A
 100
AcDbSymbolTableRecord
 100
AcDbBlockTableRecord
   2
*D3
   0
BLOCK_RECORD
   5
4B
 100
AcDbSymbolTableRecord
 100
AcDbBlockTableRecord
   2
*D5
   0
BLOCK_RECORD
   5
4C
 100
AcDbSymbolTableRecord
 100
AcDbBlockTableRecord
   2
*D6
   0
BLOCK_RECORD
   5
4D
 100
AcDbSymbolTableRecord
 100
AcDbBlockTableRecord
   2
*D7
   0
BLOCK_RECORD
   5
4E
 100
AcDbSymbolTableRecord
 100
AcDbBlockTableRecord
   2
*D8
   0
BLOCK_RECORD
   5
4F
 100
AcDbSymbolTableRecord
 100
AcDbBlockTableRecord
   2
*D9
   0
BLOCK_RECORD
   5
50
 100
AcDbSymbolTableRecord
 100
AcDbBlockTableRecord
   2
*D10
   0
BLOCK_RECORD
   5
51
 100
AcDbSymbolTableRecord
 100
AcDbBlockTableRecord
   2
*D11
   0
BLOCK_RECORD
   5
52
 100
AcDbSymbolTableRecord
 100
AcDbBlockTableRecord
   2
*D21
   0
BLOCK_RECORD
   5
53
 100
AcDbSymbolTableRecord
 100
AcDbBlockTableRecord
   2
*D22
   0
BLOCK_RECORD
   5
54
 100
AcDbSymbolTableRecord
 100
AcDbBlockTableRecord
   2
*D23
   0
BLOCK_RECORD
   5
55
 100
AcDbSymbolTableRecord
 100
AcDbBlockTableRecord
   2
_ARCHTICK
   0
BLOCK_RECORD
   5
56
 100
AcDbSymbolTableRecord
 100
AcDbBlockTableRecord
   2
_BOXBLANK
   0
BLOCK_RECORD
   5
57
 100
AcDbSymbolTableRecord
 100
AcDbBlockTableRecord
   2
_BOXFILLED
   0
BLOCK_RECORD
   5
58
 100
AcDbSymbolTableRecord
 100
AcDbBlockTableRecord
   2
_CLOSED
   0
BLOCK_RECORD
   5
59
 100
AcDbSymbolTableRecord
 100
AcDbBlockTableRecord
   2
_CLOSEDBLANK
   0
BLOCK_RECORD
   5
5A
 100
AcDbSymbolTableRecord
 100
AcDbBlockTableRecord
   2
_DATUMBLANK
   0
BLOCK_RECORD
   5
5B
 100
AcDbSymbolTableRecord
 100
AcDbBlockTableRecord
   2
_DATUMFILLED
   0
BLOCK_RECORD
   5
5C
 100
AcDbSymbolTableRecord
 100
AcDbBlockTableRecord
   2
_DOT
   0
BLOCK_RECORD
   5
5D
 100
AcDbSymbolTableRecord
 100
AcDbBlockTableRecord
   2
_DOTBLANK
   0
BLOCK_RECORD
   5
5E
 100
AcDbSymbolTableRecord
 100
AcDbBlockTableRecord
   2
_DOTSMALL
   0
BLOCK_RECORD
   5
5F
 100
AcDbSymbolTableRecord
 100
AcDbBlockTableRecord
   2
_INTEGRAL
   0
BLOCK_RECORD
   5
60
 100
AcDbSymbolTableRecord
 100
AcDbBlockTableRecord
   2
_NONE
   0
BLOCK_RECORD
   5
61
 100
AcDbSymbolTableRecord
 100
AcDbBlockTableRecord
   2
_OBLIQUE
   0
BLOCK_RECORD
   5
62
 100
AcDbSymbolTableRecord
 100
AcDbBlockTableRecord
   2
_OPEN
   0
BLOCK_RECORD
   5
63
 100
AcDbSymbolTableRecord
 100
AcDbBlockTableRecord
   2
_OPEN30
   0
BLOCK_RECORD
   5
64
 100
AcDbSymbolTableRecord
 100
AcDbBlockTableRecord
   2
_OPEN90
   0
BLOCK_RECORD
   5
65
 100
AcDbSymbolTableRecord
 100
AcDbBlockTableRecord
   2
_ORIGIN
   0
ENDTAB
   0
ENDSEC
  0
SECTION
  2
BLOCKS
  0
BLOCK
  5
19
100
AcDbEntity
  8
0
100
AcDbBlockBegin
  2
*MODEL_SPACE
 70
     0
 10
0.0
 20
0.0
 30
0.0
  3
*MODEL_SPACE
  1

  0
ENDBLK
  5
1A
100
AcDbEntity
  8
0
100
AcDbBlockEnd
  0
BLOCK
  5
16
100
AcDbEntity
 67
     1
  8
0
100
AcDbBlockBegin
  2
*PAPER_SPACE
 70
     0
 10
0.0
 20
0.0
 30
0.0
  3
*PAPER_SPACE
  1

  0
ENDBLK
  5
17
100
AcDbEntity
 67
     1
  8
0
100
AcDbBlockEnd
   0
BLOCK
   5
66
 100
AcDbEntity
   8
0
 100
AcDbBlockBegin
   2
_ARCHTICK
  70
0
  10
0.0
  20
0.0
  30
0.0
   3
_ARCHTICK
   0
POLYLINE
   5
67
 100
AcDbEntity
   8
0
   6
BYBLOCK
  62
0
 100
AcDb2dPolyline
  66
1
  10
0.0
  20
0.0
  30
0.0
  70
1
  40
 0.15000000000000
  41
 0.15000000000000
   0
VERTEX
   5
68
 100
AcDbEntity
   8
0
   6
BYBLOCK
  62
0
 100
AcDbVertex
 100
AcDb2dVertex
  10
-0.50000000000000
  20
-0.50000000000000
  30
0.0
  40
 0.15000000000000
  41
 0.15000000000000
   0
VERTEX
   5
69
 100
AcDbEntity
   8
0
   6
BYBLOCK
  62
0
 100
AcDbVertex
 100
AcDb2dVertex
  10
 0.50000000000000
  20
 0.50000000000000
  30
0.0
  40
 0.15000000000000
  41
 0.15000000000000
   0
SEQEND
   5
6A
 100
AcDbEntity
   8
0
   6
BYBLOCK
  62
0
   0
ENDBLK
   5
6B
 100
AcDbEntity
   8
0
 100
AcDbBlockEnd
   0
BLOCK
   5
6C
 100
AcDbEntity
   8
0
 100
AcDbBlockBegin
   2
_OBLIQUE
  70
0
  10
0.0
  20
0.0
  30
0.0
   3
_OBLIQUE
   0
LINE
   5
6D
 100
AcDbEntity
   8
0
 100
AcDbLine
   6
BYBLOCK
  62
0
  10
-0.50000000000000
  20
-0.50000000000000
  30
0.0
  11
 0.50000000000000
  21
 0.50000000000000
  31
0.0
   0
ENDBLK
   5
6E
 100
AcDbEntity
   8
0
 100
AcDbBlockEnd
   0
BLOCK
   5
6F
 100
AcDbEntity
   8
0
 100
AcDbBlockBegin
   2
_BOXBLANK
  70
0
  10
0.0
  20
0.0
  30
0.0
   3
_BOXBLANK
   0
LINE
   5
70
 100
AcDbEntity
   8
0
 100
AcDbLine
   6
BYBLOCK
  62
0
  10
-0.50000000000000
  20
-0.50000000000000
  30
0.0
  11
 0.50000000000000
  21
-0.50000000000000
  31
0.0
   0
LINE
   5
71
 100
AcDbEntity
   8
0
 100
AcDbLine
   6
BYBLOCK
  62
0
  10
 0.50000000000000
  20
-0.50000000000000
  30
0.0
  11
 0.50000000000000
  21
 0.50000000000000
  31
0.0
   0
LINE
   5
72
 100
AcDbEntity
   8
0
 100
AcDbLine
   6
BYBLOCK
  62
0
  10
 0.50000000000000
  20
 0.50000000000000
  30
0.0
  11
-0.50000000000000
  21
 0.50000000000000
  31
0.0
   0
LINE
   5
73
 100
AcDbEntity
   8
0
 100
AcDbLine
   6
BYBLOCK
  62
0
  10
-0.50000000000000
  20
 0.50000000000000
  30
0.0
  11
-0.50000000000000
  21
-0.50000000000000
  31
0.0
   0
LINE
   5
74
 100
AcDbEntity
   8
0
 100
AcDbLine
   6
BYBLOCK
  62
0
  10
-0.50000000000000
  20
0.0
  30
0.0
  11
-1.0000000000000
  21
0.0
  31
0.0
   0
ENDBLK
   5
75
 100
AcDbEntity
   8
0
 100
AcDbBlockEnd
   0
BLOCK
   5
76
 100
AcDbEntity
   8
0
 100
AcDbBlockBegin
   2
_BOXFILLED
  70
0
  10
0.0
  20
0.0
  30
0.0
   3
_BOXFILLED
   0
SOLID
   5
77
 100
AcDbEntity
   8
0
 100
AcDbTrace
   6
BYBLOCK
  62
0
  10
-0.50000000000000
  20
 0.50000000000000
  30
0.0
  11
 0.50000000000000
  21
 0.50000000000000
  31
0.0
  12
-0.50000000000000
  22
-0.50000000000000
  32
0.0
  13
 0.50000000000000
  23
-0.50000000000000
  33
0.0
   0
LINE
   5
78
 100
AcDbEntity
   8
0
 100
AcDbLine
   6
BYBLOCK
  62
0
  10
-0.50000000000000
  20
0.0
  30
0.0
  11
-1.0000000000000
  21
0.0
  31
0.0
   0
ENDBLK
   5
79
 100
AcDbEntity
   8
0
 100
AcDbBlockEnd
   0
BLOCK
   5
7A
 100
AcDbEntity
   8
0
 100
AcDbBlockBegin
   2
_CLOSED
  70
0
  10
0.0
  20
0.0
  30
0.0
   3
_CLOSED
   0
LINE
   5
7B
 100
AcDbEntity
   8
0
 100
AcDbLine
   6
BYBLOCK
  62
0
  10
-1.0000000000000
  20
 0.16666666666667
  30
0.0
  11
0.0
  21
0.0
  31
0.0
   0
LINE
   5
7C
 100
AcDbEntity
   8
0
 100
AcDbLine
   6
BYBLOCK
  62
0
  10
0.0
  20
0.0
  30
0.0
  11
-1.0000000000000
  21
-0.16666666666667
  31
0.0
   0
LINE
   5
7D
 100
AcDbEntity
   8
0
 100
AcDbLine
   6
BYBLOCK
  62
0
  10
-1.0000000000000
  20
 0.16666666666667
  30
0.0
  11
-1.0000000000000
  21
-0.16666666666667
  31
0.0
   0
LINE
   5
7E
 100
AcDbEntity
   8
0
 100
AcDbLine
   6
BYBLOCK
  62
0
  10
0.0
  20
0.0
  30
0.0
  11
-1.0000000000000
  21
0.0
  31
0.0
   0
ENDBLK
   5
7F
 100
AcDbEntity
   8
0
 100
AcDbBlockEnd
   0
BLOCK
   5
80
 100
AcDbEntity
   8
0
 100
AcDbBlockBegin
   2
_OPEN
  70
0
  10
0.0
  20
0.0
  30
0.0
   3
_OPEN
   0
LINE
   5
81
 100
AcDbEntity
   8
0
 100
AcDbLine
   6
BYBLOCK
  62
0
  10
-1.0000000000000
  20
 0.16666666666667
  30
0.0
  11
0.0
  21
0.0
  31
0.0
   0
LINE
   5
82
 100
AcDbEntity
   8
0
 100
AcDbLine
   6
BYBLOCK
  62
0
  10
0.0
  20
0.0
  30
0.0
  11
-1.0000000000000
  21
-0.16666666666667
  31
0.0
   0
LINE
   5
83
 100
AcDbEntity
   8
0
 100
AcDbLine
   6
BYBLOCK
  62
0
  10
0.0
  20
0.0
  30
0.0
  11
-1.0000000000000
  21
0.0
  31
0.0
   0
ENDBLK
   5
84
 100
AcDbEntity
   8
0
 100
AcDbBlockEnd
   0
BLOCK
   5
85
 100
AcDbEntity
   8
0
 100
AcDbBlockBegin
   2
_OPEN30
  70
0
  10
0.0
  20
0.0
  30
0.0
   3
_OPEN30
   0
LINE
   5
86
 100
AcDbEntity
   8
0
 100
AcDbLine
   6
BYBLOCK
  62
0
  10
-1.0000000000000
  20
 0.26794919243110
  30
0.0
  11
0.0
  21
0.0
  31
0.0
   0
LINE
   5
87
 100
AcDbEntity
   8
0
 100
AcDbLine
   6
BYBLOCK
  62
0
  10
0.0
  20
0.0
  30
0.0
  11
-1.0000000000000
  21
-0.26794919243110
  31
0.0
   0
LINE
   5
88
 100
AcDbEntity
   8
0
 100
AcDbLine
   6
BYBLOCK
  62
0
  10
0.0
  20
0.0
  30
0.0
  11
-1.0000000000000
  21
0.0
  31
0.0
   0
ENDBLK
   5
89
 100
AcDbEntity
   8
0
 100
AcDbBlockEnd
   0
BLOCK
   5
8A
 100
AcDbEntity
   8
0
 100
AcDbBlockBegin
   2
_OPEN90
  70
0
  10
0.0
  20
0.0
  30
0.0
   3
_OPEN90
   0
LINE
   5
8B
 100
AcDbEntity
   8
0
 100
AcDbLine
   6
BYBLOCK
  62
0
  10
-0.50000000000000
  20
 0.50000000000000
  30
0.0
  11
0.0
  21
0.0
  31
0.0
   0
LINE
   5
8C
 100
AcDbEntity
   8
0
 100
AcDbLine
   6
BYBLOCK
  62
0
  10
0.0
  20
0.0
  30
0.0
  11
-0.50000000000000
  21
-0.50000000000000
  31
0.0
   0
LINE
   5
8D
 100
AcDbEntity
   8
0
 100
AcDbLine
   6
BYBLOCK
  62
0
  10
0.0
  20
0.0
  30
0.0
  11
-1.0000000000000
  21
0.0
  31
0.0
   0
ENDBLK
   5
8E
 100
AcDbEntity
   8
0
 100
AcDbBlockEnd
   0
BLOCK
   5
8F
 100
AcDbEntity
   8
0
 100
AcDbBlockBegin
   2
_CLOSEDBLANK
  70
0
  10
0.0
  20
0.0
  30
0.0
   3
_CLOSEDBLANK
   0
LINE
   5
90
 100
AcDbEntity
   8
0
 100
AcDbLine
   6
BYBLOCK
  62
0
  10
-1.0000000000000
  20
 0.16666666666667
  30
0.0
  11
0.0
  21
0.0
  31
0.0
   0
LINE
   5
91
 100
AcDbEntity
   8
0
 100
AcDbLine
   6
BYBLOCK
  62
0
  10
0.0
  20
0.0
  30
0.0
  11
-1.0000000000000
  21
-0.16666666666667
  31
0.0
   0
LINE
   5
92
 100
AcDbEntity
   8
0
 100
AcDbLine
   6
BYBLOCK
  62
0
  10
-1.0000000000000
  20
 0.16666666666667
  30
0.0
  11
-1.0000000000000
  21
-0.16666666666667
  31
0.0
   0
ENDBLK
   5
93
 100
AcDbEntity
   8
0
 100
AcDbBlockEnd
   0
BLOCK
   5
94
 100
AcDbEntity
   8
0
 100
AcDbBlockBegin
   2
_DOT
  70
0
  10
0.0
  20
0.0
  30
0.0
   3
_DOT
   0
POLYLINE
   5
95
 100
AcDbEntity
   8
0
   6
BYBLOCK
  62
0
 100
AcDb2dPolyline
  66
1
  10
0.0
  20
0.0
  30
0.0
  70
1
  40
 0.50000000000000
  41
 0.50000000000000
   0
VERTEX
   5
96
 100
AcDbEntity
   8
0
   6
BYBLOCK
  62
0
 100
AcDbVertex
 100
AcDb2dVertex
  10
-0.25000000000000
  20
0.0
  30
0.0
  42
 1.0000000000000
  40
 0.50000000000000
  41
 0.50000000000000
   0
VERTEX
   5
97
 100
AcDbEntity
   8
0
   6
BYBLOCK
  62
0
 100
AcDbVertex
 100
AcDb2dVertex
  10
 0.25000000000000
  20
0.0
  30
0.0
  42
 1.0000000000000
  40
 0.50000000000000
  41
 0.50000000000000
   0
SEQEND
   5
98
 100
AcDbEntity
   8
0
   6
BYBLOCK
  62
0
   0
LINE
   5
99
 100
AcDbEntity
   8
0
 100
AcDbLine
   6
BYBLOCK
  62
0
  10
-0.50000000000000
  20
0.0
  30
0.0
  11
-1.0000000000000
  21
0.0
  31
0.0
   0
ENDBLK
   5
9A
 100
AcDbEntity
   8
0
 100
AcDbBlockEnd
   0
BLOCK
   5
9B
 100
AcDbEntity
   8
0
 100
AcDbBlockBegin
   2
_DOTSMALL
  70
0
  10
0.0
  20
0.0
  30
0.0
   3
_DOTSMALL
   0
POLYLINE
   5
9C
 100
AcDbEntity
   8
0
   6
BYBLOCK
  62
0
 100
AcDb2dPolyline
  66
1
  10
0.0
  20
0.0
  30
0.0
  70
1
  40
 0.50000000000000
  41
 0.50000000000000
   0
VERTEX
   5
9D
 100
AcDbEntity
   8
0
   6
BYBLOCK
  62
0
 100
AcDbVertex
 100
AcDb2dVertex
  10
-0.62500000000000E-1
  20
0.0
  30
0.0
  42
 1.0000000000000
  40
 0.50000000000000
  41
 0.50000000000000
   0
VERTEX
   5
9E
 100
AcDbEntity
   8
0
   6
BYBLOCK
  62
0
 100
AcDbVertex
 100
AcDb2dVertex
  10
 0.62500000000000E-1
  20
0.0
  30
0.0
  42
 1.0000000000000
  40
 0.50000000000000
  41
 0.50000000000000
   0
SEQEND
   5
9F
 100
AcDbEntity
   8
0
   6
BYBLOCK
  62
0
   0
ENDBLK
   5
A0
 100
AcDbEntity
   8
0
 100
AcDbBlockEnd
   0
BLOCK
   5
A1
 100
AcDbEntity
   8
0
 100
AcDbBlockBegin
   2
_DATUMBLANK
  70
0
  10
0.0
  20
0.0
  30
0.0
   3
_DATUMBLANK
   0
LINE
   5
A2
 100
AcDbEntity
   8
0
 100
AcDbLine
   6
BYBLOCK
  62
0
  10
0.0
  20
 0.57735027000000
  30
0.0
  11
-1.0000000000000
  21
0.0
  31
0.0
   0
LINE
   5
A3
 100
AcDbEntity
   8
0
 100
AcDbLine
   6
BYBLOCK
  62
0
  10
-1.0000000000000
  20
0.0
  30
0.0
  11
0.0
  21
-0.57735027000000
  31
0.0
   0
LINE
   5
A4
 100
AcDbEntity
   8
0
 100
AcDbLine
   6
BYBLOCK
  62
0
  10
0.0
  20
-0.57735027000000
  30
0.0
  11
0.0
  21
 0.57735027000000
  31
0.0
   0
ENDBLK
   5
A5
 100
AcDbEntity
   8
0
 100
AcDbBlockEnd
   0
BLOCK
   5
A6
 100
AcDbEntity
   8
0
 100
AcDbBlockBegin
   2
_DATUMFILLED
  70
0
  10
0.0
  20
0.0
  30
0.0
   3
_DATUMFILLED
   0
SOLID
   5
A7
 100
AcDbEntity
   8
0
 100
AcDbTrace
   6
BYBLOCK
  62
0
  10
0.0
  20
 0.57735027000000
  30
0.0
  11
-1.0000000000000
  21
0.0
  31
0.0
  12
0.0
  22
-0.57735027000000
  32
0.0
  13
0.0
  23
-0.57735027000000
  33
0.0
   0
ENDBLK
   5
A8
 100
AcDbEntity
   8
0
 100
AcDbBlockEnd
   0
BLOCK
   5
A9
 100
AcDbEntity
   8
0
 100
AcDbBlockBegin
   2
_ORIGIN
  70
0
  10
0.0
  20
0.0
  30
0.0
   3
_ORIGIN
   0
CIRCLE
   5
AA
 100
AcDbEntity
   8
0
 100
AcDbCircle
   6
BYBLOCK
  62
0
  10
0.0
  20
0.0
  30
0.0
  40
 0.50000000000000
   0
LINE
   5
AB
 100
AcDbEntity
   8
0
 100
AcDbLine
   6
BYBLOCK
  62
0
  10
0.0
  20
0.0
  30
0.0
  11
-1.0000000000000
  21
0.0
  31
0.0
   0
ENDBLK
   5
AC
 100
AcDbEntity
   8
0
 100
AcDbBlockEnd
   0
BLOCK
   5
AD
 100
AcDbEntity
   8
0
 100
AcDbBlockBegin
   2
_NONE
  70
0
  10
0.0
  20
0.0
  30
0.0
   3
_NONE
   0
CIRCLE
   5
AE
 100
AcDbEntity
   8
0
 100
AcDbCircle
   6
BYBLOCK
  62
0
  10
0.0
  20
0.0
  30
0.0
  40
 0.25000000000000
   0
ENDBLK
   5
AF
 100
AcDbEntity
   8
0
 100
AcDbBlockEnd
   0
BLOCK
   5
B0
 100
AcDbEntity
   8
0
 100
AcDbBlockBegin
   2
_DOTBLANK
  70
0
  10
0.0
  20
0.0
  30
0.0
   3
_DOTBLANK
   0
CIRCLE
   5
B1
 100
AcDbEntity
   8
0
 100
AcDbCircle
   6
BYBLOCK
  62
0
  10
0.0
  20
0.0
  30
0.0
  40
 0.50000000000000
   0
LINE
   5
B2
 100
AcDbEntity
   8
0
 100
AcDbLine
   6
BYBLOCK
  62
0
  10
-0.50000000000000
  20
0.0
  30
0.0
  11
-1.0000000000000
  21
0.0
  31
0.0
   0
ENDBLK
   5
B3
 100
AcDbEntity
   8
0
 100
AcDbBlockEnd
   0
BLOCK
   5
B4
 100
AcDbEntity
   8
0
 100
AcDbBlockBegin
   2
_INTEGRAL
  70
0
  10
0.0
  20
0.0
  30
0.0
   3
_INTEGRAL
   0
ARC
   5
B5
 100
AcDbEntity
   8
0
   6
BYBLOCK
  62
0
 100
AcDbCircle
  10
 0.44488800000000
  20
-0.91335000000000E-1
  30
0.0
  40
 0.45416700000000
 100
AcDbArc
  50
 102.00000000000
  51
 168.00000000000
   0
ARC
   5
B6
 100
AcDbEntity
   8
0
   6
BYBLOCK
  62
0
 100
AcDbCircle
  10
-0.44488800000000
  20
 0.91335000000000E-1
  30
0.0
  40
 0.45416700000000
 100
AcDbArc
  50
 282.00000000000
  51
 348.00000000000
   0
ENDBLK
   5
B7
 100
AcDbEntity
   8
0
 100
AcDbBlockEnd
   0
BLOCK
   5
B8
 100
AcDbEntity
   8
0
 100
AcDbBlockBegin
   2
*D3
  70
65
  10
0.0
  20
0.0
  30
0.0
   3
*D3
   0
LINE
   5
B9
 100
AcDbEntity
   8
LEVEL003
 100
AcDbLine
   6
CONTINUOUS
  62
3
  10
 120.00001314282
  20
 257.50000000000
  30
0.0
  11
 87.000000000000
  21
 257.50000000000
  31
0.0
   0
LINE
   5
BA
 100
AcDbEntity
   8
LEVEL003
 100
AcDbLine
   6
CONTINUOUS
  62
3
  10
 120.00001314282
  20
 342.50000000000
  30
0.0
  11
 87.000000000000
  21
 342.50000000000
  31
0.0
   0
LINE
   5
BB
 100
AcDbEntity
   8
LEVEL003
 100
AcDbLine
   6
CONTINUOUS
  62
3
  10
 90.000000000000
  20
 257.50000000000
  30
0.0
  11
 90.000000000000
  21
 289.76250000000
  31
0.0
   0
LINE
   5
BC
 100
AcDbEntity
   8
LEVEL003
 100
AcDbLine
   6
CONTINUOUS
  62
3
  10
 90.000000000000
  20
 342.50000000000
  30
0.0
  11
 90.000000000000
  21
 310.23750000000
  31
0.0
   0
INSERT
   5
BD
 100
AcDbEntity
   8
LEVEL003
   6
CONTINUOUS
  62
3
 100
AcDbBlockReference
   2
_OPEN
  10
 90.000000000000
  20
 257.50000000000
  30
0.0
  41
 4.5000000000000
  42
 4.5000000000000
  43
 4.5000000000000
  50
 270.00000000000
   0
INSERT
   5
BE
 100
AcDbEntity
   8
LEVEL003
   6
CONTINUOUS
  62
3
 100
AcDbBlockReference
   2
_OPEN
  10
 90.000000000000
  20
 342.50000000000
  30
0.0
  41
 4.5000000000000
  42
 4.5000000000000
  43
 4.5000000000000
  50
 90.000000000000
   0
MTEXT
   5
BF
 100
AcDbEntity
   8
LEVEL003
  62
3
 100
AcDbMText
  10
 88.800000000000
  20
 300.00000000000
  30
0.0
  40
 6.0000000000000
  41
0.0
  71
8
  72
1
   1
\A1;%%c85
   7
GMM001
  11
0.0
  21
 1.0000000000000
  31
0.0
   0
ENDBLK
   5
C0
 100
AcDbEntity
   8
0
 100
AcDbBlockEnd
   0
BLOCK
   5
C1
 100
AcDbEntity
   8
0
 100
AcDbBlockBegin
   2
*D5
  70
65
  10
0.0
  20
0.0
  30
0.0
   3
*D5
   0
LINE
   5
C2
 100
AcDbEntity
   8
LEVEL003
 100
AcDbLine
   6
CONTINUOUS
  62
3
  10
 121.50001314282
  20
 256.00000000000
  30
0.0
  11
 121.50001314282
  21
 207.00000000000
  31
0.0
   0
LINE
   5
C3
 100
AcDbEntity
   8
LEVEL003
 100
AcDbLine
   6
CONTINUOUS
  62
3
  10
 121.50001314282
  20
 210.00000000000
  30
0.0
  11
 122.94688814282
  21
 210.00000000000
  31
0.0
   0
LINE
   5
C4
 100
AcDbEntity
   8
LEVEL003
 100
AcDbLine
   6
CONTINUOUS
  62
3
  10
 134.50001314282
  20
 210.00000000000
  30
0.0
  11
 133.05313814282
  21
 210.00000000000
  31
0.0
   0
INSERT
   5
C5
 100
AcDbEntity
   8
LEVEL003
   6
CONTINUOUS
  62
3
 100
AcDbBlockReference
   2
_OPEN
  10
 121.50001314282
  20
 210.00000000000
  30
0.0
  41
 4.5000000000000
  42
 4.5000000000000
  43
 4.5000000000000
  50
 180.00000000000
   0
INSERT
   5
C6
 100
AcDbEntity
   8
LEVEL003
   6
CONTINUOUS
  62
3
 100
AcDbBlockReference
   2
_OPEN
  10
 134.50001314282
  20
 210.00000000000
  30
0.0
  41
 4.5000000000000
  42
 4.5000000000000
  43
 4.5000000000000
  50
0.0
   0
MTEXT
   5
C7
 100
AcDbEntity
   8
LEVEL003
  62
3
 100
AcDbMText
  10
 128.00001314282
  20
 211.20000000000
  30
0.0
  40
 6.0000000000000
  41
0.0
  71
8
  72
1
   1
\A1;13
   7
GMM001
   0
ENDBLK
   5
C8
 100
AcDbEntity
   8
0
 100
AcDbBlockEnd
   0
BLOCK
   5
C9
 100
AcDbEntity
   8
0
 100
AcDbBlockBegin
   2
*D6
  70
65
  10
0.0
  20
0.0
  30
0.0
   3
*D6
   0
LINE
   5
CA
 100
AcDbEntity
   8
LEVEL003
 100
AcDbLine
   6
CONTINUOUS
  62
3
  10
 134.50001314282
  20
 267.50000000000
  30
0.0
  11
 134.50001314282
  21
 207.00000000000
  31
0.0
   0
LINE
   5
CB
 100
AcDbEntity
   8
LEVEL003
 100
AcDbLine
   6
CONTINUOUS
  62
3
  10
 169.50001314282
  20
 264.50001627207
  30
0.0
  11
 169.50001314282
  21
 207.00000000000
  31
0.0
   0
LINE
   5
CC
 100
AcDbEntity
   8
LEVEL003
 100
AcDbLine
   6
CONTINUOUS
  62
3
  10
 134.50001314282
  20
 210.00000000000
  30
0.0
  11
 145.96251314282
  21
 210.00000000000
  31
0.0
   0
LINE
   5
CD
 100
AcDbEntity
   8
LEVEL003
 100
AcDbLine
   6
CONTINUOUS
  62
3
  10
 169.50001314282
  20
 210.00000000000
  30
0.0
  11
 158.03751314282
  21
 210.00000000000
  31
0.0
   0
INSERT
   5
CE
 100
AcDbEntity
   8
LEVEL003
   6
CONTINUOUS
  62
3
 100
AcDbBlockReference
   2
_OPEN
  10
 134.50001314282
  20
 210.00000000000
  30
0.0
  41
 4.5000000000000
  42
 4.5000000000000
  43
 4.5000000000000
  50
 180.00000000000
   0
INSERT
   5
CF
 100
AcDbEntity
   8
LEVEL003
   6
CONTINUOUS
  62
3
 100
AcDbBlockReference
   2
_OPEN
  10
 169.50001314282
  20
 210.00000000000
  30
0.0
  41
 4.5000000000000
  42
 4.5000000000000
  43
 4.5000000000000
  50
0.0
   0
MTEXT
   5
D0
 100
AcDbEntity
   8
LEVEL003
  62
3
 100
AcDbMText
  10
 152.00001314282
  20
 211.20000000000
  30
0.0
  40
 6.0000000000000
  41
0.0
  71
8
  72
1
   1
\A1;35
   7
GMM001
   0
ENDBLK
   5
D1
 100
AcDbEntity
   8
0
 100
AcDbBlockEnd
   0
BLOCK
   5
D2
 100
AcDbEntity
   8
0
 100
AcDbBlockBegin
   2
*D7
  70
65
  10
0.0
  20
0.0
  30
0.0
   3
*D7
   0
LINE
   5
D3
 100
AcDbEntity
   8
LEVEL003
 100
AcDbLine
   6
CONTINUOUS
  62
3
  10
 174.49996736646
  20
 237.00000183284
  30
0.0
  11
 174.49996736646
  21
 207.00000000000
  31
0.0
   0
LINE
   5
D4
 100
AcDbEntity
   8
LEVEL003
 100
AcDbLine
   6
CONTINUOUS
  62
3
  10
 522.50000000000
  20
 237.49999418855
  30
0.0
  11
 522.50000000000
  21
 207.00000000000
  31
0.0
   0
LINE
   5
D5
 100
AcDbEntity
   8
LEVEL003
 100
AcDbLine
   6
CONTINUOUS
  62
3
  10
 174.49996736646
  20
 210.00000000000
  30
0.0
  11
 327.30310868323
  21
 210.00000000000
  31
0.0
   0
LINE
   5
D6
 100
AcDbEntity
   8
LEVEL003
 100
AcDbLine
   6
CONTINUOUS
  62
3
  10
 522.50000000000
  20
 210.00000000000
  30
0.0
  11
 369.69685868323
  21
 210.00000000000
  31
0.0
   0
INSERT
   5
D7
 100
AcDbEntity
   8
LEVEL003
   6
CONTINUOUS
  62
3
 100
AcDbBlockReference
   2
_OPEN
  10
 174.49996736646
  20
 210.00000000000
  30
0.0
  41
 4.5000000000000
  42
 4.5000000000000
  43
 4.5000000000000
  50
 180.00000000000
   0
INSERT
   5
D8
 100
AcDbEntity
   8
LEVEL003
   6
CONTINUOUS
  62
3
 100
AcDbBlockReference
   2
_OPEN
  10
 522.50000000000
  20
 210.00000000000
  30
0.0
  41
 4.5000000000000
  42
 4.5000000000000
  43
 4.5000000000000
  50
0.0
   0
MTEXT
   5
D9
 100
AcDbEntity
   8
LEVEL003
  62
3
 100
AcDbMText
  10
 348.49998368323
  20
 211.20000000000
  30
0.0
  40
 6.0000000000000
  41
0.0
  71
8
  72
1
   1
\A1;(198+ST)
   7
GMM001
   0
ENDBLK
   5
DA
 100
AcDbEntity
   8
0
 100
AcDbBlockEnd
   0
BLOCK
   5
DB
 100
AcDbEntity
   8
0
 100
AcDbBlockBegin
   2
*D8
  70
65
  10
0.0
  20
0.0
  30
0.0
   3
*D8
   0
LINE
   5
DC
 100
AcDbEntity
   8
LEVEL003
 100
AcDbLine
   6
CONTINUOUS
  62
3
  10
 121.50001314282
  20
 256.00000000000
  30
0.0
  11
 121.50001314282
  21
 192.00000000000
  31
0.0
   0
LINE
   5
DD
 100
AcDbEntity
   8
LEVEL003
 100
AcDbLine
   6
CONTINUOUS
  62
3
  10
 522.50000000000
  20
 237.49999418855
  30
0.0
  11
 522.50000000000
  21
 192.00000000000
  31
0.0
   0
LINE
   5
DE
 100
AcDbEntity
   8
LEVEL003
 100
AcDbLine
   6
CONTINUOUS
  62
3
  10
 121.50001314282
  20
 195.00000000000
  30
0.0
  11
 300.80313157141
  21
 195.00000000000
  31
0.0
   0
LINE
   5
DF
 100
AcDbEntity
   8
LEVEL003
 100
AcDbLine
   6
CONTINUOUS
  62
3
  10
 522.50000000000
  20
 195.00000000000
  30
0.0
  11
 343.19688157141
  21
 195.00000000000
  31
0.0
   0
INSERT
   5
E0
 100
AcDbEntity
   8
LEVEL003
   6
CONTINUOUS
  62
3
 100
AcDbBlockReference
   2
_OPEN
  10
 121.50001314282
  20
 195.00000000000
  30
0.0
  41
 4.5000000000000
  42
 4.5000000000000
  43
 4.5000000000000
  50
 180.00000000000
   0
INSERT
   5
E1
 100
AcDbEntity
   8
LEVEL003
   6
CONTINUOUS
  62
3
 100
AcDbBlockReference
   2
_OPEN
  10
 522.50000000000
  20
 195.00000000000
  30
0.0
  41
 4.5000000000000
  42
 4.5000000000000
  43
 4.5000000000000
  50
0.0
   0
MTEXT
   5
E2
 100
AcDbEntity
   8
LEVEL003
  62
3
 100
AcDbMText
  10
 322.00000657141
  20
 196.20000000000
  30
0.0
  40
 6.0000000000000
  41
0.0
  71
8
  72
1
   1
\A1;(251+ST)
   7
GMM001
   0
ENDBLK
   5
E3
 100
AcDbEntity
   8
0
 100
AcDbBlockEnd
   0
BLOCK
   5
E4
 100
AcDbEntity
   8
0
 100
AcDbBlockBegin
   2
*D9
  70
65
  10
0.0
  20
0.0
  30
0.0
   3
*D9
   0
LINE
   5
E5
 100
AcDbEntity
   8
LEVEL003
 100
AcDbLine
   6
CONTINUOUS
  62
3
  10
 412.49999369681
  20
 252.49999378622
  30
0.0
  11
 412.49999369681
  21
 289.76250000000
  31
0.0
   0
LINE
   5
E6
 100
AcDbEntity
   8
LEVEL003
 100
AcDbLine
   6
CONTINUOUS
  62
3
  10
 412.49999369681
  20
 347.50000621378
  30
0.0
  11
 412.49999369681
  21
 310.23750000000
  31
0.0
   0
INSERT
   5
E7
 100
AcDbEntity
   8
LEVEL003
   6
CONTINUOUS
  62
3
 100
AcDbBlockReference
   2
_OPEN
  10
 412.49999369681
  20
 252.49999378622
  30
0.0
  41
 4.5000000000000
  42
 4.5000000000000
  43
 4.5000000000000
  50
 270.00000000000
   0
INSERT
   5
E8
 100
AcDbEntity
   8
LEVEL003
   6
CONTINUOUS
  62
3
 100
AcDbBlockReference
   2
_OPEN
  10
 412.49999369681
  20
 347.50000621378
  30
0.0
  41
 4.5000000000000
  42
 4.5000000000000
  43
 4.5000000000000
  50
 90.000000000000
   0
MTEXT
   5
E9
 100
AcDbEntity
   8
LEVEL003
  62
3
 100
AcDbMText
  10
 411.29998915494
  20
 300.00000000000
  30
0.0
  40
 6.0000000000000
  41
0.0
  71
8
  72
1
   1
\A1;%%c95
   7
GMM001
  11
0.0
  21
 1.0000000000000
  31
0.0
   0
ENDBLK
   5
EA
 100
AcDbEntity
   8
0
 100
AcDbBlockEnd
   0
BLOCK
   5
EB
 100
AcDbEntity
   8
0
 100
AcDbBlockBegin
   2
*D10
  70
65
  10
0.0
  20
0.0
  30
0.0
   3
*D10
   0
LINE
   5
EC
 100
AcDbEntity
   8
LEVEL003
 100
AcDbLine
   6
CONTINUOUS
  62
3
  10
 427.49999324977
  20
 237.49999423325
  30
0.0
  11
 427.49999324977
  21
 287.72812500000
  31
0.0
   0
LINE
   5
ED
 100
AcDbEntity
   8
LEVEL003
 100
AcDbLine
   6
CONTINUOUS
  62
3
  10
 427.49999324977
  20
 362.50000576675
  30
0.0
  11
 427.49999324977
  21
 312.27187500000
  31
0.0
   0
INSERT
   5
EE
 100
AcDbEntity
   8
LEVEL003
   6
CONTINUOUS
  62
3
 100
AcDbBlockReference
   2
_OPEN
  10
 427.49999324977
  20
 237.49999423325
  30
0.0
  41
 4.5000000000000
  42
 4.5000000000000
  43
 4.5000000000000
  50
 270.00000000000
   0
INSERT
   5
EF
 100
AcDbEntity
   8
LEVEL003
   6
CONTINUOUS
  62
3
 100
AcDbBlockReference
   2
_OPEN
  10
 427.49999324977
  20
 362.50000576675
  30
0.0
  41
 4.5000000000000
  42
 4.5000000000000
  43
 4.5000000000000
  50
 90.000000000000
   0
MTEXT
   5
F0
 100
AcDbEntity
   8
LEVEL003
  62
3
 100
AcDbMText
  10
 426.29998870790
  20
 300.00000000000
  30
0.0
  40
 6.0000000000000
  41
0.0
  71
8
  72
1
   1
\A1;%%c125
   7
GMM001
  11
0.0
  21
 1.0000000000000
  31
0.0
   0
ENDBLK
   5
F1
 100
AcDbEntity
   8
0
 100
AcDbBlockEnd
   0
BLOCK
   5
F2
 100
AcDbEntity
   8
0
 100
AcDbBlockBegin
   2
*D11
  70
65
  10
0.0
  20
0.0
  30
0.0
   3
*D11
   0
LINE
   5
F3
 100
AcDbEntity
   8
LEVEL003
 100
AcDbLine
   6
CONTINUOUS
  62
3
  10
 397.49999414384
  20
 265.00000867248
  30
0.0
  11
 397.49999414384
  21
 290.28750000000
  31
0.0
   0
LINE
   5
F4
 100
AcDbEntity
   8
LEVEL003
 100
AcDbLine
   6
CONTINUOUS
  62
3
  10
 397.49999414384
  20
 334.99999132752
  30
0.0
  11
 397.49999414384
  21
 309.71250000000
  31
0.0
   0
INSERT
   5
F5
 100
AcDbEntity
   8
LEVEL003
   6
CONTINUOUS
  62
3
 100
AcDbBlockReference
   2
_OPEN
  10
 397.49999414384
  20
 265.00000867248
  30
0.0
  41
 4.5000000000000
  42
 4.5000000000000
  43
 4.5000000000000
  50
 270.00000000000
   0
INSERT
   5
F6
 100
AcDbEntity
   8
LEVEL003
   6
CONTINUOUS
  62
3
 100
AcDbBlockReference
   2
_OPEN
  10
 397.49999414384
  20
 334.99999132752
  30
0.0
  41
 4.5000000000000
  42
 4.5000000000000
  43
 4.5000000000000
  50
 90.000000000000
   0
MTEXT
   5
F7
 100
AcDbEntity
   8
LEVEL003
  62
3
 100
AcDbMText
  10
 396.29998960197
  20
 300.00000000000
  30
0.0
  40
 6.0000000000000
  41
0.0
  71
8
  72
1
   1
\A1;%%c70
   7
GMM001
  11
0.0
  21
 1.0000000000000
  31
0.0
   0
ENDBLK
   5
F8
 100
AcDbEntity
   8
0
 100
AcDbBlockEnd
   0
BLOCK
   5
F9
 100
AcDbEntity
   8
0
 100
AcDbBlockBegin
   2
*D21
  70
65
  10
0.0
  20
0.0
  30
0.0
   3
*D21
   0
LINE
   5
FA
 100
AcDbEntity
   8
LEVEL003
 100
AcDbLine
   6
CONTINUOUS
  62
3
  10
 467.50000049108
  20
 369.00000665953
  30
0.0
  11
 467.50000049108
  21
 385.50000000000
  31
0.0
   0
LINE
   5
FB
 100
AcDbEntity
   8
LEVEL003
 100
AcDbLine
   6
CONTINUOUS
  62
3
  10
 522.50000000000
  20
 362.50000581145
  30
0.0
  11
 522.50000000000
  21
 385.50000000000
  31
0.0
   0
LINE
   5
FC
 100
AcDbEntity
   8
LEVEL003
 100
AcDbLine
   6
CONTINUOUS
  62
3
  10
 467.50000049108
  20
 382.50000000000
  30
0.0
  11
 488.96250024554
  21
 382.50000000000
  31
0.0
   0
LINE
   5
FD
 100
AcDbEntity
   8
LEVEL003
 100
AcDbLine
   6
CONTINUOUS
  62
3
  10
 522.50000000000
  20
 382.50000000000
  30
0.0
  11
 501.03750024554
  21
 382.50000000000
  31
0.0
   0
INSERT
   5
FE
 100
AcDbEntity
   8
LEVEL003
   6
CONTINUOUS
  62
3
 100
AcDbBlockReference
   2
_OPEN
  10
 467.50000049108
  20
 382.50000000000
  30
0.0
  41
 4.5000000000000
  42
 4.5000000000000
  43
 4.5000000000000
  50
 180.00000000000
   0
INSERT
   5
FF
 100
AcDbEntity
   8
LEVEL003
   6
CONTINUOUS
  62
3
 100
AcDbBlockReference
   2
_OPEN
  10
 522.50000000000
  20
 382.50000000000
  30
0.0
  41
 4.5000000000000
  42
 4.5000000000000
  43
 4.5000000000000
  50
0.0
   0
MTEXT
   5
100
 100
AcDbEntity
   8
LEVEL003
  62
3
 100
AcDbMText
  10
 495.00000024554
  20
 383.70000000000
  30
0.0
  40
 6.0000000000000
  41
0.0
  71
8
  72
1
   1
\A1;55
   7
GMM001
   0
ENDBLK
   5
101
 100
AcDbEntity
   8
0
 100
AcDbBlockEnd
   0
BLOCK
   5
102
 100
AcDbEntity
   8
0
 100
AcDbBlockBegin
   2
*D22
  70
65
  10
0.0
  20
0.0
  30
0.0
   3
*D22
   0
LINE
   5
103
 100
AcDbEntity
   8
LEVEL003
 100
AcDbLine
   6
CONTINUOUS
  62
3
  10
 174.49996736646
  20
 362.99999816716
  30
0.0
  11
 174.49996736646
  21
 385.50000000000
  31
0.0
   0
LINE
   5
104
 100
AcDbEntity
   8
LEVEL003
 100
AcDbLine
   6
CONTINUOUS
  62
3
  10
 224.50000402331
  20
 364.00000576675
  30
0.0
  11
 224.50000402331
  21
 385.50000000000
  31
0.0
   0
LINE
   5
105
 100
AcDbEntity
   8
LEVEL003
 100
AcDbLine
   6
CONTINUOUS
  62
3
  10
 174.49996736646
  20
 382.50000000000
  30
0.0
  11
 189.91873569489
  21
 382.50000000000
  31
0.0
   0
LINE
   5
106
 100
AcDbEntity
   8
LEVEL003
 100
AcDbLine
   6
CONTINUOUS
  62
3
  10
 224.50000402331
  20
 382.50000000000
  30
0.0
  11
 209.08123569489
  21
 382.50000000000
  31
0.0
   0
INSERT
   5
107
 100
AcDbEntity
   8
LEVEL003
   6
CONTINUOUS
  62
3
 100
AcDbBlockReference
   2
_OPEN
  10
 174.49996736646
  20
 382.50000000000
  30
0.0
  41
 4.5000000000000
  42
 4.5000000000000
  43
 4.5000000000000
  50
 180.00000000000
   0
INSERT
   5
108
 100
AcDbEntity
   8
LEVEL003
   6
CONTINUOUS
  62
3
 100
AcDbBlockReference
   2
_OPEN
  10
 224.50000402331
  20
 382.50000000000
  30
0.0
  41
 4.5000000000000
  42
 4.5000000000000
  43
 4.5000000000000
  50
0.0
   0
MTEXT
   5
109
 100
AcDbEntity
   8
LEVEL003
  62
3
 100
AcDbMText
  10
 199.49998569489
  20
 383.70000000000
  30
0.0
  40
 6.0000000000000
  41
0.0
  71
8
  72
1
   1
\A1;(50)
   7
GMM001
   0
ENDBLK
   5
10A
 100
AcDbEntity
   8
0
 100
AcDbBlockEnd
   0
BLOCK
   5
10B
 100
AcDbEntity
   8
0
 100
AcDbBlockBegin
   2
*D23
  70
65
  10
0.0
  20
0.0
  30
0.0
   3
*D23
   0
LINE
   5
10C
 100
AcDbEntity
   8
LEVEL003
 100
AcDbLine
   6
CONTINUOUS
  62
3
  10
 174.49996736646
  20
 362.99999816716
  30
0.0
  11
 174.49996736646
  21
 400.50000000000
  31
0.0
   0
LINE
   5
10D
 100
AcDbEntity
   8
LEVEL003
 100
AcDbLine
   6
CONTINUOUS
  62
3
  10
 244.49999579787
  20
 369.00000578910
  30
0.0
  11
 244.49999579787
  21
 400.50000000000
  31
0.0
   0
LINE
   5
10E
 100
AcDbEntity
   8
LEVEL003
 100
AcDbLine
   6
CONTINUOUS
  62
3
  10
 174.49996736646
  20
 397.50000000000
  30
0.0
  11
 203.98748158217
  21
 397.50000000000
  31
0.0
   0
LINE
   5
10F
 100
AcDbEntity
   8
LEVEL003
 100
AcDbLine
   6
CONTINUOUS
  62
3
  10
 244.49999579787
  20
 397.50000000000
  30
0.0
  11
 215.01248158217
  21
 397.50000000000
  31
0.0
   0
INSERT
   5
110
 100
AcDbEntity
   8
LEVEL003
   6
CONTINUOUS
  62
3
 100
AcDbBlockReference
   2
_OPEN
  10
 174.49996736646
  20
 397.50000000000
  30
0.0
  41
 4.5000000000000
  42
 4.5000000000000
  43
 4.5000000000000
  50
 180.00000000000
   0
INSERT
   5
111
 100
AcDbEntity
   8
LEVEL003
   6
CONTINUOUS
  62
3
 100
AcDbBlockReference
   2
_OPEN
  10
 244.49999579787
  20
 397.50000000000
  30
0.0
  41
 4.5000000000000
  42
 4.5000000000000
  43
 4.5000000000000
  50
0.0
   0
MTEXT
   5
112
 100
AcDbEntity
   8
LEVEL003
  62
3
 100
AcDbMText
  10
 209.49998158217
  20
 398.70000000000
  30
0.0
  40
 6.0000000000000
  41
0.0
  71
8
  72
1
   1
\A1;70
   7
GMM001
   0
ENDBLK
   5
113
 100
AcDbEntity
   8
0
 100
AcDbBlockEnd
   0
ENDSEC
   0
SECTION
   2
ENTITIES
   0
LINE
   5
114
 100
AcDbEntity
   8
LEVEL100
 100
AcDbLine
   6
CONTINUOUS
  62
7
  10
 466.87498720363
  20
 95.999997586012
  30
0.0
  11
 466.87498720363
  21
 85.499997898936
  31
0.0
   0
LINE
   5
115
 100
AcDbEntity
   8
LEVEL100
 100
AcDbLine
   6
CONTINUOUS
  62
7
  10
 511.87498586252
  20
 95.999997586012
  30
0.0
  11
 511.87498586252
  21
 61.499998614192
  31
0.0
   0
LINE
   5
116
 100
AcDbEntity
   8
LEVEL100
 100
AcDbLine
   6
CONTINUOUS
  62
7
  10
 541.87498496845
  20
 95.999997586012
  30
0.0
  11
 541.87498496845
  21
 85.499997898936
  31
0.0
   0
LINE
   5
117
 100
AcDbEntity
   8
LEVEL100
 100
AcDbLine
   6
CONTINUOUS
  62
7
  10
 553.87498461083
  20
 95.999997586012
  30
0.0
  11
 553.87498461083
  21
 85.499997898936
  31
0.0
   0
LINE
   5
118
 100
AcDbEntity
   8
LEVEL100
 100
AcDbLine
   6
CONTINUOUS
  62
7
  10
 571.12498409674
  20
 95.999997586012
  30
0.0
  11
 571.12498409674
  21
 85.499997898936
  31
0.0
   0
LINE
   5
119
 100
AcDbEntity
   8
LEVEL100
 100
AcDbLine
   6
CONTINUOUS
  62
7
  10
 497.62498628721
  20
 85.499997898936
  30
0.0
  11
 497.62498628721
  21
 61.499998614192
  31
0.0
   0
LINE
   5
11A
 100
AcDbEntity
   8
LEVEL100
 100
AcDbLine
   6
CONTINUOUS
  62
7
  10
 472.87498702481
  20
 39.749999262393
  30
0.0
  11
 480.37498680130
  21
 47.249999038875
  31
0.0
   0
CIRCLE
   5
11B
 100
AcDbEntity
   8
LEVEL100
 100
AcDbCircle
   6
CONTINUOUS
  62
7
  10
 462.37498733774
  20
 17.249999932945
  30
0.0
  40
 0.59999999105930
   0
CIRCLE
   5
11C
 100
AcDbEntity
   8
LEVEL100
 100
AcDbCircle
   6
CONTINUOUS
  62
7
  10
 472.87498702481
  20
 17.249999932945
  30
0.0
  40
 0.59999999105930
   0
CIRCLE
   5
11D
 100
AcDbEntity
   8
LEVEL100
 100
AcDbCircle
   6
CONTINUOUS
  62
7
  10
 462.37498733774
  20
 17.249999932945
  30
0.0
  40
 0.37499998882413
   0
CIRCLE
   5
11E
 100
AcDbEntity
   8
LEVEL100
 100
AcDbCircle
   6
CONTINUOUS
  62
7
  10
 472.87498702481
  20
 17.249999932945
  30
0.0
  40
 0.37499998882413
   0
LINE
   5
11F
 100
AcDbEntity
   8
LEVEL100
 100
AcDbLine
   6
CONTINUOUS
  62
7
  10
 518.99998565018
  20
 23.249999754131
  30
0.0
  11
 518.99998565018
  21
 24.749999709427
  31
0.0
   0
LINE
   5
120
 100
AcDbEntity
   8
LEVEL100
 100
AcDbLine
   6
CONTINUOUS
  62
7
  10
 518.99998565018
  20
 24.749999709427
  30
0.0
  11
 523.49998551607
  21
 24.749999709427
  31
0.0
   0
LINE
   5
121
 100
AcDbEntity
   8
LEVEL100
 100
AcDbLine
   6
CONTINUOUS
  62
7
  10
 523.49998551607
  20
 24.749999709427
  30
0.0
  11
 523.49998551607
  21
 23.249999754131
  31
0.0
   0
LINE
   5
122
 100
AcDbEntity
   8
LEVEL100
 100
AcDbLine
   6
CONTINUOUS
  62
7
  10
 523.49998551607
  20
 23.249999754131
  30
0.0
  11
 518.99998565018
  21
 23.249999754131
  31
0.0
   0
LINE
   5
123
 100
AcDbEntity
   8
LEVEL100
 100
AcDbLine
   6
CONTINUOUS
  62
7
  10
 451.87498765066
  20
 15.000000000000
  30
0.0
  11
 451.87498765066
  21
 95.999997586012
  31
0.0
   0
LINE
   5
124
 100
AcDbEntity
   8
LEVEL100
 100
AcDbLine
   6
CONTINUOUS
  62
7
  10
 483.37498671189
  20
 85.499997898936
  30
0.0
  11
 483.37498671189
  21
 15.000000000000
  31
0.0
   0
LINE
   5
125
 100
AcDbEntity
   8
LEVEL100
 100
AcDbLine
   6
CONTINUOUS
  62
7
  10
 451.87498765066
  20
 49.499998971820
  30
0.0
  11
 483.37498671189
  21
 49.499998971820
  31
0.0
   0
TEXT
   5
126
 100
AcDbEntity
   8
LEVEL100
  62
7
 100
AcDbText
  10
 488.62498655543
  20
 20.249999843538
  30
0.0
  40
 7.4999997764826
   1
ＯＪ
  41
 0.70000000000000
   7
STANDARD
 100
AcDbText
   0
LINE
   5
127
 100
AcDbEntity
   8
LEVEL100
 100
AcDbLine
   6
CONTINUOUS
  62
7
  10
 451.87498765066
  20
 85.499997898936
  30
0.0
  11
 612.22501949295
  21
 85.499997898936
  31
0.0
   0
LINE
   5
128
 100
AcDbEntity
   8
LEVEL100
 100
AcDbLine
   6
CONTINUOUS
  62
7
  10
 451.87498765066
  20
 79.499998077750
  30
0.0
  11
 612.22501949295
  21
 79.499998077750
  31
0.0
   0
LINE
   5
129
 100
AcDbEntity
   8
LEVEL100
 100
AcDbLine
   6
CONTINUOUS
  62
7
  10
 451.87498765066
  20
 95.999997586012
  30
0.0
  11
 612.22501949295
  21
 95.999997586012
  31
0.0
   0
LINE
   5
12A
 100
AcDbEntity
   8
LEVEL100
 100
AcDbLine
   6
CONTINUOUS
  62
7
  10
 490.72502311394
  20
 394.49998869002
  30
0.0
  11
 490.72502311394
  21
 431.99998757243
  31
0.0
   0
LINE
   5
12B
 100
AcDbEntity
   8
LEVEL100
 100
AcDbLine
   6
CONTINUOUS
  62
7
  10
 490.72502311394
  20
 424.49998779595
  30
0.0
  11
 612.22501949295
  21
 424.49998779595
  31
0.0
   0
LINE
   5
12C
 100
AcDbEntity
   8
LEVEL100
 100
AcDbLine
   6
CONTINUOUS
  62
7
  10
 490.72502311394
  20
 416.99998801947
  30
0.0
  11
 612.22501949295
  21
 416.99998801947
  31
0.0
   0
LINE
   5
12D
 100
AcDbEntity
   8
LEVEL100
 100
AcDbLine
   6
CONTINUOUS
  62
7
  10
 504.22502271160
  20
 424.49998779595
  30
0.0
  11
 504.22502271160
  21
 416.99998801947
  31
0.0
   0
LINE
   5
12E
 100
AcDbEntity
   8
LEVEL100
 100
AcDbLine
   6
CONTINUOUS
  62
7
  10
 582.22502038702
  20
 424.49998779595
  30
0.0
  11
 582.22502038702
  21
 416.99998801947
  31
0.0
   0
LINE
   5
12F
 100
AcDbEntity
   8
LEVEL100
 100
AcDbLine
   6
CONTINUOUS
  62
7
  10
 600.22501985058
  20
 424.49998779595
  30
0.0
  11
 600.22501985058
  21
 416.99998801947
  31
0.0
   0
LINE
   5
130
 100
AcDbEntity
   8
LEVEL100
 100
AcDbLine
   6
CONTINUOUS
  62
7
  10
 451.87498765066
  20
 61.499998614192
  30
0.0
  11
 612.22501949295
  21
 61.499998614192
  31
0.0
   0
LINE
   5
131
 100
AcDbEntity
   8
LEVEL100
 100
AcDbLine
   6
CONTINUOUS
  62
7
  10
 451.87498765066
  20
 37.499999329448
  30
0.0
  11
 612.22501949295
  21
 37.499999329448
  31
0.0
   0
LINE
   5
132
 100
AcDbEntity
   8
LEVEL100
 100
AcDbLine
   6
CONTINUOUS
  62
7
  10
 570.22502074465
  20
 37.499999329448
  30
0.0
  11
 570.22502074465
  21
 15.000000000000
  31
0.0
   0
LINE
   5
133
 100
AcDbEntity
   8
LEVEL100
 100
AcDbLine
   6
CONTINUOUS
  62
7
  10
 576.22502056584
  20
 15.000000000000
  30
0.0
  11
 601.72501980588
  21
 29.999999552965
  31
0.0
   0
LINE
   5
134
 100
AcDbEntity
   8
LEVEL100
 100
AcDbLine
   6
CONTINUOUS
  62
7
  10
 37.500000000000
  20
 431.99998757243
  30
0.0
  11
 612.22501949295
  21
 431.99998757243
  31
0.0
   0
LINE
   5
135
 100
AcDbEntity
   8
LEVEL100
 100
AcDbLine
   6
CONTINUOUS
  62
7
  10
 612.22501949295
  20
 431.99998757243
  30
0.0
  11
 612.22501949295
  21
 15.000000000000
  31
0.0
   0
LINE
   5
136
 100
AcDbEntity
   8
LEVEL100
 100
AcDbLine
   6
CONTINUOUS
  62
7
  10
 612.22501949295
  20
 15.000000000000
  30
0.0
  11
 37.500000000000
  21
 15.000000000000
  31
0.0
   0
LINE
   5
137
 100
AcDbEntity
   8
LEVEL100
 100
AcDbLine
   6
CONTINUOUS
  62
7
  10
 37.500000000000
  20
 418.80000627637
  30
0.0
  11
 112.72503437921
  21
 418.80000627637
  31
0.0
   0
LINE
   5
138
 100
AcDbEntity
   8
LEVEL100
 100
AcDbLine
   6
CONTINUOUS
  62
7
  10
 112.72503437921
  20
 418.80000627637
  30
0.0
  11
 112.72503437921
  21
 431.99998757243
  31
0.0
   0
TEXT
   5
139
 100
AcDbEntity
   8
LEVEL100
  62
7
 100
AcDbText
  10
 111.22502297983
  20
 429.14999681264
  30
0.0
  40
 7.4999997764826
   1
ＯＪ．
  50
 180.00000000000
  41
 0.90000000000000
   7
STANDARD
 100
AcDbText
   0
LINE
   5
13A
 100
AcDbEntity
   8
LEVEL100
 100
AcDbLine
   6
CONTINUOUS
  62
7
  10
 85.725035183876
  20
 426.14999690205
  30
0.0
  11
 81.225035317986
  21
 426.14999690205
  31
0.0
   0
LINE
   5
13B
 100
AcDbEntity
   8
LEVEL100
 100
AcDbLine
   6
CONTINUOUS
  62
7
  10
 81.225035317986
  20
 426.14999690205
  30
0.0
  11
 81.225035317986
  21
 424.64999694675
  31
0.0
   0
LINE
   5
13C
 100
AcDbEntity
   8
LEVEL100
 100
AcDbLine
   6
CONTINUOUS
  62
7
  10
 81.225035317986
  20
 424.64999694675
  30
0.0
  11
 85.725035183876
  21
 424.64999694675
  31
0.0
   0
LINE
   5
13D
 100
AcDbEntity
   8
LEVEL100
 100
AcDbLine
   6
CONTINUOUS
  62
7
  10
 85.725035183876
  20
 424.64999694675
  30
0.0
  11
 85.725035183876
  21
 426.14999690205
  31
0.0
   0
TEXT
   5
13E
 100
AcDbEntity
   8
LEVEL100
  62
7
 100
AcDbText
  10
 468.37498715892
  20
 86.999997854233
  30
0.0
  40
 5.9999998211861
   1
Ｍ．ＩＮＡＢＡ
  41
 0.62500000000000
   7
STANDARD
 100
AcDbText
   0
CIRCLE
   5
13F
 100
AcDbEntity
   8
LEVEL001
 100
AcDbCircle
   6
DASHDOT
  62
1
  10
 308.00000916421
  20
 300.00000000000
  30
0.0
  40
 38.000002682209
   0
LINE
   5
140
 100
AcDbEntity
   8
LEVEL001
 100
AcDbLine
   6
DASHDOT
  62
1
  10
 224.50000402331
  20
 361.49999816716
  30
0.0
  11
 228.23205957615
  21
 362.50000576675
  31
0.0
   0
LINE
   5
141
 100
AcDbEntity
   8
LEVEL001
 100
AcDbLine
   6
CONTINUOUS
  62
7
  10
 175.49999785423
  20
 362.50000576675
  30
0.0
  11
 345.83332865437
  21
 362.50000576675
  31
0.0
   0
LINE
   5
142
 100
AcDbEntity
   8
LEVEL001
 100
AcDbLine
   6
CONTINUOUS
  62
7
  10
 174.49996736646
  20
 361.49999816716
  30
0.0
  11
 175.49999785423
  21
 362.50000576675
  31
0.0
   0
LINE
   5
143
 100
AcDbEntity
   8
LEVEL001
 100
AcDbLine
   6
DASHDOT
  62
1
  10
 174.49996736646
  20
 361.49999816716
  30
0.0
  11
 224.50000402331
  21
 361.49999816716
  31
0.0
   0
LINE
   5
144
 100
AcDbEntity
   8
LEVEL001
 100
AcDbLine
   6
DASHDOT
  62
1
  10
 224.50000402331
  20
 361.49999816716
  30
0.0
  11
 224.50000402331
  21
 362.50000576675
  31
0.0
   0
LINE
   5
145
 100
AcDbEntity
   8
LEVEL001
 100
AcDbLine
   6
CONTINUOUS
  62
7
  10
 169.50001314282
  20
 333.99998372793
  30
0.0
  11
 172.49996727705
  21
 334.99999132752
  31
0.0
   0
ARC
   5
146
 100
AcDbEntity
   8
LEVEL001
   6
CONTINUOUS
  62
7
 100
AcDbCircle
  10
 166.00001314282
  20
 332.50000000000
  30
0.0
  40
 1.5000000000000
 100
AcDbArc
  50
 180.00000000000
  51
 269.99999999988
   0
ARC
   5
147
 100
AcDbEntity
   8
LEVEL001
   6
CONTINUOUS
  62
7
 100
AcDbCircle
  10
 168.00001314282
  20
 332.50000000000
  30
0.0
  40
 1.5000000000000
 100
AcDbArc
  50
 270.00000000000
  51
 0.26055103950549E-10
   0
LINE
   5
148
 100
AcDbEntity
   8
LEVEL001
 100
AcDbLine
   6
CONTINUOUS
  62
7
  10
 166.00001314282
  20
 331.00000000000
  30
0.0
  11
 168.00001314282
  21
 331.00000000000
  31
0.0
   0
LINE
   5
149
 100
AcDbEntity
   8
LEVEL001
 100
AcDbLine
   6
CONTINUOUS
  62
3
  10
 160.00001314282
  20
 331.00000000000
  30
0.0
  11
 166.00001314282
  21
 331.00000000000
  31
0.0
   0
LINE
   5
14A
 100
AcDbEntity
   8
LEVEL001
 100
AcDbLine
   6
CONTINUOUS
  62
7
  10
 160.50001314282
  20
 342.50000000000
  30
0.0
  11
 161.50001314282
  21
 341.50000000000
  31
0.0
   0
POINT
   5
14B
 100
AcDbEntity
   8
LEVEL001
 100
AcDbPoint
  62
7
  10
 161.50001314282
  20
 342.50000000000
  30
0.0
   0
LINE
   5
14C
 100
AcDbEntity
   8
LEVEL001
 100
AcDbLine
   6
CONTINUOUS
  62
7
  10
 122.50001314282
  20
 342.50000000000
  30
0.0
  11
 121.50001314282
  21
 341.50000000000
  31
0.0
   0
POINT
   5
14D
 100
AcDbEntity
   8
LEVEL001
 100
AcDbPoint
  62
7
  10
 121.50001314282
  20
 342.50000000000
  30
0.0
   0
LINE
   5
14E
 100
AcDbEntity
   8
LEVEL001
 100
AcDbLine
   6
CONTINUOUS
  62
7
  10
 121.50001314282
  20
 300.00000000000
  30
0.0
  11
 121.50001314282
  21
 341.50000000000
  31
0.0
   0
LINE
   5
14F
 100
AcDbEntity
   8
LEVEL001
 100
AcDbLine
   6
CONTINUOUS
  62
7
  10
 122.50001314282
  20
 342.50000000000
  30
0.0
  11
 160.50001314282
  21
 342.50000000000
  31
0.0
   0
LINE
   5
150
 100
AcDbEntity
   8
LEVEL001
 100
AcDbLine
   6
DASHDOT
  62
1
  10
 224.50000402331
  20
 238.50000183284
  30
0.0
  11
 228.23205957615
  21
 237.49999423325
  31
0.0
   0
LINE
   5
151
 100
AcDbEntity
   8
LEVEL001
 100
AcDbLine
   6
CONTINUOUS
  62
7
  10
 174.49996736646
  20
 238.50000183284
  30
0.0
  11
 175.49999785423
  21
 237.49999423325
  31
0.0
   0
LINE
   5
152
 100
AcDbEntity
   8
LEVEL001
 100
AcDbLine
   6
DASHDOT
  62
1
  10
 174.49996736646
  20
 238.50000183284
  30
0.0
  11
 224.50000402331
  21
 238.50000183284
  31
0.0
   0
LINE
   5
153
 100
AcDbEntity
   8
LEVEL001
 100
AcDbLine
   6
DASHDOT
  62
1
  10
 224.50000402331
  20
 238.50000183284
  30
0.0
  11
 224.50000402331
  21
 237.49999423325
  31
0.0
   0
LINE
   5
154
 100
AcDbEntity
   8
LEVEL001
 100
AcDbLine
   6
CONTINUOUS
  62
7
  10
 169.50001314282
  20
 266.00001627207
  30
0.0
  11
 172.49996727705
  21
 265.00000867248
  31
0.0
   0
ARC
   5
155
 100
AcDbEntity
   8
LEVEL001
   6
CONTINUOUS
  62
7
 100
AcDbCircle
  10
 166.00001314282
  20
 267.50000000000
  30
0.0
  40
 1.5000000000000
 100
AcDbArc
  50
 90.000000000017
  51
 180.00000000004
   0
ARC
   5
156
 100
AcDbEntity
   8
LEVEL001
   6
CONTINUOUS
  62
7
 100
AcDbCircle
  10
 168.00001314282
  20
 267.50000000000
  30
0.0
  40
 1.5000000000000
 100
AcDbArc
  50
 0.17370069300374E-10
  51
 90.000000000026
   0
LINE
   5
157
 100
AcDbEntity
   8
LEVEL001
 100
AcDbLine
   6
CONTINUOUS
  62
7
  10
 166.00001314282
  20
 269.00000000000
  30
0.0
  11
 168.00001314282
  21
 269.00000000000
  31
0.0
   0
LINE
   5
158
 100
AcDbEntity
   8
LEVEL001
 100
AcDbLine
   6
CONTINUOUS
  62
3
  10
 160.00001314282
  20
 269.00000000000
  30
0.0
  11
 166.00001314282
  21
 269.00000000000
  31
0.0
   0
LINE
   5
159
 100
AcDbEntity
   8
LEVEL001
 100
AcDbLine
   6
CONTINUOUS
  62
7
  10
 160.50001314282
  20
 257.50000000000
  30
0.0
  11
 161.50001314282
  21
 258.50000000000
  31
0.0
   0
POINT
   5
15A
 100
AcDbEntity
   8
LEVEL001
 100
AcDbPoint
  62
7
  10
 161.50001314282
  20
 257.50000000000
  30
0.0
   0
LINE
   5
15B
 100
AcDbEntity
   8
LEVEL001
 100
AcDbLine
   6
CONTINUOUS
  62
7
  10
 122.50001314282
  20
 257.50000000000
  30
0.0
  11
 121.50001314282
  21
 258.50000000000
  31
0.0
   0
POINT
   5
15C
 100
AcDbEntity
   8
LEVEL001
 100
AcDbPoint
  62
7
  10
 121.50001314282
  20
 257.50000000000
  30
0.0
   0
LINE
   5
15D
 100
AcDbEntity
   8
LEVEL001
 100
AcDbLine
   6
CONTINUOUS
  62
7
  10
 121.50001314282
  20
 300.00000000000
  30
0.0
  11
 121.50001314282
  21
 258.50000000000
  31
0.0
   0
LINE
   5
15E
 100
AcDbEntity
   8
LEVEL001
 100
AcDbLine
   6
CONTINUOUS
  62
7
  10
 122.50001314282
  20
 257.50000000000
  30
0.0
  11
 160.50001314282
  21
 257.50000000000
  31
0.0
   0
LINE
   5
15F
 100
AcDbEntity
   8
LEVEL001
 100
AcDbLine
   6
CONTINUOUS
  62
7
  10
 175.49999785423
  20
 237.49999423325
  30
0.0
  11
 366.66666009525
  21
 237.49999423325
  31
0.0
   0
TEXT
   5
160
 100
AcDbEntity
   8
LEVEL003
  62
3
 100
AcDbText
  10
 90.000000000000
  20
 360.00000000000
  30
0.0
  40
 6.0000000000000
   1
Ｍ６５×３
   7
STANDARD
 100
AcDbText
   0
LEADER
   5
161
 100
AcDbEntity
   8
LEVEL003
   6
CONTINUOUS
  62
3
 100
AcDbLeader
   3
GMM001
  73
0
  74
1
  75
0
  40
 6.0000000000000
  41
0.0
  76
3
  10
 187.50000000000
  20
 362.50000576675
  30
0.0
  10
 157.50000000000
  20
 397.50000000000
  30
0.0
  10
 112.50000000000
  20
 397.50000000000
  30
0.0
  77
3
   0
LEADER
   5
162
 100
AcDbEntity
   8
LEVEL003
   6
CONTINUOUS
  62
3
 100
AcDbLeader
   3
GMM001
  73
0
  74
1
  75
0
  40
 6.0000000000000
  41
0.0
  76
3
  10
 150.00000000000
  20
 332.50000000000
  30
0.0
  10
 120.00000000000
  20
 360.00000000000
  30
0.0
  10
 90.000000000000
  20
 360.00000000000
  30
0.0
  77
3
   0
DIMENSION
   5
163
 100
AcDbEntity
   8
LEVEL003
   6
CONTINUOUS
  62
3
 100
AcDbDimension
   2
*D3
  10
 90.000000000000
  20
 342.50000000000
  30
0.0
  11
 90.000000000000
  21
 300.00000000000
  31
0.0
  70
0
   1
\A1;%%c85
   3
GMM002
 100
AcDbAlignedDimension
  13
 121.50001314282
  23
 257.50000000000
  33
0.0
  14
 121.50001314282
  24
 342.50000000000
  34
0.0
  50
 90.000000000000
 100
AcDbRotatedDimension
   0
LEADER
   5
165
 100
AcDbEntity
   8
LEVEL003
   6
CONTINUOUS
  62
3
 100
AcDbLeader
   3
GMM003
  73
0
  74
1
  75
0
  40
 6.0000000000000
  41
0.0
  76
3
  10
 244.49999579787
  20
 362.50000576675
  30
0.0
  10
 262.50000000000
  20
 390.00000000000
  30
0.0
  10
 292.50000000000
  20
 390.00000000000
  30
0.0
  77
3
   0
DIMENSION
   5
166
 100
AcDbEntity
   8
LEVEL003
   6
CONTINUOUS
  62
3
 100
AcDbDimension
   2
*D5
  10
 134.50001314282
  20
 210.00000000000
  30
0.0
  11
 128.00001314282
  21
 210.00000000000
  31
0.0
  70
0
   1
\A1;13
   3
GMM004
 100
AcDbAlignedDimension
  13
 121.50001314282
  23
 257.50000000000
  33
0.0
  14
 134.50001314282
  24
 269.00000000000
  34
0.0
 100
AcDbRotatedDimension
   0
DIMENSION
   5
168
 100
AcDbEntity
   8
LEVEL003
   6
CONTINUOUS
  62
3
 100
AcDbDimension
   2
*D6
  10
 169.50001314282
  20
 210.00000000000
  30
0.0
  11
 152.00001314282
  21
 210.00000000000
  31
0.0
  70
0
   1
\A1;35
   3
GMM005
 100
AcDbAlignedDimension
  13
 134.50001314282
  23
 269.00000000000
  33
0.0
  14
 169.50001314282
  24
 266.00001627207
  34
0.0
 100
AcDbRotatedDimension
   0
DIMENSION
   5
16A
 100
AcDbEntity
   8
LEVEL003
   6
CONTINUOUS
  62
3
 100
AcDbDimension
   2
*D7
  10
 522.50000000000
  20
 210.00000000000
  30
0.0
  11
 348.49998368323
  21
 210.00000000000
  31
0.0
  70
0
   1
\A1;(198+ST)
   3
GMM002
 100
AcDbAlignedDimension
  13
 174.49996736646
  23
 238.50000183284
  33
0.0
  14
 522.50000000000
  24
 238.99999418855
  34
0.0
 100
AcDbRotatedDimension
   0
DIMENSION
   5
16C
 100
AcDbEntity
   8
LEVEL003
   6
CONTINUOUS
  62
3
 100
AcDbDimension
   2
*D8
  10
 522.50000000000
  20
 195.00000000000
  30
0.0
  11
 322.00000657141
  21
 195.00000000000
  31
0.0
  70
0
   1
\A1;(251+ST)
   3
GMM002
 100
AcDbAlignedDimension
  13
 121.50001314282
  23
 257.50000000000
  33
0.0
  14
 522.50000000000
  24
 238.99999418855
  34
0.0
 100
AcDbRotatedDimension
   0
LINE
   5
16E
 100
AcDbEntity
   8
LEVEL001
 100
AcDbLine
   6
DASHDOT
  62
1
  10
 367.49999213219
  20
 232.50000201166
  30
0.0
  11
 344.99999280274
  21
 367.49999798834
  31
0.0
   0
LINE
   5
16F
 100
AcDbEntity
   8
LEVEL001
 100
AcDbLine
   6
DASHDOT
  62
1
  10
 371.24999202043
  20
 232.50000201166
  30
0.0
  11
 348.74999269098
  21
 367.49999798834
  31
0.0
   0
LINE
   5
170
 100
AcDbEntity
   8
LEVEL001
 100
AcDbLine
   6
CONTINUOUS
  62
7
  10
 521.00000004470
  20
 362.50000576675
  30
0.0
  11
 522.50000000000
  21
 361.00000581145
  31
0.0
   0
LINE
   5
171
 100
AcDbEntity
   8
LEVEL001
 100
AcDbLine
   6
CONTINUOUS
  62
7
  10
 521.00000004470
  20
 237.49999423325
  30
0.0
  11
 522.50000000000
  21
 238.99999418855
  31
0.0
   0
LINE
   5
172
 100
AcDbEntity
   8
LEVEL001
 100
AcDbLine
   6
CONTINUOUS
  62
7
  10
 522.50000000000
  20
 361.00000581145
  30
0.0
  11
 522.50000000000
  21
 238.99999418855
  31
0.0
   0
LINE
   5
173
 100
AcDbEntity
   8
LEVEL001
 100
AcDbLine
   6
CONTINUOUS
  62
7
  10
 370.41665616880
  20
 237.49999423325
  30
0.0
  11
 521.00000004470
  21
 237.49999423325
  31
0.0
   0
LINE
   5
174
 100
AcDbEntity
   8
LEVEL001
 100
AcDbLine
   6
CONTINUOUS
  62
7
  10
 349.58332854261
  20
 362.50000576675
  30
0.0
  11
 521.00000004470
  21
 362.50000576675
  31
0.0
   0
LINE
   5
175
 100
AcDbEntity
   8
LEVEL001
 100
AcDbLine
   6
DASHDOT
  62
1
  10
 522.50000000000
  20
 291.66900634766
  30
0.0
  11
 521.61639404297
  21
 292.55261230469
  31
0.0
   0
LINE
   5
176
 100
AcDbEntity
   8
LEVEL001
 100
AcDbLine
   6
DASHDOT
  62
1
  10
 522.50000000000
  20
 308.33099365234
  30
0.0
  11
 521.61639404297
  21
 307.44738769531
  31
0.0
   0
LINE
   5
177
 100
AcDbEntity
   8
LEVEL001
 100
AcDbLine
   6
DASHDOT
  62
1
  10
 505.11639404297
  20
 307.78771972656
  30
0.0
  11
 505.11639404297
  21
 292.21228027344
  31
0.0
   0
LINE
   5
178
 100
AcDbEntity
   8
LEVEL001
 100
AcDbLine
   6
DASHDOT
  62
1
  10
 521.61639404297
  20
 292.55261230469
  30
0.0
  11
 521.61639404297
  21
 307.44738769531
  31
0.0
   0
LINE
   5
179
 100
AcDbEntity
   8
LEVEL001
 100
AcDbLine
   6
DASHDOT
  62
1
  10
 521.61639404297
  20
 307.44738769531
  30
0.0
  11
 501.50000000000
  21
 306.81871032715
  31
0.0
   0
LINE
   5
17A
 100
AcDbEntity
   8
LEVEL001
 100
AcDbLine
   6
DASHDOT
  62
1
  10
 501.50000000000
  20
 306.81871032715
  30
0.0
  11
 501.50000000000
  21
 293.18128967285
  31
0.0
   0
LINE
   5
17B
 100
AcDbEntity
   8
LEVEL001
 100
AcDbLine
   6
DASHDOT
  62
1
  10
 501.50000000000
  20
 293.18128967285
  30
0.0
  11
 521.61639404297
  21
 292.55261230469
  31
0.0
   0
LINE
   5
17C
 100
AcDbEntity
   8
LEVEL001
 100
AcDbLine
   6
DASHDOT
  62
1
  10
 472.49998623133
  20
 296.00000000000
  30
0.0
  11
 499.87261110740
  21
 296.00000000000
  31
0.0
   0
LINE
   5
17D
 100
AcDbEntity
   8
LEVEL001
 100
AcDbLine
   6
DASHDOT
  62
1
  10
 472.49998623133
  20
 304.00000000000
  30
0.0
  11
 499.87261110740
  21
 304.00000000000
  31
0.0
   0
LINE
   5
17E
 100
AcDbEntity
   8
LEVEL001
 100
AcDbLine
   6
DASHDOT
  62
1
  10
 522.50000000000
  20
 308.33099365234
  30
0.0
  11
 505.11639404297
  21
 307.78771972656
  31
0.0
   0
LINE
   5
17F
 100
AcDbEntity
   8
LEVEL001
 100
AcDbLine
   6
DASHDOT
  62
1
  10
 505.11639404297
  20
 307.78771972656
  30
0.0
  11
 501.50000000000
  21
 306.81871032715
  31
0.0
   0
LINE
   5
180
 100
AcDbEntity
   8
LEVEL001
 100
AcDbLine
   6
DASHDOT
  62
1
  10
 501.50000000000
  20
 306.81871032715
  30
0.0
  11
 499.87261110740
  21
 304.00000000000
  31
0.0
   0
LINE
   5
181
 100
AcDbEntity
   8
LEVEL001
 100
AcDbLine
   6
DASHDOT
  62
1
  10
 499.87261110740
  20
 304.00000000000
  30
0.0
  11
 499.87261110740
  21
 296.00000000000
  31
0.0
   0
LINE
   5
182
 100
AcDbEntity
   8
LEVEL001
 100
AcDbLine
   6
DASHDOT
  62
1
  10
 499.87261110740
  20
 296.00000000000
  30
0.0
  11
 501.50000000000
  21
 293.18128967285
  31
0.0
   0
LINE
   5
183
 100
AcDbEntity
   8
LEVEL001
 100
AcDbLine
   6
DASHDOT
  62
1
  10
 501.50000000000
  20
 293.18128967285
  30
0.0
  11
 505.11639404297
  21
 292.21228027344
  31
0.0
   0
LINE
   5
184
 100
AcDbEntity
   8
LEVEL001
 100
AcDbLine
   6
DASHDOT
  62
1
  10
 505.11639404297
  20
 292.21228027344
  30
0.0
  11
 522.50000000000
  21
 291.66900634766
  31
0.0
   0
LINE
   5
185
 100
AcDbEntity
   8
LEVEL001
 100
AcDbLine
   6
DOT
  62
3
  10
 475.83100648728
  20
 362.50000576675
  30
0.0
  11
 474.94740818598
  21
 361.61640746545
  31
0.0
   0
LINE
   5
186
 100
AcDbEntity
   8
LEVEL001
 100
AcDbLine
   6
DOT
  62
3
  10
 459.16902730855
  20
 362.50000576675
  30
0.0
  11
 460.05262560986
  21
 361.61640746545
  31
0.0
   0
LINE
   5
187
 100
AcDbEntity
   8
LEVEL001
 100
AcDbLine
   6
DOT
  62
3
  10
 474.94740818598
  20
 361.61640746545
  30
0.0
  11
 474.52280950478
  21
 348.02979898364
  31
0.0
   0
LINE
   5
188
 100
AcDbEntity
   8
LEVEL001
 100
AcDbLine
   6
DOT
  62
3
  10
 460.47724717923
  20
 348.02979898364
  30
0.0
  11
 460.05262560986
  21
 361.61640746545
  31
0.0
   0
LINE
   5
189
 100
AcDbEntity
   8
LEVEL001
 100
AcDbLine
   6
DOT
  62
3
  10
 459.62835880731
  20
 347.80235911005
  30
0.0
  11
 459.16903238456
  21
 362.50000592538
  31
0.0
   0
LINE
   5
18A
 100
AcDbEntity
   8
LEVEL001
 100
AcDbLine
   6
DOT
  62
3
  10
 475.37167498852
  20
 347.80233622186
  30
0.0
  11
 475.83100074049
  21
 362.50000594635
  31
0.0
   0
LINE
   5
18B
 100
AcDbEntity
   8
LEVEL001
 100
AcDbLine
   6
DOT
  62
3
  10
 460.05262560986
  20
 361.61640746545
  30
0.0
  11
 474.94740818598
  21
 361.61640746545
  31
0.0
   0
LINE
   5
18C
 100
AcDbEntity
   8
LEVEL001
 100
AcDbLine
   6
DASHDOT
  62
1
  10
 467.50000049108
  20
 367.50000665953
  30
0.0
  11
 467.50000049108
  21
 344.99999952932
  31
0.0
   0
LINE
   5
18D
 100
AcDbEntity
   8
LEVEL001
 100
AcDbLine
   6
DOT
  62
3
  10
 252.83097394314
  20
 362.50000576675
  30
0.0
  11
 251.94739853002
  21
 361.61640746545
  31
0.0
   0
LINE
   5
18E
 100
AcDbEntity
   8
LEVEL001
 100
AcDbLine
   6
DOT
  62
3
  10
 236.16901765260
  20
 362.50000576675
  30
0.0
  11
 237.05259306572
  21
 361.61640746545
  31
0.0
   0
LINE
   5
18F
 100
AcDbEntity
   8
LEVEL001
 100
AcDbLine
   6
DOT
  62
3
  10
 251.94739853002
  20
 361.61640746545
  30
0.0
  11
 251.52277696065
  21
 348.02979898364
  31
0.0
   0
LINE
   5
190
 100
AcDbEntity
   8
LEVEL001
 100
AcDbLine
   6
DOT
  62
3
  10
 237.47721463510
  20
 348.02979898364
  30
0.0
  11
 237.05259306572
  21
 361.61640746545
  31
0.0
   0
LINE
   5
191
 100
AcDbEntity
   8
LEVEL001
 100
AcDbLine
   6
DOT
  62
3
  10
 252.37165388847
  20
 347.80233622186
  30
0.0
  11
 252.83100179407
  21
 362.50000489632
  31
0.0
   0
LINE
   5
192
 100
AcDbEntity
   8
LEVEL001
 100
AcDbLine
   6
DOT
  62
3
  10
 237.05259306572
  20
 361.61640746545
  30
0.0
  11
 251.94739853002
  21
 361.61640746545
  31
0.0
   0
LINE
   5
193
 100
AcDbEntity
   8
LEVEL001
 100
AcDbLine
   6
DOT
  62
3
  10
 236.62833770727
  20
 347.80235911005
  30
0.0
  11
 236.16898913087
  21
 362.50000487535
  31
0.0
   0
LINE
   5
194
 100
AcDbEntity
   8
LEVEL001
 100
AcDbLine
   6
DASHDOT
  62
1
  10
 244.49999579787
  20
 367.50000578910
  30
0.0
  11
 244.49999579787
  21
 344.99999865890
  31
0.0
   0
CIRCLE
   5
195
 100
AcDbEntity
   8
LEVEL001
 100
AcDbCircle
   6
CONTINUOUS
  62
7
  10
 269.99999503791
  20
 300.00000000000
  30
0.0
  40
 12.500000581145
   0
CIRCLE
   5
196
 100
AcDbEntity
   8
LEVEL001
 100
AcDbCircle
   6
CONTINUOUS
  62
7
  10
 269.99999503791
  20
 300.00000000000
  30
0.0
  40
 11.500000849366
   0
ARC
   5
197
 100
AcDbEntity
   8
LEVEL001
   6
CONTINUOUS
  62
7
 100
AcDbCircle
  10
 308.00000366309
  20
 299.99999427795
  30
0.0
  40
 43.500004425645
 100
AcDbArc
  50
 195.86939680170
  51
 164.13060319830
   0
ARC
   5
198
 100
AcDbEntity
   8
LEVEL001
   6
CONTINUOUS
  62
7
 100
AcDbCircle
  10
 307.99999727426
  20
 300.00000572205
  30
0.0
  40
 32.500003799796
 100
AcDbArc
  50
 198.37966957051
  51
 161.62033042949
   0
LINE
   5
199
 100
AcDbEntity
   8
LEVEL001
 100
AcDbLine
   6
CONTINUOUS
  62
7
  10
 174.49996736646
  20
 300.00000000000
  30
0.0
  11
 174.49996736646
  21
 361.49999816716
  31
0.0
   0
LINE
   5
19A
 100
AcDbEntity
   8
LEVEL001
 100
AcDbLine
   6
CONTINUOUS
  62
7
  10
 174.49996736646
  20
 300.00000000000
  30
0.0
  11
 174.49996736646
  21
 238.50000183284
  31
0.0
   0
LINE
   5
19B
 100
AcDbEntity
   8
LEVEL001
 100
AcDbLine
   6
CONTINUOUS
  62
7
  10
 172.49996727705
  20
 334.99999132752
  30
0.0
  11
 172.49996727705
  21
 265.00000867248
  31
0.0
   0
LINE
   5
19C
 100
AcDbEntity
   8
LEVEL001
 100
AcDbLine
   6
CONTINUOUS
  62
7
  10
 169.50001314282
  20
 266.00001627207
  30
0.0
  11
 169.50001314282
  21
 333.99998372795
  31
0.0
   0
LINE
   5
19D
 100
AcDbEntity
   8
LEVEL001
 100
AcDbLine
   6
CONTINUOUS
  62
7
  10
 172.49996727705
  20
 334.99999132752
  30
0.0
  11
 174.49996736646
  21
 334.99999132752
  31
0.0
   0
LINE
   5
19E
 100
AcDbEntity
   8
LEVEL001
 100
AcDbLine
   6
CONTINUOUS
  62
7
  10
 172.49996727705
  20
 265.00000867248
  30
0.0
  11
 174.49996736646
  21
 265.00000867248
  31
0.0
   0
LINE
   5
19F
 100
AcDbEntity
   8
LEVEL001
 100
AcDbLine
   6
CONTINUOUS
  62
7
  10
 164.50001314282
  20
 332.50000000000
  30
0.0
  11
 164.50001314282
  21
 267.50000000000
  31
0.0
   0
DIMENSION
   5
1A0
 100
AcDbEntity
   8
LEVEL003
   6
CONTINUOUS
  62
3
 100
AcDbDimension
   2
*D9
  10
 412.49999369681
  20
 347.50000621378
  30
0.0
  11
 412.49999369681
  21
 300.00000000000
  31
0.0
  70
128
   1
\A1;%%c95
   3
GMM006
 100
AcDbAlignedDimension
  13
 412.49999369681
  23
 252.49999378622
  33
0.0
  14
 412.49999369681
  24
 347.50000621378
  34
0.0
  50
 90.000000000000
 100
AcDbRotatedDimension
   0
DIMENSION
   5
1A2
 100
AcDbEntity
   8
LEVEL003
   6
CONTINUOUS
  62
3
 100
AcDbDimension
   2
*D10
  10
 427.49999324977
  20
 362.50000576675
  30
0.0
  11
 427.49999324977
  21
 300.00000000000
  31
0.0
  70
128
   1
\A1;%%c125
   3
GMM006
 100
AcDbAlignedDimension
  13
 427.49999324977
  23
 237.49999423325
  33
0.0
  14
 427.49999324977
  24
 362.50000576675
  34
0.0
  50
 90.000000000000
 100
AcDbRotatedDimension
   0
DIMENSION
   5
1A4
 100
AcDbEntity
   8
LEVEL003
   6
CONTINUOUS
  62
3
 100
AcDbDimension
   2
*D11
  10
 397.49999414384
  20
 334.99999132752
  30
0.0
  11
 397.49999414384
  21
 300.00000000000
  31
0.0
  70
128
   1
\A1;%%c70
   3
GMM006
 100
AcDbAlignedDimension
  13
 397.49999414384
  23
 265.00000867248
  33
0.0
  14
 397.49999414384
  24
 334.99999132752
  34
0.0
  50
 90.000000000000
 100
AcDbRotatedDimension
   0
LINE
   5
1A6
 100
AcDbEntity
   8
LEVEL001
 100
AcDbLine
   6
DOT
  62
3
  10
 382.50000000000
  20
 252.49999378622
  30
0.0
  11
 435.00000000000
  21
 252.49999378622
  31
0.0
   0
LINE
   5
1A7
 100
AcDbEntity
   8
LEVEL001
 100
AcDbLine
   6
DOT
  62
3
  10
 435.00000000000
  20
 265.00000867248
  30
0.0
  11
 382.50000000000
  21
 265.00000867248
  31
0.0
   0
LINE
   5
1A8
 100
AcDbEntity
   8
LEVEL001
 100
AcDbLine
   6
DOT
  62
3
  10
 382.50000000000
  20
 347.50000621378
  30
0.0
  11
 435.00000000000
  21
 347.50000621378
  31
0.0
   0
LINE
   5
1A9
 100
AcDbEntity
   8
LEVEL001
 100
AcDbLine
   6
DOT
  62
3
  10
 435.00000000000
  20
 334.99999132752
  30
0.0
  11
 382.50000000000
  21
 334.99999132752
  31
0.0
   0
LINE
   5
1AA
 100
AcDbEntity
   8
LEVEL001
 100
AcDbLine
   6
DASHDOT
  62
1
  10
 382.50000000000
  20
 300.00000000000
  30
0.0
  11
 114.50000000000
  21
 300.00000000000
  31
0.0
   0
LINE
   5
1AB
 100
AcDbEntity
   8
LEVEL001
 100
AcDbLine
   6
CONTINUOUS
  62
7
  10
 161.50001314282
  20
 258.49999999986
  30
0.0
  11
 161.50001314282
  21
 341.50000000000
  31
0.0
   0
LINE
   5
1AC
 100
AcDbEntity
   8
LEVEL001
 100
AcDbLine
   6
DOT
  62
3
  10
 134.50001314282
  20
 331.00000000000
  30
0.0
  11
 134.50001314282
  21
 300.00000000000
  31
0.0
   0
LINE
   5
1AD
 100
AcDbEntity
   8
LEVEL001
 100
AcDbLine
   6
DOT
  62
3
  10
 161.50001314282
  20
 332.50000000000
  30
0.0
  11
 160.00001314282
  21
 331.00000000000
  31
0.0
   0
LINE
   5
1AE
 100
AcDbEntity
   8
LEVEL001
 100
AcDbLine
   6
DOT
  62
3
  10
 160.00001314282
  20
 331.00000000000
  30
0.0
  11
 139.50001314282
  21
 331.00000000000
  31
0.0
   0
ARC
   5
1AF
 100
AcDbEntity
   8
LEVEL001
   6
DOT
  62
3
 100
AcDbCircle
  10
 138.00001314282
  20
 331.00000000000
  30
0.0
  40
 1.5000000000000
 100
AcDbArc
  50
0.0
  51
 90.000000000074
   0
ARC
   5
1B0
 100
AcDbEntity
   8
LEVEL001
   6
DOT
  62
3
 100
AcDbCircle
  10
 136.00001314282
  20
 331.00000000000
  30
0.0
  40
 1.5000000000000
 100
AcDbArc
  50
 90.000000000000
  51
 179.99999999995
   0
LINE
   5
1B1
 100
AcDbEntity
   8
LEVEL001
 100
AcDbLine
   6
DOT
  62
3
  10
 134.50001314282
  20
 331.00000000000
  30
0.0
  11
 139.50001314282
  21
 331.00000000000
  31
0.0
   0
LINE
   5
1B2
 100
AcDbEntity
   8
LEVEL001
 100
AcDbLine
   6
DOT
  62
3
  10
 161.50001314282
  20
 267.50000000000
  30
0.0
  11
 160.00001314282
  21
 269.00000000000
  31
0.0
   0
LINE
   5
1B3
 100
AcDbEntity
   8
LEVEL001
 100
AcDbLine
   6
DOT
  62
3
  10
 160.00001314282
  20
 269.00000000000
  30
0.0
  11
 139.50001314282
  21
 269.00000000000
  31
0.0
   0
ARC
   5
1B4
 100
AcDbEntity
   8
LEVEL001
   6
DOT
  62
3
 100
AcDbCircle
  10
 138.00001314282
  20
 269.00000000000
  30
0.0
  40
 1.5000000000000
 100
AcDbArc
  50
 269.99999999999
  51
0.0
   0
ARC
   5
1B5
 100
AcDbEntity
   8
LEVEL001
   6
DOT
  62
3
 100
AcDbCircle
  10
 136.00001314282
  20
 269.00000000000
  30
0.0
  40
 1.5000000000000
 100
AcDbArc
  50
 179.99999999999
  51
 270.00000000012
   0
LINE
   5
1B6
 100
AcDbEntity
   8
LEVEL001
 100
AcDbLine
   6
DOT
  62
3
  10
 134.50001314282
  20
 269.00000000000
  30
0.0
  11
 139.50001314282
  21
 269.00000000000
  31
0.0
   0
LINE
   5
1B7
 100
AcDbEntity
   8
LEVEL001
 100
AcDbLine
   6
DOT
  62
3
  10
 134.50001314282
  20
 269.00000000000
  30
0.0
  11
 134.50001314282
  21
 300.00000000000
  31
0.0
   0
LINE
   5
1B8
 100
AcDbEntity
   8
LEVEL001
 100
AcDbLine
   6
DOT
  62
3
  10
 134.50001314282
  20
 331.00000000000
  30
0.0
  11
 136.00001314282
  21
 332.50000000000
  31
0.0
   0
LINE
   5
1B9
 100
AcDbEntity
   8
LEVEL001
 100
AcDbLine
   6
DOT
  62
3
  10
 136.00001314282
  20
 332.50000000000
  30
0.0
  11
 161.50001314282
  21
 332.50000000000
  31
0.0
   0
LINE
   5
1BA
 100
AcDbEntity
   8
LEVEL001
 100
AcDbLine
   6
DOT
  62
3
  10
 134.50001314282
  20
 269.00000000000
  30
0.0
  11
 136.00001314282
  21
 267.50000000000
  31
0.0
   0
LINE
   5
1BB
 100
AcDbEntity
   8
LEVEL001
 100
AcDbLine
   6
DOT
  62
3
  10
 136.00001314282
  20
 267.50000000000
  30
0.0
  11
 161.50001314282
  21
 267.50000000000
  31
0.0
   0
LINE
   5
1BC
 100
AcDbEntity
   8
LEVEL001
 100
AcDbLine
   6
CONTINUOUS
  62
7
  10
 161.50001314282
  20
 267.50000000000
  30
0.0
  11
 164.50001314282
  21
 267.50000000000
  31
0.0
   0
LINE
   5
1BD
 100
AcDbEntity
   8
LEVEL001
 100
AcDbLine
   6
CONTINUOUS
  62
7
  10
 164.50001314282
  20
 332.50000000000
  30
0.0
  11
 161.50001314282
  21
 332.50000000000
  31
0.0
   0
LINE
   5
1BE
 100
AcDbEntity
   8
LEVEL001
 100
AcDbLine
   6
DASHDOT
  62
1
  10
 224.50000402331
  20
 361.49999816716
  30
0.0
  11
 224.50000402331
  21
 238.50000183284
  31
0.0
   0
LEADER
   5
1BF
 100
AcDbEntity
   8
LEVEL003
   6
CONTINUOUS
  62
3
 100
AcDbLeader
   3
GMM007
  73
0
  74
1
  75
0
  40
 6.0000000000000
  41
0.0
  76
3
  10
 127.50000000000
  20
 262.50000000000
  30
0.0
  10
 105.00000000000
  20
 232.50000000000
  30
0.0
  10
 60.000000000000
  20
 232.50000000000
  30
0.0
  77
3
   0
TEXT
   5
1C0
 100
AcDbEntity
   8
LEVEL020
  62
6
 100
AcDbText
  10
 74.999988153577
  20
 130.49998940527
  30
0.0
  40
 7.4999997764826
   1
揚　　　力
   7
STANDARD
 100
AcDbText
   0
LINE
   5
1C1
 100
AcDbEntity
   8
LEVEL020
 100
AcDbLine
   6
CONTINUOUS
  62
6
  10
 74.999988153577
  20
 139.49998913705
  30
0.0
  11
 224.99998368323
  21
 139.49998913705
  31
0.0
   0
LINE
   5
1C2
 100
AcDbEntity
   8
LEVEL020
 100
AcDbLine
   6
CONTINUOUS
  62
6
  10
 74.999988153577
  20
 128.99998944998
  30
0.0
  11
 224.99998368323
  21
 128.99998944998
  31
0.0
   0
TEXT
   5
1C3
 100
AcDbEntity
   8
LEVEL020
  62
6
 100
AcDbText
  10
 74.999988153577
  20
 109.49999003112
  30
0.0
  40
 7.4999997764826
   1
ストローク
   7
STANDARD
 100
AcDbText
   0
LINE
   5
1C4
 100
AcDbEntity
   8
LEVEL020
 100
AcDbLine
   6
CONTINUOUS
  62
6
  10
 74.999988153577
  20
 107.99999007583
  30
0.0
  11
 224.99998368323
  21
 107.99999007583
  31
0.0
   0
LINE
   5
1C5
 100
AcDbEntity
   8
LEVEL020
 100
AcDbLine
   6
CONTINUOUS
  62
6
  10
 74.999988153577
  20
 97.499990388751
  30
0.0
  11
 224.99998368323
  21
 97.499990388751
  31
0.0
   0
LINE
   5
1C6
 100
AcDbEntity
   8
LEVEL020
 100
AcDbLine
   6
CONTINUOUS
  62
6
  10
 74.999988153577
  20
 118.49998976290
  30
0.0
  11
 224.99998368323
  21
 118.49998976290
  31
0.0
   0
TEXT
   5
1C7
 100
AcDbEntity
   8
LEVEL020
  62
6
 100
AcDbText
  10
 74.999988153577
  20
 119.99998971820
  30
0.0
  40
 7.4999997764826
   1
引　　　力
   7
STANDARD
 100
AcDbText
   0
TEXT
   5
1C8
 100
AcDbEntity
   8
LEVEL020
  62
6
 100
AcDbText
  10
 74.999988153577
  20
 67.499991282821
  30
0.0
  40
 7.4999997764826
   1
最低高さ
   7
STANDARD
 100
AcDbText
   0
LINE
   5
1C9
 100
AcDbEntity
   8
LEVEL020
 100
AcDbLine
   6
CONTINUOUS
  62
6
  10
 74.999988153577
  20
 76.499991014600
  30
0.0
  11
 224.99998368323
  21
 76.499991014600
  31
0.0
   0
LINE
   5
1CA
 100
AcDbEntity
   8
LEVEL020
 100
AcDbLine
   6
CONTINUOUS
  62
6
  10
 74.999988153577
  20
 65.999991327524
  30
0.0
  11
 224.99998368323
  21
 65.999991327524
  31
0.0
   0
LINE
   5
1CB
 100
AcDbEntity
   8
LEVEL020
 100
AcDbLine
   6
CONTINUOUS
  62
6
  10
 74.999988153577
  20
 86.999990701676
  30
0.0
  11
 224.99998368323
  21
 86.999990701676
  31
0.0
   0
TEXT
   5
1CC
 100
AcDbEntity
   8
LEVEL020
  62
6
 100
AcDbText
  10
 74.999988153577
  20
 77.999990969897
  30
0.0
  40
 7.4999997764826
   1
試験圧力
   7
STANDARD
 100
AcDbText
   0
TEXT
   5
1CD
 100
AcDbEntity
   8
LEVEL020
  62
6
 100
AcDbText
  10
 74.999988153577
  20
 151.49998877943
  30
0.0
  40
 7.4999997764826
   1
仕　　　様
   7
STANDARD
 100
AcDbText
   0
LINE
   5
1CE
 100
AcDbEntity
   8
LEVEL020
 100
AcDbLine
   6
CONTINUOUS
  62
6
  10
 74.999988153577
  20
 149.99998882413
  30
0.0
  11
 112.49998703599
  21
 149.99998882413
  31
0.0
   0
TEXT
   5
1CF
 100
AcDbEntity
   8
LEVEL020
  62
6
 100
AcDbText
  10
 74.999988153577
  20
 140.99998909235
  30
0.0
  40
 7.4999997764826
   1
形　　　式
   7
STANDARD
 100
AcDbText
   0
TEXT
   5
1D0
 100
AcDbEntity
   8
LEVEL020
  62
6
 100
AcDbText
  10
 74.999983683229
  20
 98.999991953373
  30
0.0
  40
 7.5000000000000
   1
最高使用圧力
  41
 0.82000000000000
   7
STANDARD
 100
AcDbText
   0
TEXT
   5
1D1
 100
AcDbEntity
   8
LEVEL020
  62
6
 100
AcDbText
  10
 74.999983683229
  20
 88.499992266298
  30
0.0
  40
 7.5000000000000
   1
最高使用圧力
  41
 0.82000000000000
   7
STANDARD
 100
AcDbText
   0
TEXT
   5
1D2
 100
AcDbEntity
   8
LEVEL020
  62
6
 100
AcDbText
  10
 202.49998435378
  20
 109.49999003112
  30
0.0
  40
 7.4999997764826
   1
ｍｍ
  41
 0.70000000000000
   7
STANDARD
 100
AcDbText
   0
TEXT
   5
1D3
 100
AcDbEntity
   8
LEVEL020
  62
6
 100
AcDbText
  10
 202.49998435378
  20
 67.499991282821
  30
0.0
  40
 7.4999997764826
   1
ｍｍ
  41
 0.70000000000000
   7
STANDARD
 100
AcDbText
   0
TEXT
   5
1D4
 100
AcDbEntity
   8
LEVEL020
  62
6
 100
AcDbText
  10
 202.49998435378
  20
 98.999990344048
  30
0.0
  40
 7.5000000000000
   1
ＭＰａ
  41
 0.70000000000000
   7
STANDARD
 100
AcDbText
   0
TEXT
   5
1D5
 100
AcDbEntity
   8
LEVEL020
  62
6
 100
AcDbText
  10
 202.49998435378
  20
 119.99998971820
  30
0.0
  40
 7.5000000000000
   1
ｋＮ
  41
 0.70000000000000
   7
STANDARD
 100
AcDbText
   0
TEXT
   5
1D6
 100
AcDbEntity
   8
LEVEL020
  62
6
 100
AcDbText
  10
 202.49998435378
  20
 88.499990656972
  30
0.0
  40
 7.5000000000000
   1
ＭＰａ
  41
 0.70000000000000
   7
STANDARD
 100
AcDbText
   0
TEXT
   5
1D7
 100
AcDbEntity
   8
LEVEL020
  62
6
 100
AcDbText
  10
 202.49998435378
  20
 77.999990969897
  30
0.0
  40
 7.5000000000000
   1
ＭＰａ
  41
 0.70000000000000
   7
STANDARD
 100
AcDbText
   0
TEXT
   5
1D8
 100
AcDbEntity
   8
LEVEL020
  62
6
 100
AcDbText
  10
 74.999983683229
  20
 88.499991953373
  30
0.0
  40
 7.5000000000000
   1
　　　　（引力）
   7
STANDARD
 100
AcDbText
   0
TEXT
   5
1D9
 100
AcDbEntity
   8
LEVEL020
  62
6
 100
AcDbText
  10
 74.999983683229
  20
 98.999991953373
  30
0.0
  40
 7.5000000000000
   1
        （揚力）
   7
STANDARD
 100
AcDbText
   0
TEXT
   5
1DA
 100
AcDbEntity
   8
LEVEL020
  62
6
 100
AcDbText
  10
 181.49998451024
  20
 119.99998971820
  30
0.0
  40
 7.5000000000000
   1
２２０
  41
 0.70000000000000
   7
STANDARD
  72
2
  11
 197.24998451024
  21
 119.99998971820
  31
0.0
 100
AcDbText
   0
TEXT
   5
1DB
 100
AcDbEntity
   8
LEVEL020
  62
6
 100
AcDbText
  10
 165.74998451024
  20
 88.499990656972
  30
0.0
  40
 7.5000000000000
   1
約　６７．９
  41
 0.70000000000000
   7
STANDARD
  72
2
  11
 197.24998451024
  21
 88.499990656972
  31
0.0
 100
AcDbText
   0
TEXT
   5
1DC
 100
AcDbEntity
   8
LEVEL020
  62
6
 100
AcDbText
  10
 186.74998451024
  20
 77.999990969897
  30
0.0
  40
 7.5000000000000
   1
７２
  41
 0.70000000000000
   7
STANDARD
  72
2
  11
 197.24998451024
  21
 77.999990969897
  31
0.0
 100
AcDbText
   0
TEXT
   5
1DD
 100
AcDbEntity
   8
LEVEL020
  62
6
 100
AcDbText
  10
 165.74998451024
  20
 98.999990344048
  30
0.0
  40
 7.5000000000000
   1
約　７０．５
  41
 0.70000000000000
   7
STANDARD
  72
2
  11
 197.24998451024
  21
 98.999990344048
  31
0.0
 100
AcDbText
   0
TEXT
   5
1DE
 100
AcDbEntity
   8
LEVEL020
  62
6
 100
AcDbText
  10
 202.49998435378
  20
 130.49998940527
  30
0.0
  40
 7.5000000000000
   1
ｋＮ
  41
 0.70000000000000
   7
STANDARD
 100
AcDbText
   0
TEXT
   5
1DF
 100
AcDbEntity
   8
LEVEL020
  62
6
 100
AcDbText
  10
 181.49998451024
  20
 130.49998940527
  30
0.0
  40
 7.5000000000000
   1
５００
  41
 0.70000000000000
   7
STANDARD
  72
2
  11
 197.24998451024
  21
 130.49998940527
  31
0.0
 100
AcDbText
   0
TEXT
   5
1E0
 100
AcDbEntity
   8
LEVEL020
  62
6
 100
AcDbText
  10
 155.24998451024
  20
 109.49999003112
  30
0.0
  40
 7.5000000000000
   1
（～８００）ＳＴ
  41
 0.70000000000000
   7
STANDARD
  72
2
  11
 197.24998451024
  21
 109.49999003112
  31
0.0
 100
AcDbText
   0
TEXT
   5
1E1
 100
AcDbEntity
   8
LEVEL020
  62
6
 100
AcDbText
  10
 155.24998576194
  20
 67.499991282821
  30
0.0
  40
 7.4999997764826
   1
（２５１＋ＳＴ）
  41
 0.70000000000000
   7
STANDARD
  72
2
  11
 197.24998451024
  21
 67.499991282821
  31
0.0
 100
AcDbText
   0
LINE
   5
1E2
 100
AcDbEntity
   8
LEVEL020
 100
AcDbLine
   6
CONTINUOUS
  62
6
  10
 74.999988153577
  20
 55.499991640449
  30
0.0
  11
 224.99998368323
  21
 55.499991640449
  31
0.0
   0
TEXT
   5
1E3
 100
AcDbEntity
   8
LEVEL020
  62
6
 100
AcDbText
  10
 74.999988153577
  20
 56.999991595745
  30
0.0
  40
 7.4999997764826
   1
質　　　量
   7
STANDARD
 100
AcDbText
   0
TEXT
   5
1E4
 100
AcDbEntity
   8
LEVEL020
  62
6
 100
AcDbText
  10
 202.49998435378
  20
 56.999991595745
  30
0.0
  40
 7.4999997764826
   1
ｋｇ
  41
 0.70000000000000
   7
STANDARD
 100
AcDbText
   0
TEXT
   5
1E5
 100
AcDbEntity
   8
LEVEL020
  62
6
 100
AcDbText
  10
 131.24998451024
  20
 56.999991595745
  30
0.0
  40
 7.4999997764826
   1
約　｛２１＋（０.０７１×ＳＴ）｝
  41
 0.53333334922791
   7
STANDARD
  72
2
  11
 197.24998451024
  21
 56.999991595745
  31
0.0
 100
AcDbText
   0
LINE
   5
1E6
 100
AcDbEntity
   8
LEVEL020
 100
AcDbLine
   6
CONTINUOUS
  62
6
  10
 74.999983683229
  20
 44.999991327524
  30
0.0
  11
 224.99998368323
  21
 44.999991327524
  31
0.0
   0
LINE
   5
1E7
 100
AcDbEntity
   8
LEVEL020
 100
AcDbLine
   6
CONTINUOUS
  62
6
  10
 74.999983683229
  20
 34.499991327524
  30
0.0
  11
 224.99998368323
  21
 34.499991327524
  31
0.0
   0
TEXT
   5
1E8
 100
AcDbEntity
   8
LEVEL020
  62
6
 100
AcDbText
  10
 74.999984800816
  20
 46.499994412065
  30
0.0
  40
 7.4999997764826
   1
許容横荷重
   7
STANDARD
 100
AcDbText
   0
TEXT
   5
1E9
 100
AcDbEntity
   8
LEVEL020
  62
6
 100
AcDbText
  10
 74.999984800816
  20
 35.999994412065
  30
0.0
  40
 7.4999997764826
   1
端末係数
   7
STANDARD
 100
AcDbText
   0
TEXT
   5
1EA
 100
AcDbEntity
   8
LEVEL020
  62
6
 100
AcDbText
  10
 121.24998115748
  20
 35.999991327524
  30
0.0
  40
 7.5000000000000
   1
（ピストンロッド支持条件）　ｎ＝１以上
  41
 0.53333333333333
   7
STANDARD
  72
2
  11
 197.24998115748
  21
 35.999991327524
  31
0.0
 100
AcDbText
   0
TEXT
   5
1EB
 100
AcDbEntity
   8
LEVEL020
  62
6
 100
AcDbText
  10
 155.24998115748
  20
 46.499991327524
  30
0.0
  40
 7.5000000000000
   1
（１／４０）　１.２５
  41
 0.53333333333333
   7
STANDARD
  72
2
  11
 197.24998115748
  21
 46.499991327524
  31
0.0
 100
AcDbText
   0
LEADER
   5
1EC
 100
AcDbEntity
   8
LEVEL003
   6
CONTINUOUS
  62
1
 100
AcDbLeader
   3
GMM008
  73
0
  74
1
  75
0
  40
 4.7250000000000
  41
0.0
  76
3
  10
 176.27499383986
  20
 150.00000000000
  30
0.0
  10
 176.27499383986
  20
 172.50000000000
  30
0.0
  10
 236.27499383986
  20
 172.50000000000
  30
0.0
  77
1
   0
TEXT
   5
1ED
 100
AcDbEntity
   8
LEVEL003
  62
1
 100
AcDbText
  10
 176.27499383986
  20
 172.50000000000
  30
0.0
  40
 6.0000000000000
   1
摺動構造・・Ｓ；ショート形、Ｌ；ロング形
  41
 0.50000000000000
   7
STANDARD
 100
AcDbText
   0
TEXT
   5
1EE
 100
AcDbEntity
   8
LEVEL003
  62
1
 100
AcDbText
  10
 191.27499383986
  20
 165.00000000000
  30
0.0
  40
 6.0000000000000
   1
オプション
  41
 0.78750000000000
   7
STANDARD
 100
AcDbText
   0
LINE
   5
1EF
 100
AcDbEntity
   8
LEVEL003
 100
AcDbLine
   6
CONTINUOUS
  62
1
  10
 142.50000000000
  20
 150.00000000000
  30
0.0
  11
 151.87500000000
  21
 150.00000000000
  31
0.0
   0
LEADER
   5
1F0
 100
AcDbEntity
   8
LEVEL003
   6
CONTINUOUS
  62
1
 100
AcDbLeader
   3
GMM008
  73
0
  74
1
  75
0
  40
 4.7250000000000
  41
0.0
  76
3
  10
 171.29999534637
  20
 150.00000000000
  30
0.0
  10
 171.29999534637
  20
 180.00000000000
  30
0.0
  10
 201.29999534637
  20
 180.00000000000
  30
0.0
  77
1
   0
TEXT
   5
1F1
 100
AcDbEntity
   8
LEVEL003
  62
1
 100
AcDbText
  10
 171.29999534637
  20
 180.00000000000
  30
0.0
  40
 6.0000000000000
   1
ストローク（ｃｍ）
  41
 0.50000000000000
   7
STANDARD
 100
AcDbText
   0
LINE
   5
1F2
 100
AcDbEntity
   8
LEVEL003
 100
AcDbLine
   6
CONTINUOUS
  62
1
  10
 184.99999233335
  20
 150.00000000000
  30
0.0
  11
 184.99999233335
  21
 153.75000000000
  31
0.0
   0
LINE
   5
1F3
 100
AcDbEntity
   8
LEVEL003
 100
AcDbLine
   6
CONTINUOUS
  62
1
  10
 184.99999233335
  20
 153.75000000000
  30
0.0
  11
 196.24999233335
  21
 153.75000000000
  31
0.0
   0
LINE
   5
1F4
 100
AcDbEntity
   8
LEVEL003
 100
AcDbLine
   6
CONTINUOUS
  62
1
  10
 196.24999233335
  20
 153.75000000000
  30
0.0
  11
 196.24999233335
  21
 150.00000000000
  31
0.0
   0
TEXT
   5
1F5
 100
AcDbEntity
   8
LEVEL003
  62
1
 100
AcDbText
  10
 121.89999383986
  20
 172.50000000000
  30
0.0
  40
 6.0000000000000
   1
容量（ｔｆ）
  41
 0.50000000000000
   7
STANDARD
 100
AcDbText
   0
TEXT
   5
1F6
 100
AcDbEntity
   8
LEVEL003
  62
1
 100
AcDbText
  10
 121.89999383986
  20
 180.00000000000
  30
0.0
  40
 6.0000000000000
   1
複動（油圧戻り）
  41
 0.50000000000000
   7
STANDARD
 100
AcDbText
   0
LEADER
   5
1F7
 100
AcDbEntity
   8
LEVEL003
   6
CONTINUOUS
  62
1
 100
AcDbLeader
   3
GMM008
  73
0
  74
1
  75
0
  40
 4.7250000000000
  41
0.0
  76
3
  10
 165.65000150651
  20
 150.00000000000
  30
0.0
  10
 165.65000150651
  20
 180.00000000000
  30
0.0
  10
 120.00000000000
  20
 180.00000000000
  30
0.0
  77
1
   0
LEADER
   5
1F8
 100
AcDbEntity
   8
LEVEL003
   6
CONTINUOUS
  62
1
 100
AcDbLeader
   3
GMM008
  73
0
  74
1
  75
0
  40
 4.7250000000000
  41
0.0
  76
3
  10
 157.50000000000
  20
 150.00000000000
  30
0.0
  10
 157.50000000000
  20
 172.50000000000
  30
0.0
  10
 120.00000000000
  20
 172.50000000000
  30
0.0
  77
1
   0
LEADER
   5
1F9
 100
AcDbEntity
   8
LEVEL003
   6
CONTINUOUS
  62
1
 100
AcDbLeader
   3
GMM008
  73
0
  74
1
  75
0
  40
 4.7250000000000
  41
0.0
  76
3
  10
 148.12500000000
  20
 150.00000000000
  30
0.0
  10
 148.12500000000
  20
 165.00000000000
  30
0.0
  10
 120.00000000000
  20
 165.00000000000
  30
0.0
  77
1
   0
TEXT
   5
1FA
 100
AcDbEntity
   8
LEVEL020
  62
7
 100
AcDbText
  10
 142.12498615309
  20
 140.99998909235
  30
0.0
  40
 7.4999997764826
   1
ＥＫ５０Ｈ※Ｌ－※ ※
  41
 0.70000000000000
   7
STANDARD
  72
2
  11
 197.24998451024
  21
 140.99998909235
  31
0.0
 100
AcDbText
   0
TEXT
   5
1FB
 100
AcDbEntity
   8
LEVEL003
  62
1
 100
AcDbText
  10
 121.89999383986
  20
 165.00000000000
  30
0.0
  40
 6.0000000000000
   1
カスタムストローク
  41
 0.50000000000000
   7
STANDARD
 100
AcDbText
   0
TEXT
   5
1FC
 100
AcDbEntity
   8
LEVEL003
  62
1
 100
AcDbText
  10
 204.39999383986
  20
 157.50000000000
  30
0.0
  40
 6.0000000000000
   1
チューブネジ・・・無し；無記号、有り；Ｍ
  41
 0.50000000000000
   7
STANDARD
 100
AcDbText
   0
TEXT
   5
1FD
 100
AcDbEntity
   8
LEVEL003
  62
1
 100
AcDbText
  10
 204.39999383986
  20
 149.50000000000
  30
0.0
  40
 6.0000000000000
   1
キャップ・・・無し；無記号、有り；Ｃ
  41
 0.50000000000000
   7
STANDARD
 100
AcDbText
   0
TEXT
   5
1FE
 100
AcDbEntity
   8
LEVEL003
  62
1
 100
AcDbText
  10
 204.39999383986
  20
 141.50000000000
  30
0.0
  40
 6.0000000000000
   1
加圧ポート・・・チューブ外周Ｒｃ３／８；無記号、ジャッキエンド端面；Ａ３（Ｒｃ３／８）
  41
 0.50000000000000
   7
STANDARD
 100
AcDbText
   0
TEXT
   5
1FF
 100
AcDbEntity
   8
LEVEL003
  62
1
 100
AcDbText
  10
 204.39999383986
  20
 133.50000000000
  30
0.0
  40
 6.0000000000000
   1
　　　　　　　　　　　　　　　　　　　　　　　　　　　　　　　　　　Ａ４（Ｒｃ１／２）
  41
 0.50000000000000
   7
STANDARD
 100
AcDbText
   0
TEXT
   5
200
 100
AcDbEntity
   8
LEVEL003
  62
1
 100
AcDbText
  10
 204.39999383986
  20
 125.50000000000
  30
0.0
  40
 6.0000000000000
   1
　　　　　　　　　　　　　　　　　　　　　　　　　　　　　　　　　　Ａ６（Ｒｃ３／４）
  41
 0.50000000000000
   7
STANDARD
 100
AcDbText
   0
TEXT
   5
201
 100
AcDbEntity
   8
LEVEL020
  62
6
 100
AcDbText
  10
 74.999984800816
  20
 25.499994099140
  30
0.0
  40
 7.4999997764826
   1
標準付属継手
   7
STANDARD
 100
AcDbText
   0
LINE
   5
202
 100
AcDbEntity
   8
LEVEL020
 100
AcDbLine
   6
CONTINUOUS
  62
6
  10
 74.999983683229
  20
 23.999991014600
  30
0.0
  11
 224.99998368323
  21
 23.999991014600
  31
0.0
   0
LEADER
   5
203
 100
AcDbEntity
   8
LEVEL003
   6
CONTINUOUS
  62
1
 100
AcDbLeader
   3
GMM009
  73
0
  74
1
  75
0
  40
 6.0000000000000
  41
0.0
  76
3
  10
 191.27499383986
  20
 153.75000000000
  30
0.0
  10
 191.27499383986
  20
 165.00000000000
  30
0.0
  10
 270.00000000000
  20
 165.00000000000
  30
0.0
  77
1
   0
TEXT
   5
204
 100
AcDbEntity
   8
LEVEL003
  62
3
 100
AcDbText
  10
 60.000000000000
  20
 232.50000000000
  30
0.0
  40
 6.0000000000000
   1
オプション（Ｃ）
   7
STANDARD
 100
AcDbText
   0
TEXT
   5
205
 100
AcDbEntity
   8
LEVEL003
  62
3
 100
AcDbText
  10
 60.000000000000
  20
 224.50000000000
  30
0.0
  40
 6.0000000000000
   1
キャップ　
   7
STANDARD
 100
AcDbText
   0
TEXT
   5
206
 100
AcDbEntity
   8
LEVEL003
  62
3
 100
AcDbText
  10
 112.50000000000
  20
 397.50000000000
  30
0.0
  40
 6.0000000000000
   1
オプション（Ｍ）
   7
STANDARD
 100
AcDbText
   0
TEXT
   5
207
 100
AcDbEntity
   8
LEVEL003
  62
3
 100
AcDbText
  10
 112.50000000000
  20
 389.50000000000
  30
0.0
  40
 6.0000000000000
   1
（Ｍ１２５×２）
   7
STANDARD
 100
AcDbText
   0
LINE
   5
208
 100
AcDbEntity
   8
LEVEL001
 100
AcDbLine
   6
DASHDOT
  62
1
  10
 529.99998833239
  20
 300.00000000000
  30
0.0
  11
 435.00000000000
  21
 300.00000000000
  31
0.0
   0
TEXT
   5
209
 100
AcDbEntity
   8
LEVEL020
  62
6
 100
AcDbText
  10
 133.24998115748
  20
 25.499991014600
  30
0.0
  40
 7.5000000000000
   1
Ｂ６－Ｊ（左記以外は、別途指示）
  41
 0.53333333333333
   7
STANDARD
  72
2
  11
 197.24998115748
  21
 25.499991014600
  31
0.0
 100
AcDbText
   0
TEXT
   5
20A
 100
AcDbEntity
   8
LEVEL003
  62
3
 100
AcDbText
  10
 262.50000000000
  20
 390.00000000000
  30
0.0
  40
 6.0000000000000
   1
戻り
   7
STANDARD
 100
AcDbText
   0
TEXT
   5
20B
 100
AcDbEntity
   8
LEVEL003
  62
3
 100
AcDbText
  10
 262.50000000000
  20
 382.00000000000
  30
0.0
  40
 6.0000000000000
   1
Ｒｃ３／８
   7
STANDARD
 100
AcDbText
   0
TEXT
   5
20C
 100
AcDbEntity
   8
LEVEL003
  62
3
 100
AcDbText
  10
 262.50000000000
  20
 374.00000000000
  30
0.0
  40
 6.0000000000000
   1
(Ｂ６－Ｊ付)
   7
STANDARD
 100
AcDbText
   0
TEXT
   5
20D
 100
AcDbEntity
   8
LEVEL003
  62
3
 100
AcDbText
  10
 420.00000000000
  20
 390.00000000000
  30
0.0
  40
 6.0000000000000
   1
加圧
   7
STANDARD
 100
AcDbText
   0
TEXT
   5
20E
 100
AcDbEntity
   8
LEVEL003
  62
3
 100
AcDbText
  10
 420.00000000000
  20
 382.00000000000
  30
0.0
  40
 6.0000000000000
   1
Ｒｃ３／８
   7
STANDARD
 100
AcDbText
   0
TEXT
   5
20F
 100
AcDbEntity
   8
LEVEL003
  62
3
 100
AcDbText
  10
 420.00000000000
  20
 374.00000000000
  30
0.0
  40
 6.0000000000000
   1
(Ｂ６－Ｊ付)
   7
STANDARD
 100
AcDbText
   0
LEADER
   5
210
 100
AcDbEntity
   8
LEVEL003
   6
CONTINUOUS
  62
3
 100
AcDbLeader
   3
GMM001
  73
0
  74
1
  75
0
  40
 6.0000000000000
  41
0.0
  76
3
  10
 467.50000049108
  20
 362.50000576675
  30
0.0
  10
 457.50000000000
  20
 390.00000000000
  30
0.0
  10
 420.00000000000
  20
 390.00000000000
  30
0.0
  77
3
   0
LEADER
   5
211
 100
AcDbEntity
   8
LEVEL003
   6
CONTINUOUS
  62
3
 100
AcDbLeader
   3
GMM001
  73
0
  74
1
  75
0
  40
 6.0000000000000
  41
0.0
  76
3
  10
 522.50000000000
  20
 300.00000000000
  30
0.0
  10
 547.50000000000
  20
 315.00000000000
  30
0.0
  10
 600.00000000000
  20
 315.00000000000
  30
0.0
  77
3
   0
TEXT
   5
212
 100
AcDbEntity
   8
LEVEL003
  62
3
 100
AcDbText
  10
 547.50000000000
  20
 315.00000000000
  30
0.0
  40
 6.0000000000000
   1
オプション（加圧）
   7
STANDARD
 100
AcDbText
   0
TEXT
   5
213
 100
AcDbEntity
   8
LEVEL003
  62
3
 100
AcDbText
  10
 547.50000000000
  20
 307.00000000000
  30
0.0
  40
 6.0000000000000
   1
Ａ３；Ｒｃ３／８
   7
STANDARD
 100
AcDbText
   0
TEXT
   5
214
 100
AcDbEntity
   8
LEVEL003
  62
3
 100
AcDbText
  10
 547.50000000000
  20
 299.00000000000
  30
0.0
  40
 6.0000000000000
   1
Ａ４；Ｒｃ１／２
   7
STANDARD
 100
AcDbText
   0
TEXT
   5
215
 100
AcDbEntity
   8
LEVEL003
  62
3
 100
AcDbText
  10
 547.50000000000
  20
 291.00000000000
  30
0.0
  40
 6.0000000000000
   1
Ａ６；Ｒｃ３／４
   7
STANDARD
 100
AcDbText
   0
DIMENSION
   5
216
 100
AcDbEntity
   8
LEVEL003
   6
CONTINUOUS
  62
3
 100
AcDbDimension
   2
*D21
  10
 522.50000000000
  20
 382.50000000000
  30
0.0
  11
 495.00000024554
  21
 382.50000000000
  31
0.0
  70
0
   1
\A1;55
   3
GMM010
 100
AcDbAlignedDimension
  13
 467.50000049108
  23
 367.50000665953
  33
0.0
  14
 522.50000000000
  24
 361.00000581145
  34
0.0
 100
AcDbRotatedDimension
   0
DIMENSION
   5
218
 100
AcDbEntity
   8
LEVEL003
   6
CONTINUOUS
  62
3
 100
AcDbDimension
   2
*D22
  10
 224.50000402331
  20
 382.50000000000
  30
0.0
  11
 199.49998569489
  21
 382.50000000000
  31
0.0
  70
0
   1
\A1;(50)
   3
GMM002
 100
AcDbAlignedDimension
  13
 174.49996736646
  23
 361.49999816716
  33
0.0
  14
 224.50000402331
  24
 362.50000576675
  34
0.0
 100
AcDbRotatedDimension
   0
DIMENSION
   5
21A
 100
AcDbEntity
   8
LEVEL003
   6
CONTINUOUS
  62
3
 100
AcDbDimension
   2
*D23
  10
 244.49999579787
  20
 397.50000000000
  30
0.0
  11
 209.49998158217
  21
 397.50000000000
  31
0.0
  70
0
   1
\A1;70
   3
GMM005
 100
AcDbAlignedDimension
  13
 174.49996736646
  23
 361.49999816716
  33
0.0
  14
 244.49999579787
  24
 367.50000578910
  34
0.0
 100
AcDbRotatedDimension
   0
TEXT
   5
21C
 100
AcDbEntity
   8
LEVEL020
  62
6
 100
AcDbText
  10
 202.49998368323
  20
 46.499991327524
  30
0.0
  40
 7.5000000000000
   1
ｋＮ（ストロークによる）
  41
 0.70000000000000
   7
STANDARD
 100
AcDbText
   0
TEXT
   5
21D
 100
AcDbEntity
   8
LEVEL020
  62
6
 100
AcDbText
  10
 202.49998368323
  20
 35.999991640449
  30
0.0
  40
 7.5000000000000
   1
（ストロークによる）
  41
 0.70000000000000
   7
STANDARD
 100
AcDbText
   0
TEXT
   5
21E
 100
AcDbEntity
   8
LEVEL003
  62
7
 100
AcDbText
  10
 468.44160651916
  20
 34.174407761194
  30
0.0
  40
 12.000000000000
   1
ＯＳＡＫＡ ＪＡＣＫ
   7
STANDARD
 100
AcDbText
   0
CIRCLE
   5
21F
 100
AcDbEntity
   8
LEVEL003
 100
AcDbCircle
   6
CONTINUOUS
  62
7
  10
 443.90590989874
  20
 42.231173966231
  30
0.0
  40
 3.6000000000000
   0
LINE
   5
220
 100
AcDbEntity
   8
LEVEL003
 100
AcDbLine
   6
CONTINUOUS
  62
7
  10
 450.97150989874
  20
 45.831173966231
  30
0.0
  11
 446.40070989874
  21
 37.911173966231
  31
0.0
   0
LINE
   5
221
 100
AcDbEntity
   8
LEVEL003
 100
AcDbLine
   6
CONTINUOUS
  62
7
  10
 446.40070989874
  20
 37.911173966231
  30
0.0
  11
 437.25550989874
  21
 37.911173966231
  31
0.0
   0
LINE
   5
222
 100
AcDbEntity
   8
LEVEL003
 100
AcDbLine
   6
CONTINUOUS
  62
7
  10
 436.21510989874
  20
 36.111173966231
  30
0.0
  11
 452.56030989874
  21
 36.111173966231
  31
0.0
   0
LINE
   5
223
 100
AcDbEntity
   8
LEVEL003
 100
AcDbLine
   6
CONTINUOUS
  62
7
  10
 452.56030989874
  20
 36.111173966231
  30
0.0
  11
 458.17150989874
  21
 45.831173966231
  31
0.0
   0
LINE
   5
224
 100
AcDbEntity
   8
LEVEL003
 100
AcDbLine
   6
CONTINUOUS
  62
7
  10
 458.17150989874
  20
 45.831173966231
  30
0.0
  11
 450.97150989874
  21
 45.831173966231
  31
0.0
   0
LINE
   5
225
 100
AcDbEntity
   8
LEVEL003
 100
AcDbLine
   6
CONTINUOUS
  62
7
  10
 437.25550989874
  20
 37.911173966231
  30
0.0
  11
 436.21510989874
  21
 36.111173966231
  31
0.0
   0
TEXT
   5
226
 100
AcDbEntity
   8
LEVEL003
  62
7
 100
AcDbText
  10
 471.93480651916
  20
 54.446487761194
  30
0.0
  40
 7.2000000000000
   1
Model : ＥＫ５０Ｈ※Ｌ形
   7
STANDARD
 100
AcDbText
   0
ENDSEC
  0
SECTION
  2
OBJECTS
  0
DICTIONARY
  5
C
100
AcDbDictionary
  3
ACAD_GROUP
350
D
  3
ACAD_MLINESTYLE
350
1B
  0
DICTIONARY
  5
D
102
{ACAD_REACTORS
330
C
102
}
100
AcDbDictionary
  0
DICTIONARY
  5
1B
102
{ACAD_REACTORS
330
C
102
}
100
AcDbDictionary
  3
STANDARD
350
1C
  0
MLINESTYLE
  5
1C
102
{ACAD_REACTORS
330
1B
102
}
100
AcDbMlineStyle
  2
STANDARD
 70
     0
  3

 62
   256
 51
90.0
 52
90.0
 71
     2
 49
0.5
 62
   256
  6
BYLAYER
 49
-0.5
 62
   256
  6
BYLAYER
  0
ENDSEC
   0
EOF
