   0
SECTION
   2
HEADER
   9
$ACADVER
   1
AC1014
   9
$LIMMIN
  10
0.0
  20
0.0
   9
$LIMMAX
  10
 3360.0000000000
  20
 2376.0000000000
   9
$EXTMIN
  10
0.0
  20
0.0
  30
0.0
   9
$EXTMAX
  10
 3360.0000000000
  20
 2376.0000000000
  30
0.0
   9
$LTSCALE
  40
 67.200000000000
   9
$HANDSEED
   5
1F4
   0
ENDSEC
   0
SECTION
   2
TABLES
  0
TABLE
  2
VPORT
  5
8
100
AcDbSymbolTable
 70
     1
  0
VPORT
  5
1F3
100
AcDbSymbolTableRecord
100
AcDbViewportTableRecord
  2
*ACTIVE
 70
     0
 10
0.0
 20
0.0
 11
1.0
 21
1.0
  12
 1680.0000000000
  22
 1188.0000000000
 13
0.0
 23
0.0
 14
1.0
 24
1.0
 15
0.0
 25
0.0
 16
0.0
 26
0.0
 36
1.0
 17
0.0
 27
0.0
 37
0.0
  40
 3360.0000000000
  41
 1.4787878787879
 42
50.0
 43
0.0
 44
0.0
 50
0.0
 51
0.0
 71
     0
 72
   100
 73
     1
 74
     1
 75
     0
 76
     0
 77
     0
 78
     0
  0
ENDTAB
  0
TABLE
  2
LTYPE
  5
5
100
AcDbSymbolTable
 70
    25
  0
LTYPE
  5
12
100
AcDbSymbolTableRecord
100
AcDbLinetypeTableRecord
  2
BYBLOCK
 70
     0
  3

 72
    65
 73
     0
 40
0.0
  0
LTYPE
  5
13
100
AcDbSymbolTableRecord
100
AcDbLinetypeTableRecord
  2
BYLAYER
 70
     0
  3

 72
    65
 73
     0
 40
0.0
  0
LTYPE
  5
14
100
AcDbSymbolTableRecord
100
AcDbLinetypeTableRecord
  2
CONTINUOUS
 70
     0
  3
Solid line
 72
    65
 73
     0
 40
0.0
  0
LTYPE
  5
20
100
AcDbSymbolTableRecord
100
AcDbLinetypeTableRecord
  2
BORDER
 70
     0
  3
__ __ . __ __ . __ __ . __ __ . __ __ . __ __ .
 72
    65
 73
     6
 40
1.75
 49
0.5
 74
     0
 49
-0.25
 74
     0
 49
0.5
 74
     0
 49
-0.25
 74
     0
 49
0.0
 74
     0
 49
-0.25
 74
     0
  0
LTYPE
  5
21
100
AcDbSymbolTableRecord
100
AcDbLinetypeTableRecord
  2
BORDER2
 70
     0
  3
__.__.__.__.__.__.__.__.__.__.__.__.__.__.__.__
 72
    65
 73
     6
 40
0.875
 49
0.25
 74
     0
 49
-0.125
 74
     0
 49
0.25
 74
     0
 49
-0.125
 74
     0
 49
0.0
 74
     0
 49
-0.125
 74
     0
  0
LTYPE
  5
22
100
AcDbSymbolTableRecord
100
AcDbLinetypeTableRecord
  2
BORDERX2
 70
     0
  3
____  ____  .  ____  ____  .  ____  ____  .  __
 72
    65
 73
     6
 40
3.5
 49
1.0
 74
     0
 49
-0.5
 74
     0
 49
1.0
 74
     0
 49
-0.5
 74
     0
 49
0.0
 74
     0
 49
-0.5
 74
     0
  0
LTYPE
  5
23
100
AcDbSymbolTableRecord
100
AcDbLinetypeTableRecord
  2
CENTER
 70
     0
  3
____ _ ____ _ ____ _ ____ _ ____ _ ____ _ ____ 
 72
    65
 73
     4
 40
2.0
 49
1.25
 74
     0
 49
-0.25
 74
     0
 49
0.25
 74
     0
 49
-0.25
 74
     0
  0
LTYPE
  5
24
100
AcDbSymbolTableRecord
100
AcDbLinetypeTableRecord
  2
CENTER2
 70
     0
  3
___ _ ___ _ ___ _ ___ _ ___ _ ___ _ ___ _ ___ _
 72
    65
 73
     4
 40
1.125
 49
0.75
 74
     0
 49
-0.125
 74
     0
 49
0.125
 74
     0
 49
-0.125
 74
     0
  0
LTYPE
  5
25
100
AcDbSymbolTableRecord
100
AcDbLinetypeTableRecord
  2
CENTERX2
 70
     0
  3
________  __  ________  __  ________  __  _____
 72
    65
 73
     4
 40
4.0
 49
2.5
 74
     0
 49
-0.5
 74
     0
 49
0.5
 74
     0
 49
-0.5
 74
     0
  0
LTYPE
  5
26
100
AcDbSymbolTableRecord
100
AcDbLinetypeTableRecord
  2
DASHDOT
 70
     0
  3
__ . __ . __ . __ . __ . __ . __ . __ . __ . __
 72
    65
 73
     4
 40
1.0
 49
0.5
 74
     0
 49
-0.25
 74
     0
 49
0.0
 74
     0
 49
-0.25
 74
     0
  0
LTYPE
  5
27
100
AcDbSymbolTableRecord
100
AcDbLinetypeTableRecord
  2
DASHDOT2
 70
     0
  3
_._._._._._._._._._._._._._._._._._._._._._._._
 72
    65
 73
     4
 40
0.5
 49
0.25
 74
     0
 49
-0.125
 74
     0
 49
0.0
 74
     0
 49
-0.125
 74
     0
  0
LTYPE
  5
28
100
AcDbSymbolTableRecord
100
AcDbLinetypeTableRecord
  2
DASHDOTX2
 70
     0
  3
____  .  ____  .  ____  .  ____  .  ____  .  __
 72
    65
 73
     4
 40
2.0
 49
1.0
 74
     0
 49
-0.5
 74
     0
 49
0.0
 74
     0
 49
-0.5
 74
     0
  0
LTYPE
  5
29
100
AcDbSymbolTableRecord
100
AcDbLinetypeTableRecord
  2
DASHED
 70
     0
  3
__ __ __ __ __ __ __ __ __ __ __ __ __ __ __ __
 72
    65
 73
     2
 40
0.75
 49
0.5
 74
     0
 49
-0.25
 74
     0
  0
LTYPE
  5
2A
100
AcDbSymbolTableRecord
100
AcDbLinetypeTableRecord
  2
DASHED2
 70
     0
  3
_ _ _ _ _ _ _ _ _ _ _ _ _ _ _ _ _ _ _ _ _ _ _ _
 72
    65
 73
     2
 40
0.375
 49
0.25
 74
     0
 49
-0.125
 74
     0
  0
LTYPE
  5
2B
100
AcDbSymbolTableRecord
100
AcDbLinetypeTableRecord
  2
DASHEDX2
 70
     0
  3
____  ____  ____  ____  ____  ____  ____  ____ 
 72
    65
 73
     2
 40
1.5
 49
1.0
 74
     0
 49
-0.5
 74
     0
  0
LTYPE
  5
2C
100
AcDbSymbolTableRecord
100
AcDbLinetypeTableRecord
  2
DIVIDE
 70
     0
  3
____ . . ____ . . ____ . . ____ . . ____ . . __
 72
    65
 73
     6
 40
1.25
 49
0.5
 74
     0
 49
-0.25
 74
     0
 49
0.0
 74
     0
 49
-0.25
 74
     0
 49
0.0
 74
     0
 49
-0.25
 74
     0
  0
LTYPE
  5
2D
100
AcDbSymbolTableRecord
100
AcDbLinetypeTableRecord
  2
DIVIDE2
 70
     0
  3
__..__..__..__..__..__..__..__..__..__..__..__.
 72
    65
 73
     6
 40
0.625
 49
0.25
 74
     0
 49
-0.125
 74
     0
 49
0.0
 74
     0
 49
-0.125
 74
     0
 49
0.0
 74
     0
 49
-0.125
 74
     0
  0
LTYPE
  5
2E
100
AcDbSymbolTableRecord
100
AcDbLinetypeTableRecord
  2
DIVIDEX2
 70
     0
  3
________  .  .  ________  .  .  ________  .  . 
 72
    65
 73
     6
 40
2.5
 49
1.0
 74
     0
 49
-0.5
 74
     0
 49
0.0
 74
     0
 49
-0.5
 74
     0
 49
0.0
 74
     0
 49
-0.5
 74
     0
  0
LTYPE
  5
2F
100
AcDbSymbolTableRecord
100
AcDbLinetypeTableRecord
  2
DOT
 70
     0
  3
. . . . . . . . . . . . . . . . . . . . . . . .
 72
    65
 73
     2
 40
0.25
 49
0.0
 74
     0
 49
-0.25
 74
     0
  0
LTYPE
  5
30
100
AcDbSymbolTableRecord
100
AcDbLinetypeTableRecord
  2
DOT2
 70
     0
  3
...............................................
 72
    65
 73
     2
 40
0.125
 49
0.0
 74
     0
 49
-0.125
 74
     0
  0
LTYPE
  5
31
100
AcDbSymbolTableRecord
100
AcDbLinetypeTableRecord
  2
DOTX2
 70
     0
  3
.  .  .  .  .  .  .  .  .  .  .  .  .  .  .  . 
 72
    65
 73
     2
 40
0.5
 49
0.0
 74
     0
 49
-0.5
 74
     0
  0
LTYPE
  5
32
100
AcDbSymbolTableRecord
100
AcDbLinetypeTableRecord
  2
HIDDEN
 70
     0
  3
__ __ __ __ __ __ __ __ __ __ __ __ __ __ __ __
 72
    65
 73
     2
 40
0.375
 49
0.25
 74
     0
 49
-0.125
 74
     0
  0
LTYPE
  5
33
100
AcDbSymbolTableRecord
100
AcDbLinetypeTableRecord
  2
HIDDEN2
 70
     0
  3
_ _ _ _ _ _ _ _ _ _ _ _ _ _ _ _ _ _ _ _ _ _ _ _
 72
    65
 73
     2
 40
0.1875
 49
0.125
 74
     0
 49
-0.0625
 74
     0
  0
LTYPE
  5
34
100
AcDbSymbolTableRecord
100
AcDbLinetypeTableRecord
  2
HIDDENX2
 70
     0
  3
____ ____ ____ ____ ____ ____ ____ ____ ____ __
 72
    65
 73
     2
 40
0.75
 49
0.5
 74
     0
 49
-0.25
 74
     0
  0
LTYPE
  5
35
100
AcDbSymbolTableRecord
100
AcDbLinetypeTableRecord
  2
PHANTOM
 70
     0
  3
______  __  __  ______  __  __  ______  __  __ 
 72
    65
 73
     6
 40
2.5
 49
1.25
 74
     0
 49
-0.25
 74
     0
 49
0.25
 74
     0
 49
-0.25
 74
     0
 49
0.25
 74
     0
 49
-0.25
 74
     0
  0
LTYPE
  5
36
100
AcDbSymbolTableRecord
100
AcDbLinetypeTableRecord
  2
PHANTOM2
 70
     0
  3
___ _ _ ___ _ _ ___ _ _ ___ _ _ ___ _ _ ___ _ _
 72
    65
 73
     6
 40
1.25
 49
0.625
 74
     0
 49
-0.125
 74
     0
 49
0.125
 74
     0
 49
-0.125
 74
     0
 49
0.125
 74
     0
 49
-0.125
 74
     0
  0
LTYPE
  5
37
100
AcDbSymbolTableRecord
100
AcDbLinetypeTableRecord
  2
PHANTOMX2
 70
     0
  3
____________    ____    ____    ____________   
 72
    65
 73
     6
 40
5.0
 49
2.5
 74
     0
 49
-0.5
 74
     0
 49
0.5
 74
     0
 49
-0.5
 74
     0
 49
0.5
 74
     0
 49
-0.5
 74
     0
  0
ENDTAB
   0
TABLE
   2
LAYER
   5
2
 100
AcDbSymbolTable
  70
6
   0
LAYER
   5
E
 100
AcDbSymbolTableRecord
 100
AcDbLayerTableRecord
   2
0
  70
0
  62
7
   6
CONTINUOUS
   0
LAYER
   5
39
 100
AcDbSymbolTableRecord
 100
AcDbLayerTableRecord
   2
LEVEL001
  70
0
  62
7
   6
CONTINUOUS
   0
LAYER
   5
3A
 100
AcDbSymbolTableRecord
 100
AcDbLayerTableRecord
   2
LEVEL003
  70
0
  62
7
   6
CONTINUOUS
   0
LAYER
   5
3B
 100
AcDbSymbolTableRecord
 100
AcDbLayerTableRecord
   2
LEVEL020
  70
0
  62
7
   6
CONTINUOUS
   0
LAYER
   5
3C
 100
AcDbSymbolTableRecord
 100
AcDbLayerTableRecord
   2
LEVEL050
  70
0
  62
7
   6
CONTINUOUS
   0
LAYER
   5
3D
 100
AcDbSymbolTableRecord
 100
AcDbLayerTableRecord
   2
LEVEL110
  70
0
  62
7
   6
CONTINUOUS
   0
ENDTAB
  0
TABLE
  2
STYLE
  5
3
100
AcDbSymbolTable
  70
3
  0
STYLE
  5
F
100
AcDbSymbolTableRecord
100
AcDbTextStyleTableRecord
  2
STANDARD
 70
     0
 40
0.0
 41
1.0
 50
0.0
 71
     0
 42
0.2
  3
TXT
  4
BIGFONT
  0
STYLE
  5
38
100
AcDbSymbolTableRecord
100
AcDbTextStyleTableRecord
  2
STANDARD1
 70
     4
 40
0.0
 41
1.0
 50
0.0
 71
     0
 42
0.2
  3
TXT
  4
BIGFONT
   0
STYLE
   5
3E
 100
AcDbSymbolTableRecord
 100
AcDbTextStyleTableRecord
   2
GMM001
  70
0
  40
0.0
  41
 1.0000000000000
  50
0.0
  71
     0
  42
1.0
   3
txt.shx
   4
bigfont.shx
   0
ENDTAB
  0
TABLE
  2
VIEW
  5
6
100
AcDbSymbolTable
 70
     0
  0
ENDTAB
  0
TABLE
  2
UCS
  5
7
100
AcDbSymbolTable
 70
     0
  0
ENDTAB
  0
TABLE
  2
APPID
  5
9
100
AcDbSymbolTable
 70
     1
  0
APPID
  5
10
100
AcDbSymbolTableRecord
100
AcDbRegAppTableRecord
  2
ACAD
 70
     0
  0
ENDTAB
   0
TABLE
   2
DIMSTYLE
   5
A
 100
AcDbSymbolTable
  70
9
  0
DIMSTYLE
105
1D
100
AcDbSymbolTableRecord
100
AcDbDimStyleTableRecord
  2
STANDARD
 70
     0
  3

  4

  5

  6

  7

 40
1.0
 41
0.18
 42
0.0625
 43
0.38
 44
0.18
 45
0.0
 46
0.0
 47
0.0
 48
0.0
140
0.18
141
0.09
142
0.0
143
25.4
144
1.0
145
0.0
146
1.0
147
0.09
 71
     0
 72
     0
 73
     1
 74
     1
 75
     0
 76
     0
 77
     0
 78
     0
170
     0
171
     2
172
     0
173
     0
174
     0
175
     0
176
     0
177
     0
178
     0
270
     2
271
     4
272
     4
273
     2
274
     2
340
F
275
     0
280
     0
281
     0
282
     0
283
     1
284
     0
285
     0
286
     0
287
     3
288
     0
   0
DIMSTYLE
 105
3F
 100
AcDbSymbolTableRecord
 100
AcDbDimStyleTableRecord
   2
GMM001
  70
0
   3

   4

   5

   6
_OPEN
   7
_OPEN
  40
 1.0000000000000
  41
 24.000000000000
  42
 8.0000000000000
  43
 0.10000000000000E-5
  44
 16.000000000000
  45
0.0
  46
0.0
  47
0.0
  48
0.0
 140
 32.000000000000
 141
 8.0000000000000
 142
0.0
 143
 0.39400000000000E-1
 144
 1.0000000000000
 145
0.0
 146
 0.62500000000000
 147
 6.4000244140625
  71
0
  72
0
  73
0
  74
0
  75
0
  76
0
  77
3
  78
0
 170
0
 171
2
 172
1
 173
1
 174
0
 175
0
 176
3
 177
3
 178
3
 270
2
 271
0
 272
0
 273
2
 274
2
 340
3E
 275
1
 280
0
 281
0
 282
0
 283
1
 284
0
 285
0
 286
0
 287
3
 288
1
   0
DIMSTYLE
 105
40
 100
AcDbSymbolTableRecord
 100
AcDbDimStyleTableRecord
   2
GMM002
  70
0
   3

   4

   5

   6
_OPEN
   7
_OPEN
  40
 1.0000000000000
  41
 24.000000000000
  42
 8.0000000000000
  43
 64.000000000000
  44
 16.000000000000
  45
0.0
  46
0.0
  47
0.0
  48
0.0
 140
 32.000000000000
 141
 8.0000000000000
 142
0.0
 143
 0.39400000000000E-1
 144
 1.0000000000000
 145
0.0
 146
 0.62500000000000
 147
 6.4000000000000
  71
0
  72
0
  73
0
  74
0
  75
1
  76
1
  77
3
  78
8
 170
0
 171
2
 172
1
 173
1
 174
0
 175
0
 176
3
 177
3
 178
3
 270
2
 271
2
 272
0
 273
2
 274
2
 340
3E
 275
0
 280
0
 281
0
 282
0
 283
1
 284
0
 285
0
 286
0
 287
3
 288
0
   0
DIMSTYLE
 105
41
 100
AcDbSymbolTableRecord
 100
AcDbDimStyleTableRecord
   2
GMM003
  70
0
   3

   4

   5

   6
_OPEN
   7
_OPEN
  40
 1.0000000000000
  41
 24.000000000000
  42
 8.0000000000000
  43
 64.000000000000
  44
 16.000000000000
  45
0.0
  46
0.0
  47
0.0
  48
0.0
 140
 32.000000000000
 141
 8.0000000000000
 142
0.0
 143
 0.39400000000000E-1
 144
 1.0000000000000
 145
0.0
 146
 0.62500000000000
 147
 6.4000000000000
  71
0
  72
0
  73
0
  74
0
  75
0
  76
0
  77
3
  78
8
 170
0
 171
2
 172
1
 173
1
 174
0
 175
0
 176
3
 177
3
 178
3
 270
2
 271
2
 272
0
 273
2
 274
2
 340
3E
 275
0
 280
0
 281
0
 282
0
 283
1
 284
0
 285
0
 286
0
 287
3
 288
0
   0
DIMSTYLE
 105
42
 100
AcDbSymbolTableRecord
 100
AcDbDimStyleTableRecord
   2
GMM004
  70
0
   3

   4

   5

   6
_OPEN
   7
_OPEN
  40
 1.0000000000000
  41
 24.000000000000
  42
 8.0000000000000
  43
 64.000000000000
  44
 16.000000000000
  45
0.0
  46
0.0
  47
0.0
  48
0.0
 140
 32.000000000000
 141
 8.0000000000000
 142
0.0
 143
 0.39400000000000E-1
 144
 1.0000000000000
 145
0.0
 146
 0.62500000000000
 147
 6.4000000000000
  71
0
  72
0
  73
0
  74
0
  75
0
  76
1
  77
3
  78
8
 170
0
 171
2
 172
1
 173
1
 174
0
 175
0
 176
3
 177
3
 178
3
 270
2
 271
2
 272
0
 273
2
 274
2
 340
3E
 275
0
 280
0
 281
0
 282
0
 283
1
 284
0
 285
0
 286
0
 287
3
 288
0
   0
DIMSTYLE
 105
43
 100
AcDbSymbolTableRecord
 100
AcDbDimStyleTableRecord
   2
GMM005
  70
0
   3

   4

   5

   6
_OPEN
   7
_OPEN
  40
 1.0000000000000
  41
 24.000000000000
  42
 8.0000000000000
  43
 64.000000000000
  44
 16.000000000000
  45
0.0
  46
0.0
  47
0.0
  48
0.0
 140
 32.000000000000
 141
 8.0000000000000
 142
0.0
 143
 0.39400000000000E-1
 144
 1.0000000000000
 145
0.0
 146
 0.62500000000000
 147
 6.4000000000001
  71
0
  72
0
  73
0
  74
0
  75
0
  76
1
  77
3
  78
8
 170
0
 171
2
 172
1
 173
1
 174
0
 175
0
 176
3
 177
3
 178
3
 270
2
 271
2
 272
0
 273
2
 274
2
 340
3E
 275
0
 280
0
 281
0
 282
0
 283
1
 284
0
 285
0
 286
0
 287
3
 288
1
   0
DIMSTYLE
 105
44
 100
AcDbSymbolTableRecord
 100
AcDbDimStyleTableRecord
   2
GMM006
  70
0
   3

   4

   5

   6
_OPEN
   7
_OPEN
  40
 1.0000000000000
  41
 18.000000000000
  42
 8.0000000000000
  43
 64.000000000000
  44
 16.000000000000
  45
0.0
  46
0.0
  47
0.0
  48
0.0
 140
 32.000000000000
 141
 8.0000000000000
 142
0.0
 143
 0.39400000000000E-1
 144
 1.0000000000000
 145
0.0
 146
 0.62500000000000
 147
0.0
  71
0
  72
0
  73
0
  74
0
  75
0
  76
0
  77
1
  78
8
 170
0
 171
2
 172
1
 173
1
 174
0
 175
0
 176
3
 177
3
 178
7
 270
2
 271
2
 272
0
 273
2
 274
2
 340
F
 275
0
 280
0
 281
0
 282
0
 283
1
 284
0
 285
0
 286
0
 287
3
 288
1
   0
DIMSTYLE
 105
45
 100
AcDbSymbolTableRecord
 100
AcDbDimStyleTableRecord
   2
GMM007
  70
0
   3

   4

   5

   6
_OPEN
   7
_OPEN
  40
 1.0000000000000
  41
 24.000000000000
  42
 8.0000000000000
  43
 64.000000000000
  44
 16.000000000000
  45
0.0
  46
0.0
  47
0.0
  48
0.0
 140
 32.000000000000
 141
 8.0000000000000
 142
0.0
 143
 0.39400000000000E-1
 144
 1.0000000000000
 145
0.0
 146
 0.62500000000000
 147
0.0
  71
0
  72
0
  73
0
  74
0
  75
0
  76
0
  77
1
  78
8
 170
0
 171
2
 172
1
 173
1
 174
0
 175
0
 176
3
 177
3
 178
7
 270
2
 271
2
 272
0
 273
2
 274
2
 340
F
 275
0
 280
0
 281
0
 282
0
 283
1
 284
0
 285
0
 286
0
 287
3
 288
1
   0
ENDTAB
  0
TABLE
  2
BLOCK_RECORD
  5
1
100
AcDbSymbolTable
 70
     0
  0
BLOCK_RECORD
  5
18
100
AcDbSymbolTableRecord
100
AcDbBlockTableRecord
  2
*MODEL_SPACE
  0
BLOCK_RECORD
  5
15
100
AcDbSymbolTableRecord
100
AcDbBlockTableRecord
  2
*PAPER_SPACE
   0
BLOCK_RECORD
   5
46
 100
AcDbSymbolTableRecord
 100
AcDbBlockTableRecord
   2
*D1
   0
BLOCK_RECORD
   5
47
 100
AcDbSymbolTableRecord
 100
AcDbBlockTableRecord
   2
*D2
   0
BLOCK_RECORD
   5
48
 100
AcDbSymbolTableRecord
 100
AcDbBlockTableRecord
   2
*D3
   0
BLOCK_RECORD
   5
49
 100
AcDbSymbolTableRecord
 100
AcDbBlockTableRecord
   2
*D4
   0
BLOCK_RECORD
   5
4A
 100
AcDbSymbolTableRecord
 100
AcDbBlockTableRecord
   2
*D5
   0
BLOCK_RECORD
   5
4B
 100
AcDbSymbolTableRecord
 100
AcDbBlockTableRecord
   2
*D6
   0
BLOCK_RECORD
   5
4C
 100
AcDbSymbolTableRecord
 100
AcDbBlockTableRecord
   2
*D7
   0
BLOCK_RECORD
   5
4D
 100
AcDbSymbolTableRecord
 100
AcDbBlockTableRecord
   2
*D8
   0
BLOCK_RECORD
   5
4E
 100
AcDbSymbolTableRecord
 100
AcDbBlockTableRecord
   2
*D9
   0
BLOCK_RECORD
   5
4F
 100
AcDbSymbolTableRecord
 100
AcDbBlockTableRecord
   2
*D10
   0
BLOCK_RECORD
   5
50
 100
AcDbSymbolTableRecord
 100
AcDbBlockTableRecord
   2
*D11
   0
BLOCK_RECORD
   5
51
 100
AcDbSymbolTableRecord
 100
AcDbBlockTableRecord
   2
_ARCHTICK
   0
BLOCK_RECORD
   5
52
 100
AcDbSymbolTableRecord
 100
AcDbBlockTableRecord
   2
_BOXBLANK
   0
BLOCK_RECORD
   5
53
 100
AcDbSymbolTableRecord
 100
AcDbBlockTableRecord
   2
_BOXFILLED
   0
BLOCK_RECORD
   5
54
 100
AcDbSymbolTableRecord
 100
AcDbBlockTableRecord
   2
_CLOSED
   0
BLOCK_RECORD
   5
55
 100
AcDbSymbolTableRecord
 100
AcDbBlockTableRecord
   2
_CLOSEDBLANK
   0
BLOCK_RECORD
   5
56
 100
AcDbSymbolTableRecord
 100
AcDbBlockTableRecord
   2
_DATUMBLANK
   0
BLOCK_RECORD
   5
57
 100
AcDbSymbolTableRecord
 100
AcDbBlockTableRecord
   2
_DATUMFILLED
   0
BLOCK_RECORD
   5
58
 100
AcDbSymbolTableRecord
 100
AcDbBlockTableRecord
   2
_DOT
   0
BLOCK_RECORD
   5
59
 100
AcDbSymbolTableRecord
 100
AcDbBlockTableRecord
   2
_DOTBLANK
   0
BLOCK_RECORD
   5
5A
 100
AcDbSymbolTableRecord
 100
AcDbBlockTableRecord
   2
_DOTSMALL
   0
BLOCK_RECORD
   5
5B
 100
AcDbSymbolTableRecord
 100
AcDbBlockTableRecord
   2
_INTEGRAL
   0
BLOCK_RECORD
   5
5C
 100
AcDbSymbolTableRecord
 100
AcDbBlockTableRecord
   2
_NONE
   0
BLOCK_RECORD
   5
5D
 100
AcDbSymbolTableRecord
 100
AcDbBlockTableRecord
   2
_OBLIQUE
   0
BLOCK_RECORD
   5
5E
 100
AcDbSymbolTableRecord
 100
AcDbBlockTableRecord
   2
_OPEN
   0
BLOCK_RECORD
   5
5F
 100
AcDbSymbolTableRecord
 100
AcDbBlockTableRecord
   2
_OPEN30
   0
BLOCK_RECORD
   5
60
 100
AcDbSymbolTableRecord
 100
AcDbBlockTableRecord
   2
_OPEN90
   0
BLOCK_RECORD
   5
61
 100
AcDbSymbolTableRecord
 100
AcDbBlockTableRecord
   2
_ORIGIN
   0
ENDTAB
   0
ENDSEC
  0
SECTION
  2
BLOCKS
  0
BLOCK
  5
19
100
AcDbEntity
  8
0
100
AcDbBlockBegin
  2
*MODEL_SPACE
 70
     0
 10
0.0
 20
0.0
 30
0.0
  3
*MODEL_SPACE
  1

  0
ENDBLK
  5
1A
100
AcDbEntity
  8
0
100
AcDbBlockEnd
  0
BLOCK
  5
16
100
AcDbEntity
 67
     1
  8
0
100
AcDbBlockBegin
  2
*PAPER_SPACE
 70
     0
 10
0.0
 20
0.0
 30
0.0
  3
*PAPER_SPACE
  1

  0
ENDBLK
  5
17
100
AcDbEntity
 67
     1
  8
0
100
AcDbBlockEnd
   0
BLOCK
   5
62
 100
AcDbEntity
   8
0
 100
AcDbBlockBegin
   2
_ARCHTICK
  70
0
  10
0.0
  20
0.0
  30
0.0
   3
_ARCHTICK
   0
POLYLINE
   5
63
 100
AcDbEntity
   8
0
   6
BYBLOCK
  62
0
 100
AcDb2dPolyline
  66
1
  10
0.0
  20
0.0
  30
0.0
  70
1
  40
 0.15000000000000
  41
 0.15000000000000
   0
VERTEX
   5
64
 100
AcDbEntity
   8
0
   6
BYBLOCK
  62
0
 100
AcDbVertex
 100
AcDb2dVertex
  10
-0.50000000000000
  20
-0.50000000000000
  30
0.0
  40
 0.15000000000000
  41
 0.15000000000000
   0
VERTEX
   5
65
 100
AcDbEntity
   8
0
   6
BYBLOCK
  62
0
 100
AcDbVertex
 100
AcDb2dVertex
  10
 0.50000000000000
  20
 0.50000000000000
  30
0.0
  40
 0.15000000000000
  41
 0.15000000000000
   0
SEQEND
   5
66
 100
AcDbEntity
   8
0
   6
BYBLOCK
  62
0
   0
ENDBLK
   5
67
 100
AcDbEntity
   8
0
 100
AcDbBlockEnd
   0
BLOCK
   5
68
 100
AcDbEntity
   8
0
 100
AcDbBlockBegin
   2
_OBLIQUE
  70
0
  10
0.0
  20
0.0
  30
0.0
   3
_OBLIQUE
   0
LINE
   5
69
 100
AcDbEntity
   8
0
 100
AcDbLine
   6
BYBLOCK
  62
0
  10
-0.50000000000000
  20
-0.50000000000000
  30
0.0
  11
 0.50000000000000
  21
 0.50000000000000
  31
0.0
   0
ENDBLK
   5
6A
 100
AcDbEntity
   8
0
 100
AcDbBlockEnd
   0
BLOCK
   5
6B
 100
AcDbEntity
   8
0
 100
AcDbBlockBegin
   2
_BOXBLANK
  70
0
  10
0.0
  20
0.0
  30
0.0
   3
_BOXBLANK
   0
LINE
   5
6C
 100
AcDbEntity
   8
0
 100
AcDbLine
   6
BYBLOCK
  62
0
  10
-0.50000000000000
  20
-0.50000000000000
  30
0.0
  11
 0.50000000000000
  21
-0.50000000000000
  31
0.0
   0
LINE
   5
6D
 100
AcDbEntity
   8
0
 100
AcDbLine
   6
BYBLOCK
  62
0
  10
 0.50000000000000
  20
-0.50000000000000
  30
0.0
  11
 0.50000000000000
  21
 0.50000000000000
  31
0.0
   0
LINE
   5
6E
 100
AcDbEntity
   8
0
 100
AcDbLine
   6
BYBLOCK
  62
0
  10
 0.50000000000000
  20
 0.50000000000000
  30
0.0
  11
-0.50000000000000
  21
 0.50000000000000
  31
0.0
   0
LINE
   5
6F
 100
AcDbEntity
   8
0
 100
AcDbLine
   6
BYBLOCK
  62
0
  10
-0.50000000000000
  20
 0.50000000000000
  30
0.0
  11
-0.50000000000000
  21
-0.50000000000000
  31
0.0
   0
LINE
   5
70
 100
AcDbEntity
   8
0
 100
AcDbLine
   6
BYBLOCK
  62
0
  10
-0.50000000000000
  20
0.0
  30
0.0
  11
-1.0000000000000
  21
0.0
  31
0.0
   0
ENDBLK
   5
71
 100
AcDbEntity
   8
0
 100
AcDbBlockEnd
   0
BLOCK
   5
72
 100
AcDbEntity
   8
0
 100
AcDbBlockBegin
   2
_BOXFILLED
  70
0
  10
0.0
  20
0.0
  30
0.0
   3
_BOXFILLED
   0
SOLID
   5
73
 100
AcDbEntity
   8
0
 100
AcDbTrace
   6
BYBLOCK
  62
0
  10
-0.50000000000000
  20
 0.50000000000000
  30
0.0
  11
 0.50000000000000
  21
 0.50000000000000
  31
0.0
  12
-0.50000000000000
  22
-0.50000000000000
  32
0.0
  13
 0.50000000000000
  23
-0.50000000000000
  33
0.0
   0
LINE
   5
74
 100
AcDbEntity
   8
0
 100
AcDbLine
   6
BYBLOCK
  62
0
  10
-0.50000000000000
  20
0.0
  30
0.0
  11
-1.0000000000000
  21
0.0
  31
0.0
   0
ENDBLK
   5
75
 100
AcDbEntity
   8
0
 100
AcDbBlockEnd
   0
BLOCK
   5
76
 100
AcDbEntity
   8
0
 100
AcDbBlockBegin
   2
_CLOSED
  70
0
  10
0.0
  20
0.0
  30
0.0
   3
_CLOSED
   0
LINE
   5
77
 100
AcDbEntity
   8
0
 100
AcDbLine
   6
BYBLOCK
  62
0
  10
-1.0000000000000
  20
 0.16666666666667
  30
0.0
  11
0.0
  21
0.0
  31
0.0
   0
LINE
   5
78
 100
AcDbEntity
   8
0
 100
AcDbLine
   6
BYBLOCK
  62
0
  10
0.0
  20
0.0
  30
0.0
  11
-1.0000000000000
  21
-0.16666666666667
  31
0.0
   0
LINE
   5
79
 100
AcDbEntity
   8
0
 100
AcDbLine
   6
BYBLOCK
  62
0
  10
-1.0000000000000
  20
 0.16666666666667
  30
0.0
  11
-1.0000000000000
  21
-0.16666666666667
  31
0.0
   0
LINE
   5
7A
 100
AcDbEntity
   8
0
 100
AcDbLine
   6
BYBLOCK
  62
0
  10
0.0
  20
0.0
  30
0.0
  11
-1.0000000000000
  21
0.0
  31
0.0
   0
ENDBLK
   5
7B
 100
AcDbEntity
   8
0
 100
AcDbBlockEnd
   0
BLOCK
   5
7C
 100
AcDbEntity
   8
0
 100
AcDbBlockBegin
   2
_OPEN
  70
0
  10
0.0
  20
0.0
  30
0.0
   3
_OPEN
   0
LINE
   5
7D
 100
AcDbEntity
   8
0
 100
AcDbLine
   6
BYBLOCK
  62
0
  10
-1.0000000000000
  20
 0.16666666666667
  30
0.0
  11
0.0
  21
0.0
  31
0.0
   0
LINE
   5
7E
 100
AcDbEntity
   8
0
 100
AcDbLine
   6
BYBLOCK
  62
0
  10
0.0
  20
0.0
  30
0.0
  11
-1.0000000000000
  21
-0.16666666666667
  31
0.0
   0
LINE
   5
7F
 100
AcDbEntity
   8
0
 100
AcDbLine
   6
BYBLOCK
  62
0
  10
0.0
  20
0.0
  30
0.0
  11
-1.0000000000000
  21
0.0
  31
0.0
   0
ENDBLK
   5
80
 100
AcDbEntity
   8
0
 100
AcDbBlockEnd
   0
BLOCK
   5
81
 100
AcDbEntity
   8
0
 100
AcDbBlockBegin
   2
_OPEN30
  70
0
  10
0.0
  20
0.0
  30
0.0
   3
_OPEN30
   0
LINE
   5
82
 100
AcDbEntity
   8
0
 100
AcDbLine
   6
BYBLOCK
  62
0
  10
-1.0000000000000
  20
 0.26794919243110
  30
0.0
  11
0.0
  21
0.0
  31
0.0
   0
LINE
   5
83
 100
AcDbEntity
   8
0
 100
AcDbLine
   6
BYBLOCK
  62
0
  10
0.0
  20
0.0
  30
0.0
  11
-1.0000000000000
  21
-0.26794919243110
  31
0.0
   0
LINE
   5
84
 100
AcDbEntity
   8
0
 100
AcDbLine
   6
BYBLOCK
  62
0
  10
0.0
  20
0.0
  30
0.0
  11
-1.0000000000000
  21
0.0
  31
0.0
   0
ENDBLK
   5
85
 100
AcDbEntity
   8
0
 100
AcDbBlockEnd
   0
BLOCK
   5
86
 100
AcDbEntity
   8
0
 100
AcDbBlockBegin
   2
_OPEN90
  70
0
  10
0.0
  20
0.0
  30
0.0
   3
_OPEN90
   0
LINE
   5
87
 100
AcDbEntity
   8
0
 100
AcDbLine
   6
BYBLOCK
  62
0
  10
-0.50000000000000
  20
 0.50000000000000
  30
0.0
  11
0.0
  21
0.0
  31
0.0
   0
LINE
   5
88
 100
AcDbEntity
   8
0
 100
AcDbLine
   6
BYBLOCK
  62
0
  10
0.0
  20
0.0
  30
0.0
  11
-0.50000000000000
  21
-0.50000000000000
  31
0.0
   0
LINE
   5
89
 100
AcDbEntity
   8
0
 100
AcDbLine
   6
BYBLOCK
  62
0
  10
0.0
  20
0.0
  30
0.0
  11
-1.0000000000000
  21
0.0
  31
0.0
   0
ENDBLK
   5
8A
 100
AcDbEntity
   8
0
 100
AcDbBlockEnd
   0
BLOCK
   5
8B
 100
AcDbEntity
   8
0
 100
AcDbBlockBegin
   2
_CLOSEDBLANK
  70
0
  10
0.0
  20
0.0
  30
0.0
   3
_CLOSEDBLANK
   0
LINE
   5
8C
 100
AcDbEntity
   8
0
 100
AcDbLine
   6
BYBLOCK
  62
0
  10
-1.0000000000000
  20
 0.16666666666667
  30
0.0
  11
0.0
  21
0.0
  31
0.0
   0
LINE
   5
8D
 100
AcDbEntity
   8
0
 100
AcDbLine
   6
BYBLOCK
  62
0
  10
0.0
  20
0.0
  30
0.0
  11
-1.0000000000000
  21
-0.16666666666667
  31
0.0
   0
LINE
   5
8E
 100
AcDbEntity
   8
0
 100
AcDbLine
   6
BYBLOCK
  62
0
  10
-1.0000000000000
  20
 0.16666666666667
  30
0.0
  11
-1.0000000000000
  21
-0.16666666666667
  31
0.0
   0
ENDBLK
   5
8F
 100
AcDbEntity
   8
0
 100
AcDbBlockEnd
   0
BLOCK
   5
90
 100
AcDbEntity
   8
0
 100
AcDbBlockBegin
   2
_DOT
  70
0
  10
0.0
  20
0.0
  30
0.0
   3
_DOT
   0
POLYLINE
   5
91
 100
AcDbEntity
   8
0
   6
BYBLOCK
  62
0
 100
AcDb2dPolyline
  66
1
  10
0.0
  20
0.0
  30
0.0
  70
1
  40
 0.50000000000000
  41
 0.50000000000000
   0
VERTEX
   5
92
 100
AcDbEntity
   8
0
   6
BYBLOCK
  62
0
 100
AcDbVertex
 100
AcDb2dVertex
  10
-0.25000000000000
  20
0.0
  30
0.0
  42
 1.0000000000000
  40
 0.50000000000000
  41
 0.50000000000000
   0
VERTEX
   5
93
 100
AcDbEntity
   8
0
   6
BYBLOCK
  62
0
 100
AcDbVertex
 100
AcDb2dVertex
  10
 0.25000000000000
  20
0.0
  30
0.0
  42
 1.0000000000000
  40
 0.50000000000000
  41
 0.50000000000000
   0
SEQEND
   5
94
 100
AcDbEntity
   8
0
   6
BYBLOCK
  62
0
   0
LINE
   5
95
 100
AcDbEntity
   8
0
 100
AcDbLine
   6
BYBLOCK
  62
0
  10
-0.50000000000000
  20
0.0
  30
0.0
  11
-1.0000000000000
  21
0.0
  31
0.0
   0
ENDBLK
   5
96
 100
AcDbEntity
   8
0
 100
AcDbBlockEnd
   0
BLOCK
   5
97
 100
AcDbEntity
   8
0
 100
AcDbBlockBegin
   2
_DOTSMALL
  70
0
  10
0.0
  20
0.0
  30
0.0
   3
_DOTSMALL
   0
POLYLINE
   5
98
 100
AcDbEntity
   8
0
   6
BYBLOCK
  62
0
 100
AcDb2dPolyline
  66
1
  10
0.0
  20
0.0
  30
0.0
  70
1
  40
 0.50000000000000
  41
 0.50000000000000
   0
VERTEX
   5
99
 100
AcDbEntity
   8
0
   6
BYBLOCK
  62
0
 100
AcDbVertex
 100
AcDb2dVertex
  10
-0.62500000000000E-1
  20
0.0
  30
0.0
  42
 1.0000000000000
  40
 0.50000000000000
  41
 0.50000000000000
   0
VERTEX
   5
9A
 100
AcDbEntity
   8
0
   6
BYBLOCK
  62
0
 100
AcDbVertex
 100
AcDb2dVertex
  10
 0.62500000000000E-1
  20
0.0
  30
0.0
  42
 1.0000000000000
  40
 0.50000000000000
  41
 0.50000000000000
   0
SEQEND
   5
9B
 100
AcDbEntity
   8
0
   6
BYBLOCK
  62
0
   0
ENDBLK
   5
9C
 100
AcDbEntity
   8
0
 100
AcDbBlockEnd
   0
BLOCK
   5
9D
 100
AcDbEntity
   8
0
 100
AcDbBlockBegin
   2
_DATUMBLANK
  70
0
  10
0.0
  20
0.0
  30
0.0
   3
_DATUMBLANK
   0
LINE
   5
9E
 100
AcDbEntity
   8
0
 100
AcDbLine
   6
BYBLOCK
  62
0
  10
0.0
  20
 0.57735027000000
  30
0.0
  11
-1.0000000000000
  21
0.0
  31
0.0
   0
LINE
   5
9F
 100
AcDbEntity
   8
0
 100
AcDbLine
   6
BYBLOCK
  62
0
  10
-1.0000000000000
  20
0.0
  30
0.0
  11
0.0
  21
-0.57735027000000
  31
0.0
   0
LINE
   5
A0
 100
AcDbEntity
   8
0
 100
AcDbLine
   6
BYBLOCK
  62
0
  10
0.0
  20
-0.57735027000000
  30
0.0
  11
0.0
  21
 0.57735027000000
  31
0.0
   0
ENDBLK
   5
A1
 100
AcDbEntity
   8
0
 100
AcDbBlockEnd
   0
BLOCK
   5
A2
 100
AcDbEntity
   8
0
 100
AcDbBlockBegin
   2
_DATUMFILLED
  70
0
  10
0.0
  20
0.0
  30
0.0
   3
_DATUMFILLED
   0
SOLID
   5
A3
 100
AcDbEntity
   8
0
 100
AcDbTrace
   6
BYBLOCK
  62
0
  10
0.0
  20
 0.57735027000000
  30
0.0
  11
-1.0000000000000
  21
0.0
  31
0.0
  12
0.0
  22
-0.57735027000000
  32
0.0
  13
0.0
  23
-0.57735027000000
  33
0.0
   0
ENDBLK
   5
A4
 100
AcDbEntity
   8
0
 100
AcDbBlockEnd
   0
BLOCK
   5
A5
 100
AcDbEntity
   8
0
 100
AcDbBlockBegin
   2
_ORIGIN
  70
0
  10
0.0
  20
0.0
  30
0.0
   3
_ORIGIN
   0
CIRCLE
   5
A6
 100
AcDbEntity
   8
0
 100
AcDbCircle
   6
BYBLOCK
  62
0
  10
0.0
  20
0.0
  30
0.0
  40
 0.50000000000000
   0
LINE
   5
A7
 100
AcDbEntity
   8
0
 100
AcDbLine
   6
BYBLOCK
  62
0
  10
0.0
  20
0.0
  30
0.0
  11
-1.0000000000000
  21
0.0
  31
0.0
   0
ENDBLK
   5
A8
 100
AcDbEntity
   8
0
 100
AcDbBlockEnd
   0
BLOCK
   5
A9
 100
AcDbEntity
   8
0
 100
AcDbBlockBegin
   2
_NONE
  70
0
  10
0.0
  20
0.0
  30
0.0
   3
_NONE
   0
CIRCLE
   5
AA
 100
AcDbEntity
   8
0
 100
AcDbCircle
   6
BYBLOCK
  62
0
  10
0.0
  20
0.0
  30
0.0
  40
 0.25000000000000
   0
ENDBLK
   5
AB
 100
AcDbEntity
   8
0
 100
AcDbBlockEnd
   0
BLOCK
   5
AC
 100
AcDbEntity
   8
0
 100
AcDbBlockBegin
   2
_DOTBLANK
  70
0
  10
0.0
  20
0.0
  30
0.0
   3
_DOTBLANK
   0
CIRCLE
   5
AD
 100
AcDbEntity
   8
0
 100
AcDbCircle
   6
BYBLOCK
  62
0
  10
0.0
  20
0.0
  30
0.0
  40
 0.50000000000000
   0
LINE
   5
AE
 100
AcDbEntity
   8
0
 100
AcDbLine
   6
BYBLOCK
  62
0
  10
-0.50000000000000
  20
0.0
  30
0.0
  11
-1.0000000000000
  21
0.0
  31
0.0
   0
ENDBLK
   5
AF
 100
AcDbEntity
   8
0
 100
AcDbBlockEnd
   0
BLOCK
   5
B0
 100
AcDbEntity
   8
0
 100
AcDbBlockBegin
   2
_INTEGRAL
  70
0
  10
0.0
  20
0.0
  30
0.0
   3
_INTEGRAL
   0
ARC
   5
B1
 100
AcDbEntity
   8
0
   6
BYBLOCK
  62
0
 100
AcDbCircle
  10
 0.44488800000000
  20
-0.91335000000000E-1
  30
0.0
  40
 0.45416700000000
 100
AcDbArc
  50
 102.00000000000
  51
 168.00000000000
   0
ARC
   5
B2
 100
AcDbEntity
   8
0
   6
BYBLOCK
  62
0
 100
AcDbCircle
  10
-0.44488800000000
  20
 0.91335000000000E-1
  30
0.0
  40
 0.45416700000000
 100
AcDbArc
  50
 282.00000000000
  51
 348.00000000000
   0
ENDBLK
   5
B3
 100
AcDbEntity
   8
0
 100
AcDbBlockEnd
   0
BLOCK
   5
B4
 100
AcDbEntity
   8
0
 100
AcDbBlockBegin
   2
*D1
  70
65
  10
0.0
  20
0.0
  30
0.0
   3
*D1
   0
LINE
   5
B5
 100
AcDbEntity
   8
LEVEL003
 100
AcDbLine
   6
CONTINUOUS
  62
3
  10
 755.00000000000
  20
 1685.0000000000
  30
0.0
  11
 692.02661132813
  21
 1685.0000000000
  31
0.0
   0
LINE
   5
B6
 100
AcDbEntity
   8
LEVEL003
 100
AcDbLine
   6
CONTINUOUS
  62
3
  10
 755.00000000000
  20
 1355.0000000000
  30
0.0
  11
 692.02661132813
  21
 1355.0000000000
  31
0.0
   0
LINE
   5
B7
 100
AcDbEntity
   8
LEVEL003
 100
AcDbLine
   6
CONTINUOUS
  62
3
  10
 708.02661132813
  20
 1685.0000000000
  30
0.0
  11
 708.02661132813
  21
 1587.9000000000
  31
0.0
   0
LINE
   5
B8
 100
AcDbEntity
   8
LEVEL003
 100
AcDbLine
   6
CONTINUOUS
  62
3
  10
 708.02661132813
  20
 1355.0000000000
  30
0.0
  11
 708.02661132813
  21
 1452.1000000000
  31
0.0
   0
INSERT
   5
B9
 100
AcDbEntity
   8
LEVEL003
   6
CONTINUOUS
  62
3
 100
AcDbBlockReference
   2
_OPEN
  10
 708.02661132813
  20
 1685.0000000000
  30
0.0
  41
 24.000000000000
  42
 24.000000000000
  43
 24.000000000000
  50
 90.000000000000
   0
INSERT
   5
BA
 100
AcDbEntity
   8
LEVEL003
   6
CONTINUOUS
  62
3
 100
AcDbBlockReference
   2
_OPEN
  10
 708.02661132813
  20
 1355.0000000000
  30
0.0
  41
 24.000000000000
  42
 24.000000000000
  43
 24.000000000000
  50
 270.00000000000
   0
MTEXT
   5
BB
 100
AcDbEntity
   8
LEVEL003
  62
3
 100
AcDbMText
  10
 701.62658691407
  20
 1520.0000000000
  30
0.0
  40
 32.000000000000
  41
0.0
  71
8
  72
1
   1
\A1;%%c330
   7
GMM001
  11
0.0
  21
 1.0000000000000
  31
0.0
   0
ENDBLK
   5
BC
 100
AcDbEntity
   8
0
 100
AcDbBlockEnd
   0
BLOCK
   5
BD
 100
AcDbEntity
   8
0
 100
AcDbBlockBegin
   2
*D2
  70
65
  10
0.0
  20
0.0
  30
0.0
   3
*D2
   0
LINE
   5
BE
 100
AcDbEntity
   8
LEVEL003
 100
AcDbLine
   6
CONTINUOUS
  62
3
  10
 2000.0000000000
  20
 1814.9999998632
  30
0.0
  11
 2000.0000000000
  21
 1587.8999998632
  31
0.0
   0
LINE
   5
BF
 100
AcDbEntity
   8
LEVEL003
 100
AcDbLine
   6
CONTINUOUS
  62
3
  10
 2000.0000000000
  20
 1224.9999998632
  30
0.0
  11
 2000.0000000000
  21
 1452.0999998632
  31
0.0
   0
INSERT
   5
C0
 100
AcDbEntity
   8
LEVEL003
   6
CONTINUOUS
  62
3
 100
AcDbBlockReference
   2
_OPEN
  10
 2000.0000000000
  20
 1814.9999998632
  30
0.0
  41
 24.000000000000
  42
 24.000000000000
  43
 24.000000000000
  50
 90.000000000000
   0
INSERT
   5
C1
 100
AcDbEntity
   8
LEVEL003
   6
CONTINUOUS
  62
3
 100
AcDbBlockReference
   2
_OPEN
  10
 2000.0000000000
  20
 1224.9999998632
  30
0.0
  41
 24.000000000000
  42
 24.000000000000
  43
 24.000000000000
  50
 270.00000000000
   0
MTEXT
   5
C2
 100
AcDbEntity
   8
LEVEL003
  62
3
 100
AcDbMText
  10
 1993.6000000000
  20
 1519.9999998632
  30
0.0
  40
 32.000000000000
  41
0.0
  71
8
  72
1
   1
\A1;%%c590
   7
GMM001
  11
0.0
  21
 1.0000000000000
  31
0.0
   0
ENDBLK
   5
C3
 100
AcDbEntity
   8
0
 100
AcDbBlockEnd
   0
BLOCK
   5
C4
 100
AcDbEntity
   8
0
 100
AcDbBlockBegin
   2
*D3
  70
65
  10
0.0
  20
0.0
  30
0.0
   3
*D3
   0
LINE
   5
C5
 100
AcDbEntity
   8
LEVEL003
 100
AcDbLine
   6
CONTINUOUS
  62
3
  10
 1840.0000000000
  20
 1670.0000000000
  30
0.0
  11
 1840.0000000000
  21
 1585.1000000000
  31
0.0
   0
LINE
   5
C6
 100
AcDbEntity
   8
LEVEL003
 100
AcDbLine
   6
CONTINUOUS
  62
3
  10
 1840.0000000000
  20
 1370.0000000000
  30
0.0
  11
 1840.0000000000
  21
 1454.9000000000
  31
0.0
   0
INSERT
   5
C7
 100
AcDbEntity
   8
LEVEL003
   6
CONTINUOUS
  62
3
 100
AcDbBlockReference
   2
_OPEN
  10
 1840.0000000000
  20
 1670.0000000000
  30
0.0
  41
 24.000000000000
  42
 24.000000000000
  43
 24.000000000000
  50
 90.000000000000
   0
INSERT
   5
C8
 100
AcDbEntity
   8
LEVEL003
   6
CONTINUOUS
  62
3
 100
AcDbBlockReference
   2
_OPEN
  10
 1840.0000000000
  20
 1370.0000000000
  30
0.0
  41
 24.000000000000
  42
 24.000000000000
  43
 24.000000000000
  50
 270.00000000000
   0
MTEXT
   5
C9
 100
AcDbEntity
   8
LEVEL003
  62
3
 100
AcDbMText
  10
 1833.6000000000
  20
 1520.0000000000
  30
0.0
  40
 32.000000000000
  41
0.0
  71
8
  72
1
   1
\A1;%%c300
   7
GMM001
  11
0.0
  21
 1.0000000000000
  31
0.0
   0
ENDBLK
   5
CA
 100
AcDbEntity
   8
0
 100
AcDbBlockEnd
   0
BLOCK
   5
CB
 100
AcDbEntity
   8
0
 100
AcDbBlockBegin
   2
*D4
  70
65
  10
0.0
  20
0.0
  30
0.0
   3
*D4
   0
LINE
   5
CC
 100
AcDbEntity
   8
LEVEL003
 100
AcDbLine
   6
CONTINUOUS
  62
3
  10
 1920.0000000000
  20
 1307.5000000000
  30
0.0
  11
 1920.0000000000
  21
 1449.3000000000
  31
0.0
   0
LINE
   5
CD
 100
AcDbEntity
   8
LEVEL003
 100
AcDbLine
   6
CONTINUOUS
  62
3
  10
 1920.0000000000
  20
 1732.5000000000
  30
0.0
  11
 1920.0000000000
  21
 1590.7000000000
  31
0.0
   0
INSERT
   5
CE
 100
AcDbEntity
   8
LEVEL003
   6
CONTINUOUS
  62
3
 100
AcDbBlockReference
   2
_OPEN
  10
 1920.0000000000
  20
 1307.5000000000
  30
0.0
  41
 24.000000000000
  42
 24.000000000000
  43
 24.000000000000
  50
 270.00000000000
   0
INSERT
   5
CF
 100
AcDbEntity
   8
LEVEL003
   6
CONTINUOUS
  62
3
 100
AcDbBlockReference
   2
_OPEN
  10
 1920.0000000000
  20
 1732.5000000000
  30
0.0
  41
 24.000000000000
  42
 24.000000000000
  43
 24.000000000000
  50
 90.000000000000
   0
MTEXT
   5
D0
 100
AcDbEntity
   8
LEVEL003
  62
3
 100
AcDbMText
  10
 1913.6000000000
  20
 1520.0000000000
  30
0.0
  40
 32.000000000000
  41
0.0
  71
8
  72
1
   1
\A1;%%c425
   7
GMM001
  11
0.0
  21
 1.0000000000000
  31
0.0
   0
ENDBLK
   5
D1
 100
AcDbEntity
   8
0
 100
AcDbBlockEnd
   0
BLOCK
   5
D2
 100
AcDbEntity
   8
0
 100
AcDbBlockBegin
   2
*D5
  70
65
  10
0.0
  20
0.0
  30
0.0
   3
*D5
   0
LINE
   5
D3
 100
AcDbEntity
   8
LEVEL003
 100
AcDbLine
   6
CONTINUOUS
  62
3
  10
 1000.0000000000
  20
 1224.4999998148
  30
0.0
  11
 1000.0000000000
  21
 1144.0000000000
  31
0.0
   0
LINE
   5
D4
 100
AcDbEntity
   8
LEVEL003
 100
AcDbLine
   6
CONTINUOUS
  62
3
  10
 1185.0000000000
  20
 1217.0000013114
  30
0.0
  11
 1185.0000000000
  21
 1144.0000000000
  31
0.0
   0
LINE
   5
D5
 100
AcDbEntity
   8
LEVEL003
 100
AcDbLine
   6
CONTINUOUS
  62
3
  10
 1000.0000000000
  20
 1160.0000000000
  30
0.0
  11
 1049.4500000000
  21
 1160.0000000000
  31
0.0
   0
LINE
   5
D6
 100
AcDbEntity
   8
LEVEL003
 100
AcDbLine
   6
CONTINUOUS
  62
3
  10
 1185.0000000000
  20
 1160.0000000000
  30
0.0
  11
 1135.5500000000
  21
 1160.0000000000
  31
0.0
   0
INSERT
   5
D7
 100
AcDbEntity
   8
LEVEL003
   6
CONTINUOUS
  62
3
 100
AcDbBlockReference
   2
_OPEN
  10
 1000.0000000000
  20
 1160.0000000000
  30
0.0
  41
 24.000000000000
  42
 24.000000000000
  43
 24.000000000000
  50
 180.00000000000
   0
INSERT
   5
D8
 100
AcDbEntity
   8
LEVEL003
   6
CONTINUOUS
  62
3
 100
AcDbBlockReference
   2
_OPEN
  10
 1185.0000000000
  20
 1160.0000000000
  30
0.0
  41
 24.000000000000
  42
 24.000000000000
  43
 24.000000000000
  50
0.0
   0
MTEXT
   5
D9
 100
AcDbEntity
   8
LEVEL003
  62
3
 100
AcDbMText
  10
 1092.5000000000
  20
 1166.4000000000
  30
0.0
  40
 32.000000000000
  41
0.0
  71
8
  72
1
   1
\A1;185
   7
GMM001
   0
ENDBLK
   5
DA
 100
AcDbEntity
   8
0
 100
AcDbBlockEnd
   0
BLOCK
   5
DB
 100
AcDbEntity
   8
0
 100
AcDbBlockBegin
   2
*D6
  70
65
  10
0.0
  20
0.0
  30
0.0
   3
*D6
   0
LINE
   5
DC
 100
AcDbEntity
   8
LEVEL003
 100
AcDbLine
   6
CONTINUOUS
  62
3
  10
 1185.0000000000
  20
 1217.0000013114
  30
0.0
  11
 1185.0000000000
  21
 1064.0000000000
  31
0.0
   0
LINE
   5
DD
 100
AcDbEntity
   8
LEVEL003
 100
AcDbLine
   6
CONTINUOUS
  62
3
  10
 760.00000000000
  20
 1350.0000000000
  30
0.0
  11
 760.00000000000
  21
 1064.0000000000
  31
0.0
   0
LINE
   5
DE
 100
AcDbEntity
   8
LEVEL003
 100
AcDbLine
   6
CONTINUOUS
  62
3
  10
 1185.0000000000
  20
 1080.0000000000
  30
0.0
  11
 1020.8000000000
  21
 1080.0000000000
  31
0.0
   0
LINE
   5
DF
 100
AcDbEntity
   8
LEVEL003
 100
AcDbLine
   6
CONTINUOUS
  62
3
  10
 760.00000000000
  20
 1080.0000000000
  30
0.0
  11
 924.20000000000
  21
 1080.0000000000
  31
0.0
   0
INSERT
   5
E0
 100
AcDbEntity
   8
LEVEL003
   6
CONTINUOUS
  62
3
 100
AcDbBlockReference
   2
_OPEN
  10
 1185.0000000000
  20
 1080.0000000000
  30
0.0
  41
 24.000000000000
  42
 24.000000000000
  43
 24.000000000000
  50
0.0
   0
INSERT
   5
E1
 100
AcDbEntity
   8
LEVEL003
   6
CONTINUOUS
  62
3
 100
AcDbBlockReference
   2
_OPEN
  10
 760.00000000000
  20
 1080.0000000000
  30
0.0
  41
 24.000000000000
  42
 24.000000000000
  43
 24.000000000000
  50
 180.00000000000
   0
MTEXT
   5
E2
 100
AcDbEntity
   8
LEVEL003
  62
3
 100
AcDbMText
  10
 972.50000000000
  20
 1086.4000000000
  30
0.0
  40
 32.000000000000
  41
0.0
  71
8
  72
1
   1
\A1;425
   7
GMM001
   0
ENDBLK
   5
E3
 100
AcDbEntity
   8
0
 100
AcDbBlockEnd
   0
BLOCK
   5
E4
 100
AcDbEntity
   8
0
 100
AcDbBlockBegin
   2
*D7
  70
65
  10
0.0
  20
0.0
  30
0.0
   3
*D7
   0
LINE
   5
E5
 100
AcDbEntity
   8
LEVEL003
 100
AcDbLine
   6
CONTINUOUS
  62
3
  10
 760.00000000000
  20
 1350.0000000000
  30
0.0
  11
 760.00000000000
  21
 1024.0000000000
  31
0.0
   0
LINE
   5
E6
 100
AcDbEntity
   8
LEVEL003
 100
AcDbLine
   6
CONTINUOUS
  62
3
  10
 2780.0000000000
  20
 1272.5000000000
  30
0.0
  11
 2780.0000000000
  21
 1024.0000000000
  31
0.0
   0
LINE
   5
E7
 100
AcDbEntity
   8
LEVEL003
 100
AcDbLine
   6
CONTINUOUS
  62
3
  10
 760.00000000000
  20
 1040.0000000000
  30
0.0
  11
 1711.2000000000
  21
 1040.0000000000
  31
0.0
   0
LINE
   5
E8
 100
AcDbEntity
   8
LEVEL003
 100
AcDbLine
   6
CONTINUOUS
  62
3
  10
 2780.0000000000
  20
 1040.0000000000
  30
0.0
  11
 1828.8000000000
  21
 1040.0000000000
  31
0.0
   0
INSERT
   5
E9
 100
AcDbEntity
   8
LEVEL003
   6
CONTINUOUS
  62
3
 100
AcDbBlockReference
   2
_OPEN
  10
 760.00000000000
  20
 1040.0000000000
  30
0.0
  41
 24.000000000000
  42
 24.000000000000
  43
 24.000000000000
  50
 180.00000000000
   0
INSERT
   5
EA
 100
AcDbEntity
   8
LEVEL003
   6
CONTINUOUS
  62
3
 100
AcDbBlockReference
   2
_OPEN
  10
 2780.0000000000
  20
 1040.0000000000
  30
0.0
  41
 24.000000000000
  42
 24.000000000000
  43
 24.000000000000
  50
0.0
   0
MTEXT
   5
EB
 100
AcDbEntity
   8
LEVEL003
  62
3
 100
AcDbMText
  10
 1770.0000000000
  20
 1046.4000000000
  30
0.0
  40
 32.000000000000
  41
0.0
  71
8
  72
1
   1
\A1;2020
   7
GMM001
   0
ENDBLK
   5
EC
 100
AcDbEntity
   8
0
 100
AcDbBlockEnd
   0
BLOCK
   5
ED
 100
AcDbEntity
   8
0
 100
AcDbBlockBegin
   2
*D8
  70
65
  10
0.0
  20
0.0
  30
0.0
   3
*D8
   0
LINE
   5
EE
 100
AcDbEntity
   8
LEVEL003
 100
AcDbLine
   6
CONTINUOUS
  62
3
  10
 1250.0000000000
  20
 1833.0000001852
  30
0.0
  11
 1250.0000000000
  21
 2016.0000000000
  31
0.0
   0
LINE
   5
EF
 100
AcDbEntity
   8
LEVEL003
 100
AcDbLine
   6
CONTINUOUS
  62
3
  10
 1250.0000000000
  20
 2000.0000000000
  30
0.0
  11
 1828.6500000000
  21
 2000.0000000000
  31
0.0
   0
LINE
   5
F0
 100
AcDbEntity
   8
LEVEL003
 100
AcDbLine
   6
CONTINUOUS
  62
3
  10
 2520.0000000000
  20
 2000.0000000000
  30
0.0
  11
 1941.3500000000
  21
 2000.0000000000
  31
0.0
   0
INSERT
   5
F1
 100
AcDbEntity
   8
LEVEL003
   6
CONTINUOUS
  62
3
 100
AcDbBlockReference
   2
_OPEN
  10
 1250.0000000000
  20
 2000.0000000000
  30
0.0
  41
 24.000000000000
  42
 24.000000000000
  43
 24.000000000000
  50
 180.00000000000
   0
INSERT
   5
F2
 100
AcDbEntity
   8
LEVEL003
   6
CONTINUOUS
  62
3
 100
AcDbBlockReference
   2
_OPEN
  10
 2520.0000000000
  20
 2000.0000000000
  30
0.0
  41
 24.000000000000
  42
 24.000000000000
  43
 24.000000000000
  50
0.0
   0
MTEXT
   5
F3
 100
AcDbEntity
   8
LEVEL003
  62
3
 100
AcDbMText
  10
 1885.0000000000
  20
 2006.4000000000
  30
0.0
  40
 32.000000000000
  41
0.0
  71
8
  72
1
   1
\A1;1270
   7
GMM001
   0
ENDBLK
   5
F4
 100
AcDbEntity
   8
0
 100
AcDbBlockEnd
   0
BLOCK
   5
F5
 100
AcDbEntity
   8
0
 100
AcDbBlockBegin
   2
*D9
  70
65
  10
0.0
  20
0.0
  30
0.0
   3
*D9
   0
LINE
   5
F6
 100
AcDbEntity
   8
LEVEL003
 100
AcDbLine
   6
CONTINUOUS
  62
3
  10
 2520.0000000000
  20
 1833.0000001852
  30
0.0
  11
 2520.0000000000
  21
 2016.0000000000
  31
0.0
   0
LINE
   5
F7
 100
AcDbEntity
   8
LEVEL003
 100
AcDbLine
   6
CONTINUOUS
  62
3
  10
 2780.0000000000
  20
 1767.5000000000
  30
0.0
  11
 2780.0000000000
  21
 2016.0000000000
  31
0.0
   0
LINE
   5
F8
 100
AcDbEntity
   8
LEVEL003
 100
AcDbLine
   6
CONTINUOUS
  62
3
  10
 2520.0000000000
  20
 2000.0000000000
  30
0.0
  11
 2604.5000000000
  21
 2000.0000000000
  31
0.0
   0
LINE
   5
F9
 100
AcDbEntity
   8
LEVEL003
 100
AcDbLine
   6
CONTINUOUS
  62
3
  10
 2780.0000000000
  20
 2000.0000000000
  30
0.0
  11
 2695.5000000000
  21
 2000.0000000000
  31
0.0
   0
INSERT
   5
FA
 100
AcDbEntity
   8
LEVEL003
   6
CONTINUOUS
  62
3
 100
AcDbBlockReference
   2
_OPEN
  10
 2520.0000000000
  20
 2000.0000000000
  30
0.0
  41
 24.000000000000
  42
 24.000000000000
  43
 24.000000000000
  50
 180.00000000000
   0
INSERT
   5
FB
 100
AcDbEntity
   8
LEVEL003
   6
CONTINUOUS
  62
3
 100
AcDbBlockReference
   2
_OPEN
  10
 2780.0000000000
  20
 2000.0000000000
  30
0.0
  41
 24.000000000000
  42
 24.000000000000
  43
 24.000000000000
  50
0.0
   0
MTEXT
   5
FC
 100
AcDbEntity
   8
LEVEL003
  62
3
 100
AcDbMText
  10
 2650.0000000000
  20
 2006.4000000000
  30
0.0
  40
 32.000000000000
  41
0.0
  71
8
  72
1
   1
\A1;260
   7
GMM001
   0
ENDBLK
   5
FD
 100
AcDbEntity
   8
0
 100
AcDbBlockEnd
   0
BLOCK
   5
FE
 100
AcDbEntity
   8
0
 100
AcDbBlockBegin
   2
*D10
  70
65
  10
0.0
  20
0.0
  30
0.0
   3
*D10
   0
LINE
   5
FF
 100
AcDbEntity
   8
LEVEL003
 100
AcDbLine
   6
CONTINUOUS
  62
3
  10
 760.00000000000
  20
 1350.0000000000
  30
0.0
  11
 760.00000000000
  21
 1144.0000000000
  31
0.0
   0
LINE
   5
100
 100
AcDbEntity
   8
LEVEL003
 100
AcDbLine
   6
CONTINUOUS
  62
3
  10
 693.07842379830
  20
 1160.0000000000
  30
0.0
  11
 693.07842379830
  21
 1160.0000000000
  31
0.0
   0
LINE
   5
101
 100
AcDbEntity
   8
LEVEL003
 100
AcDbLine
   6
CONTINUOUS
  62
3
  10
 810.00000000000
  20
 1160.0000000000
  30
0.0
  11
 751.87842379830
  21
 1160.0000000000
  31
0.0
   0
INSERT
   5
102
 100
AcDbEntity
   8
LEVEL003
   6
CONTINUOUS
  62
3
 100
AcDbBlockReference
   2
_OPEN
  10
 760.00000000000
  20
 1160.0000000000
  30
0.0
  41
 24.000000000000
  42
 24.000000000000
  43
 24.000000000000
  50
 180.00000000000
   0
INSERT
   5
103
 100
AcDbEntity
   8
LEVEL003
   6
CONTINUOUS
  62
3
 100
AcDbBlockReference
   2
_OPEN
  10
 810.00000000000
  20
 1160.0000000000
  30
0.0
  41
 24.000000000000
  42
 24.000000000000
  43
 24.000000000000
  50
0.0
   0
MTEXT
   5
104
 100
AcDbEntity
   8
LEVEL003
  62
3
 100
AcDbMText
  10
 751.87842379830
  20
 1166.4000000000
  30
0.0
  40
 32.000000000000
  41
0.0
  71
9
  72
1
   1
\A1;50
   7
GMM001
   0
ENDBLK
   5
105
 100
AcDbEntity
   8
0
 100
AcDbBlockEnd
   0
BLOCK
   5
106
 100
AcDbEntity
   8
0
 100
AcDbBlockBegin
   2
*D11
  70
65
  10
0.0
  20
0.0
  30
0.0
   3
*D11
   0
LINE
   5
107
 100
AcDbEntity
   8
LEVEL003
 100
AcDbLine
   6
CONTINUOUS
  62
3
  10
 810.00000000000
  20
 1389.0000000000
  30
0.0
  11
 810.00000000000
  21
 1144.0000000000
  31
0.0
   0
LINE
   5
108
 100
AcDbEntity
   8
LEVEL003
 100
AcDbLine
   6
CONTINUOUS
  62
3
  10
 960.00000000000
  20
 1363.5000000000
  30
0.0
  11
 960.00000000000
  21
 1144.0000000000
  31
0.0
   0
LINE
   5
109
 100
AcDbEntity
   8
LEVEL003
 100
AcDbLine
   6
CONTINUOUS
  62
3
  10
 810.00000000000
  20
 1160.0000000000
  30
0.0
  11
 844.75000000000
  21
 1160.0000000000
  31
0.0
   0
LINE
   5
10A
 100
AcDbEntity
   8
LEVEL003
 100
AcDbLine
   6
CONTINUOUS
  62
3
  10
 960.00000000000
  20
 1160.0000000000
  30
0.0
  11
 925.25000000000
  21
 1160.0000000000
  31
0.0
   0
INSERT
   5
10B
 100
AcDbEntity
   8
LEVEL003
   6
CONTINUOUS
  62
3
 100
AcDbBlockReference
   2
_OPEN
  10
 810.00000000000
  20
 1160.0000000000
  30
0.0
  41
 24.000000000000
  42
 24.000000000000
  43
 24.000000000000
  50
 180.00000000000
   0
INSERT
   5
10C
 100
AcDbEntity
   8
LEVEL003
   6
CONTINUOUS
  62
3
 100
AcDbBlockReference
   2
_OPEN
  10
 960.00000000000
  20
 1160.0000000000
  30
0.0
  41
 24.000000000000
  42
 24.000000000000
  43
 24.000000000000
  50
0.0
   0
MTEXT
   5
10D
 100
AcDbEntity
   8
LEVEL003
  62
3
 100
AcDbMText
  10
 885.00000000000
  20
 1166.4000000000
  30
0.0
  40
 32.000000000000
  41
0.0
  71
8
  72
1
   1
\A1;150
   7
GMM001
   0
ENDBLK
   5
10E
 100
AcDbEntity
   8
0
 100
AcDbBlockEnd
   0
ENDSEC
   0
SECTION
   2
ENTITIES
   0
LINE
   5
10F
 100
AcDbEntity
   8
LEVEL001
 100
AcDbLine
   6
CONTINUOUS
  62
7
  10
 970.00000000000
  20
 1762.0000000000
  30
0.0
  11
 973.00000000000
  21
 1765.0000000000
  31
0.0
   0
LINE
   5
110
 100
AcDbEntity
   8
LEVEL001
 100
AcDbLine
   6
CONTINUOUS
  62
7
  10
 973.00000000000
  20
 1765.0000000000
  30
0.0
  11
 1000.0000000000
  21
 1765.0000000000
  31
0.0
   0
LINE
   5
111
 100
AcDbEntity
   8
LEVEL001
 100
AcDbLine
   6
CONTINUOUS
  62
7
  10
 1002.0000000000
  20
 1809.5000001852
  30
0.0
  11
 1000.0000000000
  21
 1807.5000001852
  31
0.0
   0
LINE
   5
112
 100
AcDbEntity
   8
LEVEL001
 100
AcDbLine
   6
CONTINUOUS
  62
7
  10
 1002.0000000000
  20
 1809.5000001852
  30
0.0
  11
 1005.0000000000
  21
 1809.5000001852
  31
0.0
   0
LINE
   5
113
 100
AcDbEntity
   8
LEVEL001
 100
AcDbLine
   6
CONTINUOUS
  62
7
  10
 1005.0000000000
  20
 1809.5000001852
  30
0.0
  11
 1008.0000000000
  21
 1812.5000001852
  31
0.0
   0
LINE
   5
114
 100
AcDbEntity
   8
LEVEL001
 100
AcDbLine
   6
CONTINUOUS
  62
7
  10
 1008.0000000000
  20
 1812.5000001852
  30
0.0
  11
 1175.9998779297
  21
 1812.4999988739
  31
0.0
   0
ARC
   5
115
 100
AcDbEntity
   8
LEVEL001
   6
CONTINUOUS
  62
7
 100
AcDbCircle
  10
 1178.9998779296
  20
 1812.4999988739
  30
0.0
  40
 3.0000000000000
 100
AcDbArc
  50
 180.00000000000
  51
 270.00000000187
   0
ARC
   5
116
 100
AcDbEntity
   8
LEVEL001
   6
CONTINUOUS
  62
7
 100
AcDbCircle
  10
 1181.9998779297
  20
 1812.4999988739
  30
0.0
  40
 3.0000000000000
 100
AcDbArc
  50
 270.00000000000
  51
0.0
   0
LINE
   5
117
 100
AcDbEntity
   8
LEVEL001
 100
AcDbLine
   6
DASHDOT
  62
1
  10
 1250.0000000000
  20
 1825.0000001852
  30
0.0
  11
 1250.0000000000
  21
 1732.5000000000
  31
0.0
   0
LINE
   5
118
 100
AcDbEntity
   8
LEVEL001
 100
AcDbLine
   6
DASHDOT
  62
1
  10
 1250.0000000000
  20
 1222.0000000000
  30
0.0
  11
 1250.0000000000
  21
 1244.9998779297
  31
0.0
   0
LINE
   5
119
 100
AcDbEntity
   8
LEVEL001
 100
AcDbLine
   6
DOT
  62
7
  10
 1254.2500000000
  20
 1225.7500000000
  30
0.0
  11
 1245.7501220703
  21
 1225.7500000000
  31
0.0
   0
LINE
   5
11A
 100
AcDbEntity
   8
LEVEL001
 100
AcDbLine
   6
DOT
  62
7
  10
 1255.0000000000
  20
 1225.0000000000
  30
0.0
  11
 1254.2500000000
  21
 1225.7500000000
  31
0.0
   0
LINE
   5
11B
 100
AcDbEntity
   8
LEVEL001
 100
AcDbLine
   6
DOT
  62
7
  10
 1254.2500000000
  20
 1225.7500000000
  30
0.0
  11
 1254.2500000000
  21
 1239.7989501953
  31
0.0
   0
LINE
   5
11C
 100
AcDbEntity
   8
LEVEL001
 100
AcDbLine
   6
DOT
  62
7
  10
 1254.2500000000
  20
 1239.7989501953
  30
0.0
  11
 1252.0001220703
  21
 1241.0980224609
  31
0.0
   0
LINE
   5
11D
 100
AcDbEntity
   8
LEVEL001
 100
AcDbLine
   6
DOT
  62
7
  10
 1248.0000000000
  20
 1241.0980224609
  30
0.0
  11
 1245.7501220703
  21
 1239.7989501953
  31
0.0
   0
LINE
   5
11E
 100
AcDbEntity
   8
LEVEL001
 100
AcDbLine
   6
DOT
  62
7
  10
 1245.7501220703
  20
 1239.7989501953
  30
0.0
  11
 1245.7501220703
  21
 1225.7500000000
  31
0.0
   0
LINE
   5
11F
 100
AcDbEntity
   8
LEVEL001
 100
AcDbLine
   6
DOT
  62
7
  10
 1245.7501220703
  20
 1225.7500000000
  30
0.0
  11
 1245.0001220703
  21
 1225.0000000000
  31
0.0
   0
CIRCLE
   5
120
 100
AcDbEntity
   8
LEVEL001
 100
AcDbCircle
   6
DOT
  62
7
  10
 1250.0000000000
  20
 1238.8619384766
  30
0.0
  40
 3.0000000000000
   0
LINE
   5
121
 100
AcDbEntity
   8
LEVEL001
 100
AcDbLine
   6
DOT
  62
7
  10
 1254.2500000000
  20
 1235.8619384766
  30
0.0
  11
 1255.0000000000
  21
 1235.1119384766
  31
0.0
   0
LINE
   5
122
 100
AcDbEntity
   8
LEVEL001
 100
AcDbLine
   6
DOT
  62
7
  10
 1255.0000000000
  20
 1235.1119384766
  30
0.0
  11
 1255.0000000000
  21
 1226.6120605469
  31
0.0
   0
LINE
   5
123
 100
AcDbEntity
   8
LEVEL001
 100
AcDbLine
   6
DOT
  62
7
  10
 1255.0000000000
  20
 1226.6120605469
  30
0.0
  11
 1254.2500000000
  21
 1225.8620605469
  31
0.0
   0
LINE
   5
124
 100
AcDbEntity
   8
LEVEL001
 100
AcDbLine
   6
DOT
  62
7
  10
 1254.2500000000
  20
 1225.8620605469
  30
0.0
  11
 1245.7501220703
  21
 1225.8620605469
  31
0.0
   0
LINE
   5
125
 100
AcDbEntity
   8
LEVEL001
 100
AcDbLine
   6
DOT
  62
7
  10
 1245.7501220703
  20
 1225.8620605469
  30
0.0
  11
 1245.0001220703
  21
 1226.6120605469
  31
0.0
   0
LINE
   5
126
 100
AcDbEntity
   8
LEVEL001
 100
AcDbLine
   6
DOT
  62
7
  10
 1245.0001220703
  20
 1226.6120605469
  30
0.0
  11
 1245.0001220703
  21
 1235.1119384766
  31
0.0
   0
LINE
   5
127
 100
AcDbEntity
   8
LEVEL001
 100
AcDbLine
   6
DOT
  62
7
  10
 1245.0001220703
  20
 1235.1119384766
  30
0.0
  11
 1245.7501220703
  21
 1235.8619384766
  31
0.0
   0
LINE
   5
128
 100
AcDbEntity
   8
LEVEL001
 100
AcDbLine
   6
DOT
  62
7
  10
 1245.7501220703
  20
 1235.8619384766
  30
0.0
  11
 1254.2500000000
  21
 1235.8619384766
  31
0.0
   0
LINE
   5
129
 100
AcDbEntity
   8
LEVEL001
 100
AcDbLine
   6
DOT
  62
7
  10
 1255.0000000000
  20
 1235.1119384766
  30
0.0
  11
 1245.0001220703
  21
 1235.1119384766
  31
0.0
   0
LINE
   5
12A
 100
AcDbEntity
   8
LEVEL001
 100
AcDbLine
   6
DOT
  62
7
  10
 1245.0001220703
  20
 1226.6120605469
  30
0.0
  11
 1255.0000000000
  21
 1226.6120605469
  31
0.0
   0
LINE
   5
12B
 100
AcDbEntity
   8
LEVEL001
 100
AcDbLine
   6
DOT
  62
3
  10
 1255.0000000000
  20
 1225.0000000000
  30
0.0
  11
 1255.0000000000
  21
 1226.6120605469
  31
0.0
   0
LINE
   5
12C
 100
AcDbEntity
   8
LEVEL001
 100
AcDbLine
   6
DOT
  62
3
  10
 1255.0000000000
  20
 1235.1119384766
  30
0.0
  11
 1255.0000000000
  21
 1237.0000000000
  31
0.0
   0
LINE
   5
12D
 100
AcDbEntity
   8
LEVEL001
 100
AcDbLine
   6
DOT
  62
3
  10
 1255.0000000000
  20
 1237.0000000000
  30
0.0
  11
 1254.2500000000
  21
 1239.7989501953
  31
0.0
   0
LINE
   5
12E
 100
AcDbEntity
   8
LEVEL001
 100
AcDbLine
   6
DOT
  62
3
  10
 1245.7501220703
  20
 1239.7989501953
  30
0.0
  11
 1245.0001220703
  21
 1237.0000000000
  31
0.0
   0
LINE
   5
12F
 100
AcDbEntity
   8
LEVEL001
 100
AcDbLine
   6
DOT
  62
3
  10
 1245.0001220703
  20
 1237.0000000000
  30
0.0
  11
 1245.0001220703
  21
 1235.1119384766
  31
0.0
   0
LINE
   5
130
 100
AcDbEntity
   8
LEVEL001
 100
AcDbLine
   6
DOT
  62
3
  10
 1245.0001220703
  20
 1226.6120605469
  30
0.0
  11
 1245.0001220703
  21
 1225.0000000000
  31
0.0
   0
LINE
   5
131
 100
AcDbEntity
   8
LEVEL001
 100
AcDbLine
   6
DOT
  62
3
  10
 1255.0000000000
  20
 1237.0000000000
  30
0.0
  11
 1252.3522949219
  21
 1237.0000000000
  31
0.0
   0
LINE
   5
132
 100
AcDbEntity
   8
LEVEL001
 100
AcDbLine
   6
DOT
  62
3
  10
 1247.6479492188
  20
 1237.0000000000
  30
0.0
  11
 1245.0001220703
  21
 1237.0000000000
  31
0.0
   0
LINE
   5
133
 100
AcDbEntity
   8
LEVEL001
 100
AcDbLine
   6
DOT
  62
7
  10
 1254.2500000000
  20
 1239.7989501953
  30
0.0
  11
 1252.8499755859
  21
 1239.7989501953
  31
0.0
   0
LINE
   5
134
 100
AcDbEntity
   8
LEVEL001
 100
AcDbLine
   6
DOT
  62
7
  10
 1247.1501464844
  20
 1239.7989501953
  30
0.0
  11
 1245.7501220703
  21
 1239.7989501953
  31
0.0
   0
LINE
   5
135
 100
AcDbEntity
   8
LEVEL001
 100
AcDbLine
   6
DOT
  62
7
  10
 1252.0000000000
  20
 1241.0980224609
  30
0.0
  11
 1252.0001220703
  21
 1244.9998779297
  31
0.0
   0
LINE
   5
136
 100
AcDbEntity
   8
LEVEL001
 100
AcDbLine
   6
DOT
  62
7
  10
 1248.0001220703
  20
 1244.9998779297
  30
0.0
  11
 1248.0001220703
  21
 1241.0980224609
  31
0.0
   0
LINE
   5
137
 100
AcDbEntity
   8
LEVEL001
 100
AcDbLine
   6
CONTINUOUS
  62
3
  10
 1005.0000000000
  20
 1809.5000001852
  30
0.0
  11
 1178.9998779297
  21
 1809.4999988739
  31
0.0
   0
LINE
   5
138
 100
AcDbEntity
   8
LEVEL001
 100
AcDbLine
   6
CONTINUOUS
  62
7
  10
 1178.9998779297
  20
 1809.4999988739
  30
0.0
  11
 1181.9998779297
  21
 1809.4999988739
  31
0.0
   0
LINE
   5
139
 100
AcDbEntity
   8
LEVEL001
 100
AcDbLine
   6
CONTINUOUS
  62
7
  10
 960.00000000000
  20
 1668.5000000000
  30
0.0
  11
 970.00000000000
  21
 1670.0000000000
  31
0.0
   0
LINE
   5
13A
 100
AcDbEntity
   8
LEVEL001
 100
AcDbLine
   6
CONTINUOUS
  62
7
  10
 955.00000000000
  20
 1685.0000000000
  30
0.0
  11
 958.00000000000
  21
 1682.0000000000
  31
0.0
   0
ARC
   5
13B
 100
AcDbEntity
   8
LEVEL001
   6
CONTINUOUS
  62
7
 100
AcDbCircle
  10
 958.00000000000
  20
 1645.0000000000
  30
0.0
  40
 2.0000000000000
 100
AcDbArc
  50
 270.00000000000
  51
0.0
   0
LINE
   5
13C
 100
AcDbEntity
   8
LEVEL001
 100
AcDbLine
   6
CONTINUOUS
  62
7
  10
 955.00000000000
  20
 1355.0000000000
  30
0.0
  11
 958.00000000000
  21
 1358.0000000000
  31
0.0
   0
LINE
   5
13D
 100
AcDbEntity
   8
LEVEL001
 100
AcDbLine
   6
CONTINUOUS
  62
7
  10
 763.00000000000
  20
 1685.0000000000
  30
0.0
  11
 955.00000000000
  21
 1685.0000000000
  31
0.0
   0
LINE
   5
13E
 100
AcDbEntity
   8
LEVEL001
 100
AcDbLine
   6
CONTINUOUS
  62
7
  10
 760.00000000000
  20
 1682.0000000000
  30
0.0
  11
 763.00000000000
  21
 1685.0000000000
  31
0.0
   0
LINE
   5
13F
 100
AcDbEntity
   8
LEVEL001
 100
AcDbLine
   6
CONTINUOUS
  62
7
  10
 760.00000000000
  20
 1520.0000000000
  30
0.0
  11
 760.00000000000
  21
 1682.0000000000
  31
0.0
   0
LINE
   5
140
 100
AcDbEntity
   8
LEVEL001
 100
AcDbLine
   6
CONTINUOUS
  62
7
  10
 760.00000000000
  20
 1358.0000000000
  30
0.0
  11
 763.00000000000
  21
 1355.0000000000
  31
0.0
   0
LINE
   5
141
 100
AcDbEntity
   8
LEVEL001
 100
AcDbLine
   6
CONTINUOUS
  62
7
  10
 760.00000000000
  20
 1520.0000000000
  30
0.0
  11
 760.00000000000
  21
 1358.0000000000
  31
0.0
   0
DIMENSION
   5
142
 100
AcDbEntity
   8
LEVEL003
   6
CONTINUOUS
  62
3
 100
AcDbDimension
   2
*D1
  10
 708.02661132813
  20
 1355.0000000000
  30
0.0
  11
 708.02661132813
  21
 1520.0000000000
  31
0.0
  70
128
   1
\A1;%%c330
   3
GMM001
 100
AcDbAlignedDimension
  13
 763.00000000000
  23
 1685.0000000000
  33
0.0
  14
 763.00000000000
  24
 1355.0000000000
  34
0.0
  50
 270.00000000000
 100
AcDbRotatedDimension
   0
LINE
   5
144
 100
AcDbEntity
   8
LEVEL001
 100
AcDbLine
   6
CONTINUOUS
  62
7
  10
 763.00000000000
  20
 1355.0000000000
  30
0.0
  11
 955.00000000000
  21
 1355.0000000000
  31
0.0
   0
DIMENSION
   5
145
 100
AcDbEntity
   8
LEVEL003
   6
CONTINUOUS
  62
3
 100
AcDbDimension
   2
*D2
  10
 2000.0000000000
  20
 1224.9999998632
  30
0.0
  11
 2000.0000000000
  21
 1519.9999998632
  31
0.0
  70
0
   1
\A1;%%c590
   3
GMM002
 100
AcDbAlignedDimension
  13
 2000.0000000000
  23
 1814.9999998632
  33
0.0
  14
 2000.0000000000
  24
 1224.9999998632
  34
0.0
  50
 270.00000000000
 100
AcDbRotatedDimension
   0
DIMENSION
   5
147
 100
AcDbEntity
   8
LEVEL003
   6
CONTINUOUS
  62
3
 100
AcDbDimension
   2
*D3
  10
 1840.0000000000
  20
 1370.0000000000
  30
0.0
  11
 1840.0000000000
  21
 1520.0000000000
  31
0.0
  70
0
   1
\A1;%%c300
   3
GMM002
 100
AcDbAlignedDimension
  13
 1840.0000000000
  23
 1670.0000000000
  33
0.0
  14
 1840.0000000000
  24
 1370.0000000000
  34
0.0
  50
 270.00000000000
 100
AcDbRotatedDimension
   0
DIMENSION
   5
149
 100
AcDbEntity
   8
LEVEL003
   6
CONTINUOUS
  62
3
 100
AcDbDimension
   2
*D4
  10
 1920.0000000000
  20
 1732.5000000000
  30
0.0
  11
 1920.0000000000
  21
 1520.0000000000
  31
0.0
  70
0
   1
\A1;%%c425
   3
GMM002
 100
AcDbAlignedDimension
  13
 1920.0000000000
  23
 1307.5000000000
  33
0.0
  14
 1920.0000000000
  24
 1732.5000000000
  34
0.0
  50
 90.000000000000
 100
AcDbRotatedDimension
   0
DIMENSION
   5
14B
 100
AcDbEntity
   8
LEVEL003
   6
CONTINUOUS
  62
3
 100
AcDbDimension
   2
*D5
  10
 1185.0000000000
  20
 1160.0000000000
  30
0.0
  11
 1092.5000000000
  21
 1160.0000000000
  31
0.0
  70
0
   1
\A1;185
   3
GMM003
 100
AcDbAlignedDimension
  13
 1000.0000000000
  23
 1232.4999998148
  33
0.0
  14
 1185.0000000000
  24
 1225.0000013114
  34
0.0
 100
AcDbRotatedDimension
   0
DIMENSION
   5
14D
 100
AcDbEntity
   8
LEVEL003
   6
CONTINUOUS
  62
3
 100
AcDbDimension
   2
*D6
  10
 760.00000000000
  20
 1080.0000000000
  30
0.0
  11
 972.50000000000
  21
 1080.0000000000
  31
0.0
  70
0
   1
\A1;425
   3
GMM003
 100
AcDbAlignedDimension
  13
 1185.0000000000
  23
 1225.0000013114
  33
0.0
  14
 760.00000000000
  24
 1358.0000000000
  34
0.0
  50
 180.00000000000
 100
AcDbRotatedDimension
   0
LINE
   5
14F
 100
AcDbEntity
   8
LEVEL001
 100
AcDbLine
   6
CONTINUOUS
  62
7
  10
 2780.0000000000
  20
 1536.6245117188
  30
0.0
  11
 2778.4732971191
  21
 1535.0977783203
  31
0.0
   0
LINE
   5
150
 100
AcDbEntity
   8
LEVEL001
 100
AcDbLine
   6
CONTINUOUS
  62
7
  10
 2777.0000000000
  20
 1762.5000000000
  30
0.0
  11
 2750.0000000000
  21
 1762.5000000000
  31
0.0
   0
LINE
   5
151
 100
AcDbEntity
   8
LEVEL001
 100
AcDbLine
   6
CONTINUOUS
  62
7
  10
 2780.0000000000
  20
 1759.5000000000
  30
0.0
  11
 2777.0000000000
  21
 1762.5000000000
  31
0.0
   0
LINE
   5
152
 100
AcDbEntity
   8
LEVEL001
 100
AcDbLine
   6
CONTINUOUS
  62
7
  10
 2780.0000000000
  20
 1759.5000000000
  30
0.0
  11
 2780.0000000000
  21
 1520.0000000000
  31
0.0
   0
LINE
   5
153
 100
AcDbEntity
   8
LEVEL001
 100
AcDbLine
   6
CONTINUOUS
  62
7
  10
 2777.0000000000
  20
 1277.5000000000
  30
0.0
  11
 2750.0000000000
  21
 1277.5000000000
  31
0.0
   0
LINE
   5
154
 100
AcDbEntity
   8
LEVEL001
 100
AcDbLine
   6
CONTINUOUS
  62
7
  10
 2780.0000000000
  20
 1280.5000000000
  30
0.0
  11
 2777.0000000000
  21
 1277.5000000000
  31
0.0
   0
LINE
   5
155
 100
AcDbEntity
   8
LEVEL001
 100
AcDbLine
   6
CONTINUOUS
  62
7
  10
 2780.0000000000
  20
 1280.5000000000
  30
0.0
  11
 2780.0000000000
  21
 1520.0000000000
  31
0.0
   0
LINE
   5
156
 100
AcDbEntity
   8
LEVEL001
 100
AcDbLine
   6
CONTINUOUS
  62
7
  10
 2750.0000000000
  20
 1800.0000015323
  30
0.0
  11
 2735.0000000000
  21
 1815.0000015141
  31
0.0
   0
LINE
   5
157
 100
AcDbEntity
   8
LEVEL001
 100
AcDbLine
   6
CONTINUOUS
  62
7
  10
 2750.0000000000
  20
 1239.9999986529
  30
0.0
  11
 2735.0000000000
  21
 1224.9999986711
  31
0.0
   0
LINE
   5
158
 100
AcDbEntity
   8
LEVEL001
 100
AcDbLine
   6
DASHDOT
  62
1
  10
 2530.0000000000
  20
 1222.0000000000
  30
0.0
  11
 2530.0000000000
  21
 1244.9998779297
  31
0.0
   0
LINE
   5
159
 100
AcDbEntity
   8
LEVEL001
 100
AcDbLine
   6
DOT
  62
7
  10
 2534.2500000000
  20
 1225.7500000000
  30
0.0
  11
 2525.7502441406
  21
 1225.7500000000
  31
0.0
   0
LINE
   5
15A
 100
AcDbEntity
   8
LEVEL001
 100
AcDbLine
   6
DOT
  62
7
  10
 2535.0000000000
  20
 1225.0000000000
  30
0.0
  11
 2534.2500000000
  21
 1225.7500000000
  31
0.0
   0
LINE
   5
15B
 100
AcDbEntity
   8
LEVEL001
 100
AcDbLine
   6
DOT
  62
7
  10
 2534.2500000000
  20
 1225.7500000000
  30
0.0
  11
 2534.2500000000
  21
 1239.7989501953
  31
0.0
   0
LINE
   5
15C
 100
AcDbEntity
   8
LEVEL001
 100
AcDbLine
   6
DOT
  62
7
  10
 2534.2500000000
  20
 1239.7989501953
  30
0.0
  11
 2532.0002441406
  21
 1241.0980224609
  31
0.0
   0
LINE
   5
15D
 100
AcDbEntity
   8
LEVEL001
 100
AcDbLine
   6
DOT
  62
7
  10
 2528.0000000000
  20
 1241.0980224609
  30
0.0
  11
 2525.7502441406
  21
 1239.7989501953
  31
0.0
   0
LINE
   5
15E
 100
AcDbEntity
   8
LEVEL001
 100
AcDbLine
   6
DOT
  62
7
  10
 2525.7502441406
  20
 1239.7989501953
  30
0.0
  11
 2525.7502441406
  21
 1225.7500000000
  31
0.0
   0
LINE
   5
15F
 100
AcDbEntity
   8
LEVEL001
 100
AcDbLine
   6
DOT
  62
7
  10
 2525.7502441406
  20
 1225.7500000000
  30
0.0
  11
 2525.0002441406
  21
 1225.0000000000
  31
0.0
   0
CIRCLE
   5
160
 100
AcDbEntity
   8
LEVEL001
 100
AcDbCircle
   6
DOT
  62
7
  10
 2530.0000000000
  20
 1238.8619384766
  30
0.0
  40
 3.0000000000000
   0
LINE
   5
161
 100
AcDbEntity
   8
LEVEL001
 100
AcDbLine
   6
DOT
  62
7
  10
 2534.2500000000
  20
 1235.8619384766
  30
0.0
  11
 2535.0000000000
  21
 1235.1119384766
  31
0.0
   0
LINE
   5
162
 100
AcDbEntity
   8
LEVEL001
 100
AcDbLine
   6
DOT
  62
7
  10
 2535.0000000000
  20
 1235.1119384766
  30
0.0
  11
 2535.0000000000
  21
 1226.6120605469
  31
0.0
   0
LINE
   5
163
 100
AcDbEntity
   8
LEVEL001
 100
AcDbLine
   6
DOT
  62
7
  10
 2535.0000000000
  20
 1226.6120605469
  30
0.0
  11
 2534.2500000000
  21
 1225.8620605469
  31
0.0
   0
LINE
   5
164
 100
AcDbEntity
   8
LEVEL001
 100
AcDbLine
   6
DOT
  62
7
  10
 2534.2500000000
  20
 1225.8620605469
  30
0.0
  11
 2525.7502441406
  21
 1225.8620605469
  31
0.0
   0
LINE
   5
165
 100
AcDbEntity
   8
LEVEL001
 100
AcDbLine
   6
DOT
  62
7
  10
 2525.7502441406
  20
 1225.8620605469
  30
0.0
  11
 2525.0002441406
  21
 1226.6120605469
  31
0.0
   0
LINE
   5
166
 100
AcDbEntity
   8
LEVEL001
 100
AcDbLine
   6
DOT
  62
7
  10
 2525.0002441406
  20
 1226.6120605469
  30
0.0
  11
 2525.0002441406
  21
 1235.1119384766
  31
0.0
   0
LINE
   5
167
 100
AcDbEntity
   8
LEVEL001
 100
AcDbLine
   6
DOT
  62
7
  10
 2525.0002441406
  20
 1235.1119384766
  30
0.0
  11
 2525.7502441406
  21
 1235.8619384766
  31
0.0
   0
LINE
   5
168
 100
AcDbEntity
   8
LEVEL001
 100
AcDbLine
   6
DOT
  62
7
  10
 2525.7502441406
  20
 1235.8619384766
  30
0.0
  11
 2534.2500000000
  21
 1235.8619384766
  31
0.0
   0
LINE
   5
169
 100
AcDbEntity
   8
LEVEL001
 100
AcDbLine
   6
DOT
  62
7
  10
 2535.0000000000
  20
 1235.1119384766
  30
0.0
  11
 2525.0002441406
  21
 1235.1119384766
  31
0.0
   0
LINE
   5
16A
 100
AcDbEntity
   8
LEVEL001
 100
AcDbLine
   6
DOT
  62
7
  10
 2525.0002441406
  20
 1226.6120605469
  30
0.0
  11
 2535.0000000000
  21
 1226.6120605469
  31
0.0
   0
LINE
   5
16B
 100
AcDbEntity
   8
LEVEL001
 100
AcDbLine
   6
DOT
  62
3
  10
 2535.0000000000
  20
 1225.0000000000
  30
0.0
  11
 2535.0000000000
  21
 1226.6120605469
  31
0.0
   0
LINE
   5
16C
 100
AcDbEntity
   8
LEVEL001
 100
AcDbLine
   6
DOT
  62
3
  10
 2535.0000000000
  20
 1235.1119384766
  30
0.0
  11
 2535.0000000000
  21
 1237.0000000000
  31
0.0
   0
LINE
   5
16D
 100
AcDbEntity
   8
LEVEL001
 100
AcDbLine
   6
DOT
  62
3
  10
 2535.0000000000
  20
 1237.0000000000
  30
0.0
  11
 2534.2500000000
  21
 1239.7989501953
  31
0.0
   0
LINE
   5
16E
 100
AcDbEntity
   8
LEVEL001
 100
AcDbLine
   6
DOT
  62
3
  10
 2525.7502441406
  20
 1239.7989501953
  30
0.0
  11
 2525.0002441406
  21
 1237.0000000000
  31
0.0
   0
LINE
   5
16F
 100
AcDbEntity
   8
LEVEL001
 100
AcDbLine
   6
DOT
  62
3
  10
 2525.0002441406
  20
 1237.0000000000
  30
0.0
  11
 2525.0002441406
  21
 1235.1119384766
  31
0.0
   0
LINE
   5
170
 100
AcDbEntity
   8
LEVEL001
 100
AcDbLine
   6
DOT
  62
3
  10
 2525.0002441406
  20
 1226.6120605469
  30
0.0
  11
 2525.0002441406
  21
 1225.0000000000
  31
0.0
   0
LINE
   5
171
 100
AcDbEntity
   8
LEVEL001
 100
AcDbLine
   6
DOT
  62
3
  10
 2535.0000000000
  20
 1237.0000000000
  30
0.0
  11
 2532.3522949219
  21
 1237.0000000000
  31
0.0
   0
LINE
   5
172
 100
AcDbEntity
   8
LEVEL001
 100
AcDbLine
   6
DOT
  62
3
  10
 2527.6479492188
  20
 1237.0000000000
  30
0.0
  11
 2525.0002441406
  21
 1237.0000000000
  31
0.0
   0
LINE
   5
173
 100
AcDbEntity
   8
LEVEL001
 100
AcDbLine
   6
DOT
  62
7
  10
 2534.2500000000
  20
 1239.7989501953
  30
0.0
  11
 2532.8500976563
  21
 1239.7989501953
  31
0.0
   0
LINE
   5
174
 100
AcDbEntity
   8
LEVEL001
 100
AcDbLine
   6
DOT
  62
7
  10
 2527.1503906250
  20
 1239.7989501953
  30
0.0
  11
 2525.7502441406
  21
 1239.7989501953
  31
0.0
   0
LINE
   5
175
 100
AcDbEntity
   8
LEVEL001
 100
AcDbLine
   6
DOT
  62
7
  10
 2532.0000000000
  20
 1241.0980224609
  30
0.0
  11
 2532.0002441406
  21
 1244.9998779297
  31
0.0
   0
LINE
   5
176
 100
AcDbEntity
   8
LEVEL001
 100
AcDbLine
   6
DOT
  62
7
  10
 2528.0002441406
  20
 1244.9998779297
  30
0.0
  11
 2528.0002441406
  21
 1241.0980224609
  31
0.0
   0
LINE
   5
177
 100
AcDbEntity
   8
LEVEL001
 100
AcDbLine
   6
CONTINUOUS
  62
7
  10
 1185.0000000000
  20
 1814.9999988739
  30
0.0
  11
 2735.0000000000
  21
 1815.0000011525
  31
0.0
   0
LINE
   5
178
 100
AcDbEntity
   8
LEVEL001
 100
AcDbLine
   6
CONTINUOUS
  62
7
  10
 1185.0000000000
  20
 1225.0000013114
  30
0.0
  11
 2735.0000000000
  21
 1224.9999991477
  31
0.0
   0
DIMENSION
   5
179
 100
AcDbEntity
   8
LEVEL003
   6
CONTINUOUS
  62
3
 100
AcDbDimension
   2
*D7
  10
 2780.0000000000
  20
 1040.0000000000
  30
0.0
  11
 1770.0000000000
  21
 1040.0000000000
  31
0.0
  70
0
   1
\A1;2020
   3
GMM003
 100
AcDbAlignedDimension
  13
 760.00000000000
  23
 1358.0000000000
  33
0.0
  14
 2780.0000000000
  24
 1280.5000000000
  34
0.0
 100
AcDbRotatedDimension
   0
LINE
   5
17B
 100
AcDbEntity
   8
LEVEL001
 100
AcDbLine
   6
DASHDOT
  62
1
  10
 2520.0000000000
  20
 1825.0000001852
  30
0.0
  11
 2520.0000000000
  21
 1732.5000000000
  31
0.0
   0
DIMENSION
   5
17C
 100
AcDbEntity
   8
LEVEL003
   6
CONTINUOUS
  62
3
 100
AcDbDimension
   2
*D8
  10
 2520.0000000000
  20
 2000.0000000000
  30
0.0
  11
 1885.0000000000
  21
 2000.0000000000
  31
0.0
  70
0
   1
\A1;1270
   3
GMM004
 100
AcDbAlignedDimension
  13
 1250.0000000000
  23
 1825.0000001852
  33
0.0
  14
 2520.0000000000
  24
 1825.0000001852
  34
0.0
 100
AcDbRotatedDimension
   0
DIMENSION
   5
17E
 100
AcDbEntity
   8
LEVEL003
   6
CONTINUOUS
  62
3
 100
AcDbDimension
   2
*D9
  10
 2780.0000000000
  20
 2000.0000000000
  30
0.0
  11
 2650.0000000000
  21
 2000.0000000000
  31
0.0
  70
0
   1
\A1;260
   3
GMM003
 100
AcDbAlignedDimension
  13
 2520.0000000000
  23
 1825.0000001852
  33
0.0
  14
 2780.0000000000
  24
 1759.5000000000
  34
0.0
 100
AcDbRotatedDimension
   0
DIMENSION
   5
180
 100
AcDbEntity
   8
LEVEL003
   6
CONTINUOUS
  62
3
 100
AcDbDimension
   2
*D10
  10
 810.00000000000
  20
 1160.0000000000
  30
0.0
  11
 751.87842379830
  21
 1160.0000000000
  31
0.0
  70
128
   1
\A1;50
   3
GMM005
 100
AcDbAlignedDimension
  13
 760.00000000000
  23
 1358.0000000000
  33
0.0
  14
 810.00000000000
  24
 1397.0000000000
  34
0.0
 100
AcDbRotatedDimension
   0
DIMENSION
   5
182
 100
AcDbEntity
   8
LEVEL003
   6
CONTINUOUS
  62
3
 100
AcDbDimension
   2
*D11
  10
 960.00000000000
  20
 1160.0000000000
  30
0.0
  11
 885.00000000000
  21
 1160.0000000000
  31
0.0
  70
0
   1
\A1;150
   3
GMM003
 100
AcDbAlignedDimension
  13
 810.00000000000
  23
 1397.0000000000
  33
0.0
  14
 960.00000000000
  24
 1371.5000000000
  34
0.0
 100
AcDbRotatedDimension
   0
ARC
   5
184
 100
AcDbEntity
   8
LEVEL001
   6
DOT
  62
3
 100
AcDbCircle
  10
 812.00000000000
  20
 1643.0000000000
  30
0.0
  40
 2.0000000000000
 100
AcDbArc
  50
 90.000000000000
  51
 180.00000000069
   0
LINE
   5
185
 100
AcDbEntity
   8
LEVEL001
 100
AcDbLine
   6
DOT
  62
3
  10
 814.00000000000
  20
 1645.0000000000
  30
0.0
  11
 812.00000000000
  21
 1645.0000000000
  31
0.0
   0
LINE
   5
186
 100
AcDbEntity
   8
LEVEL001
 100
AcDbLine
   6
DOT
  62
3
  10
 810.00000000000
  20
 1643.0000000000
  30
0.0
  11
 810.00000000000
  21
 1520.0000000000
  31
0.0
   0
LINE
   5
187
 100
AcDbEntity
   8
LEVEL001
 100
AcDbLine
   6
DOT
  62
3
  10
 810.00000000000
  20
 1643.0000000000
  30
0.0
  11
 812.00000000000
  21
 1645.0000000000
  31
0.0
   0
LINE
   5
188
 100
AcDbEntity
   8
LEVEL001
 100
AcDbLine
   6
DOT
  62
3
  10
 812.00000000000
  20
 1645.0000000000
  30
0.0
  11
 958.00000000000
  21
 1645.0000000000
  31
0.0
   0
LINE
   5
189
 100
AcDbEntity
   8
LEVEL001
 100
AcDbLine
   6
DOT
  62
3
  10
 958.00000000000
  20
 1643.0000000000
  30
0.0
  11
 810.00000000000
  21
 1643.0000000000
  31
0.0
   0
LINE
   5
18A
 100
AcDbEntity
   8
LEVEL001
 100
AcDbLine
   6
DOT
  62
3
  10
 1270.0000000000
  20
 1732.5000000000
  30
0.0
  11
 2566.9997558594
  21
 1732.5000000000
  31
0.0
   0
LINE
   5
18B
 100
AcDbEntity
   8
LEVEL001
 100
AcDbLine
   6
DOT
  62
3
  10
 970.00000000000
  20
 1670.0000000000
  30
0.0
  11
 2245.0000000000
  21
 1670.0000000000
  31
0.0
   0
LINE
   5
18C
 100
AcDbEntity
   8
LEVEL001
 100
AcDbLine
   6
DOT
  62
3
  10
 970.00000000000
  20
 1370.0000000000
  30
0.0
  11
 2245.0000000000
  21
 1370.0000000000
  31
0.0
   0
LINE
   5
18D
 100
AcDbEntity
   8
LEVEL001
 100
AcDbLine
   6
DOT
  62
3
  10
 1270.0000000000
  20
 1307.5000000000
  30
0.0
  11
 2566.9997558594
  21
 1307.5000000000
  31
0.0
   0
LINE
   5
18E
 100
AcDbEntity
   8
LEVEL001
 100
AcDbLine
   6
DOT
  62
3
  10
 1233.3754882813
  20
 1814.9999990069
  30
0.0
  11
 1234.9022216797
  21
 1813.4732961260
  31
0.0
   0
LINE
   5
18F
 100
AcDbEntity
   8
LEVEL001
 100
AcDbLine
   6
DOT
  62
3
  10
 1233.3754882813
  20
 1814.9999990069
  30
0.0
  11
 1234.1802978516
  21
 1789.2484731280
  31
0.0
   0
LINE
   5
190
 100
AcDbEntity
   8
LEVEL001
 100
AcDbLine
   6
DOT
  62
3
  10
 1234.1802978516
  20
 1789.2484731280
  30
0.0
  11
 1235.8545532227
  21
 1782.9999990069
  31
0.0
   0
LINE
   5
191
 100
AcDbEntity
   8
LEVEL001
 100
AcDbLine
   6
DOT
  62
3
  10
 1266.6245117188
  20
 1814.9999990069
  30
0.0
  11
 1265.0977783203
  21
 1813.4733113848
  31
0.0
   0
LINE
   5
192
 100
AcDbEntity
   8
LEVEL001
 100
AcDbLine
   6
DOT
  62
3
  10
 1264.1454467773
  20
 1782.9999990069
  30
0.0
  11
 1265.8197021484
  21
 1789.2484731280
  31
0.0
   0
LINE
   5
193
 100
AcDbEntity
   8
LEVEL001
 100
AcDbLine
   6
DOT
  62
3
  10
 1265.8197021484
  20
 1789.2484731280
  30
0.0
  11
 1266.6245117188
  21
 1814.9999990069
  31
0.0
   0
LINE
   5
194
 100
AcDbEntity
   8
LEVEL001
 100
AcDbLine
   6
DOT
  62
3
  10
 1264.1454467773
  20
 1782.9999990069
  30
0.0
  11
 1265.0977783203
  21
 1813.4733113848
  31
0.0
   0
LINE
   5
195
 100
AcDbEntity
   8
LEVEL001
 100
AcDbLine
   6
DOT
  62
3
  10
 1265.0977783203
  20
 1813.4733113848
  30
0.0
  11
 1234.9021911621
  21
 1813.4732808672
  31
0.0
   0
LINE
   5
196
 100
AcDbEntity
   8
LEVEL001
 100
AcDbLine
   6
DOT
  62
3
  10
 1234.9021911621
  20
 1813.4732808672
  30
0.0
  11
 1235.8545532227
  21
 1782.9999990069
  31
0.0
   0
LINE
   5
197
 100
AcDbEntity
   8
LEVEL001
 100
AcDbLine
   6
DOT
  62
3
  10
 2503.3754882813
  20
 1814.9999990069
  30
0.0
  11
 2504.9022216797
  21
 1813.4732961260
  31
0.0
   0
LINE
   5
198
 100
AcDbEntity
   8
LEVEL001
 100
AcDbLine
   6
DOT
  62
3
  10
 2503.3754882813
  20
 1814.9999990069
  30
0.0
  11
 2504.1802978516
  21
 1789.2484731280
  31
0.0
   0
LINE
   5
199
 100
AcDbEntity
   8
LEVEL001
 100
AcDbLine
   6
DOT
  62
3
  10
 2504.1802978516
  20
 1789.2484731280
  30
0.0
  11
 2505.8545532227
  21
 1782.9999990069
  31
0.0
   0
LINE
   5
19A
 100
AcDbEntity
   8
LEVEL001
 100
AcDbLine
   6
DOT
  62
3
  10
 2536.6245117188
  20
 1814.9999990069
  30
0.0
  11
 2535.0977783203
  21
 1813.4733113848
  31
0.0
   0
LINE
   5
19B
 100
AcDbEntity
   8
LEVEL001
 100
AcDbLine
   6
DOT
  62
3
  10
 2534.1454467773
  20
 1782.9999990069
  30
0.0
  11
 2535.8197021484
  21
 1789.2484731280
  31
0.0
   0
LINE
   5
19C
 100
AcDbEntity
   8
LEVEL001
 100
AcDbLine
   6
DOT
  62
3
  10
 2535.8197021484
  20
 1789.2484731280
  30
0.0
  11
 2536.6245117188
  21
 1814.9999990069
  31
0.0
   0
LINE
   5
19D
 100
AcDbEntity
   8
LEVEL001
 100
AcDbLine
   6
DOT
  62
3
  10
 2534.1454467773
  20
 1782.9999990069
  30
0.0
  11
 2535.0977783203
  21
 1813.4733113848
  31
0.0
   0
LINE
   5
19E
 100
AcDbEntity
   8
LEVEL001
 100
AcDbLine
   6
DOT
  62
3
  10
 2535.0977783203
  20
 1813.4733113848
  30
0.0
  11
 2504.9021911621
  21
 1813.4732808672
  31
0.0
   0
LINE
   5
19F
 100
AcDbEntity
   8
LEVEL001
 100
AcDbLine
   6
DOT
  62
3
  10
 2504.9021911621
  20
 1813.4732808672
  30
0.0
  11
 2505.8545532227
  21
 1782.9999990069
  31
0.0
   0
LINE
   5
1A0
 100
AcDbEntity
   8
LEVEL001
 100
AcDbLine
   6
CONTINUOUS
  62
7
  10
 2750.0000000000
  20
 1800.0000015323
  30
0.0
  11
 2750.0000000000
  21
 1520.0000000000
  31
0.0
   0
LINE
   5
1A1
 100
AcDbEntity
   8
LEVEL001
 100
AcDbLine
   6
CONTINUOUS
  62
7
  10
 2750.0000000000
  20
 1239.9999984677
  30
0.0
  11
 2750.0000000000
  21
 1520.0000000000
  31
0.0
   0
LINE
   5
1A2
 100
AcDbEntity
   8
LEVEL001
 100
AcDbLine
   6
CONTINUOUS
  62
7
  10
 2777.0000000000
  20
 1762.5000000000
  30
0.0
  11
 2777.0000000000
  21
 1520.0000000000
  31
0.0
   0
LINE
   5
1A3
 100
AcDbEntity
   8
LEVEL001
 100
AcDbLine
   6
CONTINUOUS
  62
7
  10
 2735.0000000000
  20
 1815.0000011525
  30
0.0
  11
 2735.0000000000
  21
 1520.0000000000
  31
0.0
   0
LINE
   5
1A4
 100
AcDbEntity
   8
LEVEL001
 100
AcDbLine
   6
CONTINUOUS
  62
7
  10
 2735.0000000000
  20
 1224.9999991477
  30
0.0
  11
 2735.0000000000
  21
 1520.0000000000
  31
0.0
   0
LINE
   5
1A5
 100
AcDbEntity
   8
LEVEL001
 100
AcDbLine
   6
CONTINUOUS
  62
7
  10
 2777.0000000000
  20
 1277.5000000000
  30
0.0
  11
 2777.0000000000
  21
 1520.0000000000
  31
0.0
   0
LINE
   5
1A6
 100
AcDbEntity
   8
LEVEL001
 100
AcDbLine
   6
CONTINUOUS
  62
7
  10
 1000.0000000000
  20
 1520.0000000000
  30
0.0
  11
 1000.0000000000
  21
 1807.5000001852
  31
0.0
   0
LINE
   5
1A7
 100
AcDbEntity
   8
LEVEL001
 100
AcDbLine
   6
CONTINUOUS
  62
7
  10
 1185.0000000000
  20
 1520.0000000000
  30
0.0
  11
 1185.0000000000
  21
 1814.9999988739
  31
0.0
   0
LINE
   5
1A8
 100
AcDbEntity
   8
LEVEL001
 100
AcDbLine
   6
CONTINUOUS
  62
7
  10
 958.00000000000
  20
 1682.0000000000
  30
0.0
  11
 958.00000000000
  21
 1520.0000000000
  31
0.0
   0
LINE
   5
1A9
 100
AcDbEntity
   8
LEVEL001
 100
AcDbLine
   6
CONTINUOUS
  62
7
  10
 960.00000000000
  20
 1520.0000000000
  30
0.0
  11
 960.00000000000
  21
 1668.5000000000
  31
0.0
   0
LINE
   5
1AA
 100
AcDbEntity
   8
LEVEL001
 100
AcDbLine
   6
CONTINUOUS
  62
7
  10
 970.00000000000
  20
 1520.0000000000
  30
0.0
  11
 970.00000000000
  21
 1762.0000000000
  31
0.0
   0
LINE
   5
1AB
 100
AcDbEntity
   8
LEVEL001
 100
AcDbLine
   6
CONTINUOUS
  62
7
  10
 1175.9998779297
  20
 1812.4999988739
  30
0.0
  11
 1175.9998779297
  21
 1520.0000000000
  31
0.0
   0
LINE
   5
1AC
 100
AcDbEntity
   8
LEVEL001
 100
AcDbLine
   6
CONTINUOUS
  62
7
  10
 1005.0000000000
  20
 1809.5000001852
  30
0.0
  11
 1005.0000000000
  21
 1520.0000000000
  31
0.0
   0
LINE
   5
1AD
 100
AcDbEntity
   8
LEVEL001
 100
AcDbLine
   6
CONTINUOUS
  62
7
  10
 973.00000000000
  20
 1765.0000000000
  30
0.0
  11
 973.00000000000
  21
 1520.0000000000
  31
0.0
   0
LINE
   5
1AE
 100
AcDbEntity
   8
LEVEL001
 100
AcDbLine
   6
CONTINUOUS
  62
7
  10
 955.00000000000
  20
 1685.0000000000
  30
0.0
  11
 955.00000000000
  21
 1520.0000000000
  31
0.0
   0
LINE
   5
1AF
 100
AcDbEntity
   8
LEVEL001
 100
AcDbLine
   6
CONTINUOUS
  62
7
  10
 763.00000000000
  20
 1685.0000000000
  30
0.0
  11
 763.00000000000
  21
 1520.0000000000
  31
0.0
   0
LINE
   5
1B0
 100
AcDbEntity
   8
LEVEL001
 100
AcDbLine
   6
CONTINUOUS
  62
7
  10
 763.00000000000
  20
 1355.0000000000
  30
0.0
  11
 763.00000000000
  21
 1520.0000000000
  31
0.0
   0
ARC
   5
1B1
 100
AcDbEntity
   8
LEVEL001
   6
DOT
  62
3
 100
AcDbCircle
  10
 812.00000000000
  20
 1397.0000000000
  30
0.0
  40
 2.0000000000000
 100
AcDbArc
  50
 180.00000000000
  51
 270.00000000000
   0
LINE
   5
1B2
 100
AcDbEntity
   8
LEVEL001
 100
AcDbLine
   6
DOT
  62
3
  10
 814.00000000000
  20
 1395.0000000000
  30
0.0
  11
 812.00000000000
  21
 1395.0000000000
  31
0.0
   0
LINE
   5
1B3
 100
AcDbEntity
   8
LEVEL001
 100
AcDbLine
   6
DOT
  62
3
  10
 810.00000000000
  20
 1397.0000000000
  30
0.0
  11
 810.00000000000
  21
 1520.0000000000
  31
0.0
   0
LINE
   5
1B4
 100
AcDbEntity
   8
LEVEL001
 100
AcDbLine
   6
DOT
  62
3
  10
 810.00000000000
  20
 1397.0000000000
  30
0.0
  11
 812.00000000000
  21
 1395.0000000000
  31
0.0
   0
LINE
   5
1B5
 100
AcDbEntity
   8
LEVEL001
 100
AcDbLine
   6
DOT
  62
3
  10
 812.00000000000
  20
 1395.0000000000
  30
0.0
  11
 958.00000000000
  21
 1395.0000000000
  31
0.0
   0
LINE
   5
1B6
 100
AcDbEntity
   8
LEVEL001
 100
AcDbLine
   6
DOT
  62
3
  10
 958.00000000000
  20
 1397.0000000000
  30
0.0
  11
 810.00000000000
  21
 1397.0000000000
  31
0.0
   0
ARC
   5
1B7
 100
AcDbEntity
   8
LEVEL001
   6
CONTINUOUS
  62
7
 100
AcDbCircle
  10
 958.00000000000
  20
 1395.0000000000
  30
0.0
  40
 2.0000000000000
 100
AcDbArc
  50
0.0
  51
 90.000000000000
   0
LINE
   5
1B8
 100
AcDbEntity
   8
LEVEL001
 100
AcDbLine
   6
CONTINUOUS
  62
7
  10
 958.00000000000
  20
 1358.0000000000
  30
0.0
  11
 958.00000000000
  21
 1520.0000000000
  31
0.0
   0
LINE
   5
1B9
 100
AcDbEntity
   8
LEVEL001
 100
AcDbLine
   6
CONTINUOUS
  62
7
  10
 960.00000000000
  20
 1520.0000000000
  30
0.0
  11
 960.00000000000
  21
 1371.5000000000
  31
0.0
   0
LINE
   5
1BA
 100
AcDbEntity
   8
LEVEL001
 100
AcDbLine
   6
CONTINUOUS
  62
7
  10
 955.00000000000
  20
 1355.0000000000
  30
0.0
  11
 955.00000000000
  21
 1520.0000000000
  31
0.0
   0
LINE
   5
1BB
 100
AcDbEntity
   8
LEVEL001
 100
AcDbLine
   6
CONTINUOUS
  62
7
  10
 960.00000000000
  20
 1371.5000000000
  30
0.0
  11
 970.00000000000
  21
 1370.0000000000
  31
0.0
   0
LINE
   5
1BC
 100
AcDbEntity
   8
LEVEL001
 100
AcDbLine
   6
CONTINUOUS
  62
7
  10
 970.00000000000
  20
 1520.0000000000
  30
0.0
  11
 970.00000000000
  21
 1278.0000000000
  31
0.0
   0
LINE
   5
1BD
 100
AcDbEntity
   8
LEVEL001
 100
AcDbLine
   6
CONTINUOUS
  62
7
  10
 970.00000000000
  20
 1278.0000000000
  30
0.0
  11
 973.00000000000
  21
 1275.0000000000
  31
0.0
   0
LINE
   5
1BE
 100
AcDbEntity
   8
LEVEL001
 100
AcDbLine
   6
CONTINUOUS
  62
7
  10
 973.00000000000
  20
 1275.0000000000
  30
0.0
  11
 1000.0000000000
  21
 1275.0000000000
  31
0.0
   0
LINE
   5
1BF
 100
AcDbEntity
   8
LEVEL001
 100
AcDbLine
   6
CONTINUOUS
  62
7
  10
 1000.0000000000
  20
 1520.0000000000
  30
0.0
  11
 1000.0000000000
  21
 1232.4999998148
  31
0.0
   0
LINE
   5
1C0
 100
AcDbEntity
   8
LEVEL001
 100
AcDbLine
   6
CONTINUOUS
  62
7
  10
 1005.0000000000
  20
 1230.4999998148
  30
0.0
  11
 1005.0000000000
  21
 1520.0000000000
  31
0.0
   0
LINE
   5
1C1
 100
AcDbEntity
   8
LEVEL001
 100
AcDbLine
   6
CONTINUOUS
  62
7
  10
 973.00000000000
  20
 1275.0000000000
  30
0.0
  11
 973.00000000000
  21
 1520.0000000000
  31
0.0
   0
LINE
   5
1C2
 100
AcDbEntity
   8
LEVEL001
 100
AcDbLine
   6
CONTINUOUS
  62
7
  10
 1002.0000000000
  20
 1230.4999998148
  30
0.0
  11
 1000.0000000000
  21
 1232.4999998148
  31
0.0
   0
LINE
   5
1C3
 100
AcDbEntity
   8
LEVEL001
 100
AcDbLine
   6
CONTINUOUS
  62
7
  10
 1002.0000000000
  20
 1230.4999998148
  30
0.0
  11
 1005.0000000000
  21
 1230.4999998148
  31
0.0
   0
LINE
   5
1C4
 100
AcDbEntity
   8
LEVEL001
 100
AcDbLine
   6
CONTINUOUS
  62
7
  10
 1005.0000000000
  20
 1230.4999998148
  30
0.0
  11
 1008.0000000000
  21
 1227.4999998148
  31
0.0
   0
LINE
   5
1C5
 100
AcDbEntity
   8
LEVEL001
 100
AcDbLine
   6
CONTINUOUS
  62
7
  10
 1008.0000000000
  20
 1227.4999998148
  30
0.0
  11
 1175.9998779297
  21
 1227.5000011261
  31
0.0
   0
ARC
   5
1C6
 100
AcDbEntity
   8
LEVEL001
   6
CONTINUOUS
  62
7
 100
AcDbCircle
  10
 1178.9998779297
  20
 1227.5000011261
  30
0.0
  40
 3.0000000000000
 100
AcDbArc
  50
 90.000000000538
  51
 179.99999999987
   0
ARC
   5
1C7
 100
AcDbEntity
   8
LEVEL001
   6
CONTINUOUS
  62
7
 100
AcDbCircle
  10
 1181.9998779297
  20
 1227.5000011262
  30
0.0
  40
 3.0000000000000
 100
AcDbArc
  50
0.0
  51
 90.000000000469
   0
LINE
   5
1C8
 100
AcDbEntity
   8
LEVEL001
 100
AcDbLine
   6
CONTINUOUS
  62
3
  10
 1005.0000000000
  20
 1230.4999998148
  30
0.0
  11
 1178.9998779297
  21
 1230.5000011261
  31
0.0
   0
LINE
   5
1C9
 100
AcDbEntity
   8
LEVEL001
 100
AcDbLine
   6
CONTINUOUS
  62
7
  10
 1178.9998779297
  20
 1230.5000011261
  30
0.0
  11
 1181.9998779297
  21
 1230.5000011261
  31
0.0
   0
LINE
   5
1CA
 100
AcDbEntity
   8
LEVEL001
 100
AcDbLine
   6
CONTINUOUS
  62
7
  10
 1185.0000000000
  20
 1520.0000000000
  30
0.0
  11
 1185.0000000000
  21
 1225.0000011261
  31
0.0
   0
LINE
   5
1CB
 100
AcDbEntity
   8
LEVEL001
 100
AcDbLine
   6
CONTINUOUS
  62
7
  10
 1175.9998779297
  20
 1227.5000011261
  30
0.0
  11
 1175.9998779297
  21
 1520.0000000000
  31
0.0
   0
CIRCLE
   5
1CC
 100
AcDbEntity
   8
LEVEL001
 100
AcDbCircle
   6
DASHDOT
  62
1
  10
 1304.0000000000
  20
 1520.0000000000
  30
0.0
  40
 44.000000000000
   0
ARC
   5
1CD
 100
AcDbEntity
   8
LEVEL001
   6
DASHDOT
  62
1
 100
AcDbCircle
  10
 1304.0000000001
  20
 1519.9999371261
  30
0.0
  40
 37.500000000000
 100
AcDbArc
  50
 197.05752313568
  51
 162.94227589514
   0
ARC
   5
1CE
 100
AcDbEntity
   8
LEVEL001
   6
DASHDOT
  62
1
 100
AcDbCircle
  10
 1304.0000000000
  20
 1520.0000348590
  30
0.0
  40
 50.500000000000
 100
AcDbArc
  50
 192.58116844333
  51
 167.41891260256
   0
LINE
   5
1CF
 100
AcDbEntity
   8
LEVEL001
 100
AcDbLine
   6
DASHDOT
  62
1
  10
 730.00000000000
  20
 1520.0000000000
  30
0.0
  11
 2800.0000000000
  21
 1520.0000000000
  31
0.0
   0
LINE
   5
1D0
 100
AcDbEntity
   8
LEVEL001
 100
AcDbLine
   6
DASHDOT
  62
1
  10
 1242.0000000000
  20
 1510.0000000000
  30
0.0
  11
 1241.0000000000
  21
 1509.0000000000
  31
0.0
   0
LINE
   5
1D1
 100
AcDbEntity
   8
LEVEL001
 100
AcDbLine
   6
DASHDOT
  62
1
  10
 1278.0000000000
  20
 1530.0000000000
  30
0.0
  11
 1279.0000000000
  21
 1531.0000000000
  31
0.0
   0
LINE
   5
1D2
 100
AcDbEntity
   8
LEVEL001
 100
AcDbLine
   6
DASHDOT
  62
1
  10
 1278.0000000000
  20
 1510.0000000000
  30
0.0
  11
 1279.0000000000
  21
 1509.0000000000
  31
0.0
   0
LINE
   5
1D3
 100
AcDbEntity
   8
LEVEL001
 100
AcDbLine
   6
DASHDOT
  62
1
  10
 1242.0000000000
  20
 1520.0000000000
  30
0.0
  11
 1242.0000000000
  21
 1510.0000000000
  31
0.0
   0
LINE
   5
1D4
 100
AcDbEntity
   8
LEVEL001
 100
AcDbLine
   6
DASHDOT
  62
1
  10
 1242.0000000000
  20
 1510.0000000000
  30
0.0
  11
 1278.0000000000
  21
 1510.0000000000
  31
0.0
   0
LINE
   5
1D5
 100
AcDbEntity
   8
LEVEL001
 100
AcDbLine
   6
DASHDOT
  62
1
  10
 1278.0000000000
  20
 1510.0000000000
  30
0.0
  11
 1278.0000000000
  21
 1520.0000000000
  31
0.0
   0
LINE
   5
1D6
 100
AcDbEntity
   8
LEVEL001
 100
AcDbLine
   6
DASHDOT
  62
1
  10
 1241.0000000000
  20
 1520.0000000000
  30
0.0
  11
 1241.0000000000
  21
 1509.0000000000
  31
0.0
   0
LINE
   5
1D7
 100
AcDbEntity
   8
LEVEL001
 100
AcDbLine
   6
DASHDOT
  62
1
  10
 1241.0000000000
  20
 1509.0000000000
  30
0.0
  11
 1279.0000000000
  21
 1509.0000000000
  31
0.0
   0
LINE
   5
1D8
 100
AcDbEntity
   8
LEVEL001
 100
AcDbLine
   6
DASHDOT
  62
1
  10
 1279.0000000000
  20
 1509.0000000000
  30
0.0
  11
 1279.0000000000
  21
 1520.0000000000
  31
0.0
   0
LINE
   5
1D9
 100
AcDbEntity
   8
LEVEL001
 100
AcDbLine
   6
DASHDOT
  62
1
  10
 1242.0000000000
  20
 1530.0000000000
  30
0.0
  11
 1241.0000000000
  21
 1531.0000000000
  31
0.0
   0
LINE
   5
1DA
 100
AcDbEntity
   8
LEVEL001
 100
AcDbLine
   6
DASHDOT
  62
1
  10
 1242.0000000000
  20
 1520.0000000000
  30
0.0
  11
 1242.0000000000
  21
 1530.0000000000
  31
0.0
   0
LINE
   5
1DB
 100
AcDbEntity
   8
LEVEL001
 100
AcDbLine
   6
DASHDOT
  62
1
  10
 1242.0000000000
  20
 1530.0000000000
  30
0.0
  11
 1278.0000000000
  21
 1530.0000000000
  31
0.0
   0
LINE
   5
1DC
 100
AcDbEntity
   8
LEVEL001
 100
AcDbLine
   6
DASHDOT
  62
1
  10
 1278.0000000000
  20
 1530.0000000000
  30
0.0
  11
 1278.0000000000
  21
 1520.0000000000
  31
0.0
   0
LINE
   5
1DD
 100
AcDbEntity
   8
LEVEL001
 100
AcDbLine
   6
DASHDOT
  62
1
  10
 1241.0000000000
  20
 1520.0000000000
  30
0.0
  11
 1241.0000000000
  21
 1531.0000000000
  31
0.0
   0
LINE
   5
1DE
 100
AcDbEntity
   8
LEVEL001
 100
AcDbLine
   6
DASHDOT
  62
1
  10
 1241.0000000000
  20
 1531.0000000000
  30
0.0
  11
 1279.0000000000
  21
 1531.0000000000
  31
0.0
   0
LINE
   5
1DF
 100
AcDbEntity
   8
LEVEL001
 100
AcDbLine
   6
DASHDOT
  62
1
  10
 1279.0000000000
  20
 1531.0000000000
  30
0.0
  11
 1279.0000000000
  21
 1520.0000000000
  31
0.0
   0
LEADER
   5
1E0
 100
AcDbEntity
   8
LEVEL003
   6
CONTINUOUS
  62
3
 100
AcDbLeader
   3
GMM006
  73
0
  74
1
  75
0
  40
 32.000000000000
  41
0.0
  76
3
  10
 1250.0000000000
  20
 1814.9999989682
  30
0.0
  10
 1320.0000000000
  20
 1920.0000000000
  30
0.0
  10
 1440.0000000000
  20
 1920.0000000000
  30
0.0
  77
3
   0
LEADER
   5
1E1
 100
AcDbEntity
   8
LEVEL003
   6
CONTINUOUS
  62
3
 100
AcDbLeader
   3
GMM007
  73
0
  74
1
  75
0
  40
 32.000000000000
  41
0.0
  76
3
  10
 1090.0689845312
  20
 1812.4999995446
  30
0.0
  10
 1040.0000000000
  20
 1920.0000000000
  30
0.0
  10
 840.00000000000
  20
 1920.0000000000
  30
0.0
  77
3
   0
LEADER
   5
1E2
 100
AcDbEntity
   8
LEVEL003
   6
CONTINUOUS
  62
3
 100
AcDbLeader
   3
GMM006
  73
0
  74
1
  75
0
  40
 32.000000000000
  41
0.0
  76
3
  10
 2520.0000000000
  20
 1815.0000008405
  30
0.0
  10
 2560.0000000000
  20
 1920.0000000000
  30
0.0
  10
 2680.0000000000
  20
 1920.0000000000
  30
0.0
  77
3
   0
TEXT
   5
1E3
 100
AcDbEntity
   8
LEVEL003
  62
3
 100
AcDbText
  10
 2560.0000000000
  20
 1920.0000000000
  30
0.0
  40
 38.400001525879
   1
加圧口
  41
 0.65624997392297
   7
STANDARD
 100
AcDbText
   0
TEXT
   5
1E4
 100
AcDbEntity
   8
LEVEL003
  62
3
 100
AcDbText
  10
 2560.0000000000
  20
 1868.7999979655
  30
0.0
  40
 38.400001525879
   1
Ｒｃ１
  41
 0.65624997392297
   7
STANDARD
 100
AcDbText
   0
TEXT
   5
1E5
 100
AcDbEntity
   8
LEVEL003
  62
3
 100
AcDbText
  10
 1320.0000000000
  20
 1920.0000000000
  30
0.0
  40
 38.400001525879
   1
戻り口
  41
 0.65624997392297
   7
STANDARD
 100
AcDbText
   0
TEXT
   5
1E6
 100
AcDbEntity
   8
LEVEL003
  62
3
 100
AcDbText
  10
 1320.0000000000
  20
 1868.7999979655
  30
0.0
  40
 38.400001525879
   1
Ｒｃ１
  41
 0.65624997392297
   7
STANDARD
 100
AcDbText
   0
TEXT
   5
1E7
 100
AcDbEntity
   8
LEVEL003
  62
3
 100
AcDbText
  10
 840.00000000000
  20
 1920.0000000000
  30
0.0
  40
 32.000000000000
   1
Ｍ５８５×６
   7
STANDARD
 100
AcDbText
   0
TEXT
   5
1E8
 100
AcDbEntity
   8
LEVEL003
  62
3
 100
AcDbText
  10
 560.00000000000
  20
 1800.0000000000
  30
0.0
  40
 32.000000000000
   1
Ｍ２５０×４
   7
STANDARD
 100
AcDbText
   0
LEADER
   5
1E9
 100
AcDbEntity
   8
LEVEL003
   6
CONTINUOUS
  62
3
 100
AcDbLeader
   3
GMM007
  73
0
  74
1
  75
0
  40
 32.000000000000
  41
0.0
  76
3
  10
 837.79446546831
  20
 1645.0000000000
  30
0.0
  10
 760.00000000000
  20
 1800.0000000000
  30
0.0
  10
 560.00000000000
  20
 1800.0000000000
  30
0.0
  77
3
   0
TEXT
   5
1EA
 100
AcDbEntity
   8
LEVEL003
  62
7
 100
AcDbText
  10
 2728.7910038650
  20
 602.36883686679
  30
0.0
  40
 45.000000000000
   1
ＯＳＡＫＡ ＪＡＣＫ
   7
STANDARD
 100
AcDbText
   0
CIRCLE
   5
1EB
 100
AcDbEntity
   8
LEVEL003
 100
AcDbCircle
   6
CONTINUOUS
  62
7
  10
 2636.7821415384
  20
 632.58171013568
  30
0.0
  40
 13.500000000000
   0
LINE
   5
1EC
 100
AcDbEntity
   8
LEVEL003
 100
AcDbLine
   6
CONTINUOUS
  62
7
  10
 2663.2781415384
  20
 646.08171013568
  30
0.0
  11
 2646.1376415384
  21
 616.38171013568
  31
0.0
   0
LINE
   5
1ED
 100
AcDbEntity
   8
LEVEL003
 100
AcDbLine
   6
CONTINUOUS
  62
7
  10
 2646.1376415384
  20
 616.38171013568
  30
0.0
  11
 2611.8431415384
  21
 616.38171013568
  31
0.0
   0
LINE
   5
1EE
 100
AcDbEntity
   8
LEVEL003
 100
AcDbLine
   6
CONTINUOUS
  62
7
  10
 2607.9416415384
  20
 609.63171013568
  30
0.0
  11
 2669.2361415384
  21
 609.63171013568
  31
0.0
   0
LINE
   5
1EF
 100
AcDbEntity
   8
LEVEL003
 100
AcDbLine
   6
CONTINUOUS
  62
7
  10
 2669.2361415384
  20
 609.63171013568
  30
0.0
  11
 2690.2781415384
  21
 646.08171013568
  31
0.0
   0
LINE
   5
1F0
 100
AcDbEntity
   8
LEVEL003
 100
AcDbLine
   6
CONTINUOUS
  62
7
  10
 2690.2781415384
  20
 646.08171013568
  30
0.0
  11
 2663.2781415384
  21
 646.08171013568
  31
0.0
   0
LINE
   5
1F1
 100
AcDbEntity
   8
LEVEL003
 100
AcDbLine
   6
CONTINUOUS
  62
7
  10
 2611.8431415384
  20
 616.38171013568
  30
0.0
  11
 2607.9416415384
  21
 609.63171013568
  31
0.0
   0
TEXT
   5
1F2
 100
AcDbEntity
   8
LEVEL003
  62
7
 100
AcDbText
  10
 2741.8905038650
  20
 678.38913686679
  30
0.0
  40
 27.000000000000
   1
Model : ＥＴ１０００Ｈ１００
   7
STANDARD
 100
AcDbText
   0
ENDSEC
  0
SECTION
  2
OBJECTS
  0
DICTIONARY
  5
C
100
AcDbDictionary
  3
ACAD_GROUP
350
D
  3
ACAD_MLINESTYLE
350
1B
  0
DICTIONARY
  5
D
102
{ACAD_REACTORS
330
C
102
}
100
AcDbDictionary
  0
DICTIONARY
  5
1B
102
{ACAD_REACTORS
330
C
102
}
100
AcDbDictionary
  3
STANDARD
350
1C
  0
MLINESTYLE
  5
1C
102
{ACAD_REACTORS
330
1B
102
}
100
AcDbMlineStyle
  2
STANDARD
 70
     0
  3

 62
   256
 51
90.0
 52
90.0
 71
     2
 49
0.5
 62
   256
  6
BYLAYER
 49
-0.5
 62
   256
  6
BYLAYER
  0
ENDSEC
   0
EOF
