   0
SECTION
   2
HEADER
   9
$ACADVER
   1
AC1014
   9
$LIMMIN
  10
0.0
  20
0.0
   9
$LIMMAX
  10
 840.00000000000
  20
 594.00000000000
   9
$EXTMIN
  10
0.0
  20
0.0
  30
0.0
   9
$EXTMAX
  10
 840.00000000000
  20
 594.00000000000
  30
0.0
   9
$LTSCALE
  40
 16.800000000000
   9
$HANDSEED
   5
22E
   0
ENDSEC
   0
SECTION
   2
TABLES
  0
TABLE
  2
VPORT
  5
8
100
AcDbSymbolTable
 70
     1
  0
VPORT
  5
22D
100
AcDbSymbolTableRecord
100
AcDbViewportTableRecord
  2
*ACTIVE
 70
     0
 10
0.0
 20
0.0
 11
1.0
 21
1.0
  12
 420.00000000000
  22
 297.00000000000
 13
0.0
 23
0.0
 14
1.0
 24
1.0
 15
0.0
 25
0.0
 16
0.0
 26
0.0
 36
1.0
 17
0.0
 27
0.0
 37
0.0
  40
 840.00000000000
  41
 1.4787878787879
 42
50.0
 43
0.0
 44
0.0
 50
0.0
 51
0.0
 71
     0
 72
   100
 73
     1
 74
     1
 75
     0
 76
     0
 77
     0
 78
     0
  0
ENDTAB
  0
TABLE
  2
LTYPE
  5
5
100
AcDbSymbolTable
 70
    25
  0
LTYPE
  5
12
100
AcDbSymbolTableRecord
100
AcDbLinetypeTableRecord
  2
BYBLOCK
 70
     0
  3

 72
    65
 73
     0
 40
0.0
  0
LTYPE
  5
13
100
AcDbSymbolTableRecord
100
AcDbLinetypeTableRecord
  2
BYLAYER
 70
     0
  3

 72
    65
 73
     0
 40
0.0
  0
LTYPE
  5
14
100
AcDbSymbolTableRecord
100
AcDbLinetypeTableRecord
  2
CONTINUOUS
 70
     0
  3
Solid line
 72
    65
 73
     0
 40
0.0
  0
LTYPE
  5
20
100
AcDbSymbolTableRecord
100
AcDbLinetypeTableRecord
  2
BORDER
 70
     0
  3
__ __ . __ __ . __ __ . __ __ . __ __ . __ __ .
 72
    65
 73
     6
 40
1.75
 49
0.5
 74
     0
 49
-0.25
 74
     0
 49
0.5
 74
     0
 49
-0.25
 74
     0
 49
0.0
 74
     0
 49
-0.25
 74
     0
  0
LTYPE
  5
21
100
AcDbSymbolTableRecord
100
AcDbLinetypeTableRecord
  2
BORDER2
 70
     0
  3
__.__.__.__.__.__.__.__.__.__.__.__.__.__.__.__
 72
    65
 73
     6
 40
0.875
 49
0.25
 74
     0
 49
-0.125
 74
     0
 49
0.25
 74
     0
 49
-0.125
 74
     0
 49
0.0
 74
     0
 49
-0.125
 74
     0
  0
LTYPE
  5
22
100
AcDbSymbolTableRecord
100
AcDbLinetypeTableRecord
  2
BORDERX2
 70
     0
  3
____  ____  .  ____  ____  .  ____  ____  .  __
 72
    65
 73
     6
 40
3.5
 49
1.0
 74
     0
 49
-0.5
 74
     0
 49
1.0
 74
     0
 49
-0.5
 74
     0
 49
0.0
 74
     0
 49
-0.5
 74
     0
  0
LTYPE
  5
23
100
AcDbSymbolTableRecord
100
AcDbLinetypeTableRecord
  2
CENTER
 70
     0
  3
____ _ ____ _ ____ _ ____ _ ____ _ ____ _ ____ 
 72
    65
 73
     4
 40
2.0
 49
1.25
 74
     0
 49
-0.25
 74
     0
 49
0.25
 74
     0
 49
-0.25
 74
     0
  0
LTYPE
  5
24
100
AcDbSymbolTableRecord
100
AcDbLinetypeTableRecord
  2
CENTER2
 70
     0
  3
___ _ ___ _ ___ _ ___ _ ___ _ ___ _ ___ _ ___ _
 72
    65
 73
     4
 40
1.125
 49
0.75
 74
     0
 49
-0.125
 74
     0
 49
0.125
 74
     0
 49
-0.125
 74
     0
  0
LTYPE
  5
25
100
AcDbSymbolTableRecord
100
AcDbLinetypeTableRecord
  2
CENTERX2
 70
     0
  3
________  __  ________  __  ________  __  _____
 72
    65
 73
     4
 40
4.0
 49
2.5
 74
     0
 49
-0.5
 74
     0
 49
0.5
 74
     0
 49
-0.5
 74
     0
  0
LTYPE
  5
26
100
AcDbSymbolTableRecord
100
AcDbLinetypeTableRecord
  2
DASHDOT
 70
     0
  3
__ . __ . __ . __ . __ . __ . __ . __ . __ . __
 72
    65
 73
     4
 40
1.0
 49
0.5
 74
     0
 49
-0.25
 74
     0
 49
0.0
 74
     0
 49
-0.25
 74
     0
  0
LTYPE
  5
27
100
AcDbSymbolTableRecord
100
AcDbLinetypeTableRecord
  2
DASHDOT2
 70
     0
  3
_._._._._._._._._._._._._._._._._._._._._._._._
 72
    65
 73
     4
 40
0.5
 49
0.25
 74
     0
 49
-0.125
 74
     0
 49
0.0
 74
     0
 49
-0.125
 74
     0
  0
LTYPE
  5
28
100
AcDbSymbolTableRecord
100
AcDbLinetypeTableRecord
  2
DASHDOTX2
 70
     0
  3
____  .  ____  .  ____  .  ____  .  ____  .  __
 72
    65
 73
     4
 40
2.0
 49
1.0
 74
     0
 49
-0.5
 74
     0
 49
0.0
 74
     0
 49
-0.5
 74
     0
  0
LTYPE
  5
29
100
AcDbSymbolTableRecord
100
AcDbLinetypeTableRecord
  2
DASHED
 70
     0
  3
__ __ __ __ __ __ __ __ __ __ __ __ __ __ __ __
 72
    65
 73
     2
 40
0.75
 49
0.5
 74
     0
 49
-0.25
 74
     0
  0
LTYPE
  5
2A
100
AcDbSymbolTableRecord
100
AcDbLinetypeTableRecord
  2
DASHED2
 70
     0
  3
_ _ _ _ _ _ _ _ _ _ _ _ _ _ _ _ _ _ _ _ _ _ _ _
 72
    65
 73
     2
 40
0.375
 49
0.25
 74
     0
 49
-0.125
 74
     0
  0
LTYPE
  5
2B
100
AcDbSymbolTableRecord
100
AcDbLinetypeTableRecord
  2
DASHEDX2
 70
     0
  3
____  ____  ____  ____  ____  ____  ____  ____ 
 72
    65
 73
     2
 40
1.5
 49
1.0
 74
     0
 49
-0.5
 74
     0
  0
LTYPE
  5
2C
100
AcDbSymbolTableRecord
100
AcDbLinetypeTableRecord
  2
DIVIDE
 70
     0
  3
____ . . ____ . . ____ . . ____ . . ____ . . __
 72
    65
 73
     6
 40
1.25
 49
0.5
 74
     0
 49
-0.25
 74
     0
 49
0.0
 74
     0
 49
-0.25
 74
     0
 49
0.0
 74
     0
 49
-0.25
 74
     0
  0
LTYPE
  5
2D
100
AcDbSymbolTableRecord
100
AcDbLinetypeTableRecord
  2
DIVIDE2
 70
     0
  3
__..__..__..__..__..__..__..__..__..__..__..__.
 72
    65
 73
     6
 40
0.625
 49
0.25
 74
     0
 49
-0.125
 74
     0
 49
0.0
 74
     0
 49
-0.125
 74
     0
 49
0.0
 74
     0
 49
-0.125
 74
     0
  0
LTYPE
  5
2E
100
AcDbSymbolTableRecord
100
AcDbLinetypeTableRecord
  2
DIVIDEX2
 70
     0
  3
________  .  .  ________  .  .  ________  .  . 
 72
    65
 73
     6
 40
2.5
 49
1.0
 74
     0
 49
-0.5
 74
     0
 49
0.0
 74
     0
 49
-0.5
 74
     0
 49
0.0
 74
     0
 49
-0.5
 74
     0
  0
LTYPE
  5
2F
100
AcDbSymbolTableRecord
100
AcDbLinetypeTableRecord
  2
DOT
 70
     0
  3
. . . . . . . . . . . . . . . . . . . . . . . .
 72
    65
 73
     2
 40
0.25
 49
0.0
 74
     0
 49
-0.25
 74
     0
  0
LTYPE
  5
30
100
AcDbSymbolTableRecord
100
AcDbLinetypeTableRecord
  2
DOT2
 70
     0
  3
...............................................
 72
    65
 73
     2
 40
0.125
 49
0.0
 74
     0
 49
-0.125
 74
     0
  0
LTYPE
  5
31
100
AcDbSymbolTableRecord
100
AcDbLinetypeTableRecord
  2
DOTX2
 70
     0
  3
.  .  .  .  .  .  .  .  .  .  .  .  .  .  .  . 
 72
    65
 73
     2
 40
0.5
 49
0.0
 74
     0
 49
-0.5
 74
     0
  0
LTYPE
  5
32
100
AcDbSymbolTableRecord
100
AcDbLinetypeTableRecord
  2
HIDDEN
 70
     0
  3
__ __ __ __ __ __ __ __ __ __ __ __ __ __ __ __
 72
    65
 73
     2
 40
0.375
 49
0.25
 74
     0
 49
-0.125
 74
     0
  0
LTYPE
  5
33
100
AcDbSymbolTableRecord
100
AcDbLinetypeTableRecord
  2
HIDDEN2
 70
     0
  3
_ _ _ _ _ _ _ _ _ _ _ _ _ _ _ _ _ _ _ _ _ _ _ _
 72
    65
 73
     2
 40
0.1875
 49
0.125
 74
     0
 49
-0.0625
 74
     0
  0
LTYPE
  5
34
100
AcDbSymbolTableRecord
100
AcDbLinetypeTableRecord
  2
HIDDENX2
 70
     0
  3
____ ____ ____ ____ ____ ____ ____ ____ ____ __
 72
    65
 73
     2
 40
0.75
 49
0.5
 74
     0
 49
-0.25
 74
     0
  0
LTYPE
  5
35
100
AcDbSymbolTableRecord
100
AcDbLinetypeTableRecord
  2
PHANTOM
 70
     0
  3
______  __  __  ______  __  __  ______  __  __ 
 72
    65
 73
     6
 40
2.5
 49
1.25
 74
     0
 49
-0.25
 74
     0
 49
0.25
 74
     0
 49
-0.25
 74
     0
 49
0.25
 74
     0
 49
-0.25
 74
     0
  0
LTYPE
  5
36
100
AcDbSymbolTableRecord
100
AcDbLinetypeTableRecord
  2
PHANTOM2
 70
     0
  3
___ _ _ ___ _ _ ___ _ _ ___ _ _ ___ _ _ ___ _ _
 72
    65
 73
     6
 40
1.25
 49
0.625
 74
     0
 49
-0.125
 74
     0
 49
0.125
 74
     0
 49
-0.125
 74
     0
 49
0.125
 74
     0
 49
-0.125
 74
     0
  0
LTYPE
  5
37
100
AcDbSymbolTableRecord
100
AcDbLinetypeTableRecord
  2
PHANTOMX2
 70
     0
  3
____________    ____    ____    ____________   
 72
    65
 73
     6
 40
5.0
 49
2.5
 74
     0
 49
-0.5
 74
     0
 49
0.5
 74
     0
 49
-0.5
 74
     0
 49
0.5
 74
     0
 49
-0.5
 74
     0
  0
ENDTAB
   0
TABLE
   2
LAYER
   5
2
 100
AcDbSymbolTable
  70
6
   0
LAYER
   5
E
 100
AcDbSymbolTableRecord
 100
AcDbLayerTableRecord
   2
0
  70
0
  62
7
   6
CONTINUOUS
   0
LAYER
   5
39
 100
AcDbSymbolTableRecord
 100
AcDbLayerTableRecord
   2
LEVEL001
  70
0
  62
7
   6
CONTINUOUS
   0
LAYER
   5
3A
 100
AcDbSymbolTableRecord
 100
AcDbLayerTableRecord
   2
LEVEL003
  70
0
  62
7
   6
CONTINUOUS
   0
LAYER
   5
3B
 100
AcDbSymbolTableRecord
 100
AcDbLayerTableRecord
   2
LEVEL020
  70
0
  62
7
   6
CONTINUOUS
   0
LAYER
   5
3C
 100
AcDbSymbolTableRecord
 100
AcDbLayerTableRecord
   2
LEVEL050
  70
0
  62
7
   6
CONTINUOUS
   0
LAYER
   5
3D
 100
AcDbSymbolTableRecord
 100
AcDbLayerTableRecord
   2
LEVEL110
  70
0
  62
7
   6
CONTINUOUS
   0
ENDTAB
  0
TABLE
  2
STYLE
  5
3
100
AcDbSymbolTable
  70
3
  0
STYLE
  5
F
100
AcDbSymbolTableRecord
100
AcDbTextStyleTableRecord
  2
STANDARD
 70
     0
 40
0.0
 41
1.0
 50
0.0
 71
     0
 42
0.2
  3
TXT
  4
BIGFONT
  0
STYLE
  5
38
100
AcDbSymbolTableRecord
100
AcDbTextStyleTableRecord
  2
STANDARD1
 70
     4
 40
0.0
 41
1.0
 50
0.0
 71
     0
 42
0.2
  3
TXT
  4
BIGFONT
   0
STYLE
   5
3E
 100
AcDbSymbolTableRecord
 100
AcDbTextStyleTableRecord
   2
GMM001
  70
0
  40
0.0
  41
 1.0000000000000
  50
0.0
  71
     0
  42
1.0
   3
txt.shx
   4
bigfont.shx
   0
ENDTAB
  0
TABLE
  2
VIEW
  5
6
100
AcDbSymbolTable
 70
     0
  0
ENDTAB
  0
TABLE
  2
UCS
  5
7
100
AcDbSymbolTable
 70
     0
  0
ENDTAB
  0
TABLE
  2
APPID
  5
9
100
AcDbSymbolTable
 70
     1
  0
APPID
  5
10
100
AcDbSymbolTableRecord
100
AcDbRegAppTableRecord
  2
ACAD
 70
     0
  0
ENDTAB
   0
TABLE
   2
DIMSTYLE
   5
A
 100
AcDbSymbolTable
  70
11
  0
DIMSTYLE
105
1D
100
AcDbSymbolTableRecord
100
AcDbDimStyleTableRecord
  2
STANDARD
 70
     0
  3

  4

  5

  6

  7

 40
1.0
 41
0.18
 42
0.0625
 43
0.38
 44
0.18
 45
0.0
 46
0.0
 47
0.0
 48
0.0
140
0.18
141
0.09
142
0.0
143
25.4
144
1.0
145
0.0
146
1.0
147
0.09
 71
     0
 72
     0
 73
     1
 74
     1
 75
     0
 76
     0
 77
     0
 78
     0
170
     0
171
     2
172
     0
173
     0
174
     0
175
     0
176
     0
177
     0
178
     0
270
     2
271
     4
272
     4
273
     2
274
     2
340
F
275
     0
280
     0
281
     0
282
     0
283
     1
284
     0
285
     0
286
     0
287
     3
288
     0
   0
DIMSTYLE
 105
3F
 100
AcDbSymbolTableRecord
 100
AcDbDimStyleTableRecord
   2
GMM001
  70
0
   3

   4

   5

   6
_OPEN
   7
_OPEN
  40
 1.0000000000000
  41
 6.0000000000000
  42
 2.0000000000000
  43
 16.000000000000
  44
 4.0000000000000
  45
0.0
  46
0.0
  47
0.0
  48
0.0
 140
 8.0000000000000
 141
 2.0000000000000
 142
0.0
 143
 0.39400000000000E-1
 144
 1.0000000000000
 145
0.0
 146
 0.62500000000000
 147
0.0
  71
0
  72
0
  73
0
  74
0
  75
0
  76
0
  77
1
  78
8
 170
0
 171
2
 172
1
 173
1
 174
0
 175
0
 176
3
 177
3
 178
7
 270
2
 271
1
 272
0
 273
2
 274
2
 340
F
 275
0
 280
0
 281
0
 282
0
 283
1
 284
0
 285
0
 286
0
 287
3
 288
1
   0
DIMSTYLE
 105
40
 100
AcDbSymbolTableRecord
 100
AcDbDimStyleTableRecord
   2
GMM002
  70
0
   3

   4

   5

   6
_OPEN
   7
_OPEN
  40
 1.0000000000000
  41
 6.0000000000000
  42
 2.0000000000000
  43
 0.10000000000000E-5
  44
 4.0000000000000
  45
0.0
  46
0.0
  47
0.0
  48
0.0
 140
 8.0000000000000
 141
 2.0000000000000
 142
0.0
 143
 0.39400000000000E-1
 144
 1.0000000000000
 145
0.0
 146
 0.62500000000000
 147
 1.6000061035156
  71
0
  72
0
  73
0
  74
0
  75
1
  76
1
  77
3
  78
0
 170
0
 171
2
 172
1
 173
1
 174
0
 175
0
 176
3
 177
3
 178
3
 270
2
 271
0
 272
0
 273
2
 274
2
 340
3E
 275
1
 280
0
 281
0
 282
0
 283
1
 284
0
 285
0
 286
0
 287
3
 288
1
   0
DIMSTYLE
 105
41
 100
AcDbSymbolTableRecord
 100
AcDbDimStyleTableRecord
   2
GMM003
  70
0
   3

   4

   5

   6
_OPEN
   7
_OPEN
  40
 1.0000000000000
  41
 6.0000000000000
  42
 2.0000000000000
  43
 16.000000000000
  44
 4.0000000000000
  45
0.0
  46
0.0
  47
0.0
  48
0.0
 140
 8.0000000000000
 141
 2.0000000000000
 142
0.0
 143
 0.39400000000000E-1
 144
 1.0000000000000
 145
0.0
 146
 0.62500000000000
 147
 1.6000000000000
  71
0
  72
0
  73
0
  74
0
  75
1
  76
1
  77
3
  78
8
 170
0
 171
2
 172
1
 173
1
 174
0
 175
0
 176
3
 177
3
 178
3
 270
2
 271
1
 272
0
 273
2
 274
2
 340
3E
 275
0
 280
0
 281
0
 282
0
 283
1
 284
0
 285
0
 286
0
 287
3
 288
0
   0
DIMSTYLE
 105
42
 100
AcDbSymbolTableRecord
 100
AcDbDimStyleTableRecord
   2
GMM004
  70
0
   3

   4

   5

   6
_OPEN
   7
_OPEN
  40
 1.0000000000000
  41
 6.0000000000000
  42
 2.0000000000000
  43
 0.10000000000000E-5
  44
 4.0000000000000
  45
0.0
  46
0.0
  47
0.0
  48
0.0
 140
 8.0000000000000
 141
 2.0000000000000
 142
0.0
 143
 0.39400000000000E-1
 144
 1.0000000000000
 145
0.0
 146
 0.62500000000000
 147
 1.6000061035156
  71
0
  72
0
  73
0
  74
0
  75
0
  76
1
  77
3
  78
0
 170
0
 171
2
 172
1
 173
1
 174
0
 175
0
 176
3
 177
3
 178
3
 270
2
 271
0
 272
0
 273
2
 274
2
 340
3E
 275
1
 280
0
 281
0
 282
0
 283
1
 284
0
 285
0
 286
0
 287
3
 288
1
   0
DIMSTYLE
 105
43
 100
AcDbSymbolTableRecord
 100
AcDbDimStyleTableRecord
   2
GMM005
  70
0
   3

   4

   5

   6
_OPEN
   7
_OPEN
  40
 1.0000000000000
  41
 6.0000000000000
  42
 2.0000000000000
  43
 0.10000000000000E-5
  44
 4.0000000000000
  45
0.0
  46
0.0
  47
0.0
  48
0.0
 140
 8.0000000000000
 141
 2.0000000000000
 142
0.0
 143
 0.39400000000000E-1
 144
 1.0000000000000
 145
0.0
 146
 0.62500000000000
 147
 1.6000061035156
  71
0
  72
0
  73
0
  74
0
  75
0
  76
0
  77
3
  78
0
 170
0
 171
2
 172
1
 173
1
 174
0
 175
0
 176
3
 177
3
 178
3
 270
2
 271
0
 272
0
 273
2
 274
2
 340
3E
 275
1
 280
0
 281
0
 282
0
 283
1
 284
0
 285
0
 286
0
 287
3
 288
1
   0
DIMSTYLE
 105
44
 100
AcDbSymbolTableRecord
 100
AcDbDimStyleTableRecord
   2
GMM006
  70
0
   3

   4

   5

   6
_OPEN
   7
_OPEN
  40
 1.0000000000000
  41
 6.0000000000000
  42
 2.0000000000000
  43
 0.10000000000000E-5
  44
 4.0000000000000
  45
0.0
  46
0.0
  47
0.0
  48
0.0
 140
 8.0000000000000
 141
 2.0000000000000
 142
0.0
 143
 0.39400000000000E-1
 144
 1.0000000000000
 145
0.0
 146
 0.62500000000000
 147
 1.6000061035156
  71
0
  72
0
  73
0
  74
0
  75
0
  76
0
  77
3
  78
0
 170
0
 171
2
 172
1
 173
1
 174
0
 175
0
 176
3
 177
3
 178
3
 270
2
 271
0
 272
0
 273
2
 274
2
 340
3E
 275
1
 280
0
 281
0
 282
0
 283
1
 284
0
 285
0
 286
0
 287
3
 288
1
   0
DIMSTYLE
 105
45
 100
AcDbSymbolTableRecord
 100
AcDbDimStyleTableRecord
   2
GMM007
  70
0
   3

   4

   5

   6
_OPEN
   7
_OPEN
  40
 1.0000000000000
  41
 6.0000000000000
  42
 2.0000000000000
  43
 16.000000000000
  44
 4.0000000000000
  45
0.0
  46
0.0
  47
0.0
  48
0.0
 140
 8.0000000000000
 141
 2.0000000000000
 142
0.0
 143
 0.39400000000000E-1
 144
 1.0000000000000
 145
0.0
 146
 0.62500000000000
 147
0.0
  71
0
  72
0
  73
0
  74
0
  75
0
  76
0
  77
1
  78
8
 170
0
 171
2
 172
1
 173
1
 174
0
 175
0
 176
3
 177
3
 178
7
 270
2
 271
1
 272
0
 273
2
 274
2
 340
F
 275
0
 280
0
 281
0
 282
0
 283
1
 284
0
 285
0
 286
0
 287
3
 288
1
   0
DIMSTYLE
 105
46
 100
AcDbSymbolTableRecord
 100
AcDbDimStyleTableRecord
   2
GMM008
  70
0
   3

   4

   5

   6
_OPEN
   7
_OPEN
  40
 1.0000000000000
  41
 6.0000000000000
  42
 2.0000000000000
  43
 0.10000000000000E-5
  44
 4.0000000000000
  45
0.0
  46
0.0
  47
0.0
  48
0.0
 140
 8.0000000000000
 141
 2.0000000000000
 142
0.0
 143
 0.39400000000000E-1
 144
 1.0000000000000
 145
0.0
 146
 0.62500000000000
 147
 1.6000061035156
  71
0
  72
0
  73
0
  74
0
  75
0
  76
1
  77
3
  78
0
 170
0
 171
2
 172
1
 173
1
 174
0
 175
0
 176
3
 177
3
 178
3
 270
2
 271
0
 272
0
 273
2
 274
2
 340
3E
 275
1
 280
0
 281
0
 282
0
 283
1
 284
0
 285
0
 286
0
 287
3
 288
1
   0
DIMSTYLE
 105
47
 100
AcDbSymbolTableRecord
 100
AcDbDimStyleTableRecord
   2
GMM009
  70
0
   3

   4

   5

   6
_OPEN
   7
_OPEN
  40
 1.0000000000000
  41
 6.0000000000000
  42
 2.0000000000000
  43
 16.000000000000
  44
 4.0000000000000
  45
0.0
  46
0.0
  47
0.0
  48
0.0
 140
 8.0000000000000
 141
 2.0000000000000
 142
0.0
 143
 0.39400000000000E-1
 144
 1.0000000000000
 145
0.0
 146
 0.62500000000000
 147
0.0
  71
0
  72
0
  73
0
  74
0
  75
0
  76
0
  77
1
  78
8
 170
0
 171
2
 172
1
 173
1
 174
0
 175
0
 176
3
 177
3
 178
7
 270
2
 271
1
 272
0
 273
2
 274
2
 340
F
 275
0
 280
0
 281
0
 282
0
 283
1
 284
0
 285
0
 286
0
 287
3
 288
1
   0
ENDTAB
  0
TABLE
  2
BLOCK_RECORD
  5
1
100
AcDbSymbolTable
 70
     0
  0
BLOCK_RECORD
  5
18
100
AcDbSymbolTableRecord
100
AcDbBlockTableRecord
  2
*MODEL_SPACE
  0
BLOCK_RECORD
  5
15
100
AcDbSymbolTableRecord
100
AcDbBlockTableRecord
  2
*PAPER_SPACE
   0
BLOCK_RECORD
   5
48
 100
AcDbSymbolTableRecord
 100
AcDbBlockTableRecord
   2
*D2
   0
BLOCK_RECORD
   5
49
 100
AcDbSymbolTableRecord
 100
AcDbBlockTableRecord
   2
*D3
   0
BLOCK_RECORD
   5
4A
 100
AcDbSymbolTableRecord
 100
AcDbBlockTableRecord
   2
*D4
   0
BLOCK_RECORD
   5
4B
 100
AcDbSymbolTableRecord
 100
AcDbBlockTableRecord
   2
*D5
   0
BLOCK_RECORD
   5
4C
 100
AcDbSymbolTableRecord
 100
AcDbBlockTableRecord
   2
*D6
   0
BLOCK_RECORD
   5
4D
 100
AcDbSymbolTableRecord
 100
AcDbBlockTableRecord
   2
*D7
   0
BLOCK_RECORD
   5
4E
 100
AcDbSymbolTableRecord
 100
AcDbBlockTableRecord
   2
*D8
   0
BLOCK_RECORD
   5
4F
 100
AcDbSymbolTableRecord
 100
AcDbBlockTableRecord
   2
*D9
   0
BLOCK_RECORD
   5
50
 100
AcDbSymbolTableRecord
 100
AcDbBlockTableRecord
   2
*D10
   0
BLOCK_RECORD
   5
51
 100
AcDbSymbolTableRecord
 100
AcDbBlockTableRecord
   2
*D12
   0
BLOCK_RECORD
   5
52
 100
AcDbSymbolTableRecord
 100
AcDbBlockTableRecord
   2
*D13
   0
BLOCK_RECORD
   5
53
 100
AcDbSymbolTableRecord
 100
AcDbBlockTableRecord
   2
_ARCHTICK
   0
BLOCK_RECORD
   5
54
 100
AcDbSymbolTableRecord
 100
AcDbBlockTableRecord
   2
_BOXBLANK
   0
BLOCK_RECORD
   5
55
 100
AcDbSymbolTableRecord
 100
AcDbBlockTableRecord
   2
_BOXFILLED
   0
BLOCK_RECORD
   5
56
 100
AcDbSymbolTableRecord
 100
AcDbBlockTableRecord
   2
_CLOSED
   0
BLOCK_RECORD
   5
57
 100
AcDbSymbolTableRecord
 100
AcDbBlockTableRecord
   2
_CLOSEDBLANK
   0
BLOCK_RECORD
   5
58
 100
AcDbSymbolTableRecord
 100
AcDbBlockTableRecord
   2
_DATUMBLANK
   0
BLOCK_RECORD
   5
59
 100
AcDbSymbolTableRecord
 100
AcDbBlockTableRecord
   2
_DATUMFILLED
   0
BLOCK_RECORD
   5
5A
 100
AcDbSymbolTableRecord
 100
AcDbBlockTableRecord
   2
_DOT
   0
BLOCK_RECORD
   5
5B
 100
AcDbSymbolTableRecord
 100
AcDbBlockTableRecord
   2
_DOTBLANK
   0
BLOCK_RECORD
   5
5C
 100
AcDbSymbolTableRecord
 100
AcDbBlockTableRecord
   2
_DOTSMALL
   0
BLOCK_RECORD
   5
5D
 100
AcDbSymbolTableRecord
 100
AcDbBlockTableRecord
   2
_INTEGRAL
   0
BLOCK_RECORD
   5
5E
 100
AcDbSymbolTableRecord
 100
AcDbBlockTableRecord
   2
_NONE
   0
BLOCK_RECORD
   5
5F
 100
AcDbSymbolTableRecord
 100
AcDbBlockTableRecord
   2
_OBLIQUE
   0
BLOCK_RECORD
   5
60
 100
AcDbSymbolTableRecord
 100
AcDbBlockTableRecord
   2
_OPEN
   0
BLOCK_RECORD
   5
61
 100
AcDbSymbolTableRecord
 100
AcDbBlockTableRecord
   2
_OPEN30
   0
BLOCK_RECORD
   5
62
 100
AcDbSymbolTableRecord
 100
AcDbBlockTableRecord
   2
_OPEN90
   0
BLOCK_RECORD
   5
63
 100
AcDbSymbolTableRecord
 100
AcDbBlockTableRecord
   2
_ORIGIN
   0
ENDTAB
   0
ENDSEC
  0
SECTION
  2
BLOCKS
  0
BLOCK
  5
19
100
AcDbEntity
  8
0
100
AcDbBlockBegin
  2
*MODEL_SPACE
 70
     0
 10
0.0
 20
0.0
 30
0.0
  3
*MODEL_SPACE
  1

  0
ENDBLK
  5
1A
100
AcDbEntity
  8
0
100
AcDbBlockEnd
  0
BLOCK
  5
16
100
AcDbEntity
 67
     1
  8
0
100
AcDbBlockBegin
  2
*PAPER_SPACE
 70
     0
 10
0.0
 20
0.0
 30
0.0
  3
*PAPER_SPACE
  1

  0
ENDBLK
  5
17
100
AcDbEntity
 67
     1
  8
0
100
AcDbBlockEnd
   0
BLOCK
   5
64
 100
AcDbEntity
   8
0
 100
AcDbBlockBegin
   2
_ARCHTICK
  70
0
  10
0.0
  20
0.0
  30
0.0
   3
_ARCHTICK
   0
POLYLINE
   5
65
 100
AcDbEntity
   8
0
   6
BYBLOCK
  62
0
 100
AcDb2dPolyline
  66
1
  10
0.0
  20
0.0
  30
0.0
  70
1
  40
 0.15000000000000
  41
 0.15000000000000
   0
VERTEX
   5
66
 100
AcDbEntity
   8
0
   6
BYBLOCK
  62
0
 100
AcDbVertex
 100
AcDb2dVertex
  10
-0.50000000000000
  20
-0.50000000000000
  30
0.0
  40
 0.15000000000000
  41
 0.15000000000000
   0
VERTEX
   5
67
 100
AcDbEntity
   8
0
   6
BYBLOCK
  62
0
 100
AcDbVertex
 100
AcDb2dVertex
  10
 0.50000000000000
  20
 0.50000000000000
  30
0.0
  40
 0.15000000000000
  41
 0.15000000000000
   0
SEQEND
   5
68
 100
AcDbEntity
   8
0
   6
BYBLOCK
  62
0
   0
ENDBLK
   5
69
 100
AcDbEntity
   8
0
 100
AcDbBlockEnd
   0
BLOCK
   5
6A
 100
AcDbEntity
   8
0
 100
AcDbBlockBegin
   2
_OBLIQUE
  70
0
  10
0.0
  20
0.0
  30
0.0
   3
_OBLIQUE
   0
LINE
   5
6B
 100
AcDbEntity
   8
0
 100
AcDbLine
   6
BYBLOCK
  62
0
  10
-0.50000000000000
  20
-0.50000000000000
  30
0.0
  11
 0.50000000000000
  21
 0.50000000000000
  31
0.0
   0
ENDBLK
   5
6C
 100
AcDbEntity
   8
0
 100
AcDbBlockEnd
   0
BLOCK
   5
6D
 100
AcDbEntity
   8
0
 100
AcDbBlockBegin
   2
_BOXBLANK
  70
0
  10
0.0
  20
0.0
  30
0.0
   3
_BOXBLANK
   0
LINE
   5
6E
 100
AcDbEntity
   8
0
 100
AcDbLine
   6
BYBLOCK
  62
0
  10
-0.50000000000000
  20
-0.50000000000000
  30
0.0
  11
 0.50000000000000
  21
-0.50000000000000
  31
0.0
   0
LINE
   5
6F
 100
AcDbEntity
   8
0
 100
AcDbLine
   6
BYBLOCK
  62
0
  10
 0.50000000000000
  20
-0.50000000000000
  30
0.0
  11
 0.50000000000000
  21
 0.50000000000000
  31
0.0
   0
LINE
   5
70
 100
AcDbEntity
   8
0
 100
AcDbLine
   6
BYBLOCK
  62
0
  10
 0.50000000000000
  20
 0.50000000000000
  30
0.0
  11
-0.50000000000000
  21
 0.50000000000000
  31
0.0
   0
LINE
   5
71
 100
AcDbEntity
   8
0
 100
AcDbLine
   6
BYBLOCK
  62
0
  10
-0.50000000000000
  20
 0.50000000000000
  30
0.0
  11
-0.50000000000000
  21
-0.50000000000000
  31
0.0
   0
LINE
   5
72
 100
AcDbEntity
   8
0
 100
AcDbLine
   6
BYBLOCK
  62
0
  10
-0.50000000000000
  20
0.0
  30
0.0
  11
-1.0000000000000
  21
0.0
  31
0.0
   0
ENDBLK
   5
73
 100
AcDbEntity
   8
0
 100
AcDbBlockEnd
   0
BLOCK
   5
74
 100
AcDbEntity
   8
0
 100
AcDbBlockBegin
   2
_BOXFILLED
  70
0
  10
0.0
  20
0.0
  30
0.0
   3
_BOXFILLED
   0
SOLID
   5
75
 100
AcDbEntity
   8
0
 100
AcDbTrace
   6
BYBLOCK
  62
0
  10
-0.50000000000000
  20
 0.50000000000000
  30
0.0
  11
 0.50000000000000
  21
 0.50000000000000
  31
0.0
  12
-0.50000000000000
  22
-0.50000000000000
  32
0.0
  13
 0.50000000000000
  23
-0.50000000000000
  33
0.0
   0
LINE
   5
76
 100
AcDbEntity
   8
0
 100
AcDbLine
   6
BYBLOCK
  62
0
  10
-0.50000000000000
  20
0.0
  30
0.0
  11
-1.0000000000000
  21
0.0
  31
0.0
   0
ENDBLK
   5
77
 100
AcDbEntity
   8
0
 100
AcDbBlockEnd
   0
BLOCK
   5
78
 100
AcDbEntity
   8
0
 100
AcDbBlockBegin
   2
_CLOSED
  70
0
  10
0.0
  20
0.0
  30
0.0
   3
_CLOSED
   0
LINE
   5
79
 100
AcDbEntity
   8
0
 100
AcDbLine
   6
BYBLOCK
  62
0
  10
-1.0000000000000
  20
 0.16666666666667
  30
0.0
  11
0.0
  21
0.0
  31
0.0
   0
LINE
   5
7A
 100
AcDbEntity
   8
0
 100
AcDbLine
   6
BYBLOCK
  62
0
  10
0.0
  20
0.0
  30
0.0
  11
-1.0000000000000
  21
-0.16666666666667
  31
0.0
   0
LINE
   5
7B
 100
AcDbEntity
   8
0
 100
AcDbLine
   6
BYBLOCK
  62
0
  10
-1.0000000000000
  20
 0.16666666666667
  30
0.0
  11
-1.0000000000000
  21
-0.16666666666667
  31
0.0
   0
LINE
   5
7C
 100
AcDbEntity
   8
0
 100
AcDbLine
   6
BYBLOCK
  62
0
  10
0.0
  20
0.0
  30
0.0
  11
-1.0000000000000
  21
0.0
  31
0.0
   0
ENDBLK
   5
7D
 100
AcDbEntity
   8
0
 100
AcDbBlockEnd
   0
BLOCK
   5
7E
 100
AcDbEntity
   8
0
 100
AcDbBlockBegin
   2
_OPEN
  70
0
  10
0.0
  20
0.0
  30
0.0
   3
_OPEN
   0
LINE
   5
7F
 100
AcDbEntity
   8
0
 100
AcDbLine
   6
BYBLOCK
  62
0
  10
-1.0000000000000
  20
 0.16666666666667
  30
0.0
  11
0.0
  21
0.0
  31
0.0
   0
LINE
   5
80
 100
AcDbEntity
   8
0
 100
AcDbLine
   6
BYBLOCK
  62
0
  10
0.0
  20
0.0
  30
0.0
  11
-1.0000000000000
  21
-0.16666666666667
  31
0.0
   0
LINE
   5
81
 100
AcDbEntity
   8
0
 100
AcDbLine
   6
BYBLOCK
  62
0
  10
0.0
  20
0.0
  30
0.0
  11
-1.0000000000000
  21
0.0
  31
0.0
   0
ENDBLK
   5
82
 100
AcDbEntity
   8
0
 100
AcDbBlockEnd
   0
BLOCK
   5
83
 100
AcDbEntity
   8
0
 100
AcDbBlockBegin
   2
_OPEN30
  70
0
  10
0.0
  20
0.0
  30
0.0
   3
_OPEN30
   0
LINE
   5
84
 100
AcDbEntity
   8
0
 100
AcDbLine
   6
BYBLOCK
  62
0
  10
-1.0000000000000
  20
 0.26794919243110
  30
0.0
  11
0.0
  21
0.0
  31
0.0
   0
LINE
   5
85
 100
AcDbEntity
   8
0
 100
AcDbLine
   6
BYBLOCK
  62
0
  10
0.0
  20
0.0
  30
0.0
  11
-1.0000000000000
  21
-0.26794919243110
  31
0.0
   0
LINE
   5
86
 100
AcDbEntity
   8
0
 100
AcDbLine
   6
BYBLOCK
  62
0
  10
0.0
  20
0.0
  30
0.0
  11
-1.0000000000000
  21
0.0
  31
0.0
   0
ENDBLK
   5
87
 100
AcDbEntity
   8
0
 100
AcDbBlockEnd
   0
BLOCK
   5
88
 100
AcDbEntity
   8
0
 100
AcDbBlockBegin
   2
_OPEN90
  70
0
  10
0.0
  20
0.0
  30
0.0
   3
_OPEN90
   0
LINE
   5
89
 100
AcDbEntity
   8
0
 100
AcDbLine
   6
BYBLOCK
  62
0
  10
-0.50000000000000
  20
 0.50000000000000
  30
0.0
  11
0.0
  21
0.0
  31
0.0
   0
LINE
   5
8A
 100
AcDbEntity
   8
0
 100
AcDbLine
   6
BYBLOCK
  62
0
  10
0.0
  20
0.0
  30
0.0
  11
-0.50000000000000
  21
-0.50000000000000
  31
0.0
   0
LINE
   5
8B
 100
AcDbEntity
   8
0
 100
AcDbLine
   6
BYBLOCK
  62
0
  10
0.0
  20
0.0
  30
0.0
  11
-1.0000000000000
  21
0.0
  31
0.0
   0
ENDBLK
   5
8C
 100
AcDbEntity
   8
0
 100
AcDbBlockEnd
   0
BLOCK
   5
8D
 100
AcDbEntity
   8
0
 100
AcDbBlockBegin
   2
_CLOSEDBLANK
  70
0
  10
0.0
  20
0.0
  30
0.0
   3
_CLOSEDBLANK
   0
LINE
   5
8E
 100
AcDbEntity
   8
0
 100
AcDbLine
   6
BYBLOCK
  62
0
  10
-1.0000000000000
  20
 0.16666666666667
  30
0.0
  11
0.0
  21
0.0
  31
0.0
   0
LINE
   5
8F
 100
AcDbEntity
   8
0
 100
AcDbLine
   6
BYBLOCK
  62
0
  10
0.0
  20
0.0
  30
0.0
  11
-1.0000000000000
  21
-0.16666666666667
  31
0.0
   0
LINE
   5
90
 100
AcDbEntity
   8
0
 100
AcDbLine
   6
BYBLOCK
  62
0
  10
-1.0000000000000
  20
 0.16666666666667
  30
0.0
  11
-1.0000000000000
  21
-0.16666666666667
  31
0.0
   0
ENDBLK
   5
91
 100
AcDbEntity
   8
0
 100
AcDbBlockEnd
   0
BLOCK
   5
92
 100
AcDbEntity
   8
0
 100
AcDbBlockBegin
   2
_DOT
  70
0
  10
0.0
  20
0.0
  30
0.0
   3
_DOT
   0
POLYLINE
   5
93
 100
AcDbEntity
   8
0
   6
BYBLOCK
  62
0
 100
AcDb2dPolyline
  66
1
  10
0.0
  20
0.0
  30
0.0
  70
1
  40
 0.50000000000000
  41
 0.50000000000000
   0
VERTEX
   5
94
 100
AcDbEntity
   8
0
   6
BYBLOCK
  62
0
 100
AcDbVertex
 100
AcDb2dVertex
  10
-0.25000000000000
  20
0.0
  30
0.0
  42
 1.0000000000000
  40
 0.50000000000000
  41
 0.50000000000000
   0
VERTEX
   5
95
 100
AcDbEntity
   8
0
   6
BYBLOCK
  62
0
 100
AcDbVertex
 100
AcDb2dVertex
  10
 0.25000000000000
  20
0.0
  30
0.0
  42
 1.0000000000000
  40
 0.50000000000000
  41
 0.50000000000000
   0
SEQEND
   5
96
 100
AcDbEntity
   8
0
   6
BYBLOCK
  62
0
   0
LINE
   5
97
 100
AcDbEntity
   8
0
 100
AcDbLine
   6
BYBLOCK
  62
0
  10
-0.50000000000000
  20
0.0
  30
0.0
  11
-1.0000000000000
  21
0.0
  31
0.0
   0
ENDBLK
   5
98
 100
AcDbEntity
   8
0
 100
AcDbBlockEnd
   0
BLOCK
   5
99
 100
AcDbEntity
   8
0
 100
AcDbBlockBegin
   2
_DOTSMALL
  70
0
  10
0.0
  20
0.0
  30
0.0
   3
_DOTSMALL
   0
POLYLINE
   5
9A
 100
AcDbEntity
   8
0
   6
BYBLOCK
  62
0
 100
AcDb2dPolyline
  66
1
  10
0.0
  20
0.0
  30
0.0
  70
1
  40
 0.50000000000000
  41
 0.50000000000000
   0
VERTEX
   5
9B
 100
AcDbEntity
   8
0
   6
BYBLOCK
  62
0
 100
AcDbVertex
 100
AcDb2dVertex
  10
-0.62500000000000E-1
  20
0.0
  30
0.0
  42
 1.0000000000000
  40
 0.50000000000000
  41
 0.50000000000000
   0
VERTEX
   5
9C
 100
AcDbEntity
   8
0
   6
BYBLOCK
  62
0
 100
AcDbVertex
 100
AcDb2dVertex
  10
 0.62500000000000E-1
  20
0.0
  30
0.0
  42
 1.0000000000000
  40
 0.50000000000000
  41
 0.50000000000000
   0
SEQEND
   5
9D
 100
AcDbEntity
   8
0
   6
BYBLOCK
  62
0
   0
ENDBLK
   5
9E
 100
AcDbEntity
   8
0
 100
AcDbBlockEnd
   0
BLOCK
   5
9F
 100
AcDbEntity
   8
0
 100
AcDbBlockBegin
   2
_DATUMBLANK
  70
0
  10
0.0
  20
0.0
  30
0.0
   3
_DATUMBLANK
   0
LINE
   5
A0
 100
AcDbEntity
   8
0
 100
AcDbLine
   6
BYBLOCK
  62
0
  10
0.0
  20
 0.57735027000000
  30
0.0
  11
-1.0000000000000
  21
0.0
  31
0.0
   0
LINE
   5
A1
 100
AcDbEntity
   8
0
 100
AcDbLine
   6
BYBLOCK
  62
0
  10
-1.0000000000000
  20
0.0
  30
0.0
  11
0.0
  21
-0.57735027000000
  31
0.0
   0
LINE
   5
A2
 100
AcDbEntity
   8
0
 100
AcDbLine
   6
BYBLOCK
  62
0
  10
0.0
  20
-0.57735027000000
  30
0.0
  11
0.0
  21
 0.57735027000000
  31
0.0
   0
ENDBLK
   5
A3
 100
AcDbEntity
   8
0
 100
AcDbBlockEnd
   0
BLOCK
   5
A4
 100
AcDbEntity
   8
0
 100
AcDbBlockBegin
   2
_DATUMFILLED
  70
0
  10
0.0
  20
0.0
  30
0.0
   3
_DATUMFILLED
   0
SOLID
   5
A5
 100
AcDbEntity
   8
0
 100
AcDbTrace
   6
BYBLOCK
  62
0
  10
0.0
  20
 0.57735027000000
  30
0.0
  11
-1.0000000000000
  21
0.0
  31
0.0
  12
0.0
  22
-0.57735027000000
  32
0.0
  13
0.0
  23
-0.57735027000000
  33
0.0
   0
ENDBLK
   5
A6
 100
AcDbEntity
   8
0
 100
AcDbBlockEnd
   0
BLOCK
   5
A7
 100
AcDbEntity
   8
0
 100
AcDbBlockBegin
   2
_ORIGIN
  70
0
  10
0.0
  20
0.0
  30
0.0
   3
_ORIGIN
   0
CIRCLE
   5
A8
 100
AcDbEntity
   8
0
 100
AcDbCircle
   6
BYBLOCK
  62
0
  10
0.0
  20
0.0
  30
0.0
  40
 0.50000000000000
   0
LINE
   5
A9
 100
AcDbEntity
   8
0
 100
AcDbLine
   6
BYBLOCK
  62
0
  10
0.0
  20
0.0
  30
0.0
  11
-1.0000000000000
  21
0.0
  31
0.0
   0
ENDBLK
   5
AA
 100
AcDbEntity
   8
0
 100
AcDbBlockEnd
   0
BLOCK
   5
AB
 100
AcDbEntity
   8
0
 100
AcDbBlockBegin
   2
_NONE
  70
0
  10
0.0
  20
0.0
  30
0.0
   3
_NONE
   0
CIRCLE
   5
AC
 100
AcDbEntity
   8
0
 100
AcDbCircle
   6
BYBLOCK
  62
0
  10
0.0
  20
0.0
  30
0.0
  40
 0.25000000000000
   0
ENDBLK
   5
AD
 100
AcDbEntity
   8
0
 100
AcDbBlockEnd
   0
BLOCK
   5
AE
 100
AcDbEntity
   8
0
 100
AcDbBlockBegin
   2
_DOTBLANK
  70
0
  10
0.0
  20
0.0
  30
0.0
   3
_DOTBLANK
   0
CIRCLE
   5
AF
 100
AcDbEntity
   8
0
 100
AcDbCircle
   6
BYBLOCK
  62
0
  10
0.0
  20
0.0
  30
0.0
  40
 0.50000000000000
   0
LINE
   5
B0
 100
AcDbEntity
   8
0
 100
AcDbLine
   6
BYBLOCK
  62
0
  10
-0.50000000000000
  20
0.0
  30
0.0
  11
-1.0000000000000
  21
0.0
  31
0.0
   0
ENDBLK
   5
B1
 100
AcDbEntity
   8
0
 100
AcDbBlockEnd
   0
BLOCK
   5
B2
 100
AcDbEntity
   8
0
 100
AcDbBlockBegin
   2
_INTEGRAL
  70
0
  10
0.0
  20
0.0
  30
0.0
   3
_INTEGRAL
   0
ARC
   5
B3
 100
AcDbEntity
   8
0
   6
BYBLOCK
  62
0
 100
AcDbCircle
  10
 0.44488800000000
  20
-0.91335000000000E-1
  30
0.0
  40
 0.45416700000000
 100
AcDbArc
  50
 102.00000000000
  51
 168.00000000000
   0
ARC
   5
B4
 100
AcDbEntity
   8
0
   6
BYBLOCK
  62
0
 100
AcDbCircle
  10
-0.44488800000000
  20
 0.91335000000000E-1
  30
0.0
  40
 0.45416700000000
 100
AcDbArc
  50
 282.00000000000
  51
 348.00000000000
   0
ENDBLK
   5
B5
 100
AcDbEntity
   8
0
 100
AcDbBlockEnd
   0
BLOCK
   5
B6
 100
AcDbEntity
   8
0
 100
AcDbBlockBegin
   2
*D2
  70
65
  10
0.0
  20
0.0
  30
0.0
   3
*D2
   0
LINE
   5
B7
 100
AcDbEntity
   8
LEVEL003
 100
AcDbLine
   6
CONTINUOUS
  62
3
  10
 210.00000000000
  20
 150.00000000000
  30
0.0
  11
 284.33750807818
  21
 150.00000000000
  31
0.0
   0
LINE
   5
B8
 100
AcDbEntity
   8
LEVEL003
 100
AcDbLine
   6
CONTINUOUS
  62
3
  10
 390.00000000000
  20
 150.00000000000
  30
0.0
  11
 315.66250807818
  21
 150.00000000000
  31
0.0
   0
INSERT
   5
B9
 100
AcDbEntity
   8
LEVEL003
   6
CONTINUOUS
  62
3
 100
AcDbBlockReference
   2
_OPEN
  10
 210.00000000000
  20
 150.00000000000
  30
0.0
  41
 6.0000000000000
  42
 6.0000000000000
  43
 6.0000000000000
  50
 180.00000000000
   0
INSERT
   5
BA
 100
AcDbEntity
   8
LEVEL003
   6
CONTINUOUS
  62
3
 100
AcDbBlockReference
   2
_OPEN
  10
 390.00000000000
  20
 150.00000000000
  30
0.0
  41
 6.0000000000000
  42
 6.0000000000000
  43
 6.0000000000000
  50
0.0
   0
MTEXT
   5
BB
 100
AcDbEntity
   8
LEVEL003
  62
3
 100
AcDbMText
  10
 300.00000807818
  20
 151.60000610352
  30
0.0
  40
 8.0000000000000
  41
0.0
  71
8
  72
1
   1
\A1;%%c180
   7
GMM001
   0
ENDBLK
   5
BC
 100
AcDbEntity
   8
0
 100
AcDbBlockEnd
   0
BLOCK
   5
BD
 100
AcDbEntity
   8
0
 100
AcDbBlockBegin
   2
*D3
  70
65
  10
0.0
  20
0.0
  30
0.0
   3
*D3
   0
LINE
   5
BE
 100
AcDbEntity
   8
LEVEL003
 100
AcDbLine
   6
CONTINUOUS
  62
3
  10
 232.50000000000
  20
 170.00000000000
  30
0.0
  11
 283.63750000000
  21
 170.00000000000
  31
0.0
   0
LINE
   5
BF
 100
AcDbEntity
   8
LEVEL003
 100
AcDbLine
   6
CONTINUOUS
  62
3
  10
 367.50000000000
  20
 170.00000000000
  30
0.0
  11
 316.36250000000
  21
 170.00000000000
  31
0.0
   0
INSERT
   5
C0
 100
AcDbEntity
   8
LEVEL003
   6
CONTINUOUS
  62
3
 100
AcDbBlockReference
   2
_OPEN
  10
 232.50000000000
  20
 170.00000000000
  30
0.0
  41
 6.0000000000000
  42
 6.0000000000000
  43
 6.0000000000000
  50
 180.00000000000
   0
INSERT
   5
C1
 100
AcDbEntity
   8
LEVEL003
   6
CONTINUOUS
  62
3
 100
AcDbBlockReference
   2
_OPEN
  10
 367.50000000000
  20
 170.00000000000
  30
0.0
  41
 6.0000000000000
  42
 6.0000000000000
  43
 6.0000000000000
  50
0.0
   0
MTEXT
   5
C2
 100
AcDbEntity
   8
LEVEL003
  62
3
 100
AcDbMText
  10
 300.00000000000
  20
 171.60000000000
  30
0.0
  40
 8.0000000000000
  41
0.0
  71
8
  72
1
   1
\A1;%%c135
   7
GMM001
   0
ENDBLK
   5
C3
 100
AcDbEntity
   8
0
 100
AcDbBlockEnd
   0
BLOCK
   5
C4
 100
AcDbEntity
   8
0
 100
AcDbBlockBegin
   2
*D4
  70
65
  10
0.0
  20
0.0
  30
0.0
   3
*D4
   0
LINE
   5
C5
 100
AcDbEntity
   8
LEVEL003
 100
AcDbLine
   6
CONTINUOUS
  62
3
  10
 252.50001157563
  20
 190.00000000000
  30
0.0
  11
 286.35000578782
  21
 190.00000000000
  31
0.0
   0
LINE
   5
C6
 100
AcDbEntity
   8
LEVEL003
 100
AcDbLine
   6
CONTINUOUS
  62
3
  10
 347.50000000000
  20
 190.00000000000
  30
0.0
  11
 313.65000578782
  21
 190.00000000000
  31
0.0
   0
INSERT
   5
C7
 100
AcDbEntity
   8
LEVEL003
   6
CONTINUOUS
  62
3
 100
AcDbBlockReference
   2
_OPEN
  10
 252.50001157563
  20
 190.00000000000
  30
0.0
  41
 6.0000000000000
  42
 6.0000000000000
  43
 6.0000000000000
  50
 180.00000000000
   0
INSERT
   5
C8
 100
AcDbEntity
   8
LEVEL003
   6
CONTINUOUS
  62
3
 100
AcDbBlockReference
   2
_OPEN
  10
 347.50000000000
  20
 190.00000000000
  30
0.0
  41
 6.0000000000000
  42
 6.0000000000000
  43
 6.0000000000000
  50
0.0
   0
MTEXT
   5
C9
 100
AcDbEntity
   8
LEVEL003
  62
3
 100
AcDbMText
  10
 300.00000578782
  20
 191.60000000000
  30
0.0
  40
 8.0000000000000
  41
0.0
  71
8
  72
1
   1
\A1;%%c95
   7
GMM001
   0
ENDBLK
   5
CA
 100
AcDbEntity
   8
0
 100
AcDbBlockEnd
   0
BLOCK
   5
CB
 100
AcDbEntity
   8
0
 100
AcDbBlockBegin
   2
*D5
  70
65
  10
0.0
  20
0.0
  30
0.0
   3
*D5
   0
LINE
   5
CC
 100
AcDbEntity
   8
LEVEL003
 100
AcDbLine
   6
CONTINUOUS
  62
3
  10
 389.00000000000
  20
 60.000000000000
  30
0.0
  11
 484.00000000000
  21
 60.000000000000
  31
0.0
   0
LINE
   5
CD
 100
AcDbEntity
   8
LEVEL003
 100
AcDbLine
   6
CONTINUOUS
  62
3
  10
 480.00000000000
  20
 60.000000000000
  30
0.0
  11
 480.00000000000
  21
 77.650000000000
  31
0.0
   0
LINE
   5
CE
 100
AcDbEntity
   8
LEVEL003
 100
AcDbLine
   6
CONTINUOUS
  62
3
  10
 480.00000000000
  20
 110.00000000000
  30
0.0
  11
 480.00000000000
  21
 92.350000000000
  31
0.0
   0
INSERT
   5
CF
 100
AcDbEntity
   8
LEVEL003
   6
CONTINUOUS
  62
3
 100
AcDbBlockReference
   2
_OPEN
  10
 480.00000000000
  20
 60.000000000000
  30
0.0
  41
 6.0000000000000
  42
 6.0000000000000
  43
 6.0000000000000
  50
 270.00000000000
   0
INSERT
   5
D0
 100
AcDbEntity
   8
LEVEL003
   6
CONTINUOUS
  62
3
 100
AcDbBlockReference
   2
_OPEN
  10
 480.00000000000
  20
 110.00000000000
  30
0.0
  41
 6.0000000000000
  42
 6.0000000000000
  43
 6.0000000000000
  50
 90.000000000000
   0
MTEXT
   5
D1
 100
AcDbEntity
   8
LEVEL003
  62
3
 100
AcDbMText
  10
 478.39999389648
  20
 85.000000000000
  30
0.0
  40
 8.0000000000000
  41
0.0
  71
8
  72
1
   1
\A1;50
   7
GMM001
  11
0.0
  21
 1.0000000000000
  31
0.0
   0
ENDBLK
   5
D2
 100
AcDbEntity
   8
0
 100
AcDbBlockEnd
   0
BLOCK
   5
D3
 100
AcDbEntity
   8
0
 100
AcDbBlockBegin
   2
*D6
  70
65
  10
0.0
  20
0.0
  30
0.0
   3
*D6
   0
LINE
   5
D4
 100
AcDbEntity
   8
LEVEL003
 100
AcDbLine
   6
CONTINUOUS
  62
3
  10
 457.00000000000
  20
 110.00000000000
  30
0.0
  11
 484.00000000000
  21
 110.00000000000
  31
0.0
   0
LINE
   5
D5
 100
AcDbEntity
   8
LEVEL003
 100
AcDbLine
   6
CONTINUOUS
  62
3
  10
 457.00000000000
  20
 325.00000000000
  30
0.0
  11
 484.00000000000
  21
 325.00000000000
  31
0.0
   0
LINE
   5
D6
 100
AcDbEntity
   8
LEVEL003
 100
AcDbLine
   6
CONTINUOUS
  62
3
  10
 480.00000000000
  20
 110.00000000000
  30
0.0
  11
 480.00000000000
  21
 206.73750000000
  31
0.0
   0
LINE
   5
D7
 100
AcDbEntity
   8
LEVEL003
 100
AcDbLine
   6
CONTINUOUS
  62
3
  10
 480.00000000000
  20
 325.00000000000
  30
0.0
  11
 480.00000000000
  21
 228.26250000000
  31
0.0
   0
INSERT
   5
D8
 100
AcDbEntity
   8
LEVEL003
   6
CONTINUOUS
  62
3
 100
AcDbBlockReference
   2
_OPEN
  10
 480.00000000000
  20
 110.00000000000
  30
0.0
  41
 6.0000000000000
  42
 6.0000000000000
  43
 6.0000000000000
  50
 270.00000000000
   0
INSERT
   5
D9
 100
AcDbEntity
   8
LEVEL003
   6
CONTINUOUS
  62
3
 100
AcDbBlockReference
   2
_OPEN
  10
 480.00000000000
  20
 325.00000000000
  30
0.0
  41
 6.0000000000000
  42
 6.0000000000000
  43
 6.0000000000000
  50
 90.000000000000
   0
MTEXT
   5
DA
 100
AcDbEntity
   8
LEVEL003
  62
3
 100
AcDbMText
  10
 478.39999389648
  20
 217.50000000000
  30
0.0
  40
 8.0000000000000
  41
0.0
  71
8
  72
1
   1
\A1;215
   7
GMM001
  11
0.0
  21
 1.0000000000000
  31
0.0
   0
ENDBLK
   5
DB
 100
AcDbEntity
   8
0
 100
AcDbBlockEnd
   0
BLOCK
   5
DC
 100
AcDbEntity
   8
0
 100
AcDbBlockBegin
   2
*D7
  70
65
  10
0.0
  20
0.0
  30
0.0
   3
*D7
   0
LINE
   5
DD
 100
AcDbEntity
   8
LEVEL003
 100
AcDbLine
   6
CONTINUOUS
  62
3
  10
 244.99998474121
  20
 522.00000000000
  30
0.0
  11
 244.99998474121
  21
 548.00000000000
  31
0.0
   0
LINE
   5
DE
 100
AcDbEntity
   8
LEVEL003
 100
AcDbLine
   6
CONTINUOUS
  62
3
  10
 354.99996948242
  20
 522.00000000000
  30
0.0
  11
 354.99996948242
  21
 548.00000000000
  31
0.0
   0
LINE
   5
DF
 100
AcDbEntity
   8
LEVEL003
 100
AcDbLine
   6
CONTINUOUS
  62
3
  10
 244.99998474121
  20
 544.00000000000
  30
0.0
  11
 285.64996948242
  21
 544.00000000000
  31
0.0
   0
LINE
   5
E0
 100
AcDbEntity
   8
LEVEL003
 100
AcDbLine
   6
CONTINUOUS
  62
3
  10
 354.99996948242
  20
 544.00000000000
  30
0.0
  11
 314.34996948242
  21
 544.00000000000
  31
0.0
   0
INSERT
   5
E1
 100
AcDbEntity
   8
LEVEL003
   6
CONTINUOUS
  62
3
 100
AcDbBlockReference
   2
_OPEN
  10
 244.99998474121
  20
 544.00000000000
  30
0.0
  41
 6.0000000000000
  42
 6.0000000000000
  43
 6.0000000000000
  50
 180.00000000000
   0
INSERT
   5
E2
 100
AcDbEntity
   8
LEVEL003
   6
CONTINUOUS
  62
3
 100
AcDbBlockReference
   2
_OPEN
  10
 354.99996948242
  20
 544.00000000000
  30
0.0
  41
 6.0000000000000
  42
 6.0000000000000
  43
 6.0000000000000
  50
0.0
   0
MTEXT
   5
E3
 100
AcDbEntity
   8
LEVEL003
  62
3
 100
AcDbMText
  10
 299.99996948242
  20
 545.60000610352
  30
0.0
  40
 8.0000000000000
  41
0.0
  71
8
  72
1
   1
\A1;%%c110
   7
GMM001
   0
ENDBLK
   5
E4
 100
AcDbEntity
   8
0
 100
AcDbBlockEnd
   0
BLOCK
   5
E5
 100
AcDbEntity
   8
0
 100
AcDbBlockBegin
   2
*D8
  70
65
  10
0.0
  20
0.0
  30
0.0
   3
*D8
   0
LINE
   5
E6
 100
AcDbEntity
   8
LEVEL003
 100
AcDbLine
   6
CONTINUOUS
  62
3
  10
 244.99998474121
  20
 522.00000000000
  30
0.0
  11
 156.00000000000
  21
 522.00000000000
  31
0.0
   0
LINE
   5
E7
 100
AcDbEntity
   8
LEVEL003
 100
AcDbLine
   6
CONTINUOUS
  62
3
  10
 208.00000000000
  20
 384.00000000000
  30
0.0
  11
 156.00000000000
  21
 384.00000000000
  31
0.0
   0
LINE
   5
E8
 100
AcDbEntity
   8
LEVEL003
 100
AcDbLine
   6
CONTINUOUS
  62
3
  10
 160.00000000000
  20
 522.00000000000
  30
0.0
  11
 160.00000000000
  21
 463.76250000000
  31
0.0
   0
LINE
   5
E9
 100
AcDbEntity
   8
LEVEL003
 100
AcDbLine
   6
CONTINUOUS
  62
3
  10
 160.00000000000
  20
 384.00000000000
  30
0.0
  11
 160.00000000000
  21
 442.23750000000
  31
0.0
   0
INSERT
   5
EA
 100
AcDbEntity
   8
LEVEL003
   6
CONTINUOUS
  62
3
 100
AcDbBlockReference
   2
_OPEN
  10
 160.00000000000
  20
 522.00000000000
  30
0.0
  41
 6.0000000000000
  42
 6.0000000000000
  43
 6.0000000000000
  50
 90.000000000000
   0
INSERT
   5
EB
 100
AcDbEntity
   8
LEVEL003
   6
CONTINUOUS
  62
3
 100
AcDbBlockReference
   2
_OPEN
  10
 160.00000000000
  20
 384.00000000000
  30
0.0
  41
 6.0000000000000
  42
 6.0000000000000
  43
 6.0000000000000
  50
 270.00000000000
   0
MTEXT
   5
EC
 100
AcDbEntity
   8
LEVEL003
  62
3
 100
AcDbMText
  10
 158.39999389648
  20
 453.00000000000
  30
0.0
  40
 8.0000000000000
  41
0.0
  71
8
  72
1
   1
\A1;138
   7
GMM001
  11
0.0
  21
 1.0000000000000
  31
0.0
   0
ENDBLK
   5
ED
 100
AcDbEntity
   8
0
 100
AcDbBlockEnd
   0
BLOCK
   5
EE
 100
AcDbEntity
   8
0
 100
AcDbBlockBegin
   2
*D9
  70
65
  10
0.0
  20
0.0
  30
0.0
   3
*D9
   0
LINE
   5
EF
 100
AcDbEntity
   8
LEVEL003
 100
AcDbLine
   6
CONTINUOUS
  62
3
  10
 211.50000000000
  20
 454.00000000000
  30
0.0
  11
 176.00000000000
  21
 454.00000000000
  31
0.0
   0
LINE
   5
F0
 100
AcDbEntity
   8
LEVEL003
 100
AcDbLine
   6
CONTINUOUS
  62
3
  10
 208.00000000000
  20
 384.00000000000
  30
0.0
  11
 176.00000000000
  21
 384.00000000000
  31
0.0
   0
LINE
   5
F1
 100
AcDbEntity
   8
LEVEL003
 100
AcDbLine
   6
CONTINUOUS
  62
3
  10
 180.00000000000
  20
 454.00000000000
  30
0.0
  11
 180.00000000000
  21
 426.35000000000
  31
0.0
   0
LINE
   5
F2
 100
AcDbEntity
   8
LEVEL003
 100
AcDbLine
   6
CONTINUOUS
  62
3
  10
 180.00000000000
  20
 384.00000000000
  30
0.0
  11
 180.00000000000
  21
 411.65000000000
  31
0.0
   0
INSERT
   5
F3
 100
AcDbEntity
   8
LEVEL003
   6
CONTINUOUS
  62
3
 100
AcDbBlockReference
   2
_OPEN
  10
 180.00000000000
  20
 454.00000000000
  30
0.0
  41
 6.0000000000000
  42
 6.0000000000000
  43
 6.0000000000000
  50
 90.000000000000
   0
INSERT
   5
F4
 100
AcDbEntity
   8
LEVEL003
   6
CONTINUOUS
  62
3
 100
AcDbBlockReference
   2
_OPEN
  10
 180.00000000000
  20
 384.00000000000
  30
0.0
  41
 6.0000000000000
  42
 6.0000000000000
  43
 6.0000000000000
  50
 270.00000000000
   0
MTEXT
   5
F5
 100
AcDbEntity
   8
LEVEL003
  62
3
 100
AcDbMText
  10
 178.39999389648
  20
 419.00000000000
  30
0.0
  40
 8.0000000000000
  41
0.0
  71
8
  72
1
   1
\A1;70
   7
GMM001
  11
0.0
  21
 1.0000000000000
  31
0.0
   0
ENDBLK
   5
F6
 100
AcDbEntity
   8
0
 100
AcDbBlockEnd
   0
BLOCK
   5
F7
 100
AcDbEntity
   8
0
 100
AcDbBlockBegin
   2
*D10
  70
65
  10
0.0
  20
0.0
  30
0.0
   3
*D10
   0
LINE
   5
F8
 100
AcDbEntity
   8
LEVEL003
 100
AcDbLine
   6
CONTINUOUS
  62
3
  10
 244.99998474121
  20
 522.00000000000
  30
0.0
  11
 136.00000000000
  21
 522.00000000000
  31
0.0
   0
LINE
   5
F9
 100
AcDbEntity
   8
LEVEL003
 100
AcDbLine
   6
CONTINUOUS
  62
3
  10
 211.00001525879
  20
 60.000000000000
  30
0.0
  11
 136.00000000000
  21
 60.000000000000
  31
0.0
   0
LINE
   5
FA
 100
AcDbEntity
   8
LEVEL003
 100
AcDbLine
   6
CONTINUOUS
  62
3
  10
 140.00000000000
  20
 522.00000000000
  30
0.0
  11
 140.00000000000
  21
 303.07500000000
  31
0.0
   0
LINE
   5
FB
 100
AcDbEntity
   8
LEVEL003
 100
AcDbLine
   6
CONTINUOUS
  62
3
  10
 140.00000000000
  20
 60.000000000000
  30
0.0
  11
 140.00000000000
  21
 278.92500000000
  31
0.0
   0
INSERT
   5
FC
 100
AcDbEntity
   8
LEVEL003
   6
CONTINUOUS
  62
3
 100
AcDbBlockReference
   2
_OPEN
  10
 140.00000000000
  20
 522.00000000000
  30
0.0
  41
 6.0000000000000
  42
 6.0000000000000
  43
 6.0000000000000
  50
 90.000000000000
   0
INSERT
   5
FD
 100
AcDbEntity
   8
LEVEL003
   6
CONTINUOUS
  62
3
 100
AcDbBlockReference
   2
_OPEN
  10
 140.00000000000
  20
 60.000000000000
  30
0.0
  41
 6.0000000000000
  42
 6.0000000000000
  43
 6.0000000000000
  50
 270.00000000000
   0
MTEXT
   5
FE
 100
AcDbEntity
   8
LEVEL003
  62
3
 100
AcDbMText
  10
 138.39999389648
  20
 291.00000000000
  30
0.0
  40
 8.0000000000000
  41
0.0
  71
8
  72
1
   1
\A1;462
   7
GMM001
  11
0.0
  21
 1.0000000000000
  31
0.0
   0
ENDBLK
   5
FF
 100
AcDbEntity
   8
0
 100
AcDbBlockEnd
   0
BLOCK
   5
100
 100
AcDbEntity
   8
0
 100
AcDbBlockBegin
   2
*D12
  70
65
  10
0.0
  20
0.0
  30
0.0
   3
*D12
   0
LINE
   5
101
 100
AcDbEntity
   8
LEVEL003
 100
AcDbLine
   6
CONTINUOUS
  62
3
  10
 244.99998474121
  20
 522.00000000000
  30
0.0
  11
 176.00000000000
  21
 522.00000000000
  31
0.0
   0
LINE
   5
102
 100
AcDbEntity
   8
LEVEL003
 100
AcDbLine
   6
CONTINUOUS
  62
3
  10
 180.00000000000
  20
 522.00000000000
  30
0.0
  11
 180.00000000000
  21
 521.23750000000
  31
0.0
   0
LINE
   5
103
 100
AcDbEntity
   8
LEVEL003
 100
AcDbLine
   6
CONTINUOUS
  62
3
  10
 180.00000000000
  20
 507.00000000000
  30
0.0
  11
 180.00000000000
  21
 507.76250000000
  31
0.0
   0
INSERT
   5
104
 100
AcDbEntity
   8
LEVEL003
   6
CONTINUOUS
  62
3
 100
AcDbBlockReference
   2
_OPEN
  10
 180.00000000000
  20
 522.00000000000
  30
0.0
  41
 6.0000000000000
  42
 6.0000000000000
  43
 6.0000000000000
  50
 90.000000000000
   0
INSERT
   5
105
 100
AcDbEntity
   8
LEVEL003
   6
CONTINUOUS
  62
3
 100
AcDbBlockReference
   2
_OPEN
  10
 180.00000000000
  20
 507.00000000000
  30
0.0
  41
 6.0000000000000
  42
 6.0000000000000
  43
 6.0000000000000
  50
 270.00000000000
   0
MTEXT
   5
106
 100
AcDbEntity
   8
LEVEL003
  62
3
 100
AcDbMText
  10
 178.39999389648
  20
 514.50000000000
  30
0.0
  40
 8.0000000000000
  41
0.0
  71
8
  72
1
   1
\A1;15
   7
GMM001
  11
0.0
  21
 1.0000000000000
  31
0.0
   0
ENDBLK
   5
107
 100
AcDbEntity
   8
0
 100
AcDbBlockEnd
   0
BLOCK
   5
108
 100
AcDbEntity
   8
0
 100
AcDbBlockBegin
   2
*D13
  70
65
  10
0.0
  20
0.0
  30
0.0
   3
*D13
   0
LINE
   5
109
 100
AcDbEntity
   8
LEVEL003
 100
AcDbLine
   6
CONTINUOUS
  62
3
  10
 254.50003051758
  20
 507.00000000000
  30
0.0
  11
 176.00000000000
  21
 507.00000000000
  31
0.0
   0
LINE
   5
10A
 100
AcDbEntity
   8
LEVEL003
 100
AcDbLine
   6
CONTINUOUS
  62
3
  10
 251.49998474121
  20
 457.00000000000
  30
0.0
  11
 176.00000000000
  21
 457.00000000000
  31
0.0
   0
LINE
   5
10B
 100
AcDbEntity
   8
LEVEL003
 100
AcDbLine
   6
CONTINUOUS
  62
3
  10
 180.00000000000
  20
 507.00000000000
  30
0.0
  11
 180.00000000000
  21
 489.35000000000
  31
0.0
   0
LINE
   5
10C
 100
AcDbEntity
   8
LEVEL003
 100
AcDbLine
   6
CONTINUOUS
  62
3
  10
 180.00000000000
  20
 457.00000000000
  30
0.0
  11
 180.00000000000
  21
 474.65000000000
  31
0.0
   0
INSERT
   5
10D
 100
AcDbEntity
   8
LEVEL003
   6
CONTINUOUS
  62
3
 100
AcDbBlockReference
   2
_OPEN
  10
 180.00000000000
  20
 507.00000000000
  30
0.0
  41
 6.0000000000000
  42
 6.0000000000000
  43
 6.0000000000000
  50
 90.000000000000
   0
INSERT
   5
10E
 100
AcDbEntity
   8
LEVEL003
   6
CONTINUOUS
  62
3
 100
AcDbBlockReference
   2
_OPEN
  10
 180.00000000000
  20
 457.00000000000
  30
0.0
  41
 6.0000000000000
  42
 6.0000000000000
  43
 6.0000000000000
  50
 270.00000000000
   0
MTEXT
   5
10F
 100
AcDbEntity
   8
LEVEL003
  62
3
 100
AcDbMText
  10
 178.39999389648
  20
 482.00000000000
  30
0.0
  40
 8.0000000000000
  41
0.0
  71
8
  72
1
   1
\A1;50
   7
GMM001
  11
0.0
  21
 1.0000000000000
  31
0.0
   0
ENDBLK
   5
110
 100
AcDbEntity
   8
0
 100
AcDbBlockEnd
   0
ENDSEC
   0
SECTION
   2
ENTITIES
   0
LINE
   5
111
 100
AcDbEntity
   8
LEVEL001
 100
AcDbLine
   6
DASHDOT
  62
1
  10
 300.00000000000
  20
 50.000000000000
  30
0.0
  11
 300.00000000000
  21
 190.00000000000
  31
0.0
   0
LINE
   5
112
 100
AcDbEntity
   8
LEVEL001
 100
AcDbLine
   6
CONTINUOUS
  62
7
  10
 387.00000000000
  20
 60.000000000000
  30
0.0
  11
 390.00000000000
  21
 63.000000000000
  31
0.0
   0
LINE
   5
113
 100
AcDbEntity
   8
LEVEL001
 100
AcDbLine
   6
CONTINUOUS
  62
7
  10
 213.00001525879
  20
 60.000000000000
  30
0.0
  11
 210.00001525879
  21
 63.000000000000
  31
0.0
   0
LINE
   5
114
 100
AcDbEntity
   8
LEVEL001
 100
AcDbLine
   6
CONTINUOUS
  62
7
  10
 213.00001525879
  20
 60.000000000000
  30
0.0
  11
 387.00000000000
  21
 60.000000000000
  31
0.0
   0
LINE
   5
115
 100
AcDbEntity
   8
LEVEL001
 100
AcDbLine
   6
CONTINUOUS
  62
7
  10
 401.00000000000
  20
 120.82127380371
  30
0.0
  11
 401.00000000000
  21
 99.178726196289
  31
0.0
   0
LINE
   5
116
 100
AcDbEntity
   8
LEVEL001
 100
AcDbLine
   6
CONTINUOUS
  62
7
  10
 403.04162597656
  20
 122.00000000000
  30
0.0
  11
 419.20001220703
  21
 122.00000000000
  31
0.0
   0
LINE
   5
117
 100
AcDbEntity
   8
LEVEL001
 100
AcDbLine
   6
CONTINUOUS
  62
7
  10
 401.00000000000
  20
 99.178726196289
  30
0.0
  11
 403.04159545898
  21
 98.000000000000
  31
0.0
   0
LINE
   5
118
 100
AcDbEntity
   8
LEVEL001
 100
AcDbLine
   6
CONTINUOUS
  62
7
  10
 403.04159545898
  20
 98.000000000000
  30
0.0
  11
 419.20001220703
  21
 98.000000000000
  31
0.0
   0
LINE
   5
119
 100
AcDbEntity
   8
LEVEL001
 100
AcDbLine
   6
CONTINUOUS
  62
7
  10
 401.00000000000
  20
 120.82127380371
  30
0.0
  11
 403.04162597656
  21
 122.00000000000
  31
0.0
   0
ARC
   5
11A
 100
AcDbEntity
   8
LEVEL001
   6
CONTINUOUS
  62
7
 100
AcDbCircle
  10
 421.20001220703
  20
 126.00000000000
  30
0.0
  40
 2.0000000000000
 100
AcDbArc
  50
 90.000000000000
  51
 180.00000000004
   0
LINE
   5
11B
 100
AcDbEntity
   8
LEVEL001
 100
AcDbLine
   6
CONTINUOUS
  62
7
  10
 421.20001220703
  20
 128.00000000000
  30
0.0
  11
 427.20001220703
  21
 128.00000000000
  31
0.0
   0
ARC
   5
11C
 100
AcDbEntity
   8
LEVEL001
   6
CONTINUOUS
  62
7
 100
AcDbCircle
  10
 443.20001220703
  20
 127.00000000000
  30
0.0
  40
 1.0000000000000
 100
AcDbArc
  50
 0.16284439969115E-11
  51
 90.000000000078
   0
LINE
   5
11D
 100
AcDbEntity
   8
LEVEL001
 100
AcDbLine
   6
CONTINUOUS
  62
7
  10
 437.20001220703
  20
 128.00000000000
  30
0.0
  11
 443.20001220703
  21
 128.00000000000
  31
0.0
   0
LINE
   5
11E
 100
AcDbEntity
   8
LEVEL001
 100
AcDbLine
   6
CONTINUOUS
  62
7
  10
 419.20001220703
  20
 94.000000000000
  30
0.0
  11
 419.20001220703
  21
 126.00000000000
  31
0.0
   0
LINE
   5
11F
 100
AcDbEntity
   8
LEVEL001
 100
AcDbLine
   6
CONTINUOUS
  62
7
  10
 444.20001220703
  20
 127.00000000000
  30
0.0
  11
 444.20001220703
  21
 93.000000000000
  31
0.0
   0
LINE
   5
120
 100
AcDbEntity
   8
LEVEL001
 100
AcDbLine
   6
CONTINUOUS
  62
7
  10
 403.04162597656
  20
 122.00000000000
  30
0.0
  11
 403.04162597656
  21
 115.80947875977
  31
0.0
   0
LINE
   5
121
 100
AcDbEntity
   8
LEVEL001
 100
AcDbLine
   6
CONTINUOUS
  62
7
  10
 403.04162597656
  20
 104.19052124023
  30
0.0
  11
 403.04162597656
  21
 98.000000000000
  31
0.0
   0
LINE
   5
122
 100
AcDbEntity
   8
LEVEL001
 100
AcDbLine
   6
CONTINUOUS
  62
7
  10
 403.04162597656
  20
 104.19052124023
  30
0.0
  11
 412.00000000000
  21
 115.80947875977
  31
0.0
   0
LINE
   5
123
 100
AcDbEntity
   8
LEVEL001
 100
AcDbLine
   6
CONTINUOUS
  62
7
  10
 403.04162597656
  20
 115.80947875977
  30
0.0
  11
 412.00000000000
  21
 104.19052124023
  31
0.0
   0
LINE
   5
124
 100
AcDbEntity
   8
LEVEL001
 100
AcDbLine
   6
CONTINUOUS
  62
3
  10
 396.09072875977
  20
 100.49417114258
  30
0.0
  11
 396.09082031250
  21
 119.50585937500
  31
0.0
   0
LINE
   5
125
 100
AcDbEntity
   8
LEVEL001
 100
AcDbLine
   6
CONTINUOUS
  62
3
  10
 401.00000000000
  20
 120.82127380371
  30
0.0
  11
 396.09082031250
  21
 119.50585937500
  31
0.0
   0
LINE
   5
126
 100
AcDbEntity
   8
LEVEL001
 100
AcDbLine
   6
CONTINUOUS
  62
3
  10
 401.00000000000
  20
 99.178726196289
  30
0.0
  11
 396.09072875977
  21
 100.49417114258
  31
0.0
   0
LINE
   5
127
 100
AcDbEntity
   8
LEVEL001
 100
AcDbLine
   6
CONTINUOUS
  62
3
  10
 427.20001220703
  20
 97.500000000000
  30
0.0
  11
 437.20001220703
  21
 97.500000000000
  31
0.0
   0
LINE
   5
128
 100
AcDbEntity
   8
LEVEL001
 100
AcDbLine
   6
CONTINUOUS
  62
3
  10
 427.20001220703
  20
 99.500000000000
  30
0.0
  11
 437.20001220703
  21
 99.500000000000
  31
0.0
   0
LINE
   5
129
 100
AcDbEntity
   8
LEVEL001
 100
AcDbLine
   6
CONTINUOUS
  62
3
  10
 427.20001220703
  20
 101.50000000000
  30
0.0
  11
 437.20001220703
  21
 101.50000000000
  31
0.0
   0
LINE
   5
12A
 100
AcDbEntity
   8
LEVEL001
 100
AcDbLine
   6
CONTINUOUS
  62
3
  10
 427.20001220703
  20
 103.50000000000
  30
0.0
  11
 437.20001220703
  21
 103.50000000000
  31
0.0
   0
LINE
   5
12B
 100
AcDbEntity
   8
LEVEL001
 100
AcDbLine
   6
CONTINUOUS
  62
3
  10
 427.20001220703
  20
 105.50000000000
  30
0.0
  11
 437.20001220703
  21
 105.50000000000
  31
0.0
   0
LINE
   5
12C
 100
AcDbEntity
   8
LEVEL001
 100
AcDbLine
   6
CONTINUOUS
  62
3
  10
 427.20001220703
  20
 107.50000000000
  30
0.0
  11
 437.20001220703
  21
 107.50000000000
  31
0.0
   0
LINE
   5
12D
 100
AcDbEntity
   8
LEVEL001
 100
AcDbLine
   6
CONTINUOUS
  62
3
  10
 427.20001220703
  20
 109.50000000000
  30
0.0
  11
 437.20001220703
  21
 109.50000000000
  31
0.0
   0
LINE
   5
12E
 100
AcDbEntity
   8
LEVEL001
 100
AcDbLine
   6
CONTINUOUS
  62
3
  10
 427.20001220703
  20
 111.50000000000
  30
0.0
  11
 437.20001220703
  21
 111.50000000000
  31
0.0
   0
LINE
   5
12F
 100
AcDbEntity
   8
LEVEL001
 100
AcDbLine
   6
CONTINUOUS
  62
3
  10
 427.20001220703
  20
 113.50000000000
  30
0.0
  11
 437.20001220703
  21
 113.50000000000
  31
0.0
   0
LINE
   5
130
 100
AcDbEntity
   8
LEVEL001
 100
AcDbLine
   6
CONTINUOUS
  62
3
  10
 427.20001220703
  20
 115.50000000000
  30
0.0
  11
 437.20001220703
  21
 115.50000000000
  31
0.0
   0
LINE
   5
131
 100
AcDbEntity
   8
LEVEL001
 100
AcDbLine
   6
CONTINUOUS
  62
3
  10
 427.20001220703
  20
 117.50000000000
  30
0.0
  11
 437.20001220703
  21
 117.50000000000
  31
0.0
   0
LINE
   5
132
 100
AcDbEntity
   8
LEVEL001
 100
AcDbLine
   6
CONTINUOUS
  62
3
  10
 427.20001220703
  20
 119.50000000000
  30
0.0
  11
 437.20001220703
  21
 119.50000000000
  31
0.0
   0
LINE
   5
133
 100
AcDbEntity
   8
LEVEL001
 100
AcDbLine
   6
CONTINUOUS
  62
3
  10
 427.20001220703
  20
 121.50000000000
  30
0.0
  11
 437.20001220703
  21
 121.50000000000
  31
0.0
   0
LINE
   5
134
 100
AcDbEntity
   8
LEVEL001
 100
AcDbLine
   6
CONTINUOUS
  62
3
  10
 427.20001220703
  20
 123.50000000000
  30
0.0
  11
 437.20001220703
  21
 123.50000000000
  31
0.0
   0
LINE
   5
135
 100
AcDbEntity
   8
LEVEL001
 100
AcDbLine
   6
CONTINUOUS
  62
3
  10
 427.20001220703
  20
 125.50000000000
  30
0.0
  11
 437.20001220703
  21
 125.50000000000
  31
0.0
   0
LINE
   5
136
 100
AcDbEntity
   8
LEVEL001
 100
AcDbLine
   6
CONTINUOUS
  62
3
  10
 427.20001220703
  20
 127.50000000000
  30
0.0
  11
 437.20001220703
  21
 127.50000000000
  31
0.0
   0
LINE
   5
137
 100
AcDbEntity
   8
LEVEL001
 100
AcDbLine
   6
DASHDOT
  62
1
  10
 444.20001220703
  20
 128.00000000000
  30
0.0
  11
 452.20001220703
  21
 128.00000000000
  31
0.0
   0
LINE
   5
138
 100
AcDbEntity
   8
LEVEL001
 100
AcDbLine
   6
DASHDOT
  62
1
  10
 452.20001220703
  20
 128.00000000000
  30
0.0
  11
 452.20001220703
  21
 92.000000000000
  31
0.0
   0
LINE
   5
139
 100
AcDbEntity
   8
LEVEL001
 100
AcDbLine
   6
DASHDOT
  62
1
  10
 444.20001220703
  20
 127.00000000000
  30
0.0
  11
 444.20001220703
  21
 128.00000000000
  31
0.0
   0
LINE
   5
13A
 100
AcDbEntity
   8
LEVEL001
 100
AcDbLine
   6
CONTINUOUS
  62
7
  10
 401.00000000000
  20
 112.61724853516
  30
0.0
  11
 403.04162597656
  21
 115.80947875977
  31
0.0
   0
LINE
   5
13B
 100
AcDbEntity
   8
LEVEL001
 100
AcDbLine
   6
CONTINUOUS
  62
7
  10
 403.04162597656
  20
 115.80947875977
  30
0.0
  11
 412.00000000000
  21
 115.80947875977
  31
0.0
   0
LINE
   5
13C
 100
AcDbEntity
   8
LEVEL001
 100
AcDbLine
   6
CONTINUOUS
  62
7
  10
 412.00000000000
  20
 115.80947875977
  30
0.0
  11
 412.00000000000
  21
 104.19052124023
  31
0.0
   0
LINE
   5
13D
 100
AcDbEntity
   8
LEVEL001
 100
AcDbLine
   6
CONTINUOUS
  62
7
  10
 412.00000000000
  20
 104.19052124023
  30
0.0
  11
 403.04162597656
  21
 104.19052124023
  31
0.0
   0
LINE
   5
13E
 100
AcDbEntity
   8
LEVEL001
 100
AcDbLine
   6
CONTINUOUS
  62
7
  10
 403.04162597656
  20
 104.19052124023
  30
0.0
  11
 401.00000000000
  21
 107.38275146484
  31
0.0
   0
LINE
   5
13F
 100
AcDbEntity
   8
LEVEL001
 100
AcDbLine
   6
CONTINUOUS
  62
7
  10
 427.20001220703
  20
 91.500000000000
  30
0.0
  11
 427.20001220703
  21
 128.50000000000
  31
0.0
   0
LINE
   5
140
 100
AcDbEntity
   8
LEVEL001
 100
AcDbLine
   6
CONTINUOUS
  62
7
  10
 427.20001220703
  20
 128.50000000000
  30
0.0
  11
 437.20001220703
  21
 128.50000000000
  31
0.0
   0
LINE
   5
141
 100
AcDbEntity
   8
LEVEL001
 100
AcDbLine
   6
CONTINUOUS
  62
7
  10
 437.20001220703
  20
 128.50000000000
  30
0.0
  11
 437.20001220703
  21
 91.500000000000
  31
0.0
   0
LINE
   5
142
 100
AcDbEntity
   8
LEVEL001
 100
AcDbLine
   6
CONTINUOUS
  62
7
  10
 437.20001220703
  20
 91.500000000000
  30
0.0
  11
 427.20001220703
  21
 91.500000000000
  31
0.0
   0
ARC
   5
143
 100
AcDbEntity
   8
LEVEL001
   6
CONTINUOUS
  62
7
 100
AcDbCircle
  10
 421.20001220703
  20
 94.000000000000
  30
0.0
  40
 2.0000000000000
 100
AcDbArc
  50
 180.00000000000
  51
 269.99999999996
   0
LINE
   5
144
 100
AcDbEntity
   8
LEVEL001
 100
AcDbLine
   6
CONTINUOUS
  62
7
  10
 421.20001220703
  20
 92.000000000000
  30
0.0
  11
 427.20001220703
  21
 92.000000000000
  31
0.0
   0
ARC
   5
145
 100
AcDbEntity
   8
LEVEL001
   6
CONTINUOUS
  62
7
 100
AcDbCircle
  10
 443.20001220703
  20
 93.000000000001
  30
0.0
  40
 1.0000000000000
 100
AcDbArc
  50
 270.00000000000
  51
0.0
   0
LINE
   5
146
 100
AcDbEntity
   8
LEVEL001
 100
AcDbLine
   6
CONTINUOUS
  62
7
  10
 437.20001220703
  20
 92.000000000000
  30
0.0
  11
 443.20001220703
  21
 92.000000000000
  31
0.0
   0
LINE
   5
147
 100
AcDbEntity
   8
LEVEL001
 100
AcDbLine
   6
CONTINUOUS
  62
3
  10
 427.20001220703
  20
 93.500000000000
  30
0.0
  11
 437.20001220703
  21
 93.500000000000
  31
0.0
   0
LINE
   5
148
 100
AcDbEntity
   8
LEVEL001
 100
AcDbLine
   6
CONTINUOUS
  62
3
  10
 427.20001220703
  20
 95.500000000000
  30
0.0
  11
 437.20001220703
  21
 95.500000000000
  31
0.0
   0
LINE
   5
149
 100
AcDbEntity
   8
LEVEL001
 100
AcDbLine
   6
DASHDOT
  62
1
  10
 444.20001220703
  20
 92.000000000000
  30
0.0
  11
 452.20001220703
  21
 92.000000000000
  31
0.0
   0
LINE
   5
14A
 100
AcDbEntity
   8
LEVEL001
 100
AcDbLine
   6
DASHDOT
  62
1
  10
 444.20001220703
  20
 93.000000000000
  30
0.0
  11
 444.20001220703
  21
 92.000000000000
  31
0.0
   0
LINE
   5
14B
 100
AcDbEntity
   8
LEVEL001
 100
AcDbLine
   6
DASHDOT
  62
1
  10
 455.00000000000
  20
 110.00000000000
  30
0.0
  11
 367.50000000000
  21
 110.00000000000
  31
0.0
   0
LEADER
   5
14C
 100
AcDbEntity
   8
LEVEL003
   6
CONTINUOUS
  62
3
 100
AcDbLeader
   3
GMM001
  73
0
  74
1
  75
0
  40
 8.0000000000000
  41
0.0
  76
3
  10
 393.61047319528
  20
 99.409669195817
  30
0.0
  10
 405.00000000000
  20
 70.000000000000
  30
0.0
  10
 445.00000000000
  20
 70.000000000000
  30
0.0
  77
3
   0
LINE
   5
14D
 100
AcDbEntity
   8
LEVEL001
 100
AcDbLine
   6
DOT
  62
3
  10
 304.25000000000
  20
 74.799041748047
  30
0.0
  11
 302.84991455078
  21
 74.799041748047
  31
0.0
   0
ARC
   5
14E
 100
AcDbEntity
   8
LEVEL001
   6
DOT
  62
3
 100
AcDbCircle
  10
 299.99707031262
  20
 73.862045288086
  30
0.0
  40
 3.0000014305115
 100
AcDbArc
  50
 270.05595288961
  51
 89.944047110388
   0
LINE
   5
14F
 100
AcDbEntity
   8
LEVEL001
 100
AcDbLine
   6
DOT
  62
3
  10
 300.00000000000
  20
 70.862045288086
  30
0.0
  11
 304.25000000000
  21
 70.862045288086
  31
0.0
   0
LINE
   5
150
 100
AcDbEntity
   8
LEVEL001
 100
AcDbLine
   6
DOT
  62
3
  10
 305.00000000000
  20
 70.112045288086
  30
0.0
  11
 300.00000000000
  21
 70.112045288086
  31
0.0
   0
LINE
   5
151
 100
AcDbEntity
   8
LEVEL001
 100
AcDbLine
   6
DOT
  62
3
  10
 302.00000000000
  20
 76.098052978516
  30
0.0
  11
 302.00012207031
  21
 90.000000000000
  31
0.0
   0
LINE
   5
152
 100
AcDbEntity
   8
LEVEL001
 100
AcDbLine
   6
DOT
  62
3
  10
 305.00000000000
  20
 70.112045288086
  30
0.0
  11
 305.00000000000
  21
 72.000000000000
  31
0.0
   0
LINE
   5
153
 100
AcDbEntity
   8
LEVEL001
 100
AcDbLine
   6
DOT
  62
3
  10
 305.00000000000
  20
 72.000000000000
  30
0.0
  11
 304.25000000000
  21
 74.799041748047
  31
0.0
   0
LINE
   5
154
 100
AcDbEntity
   8
LEVEL001
 100
AcDbLine
   6
DOT
  62
3
  10
 305.00000000000
  20
 72.000000000000
  30
0.0
  11
 302.35217285156
  21
 72.000000000000
  31
0.0
   0
LINE
   5
155
 100
AcDbEntity
   8
LEVEL001
 100
AcDbLine
   6
DOT
  62
3
  10
 295.75000000000
  20
 74.799041748047
  30
0.0
  11
 297.15008544922
  21
 74.799041748047
  31
0.0
   0
ARC
   5
156
 100
AcDbEntity
   8
LEVEL001
   6
DOT
  62
3
 100
AcDbCircle
  10
 300.00292968738
  20
 73.862045288086
  30
0.0
  40
 3.0000014305115
 100
AcDbArc
  50
 90.055952889612
  51
 269.94404711039
   0
LINE
   5
157
 100
AcDbEntity
   8
LEVEL001
 100
AcDbLine
   6
DOT
  62
3
  10
 300.00000000000
  20
 70.862045288086
  30
0.0
  11
 295.75000000000
  21
 70.862045288086
  31
0.0
   0
LINE
   5
158
 100
AcDbEntity
   8
LEVEL001
 100
AcDbLine
   6
DOT
  62
3
  10
 295.00000000000
  20
 70.112045288086
  30
0.0
  11
 300.00000000000
  21
 70.112045288086
  31
0.0
   0
LINE
   5
159
 100
AcDbEntity
   8
LEVEL001
 100
AcDbLine
   6
DOT
  62
3
  10
 298.00000000000
  20
 76.098052978516
  30
0.0
  11
 297.99987792969
  21
 90.000000000000
  31
0.0
   0
LINE
   5
15A
 100
AcDbEntity
   8
LEVEL001
 100
AcDbLine
   6
DOT
  62
3
  10
 295.00000000000
  20
 70.112045288086
  30
0.0
  11
 295.00000000000
  21
 72.000000000000
  31
0.0
   0
LINE
   5
15B
 100
AcDbEntity
   8
LEVEL001
 100
AcDbLine
   6
DOT
  62
3
  10
 295.00000000000
  20
 72.000000000000
  30
0.0
  11
 295.75000000000
  21
 74.799041748047
  31
0.0
   0
LINE
   5
15C
 100
AcDbEntity
   8
LEVEL001
 100
AcDbLine
   6
DOT
  62
3
  10
 295.00000000000
  20
 72.000000000000
  30
0.0
  11
 297.64782714844
  21
 72.000000000000
  31
0.0
   0
LINE
   5
15D
 100
AcDbEntity
   8
LEVEL001
 100
AcDbLine
   6
DOT
  62
3
  10
 304.25000000000
  20
 60.750000000000
  30
0.0
  11
 300.00000000000
  21
 60.750000000000
  31
0.0
   0
LINE
   5
15E
 100
AcDbEntity
   8
LEVEL001
 100
AcDbLine
   6
DOT
  62
3
  10
 295.75000000000
  20
 60.750000000000
  30
0.0
  11
 300.00000000000
  21
 60.750000000000
  31
0.0
   0
LINE
   5
15F
 100
AcDbEntity
   8
LEVEL001
 100
AcDbLine
   6
DOT
  62
3
  10
 295.00000000000
  20
 60.000000000000
  30
0.0
  11
 295.00000000000
  21
 61.612060546875
  31
0.0
   0
LINE
   5
160
 100
AcDbEntity
   8
LEVEL001
 100
AcDbLine
   6
DOT
  62
3
  10
 305.00000000000
  20
 60.000000000000
  30
0.0
  11
 304.25000000000
  21
 60.750000000000
  31
0.0
   0
LINE
   5
161
 100
AcDbEntity
   8
LEVEL001
 100
AcDbLine
   6
DOT
  62
3
  10
 304.25000000000
  20
 60.750000000000
  30
0.0
  11
 304.25000000000
  21
 74.799041748047
  31
0.0
   0
LINE
   5
162
 100
AcDbEntity
   8
LEVEL001
 100
AcDbLine
   6
DOT
  62
3
  10
 304.25000000000
  20
 74.799041748047
  30
0.0
  11
 302.00006103516
  21
 76.098052978516
  31
0.0
   0
LINE
   5
163
 100
AcDbEntity
   8
LEVEL001
 100
AcDbLine
   6
DOT
  62
3
  10
 304.25000000000
  20
 70.862045288086
  30
0.0
  11
 305.00000000000
  21
 70.112045288086
  31
0.0
   0
LINE
   5
164
 100
AcDbEntity
   8
LEVEL001
 100
AcDbLine
   6
DOT
  62
3
  10
 305.00000000000
  20
 70.112045288086
  30
0.0
  11
 305.00000000000
  21
 61.612060546875
  31
0.0
   0
LINE
   5
165
 100
AcDbEntity
   8
LEVEL001
 100
AcDbLine
   6
DOT
  62
3
  10
 305.00000000000
  20
 61.612060546875
  30
0.0
  11
 304.25000000000
  21
 60.862060546875
  31
0.0
   0
LINE
   5
166
 100
AcDbEntity
   8
LEVEL001
 100
AcDbLine
   6
DOT
  62
3
  10
 304.25000000000
  20
 60.862060546875
  30
0.0
  11
 300.00000000000
  21
 60.862060546875
  31
0.0
   0
LINE
   5
167
 100
AcDbEntity
   8
LEVEL001
 100
AcDbLine
   6
DOT
  62
3
  10
 300.00000000000
  20
 61.612060546875
  30
0.0
  11
 305.00000000000
  21
 61.612060546875
  31
0.0
   0
LINE
   5
168
 100
AcDbEntity
   8
LEVEL001
 100
AcDbLine
   6
DOT
  62
3
  10
 305.00000000000
  20
 60.000000000000
  30
0.0
  11
 305.00000000000
  21
 61.612060546875
  31
0.0
   0
LINE
   5
169
 100
AcDbEntity
   8
LEVEL001
 100
AcDbLine
   6
DOT
  62
3
  10
 295.00000000000
  20
 60.000000000000
  30
0.0
  11
 295.75000000000
  21
 60.750000000000
  31
0.0
   0
LINE
   5
16A
 100
AcDbEntity
   8
LEVEL001
 100
AcDbLine
   6
DOT
  62
3
  10
 295.75000000000
  20
 60.750000000000
  30
0.0
  11
 295.75000000000
  21
 74.799041748047
  31
0.0
   0
LINE
   5
16B
 100
AcDbEntity
   8
LEVEL001
 100
AcDbLine
   6
DOT
  62
3
  10
 295.75000000000
  20
 74.799041748047
  30
0.0
  11
 297.99993896484
  21
 76.098052978516
  31
0.0
   0
LINE
   5
16C
 100
AcDbEntity
   8
LEVEL001
 100
AcDbLine
   6
DOT
  62
3
  10
 295.75000000000
  20
 70.862045288086
  30
0.0
  11
 295.00000000000
  21
 70.112045288086
  31
0.0
   0
LINE
   5
16D
 100
AcDbEntity
   8
LEVEL001
 100
AcDbLine
   6
DOT
  62
3
  10
 295.00000000000
  20
 70.112045288086
  30
0.0
  11
 295.00000000000
  21
 61.612060546875
  31
0.0
   0
LINE
   5
16E
 100
AcDbEntity
   8
LEVEL001
 100
AcDbLine
   6
DOT
  62
3
  10
 295.00000000000
  20
 61.612060546875
  30
0.0
  11
 295.75000000000
  21
 60.862060546875
  31
0.0
   0
LINE
   5
16F
 100
AcDbEntity
   8
LEVEL001
 100
AcDbLine
   6
DOT
  62
3
  10
 295.75000000000
  20
 60.862060546875
  30
0.0
  11
 300.00000000000
  21
 60.862060546875
  31
0.0
   0
LINE
   5
170
 100
AcDbEntity
   8
LEVEL001
 100
AcDbLine
   6
DOT
  62
3
  10
 300.00000000000
  20
 61.612060546875
  30
0.0
  11
 295.00000000000
  21
 61.612060546875
  31
0.0
   0
TEXT
   5
171
 100
AcDbEntity
   8
LEVEL003
  62
3
 100
AcDbText
  10
 405.00000000000
  20
 70.000000000000
  30
0.0
  40
 8.0000000000000
   1
Ｒ１／２
   7
STANDARD
 100
AcDbText
   0
LINE
   5
172
 100
AcDbEntity
   8
LEVEL001
 100
AcDbLine
   6
CONTINUOUS
  62
7
  10
 401.00000000000
  20
 120.82127380371
  30
0.0
  11
 390.00000000000
  21
 120.47749413465
  31
0.0
   0
LINE
   5
173
 100
AcDbEntity
   8
LEVEL001
 100
AcDbLine
   6
CONTINUOUS
  62
3
  10
 396.09082031250
  20
 119.50585937500
  30
0.0
  11
 390.00000000000
  21
 119.31550291466
  31
0.0
   0
LINE
   5
174
 100
AcDbEntity
   8
LEVEL001
 100
AcDbLine
   6
CONTINUOUS
  62
3
  10
 396.09072875977
  20
 100.49417114258
  30
0.0
  11
 390.00000000000
  21
 100.68451518074
  31
0.0
   0
LINE
   5
175
 100
AcDbEntity
   8
LEVEL001
 100
AcDbLine
   6
CONTINUOUS
  62
7
  10
 401.00000000000
  20
 99.178726196289
  30
0.0
  11
 390.00000000000
  21
 99.522506395203
  31
0.0
   0
DIMENSION
   5
176
 100
AcDbEntity
   8
LEVEL003
   6
CONTINUOUS
  62
3
 100
AcDbDimension
   2
*D2
  10
 390.00000000000
  20
 150.00000000000
  30
0.0
  11
 300.00000807818
  21
 150.00000000000
  31
0.0
  70
128
   1
\A1;%%c180
   3
GMM002
 100
AcDbAlignedDimension
  13
 210.00000000000
  23
 150.00000000000
  33
0.0
  14
 390.00000000000
  24
 150.00000000000
  34
0.0
 100
AcDbRotatedDimension
   0
DIMENSION
   5
178
 100
AcDbEntity
   8
LEVEL003
   6
CONTINUOUS
  62
3
 100
AcDbDimension
   2
*D3
  10
 367.50000000000
  20
 170.00000000000
  30
0.0
  11
 300.00000000000
  21
 170.00000000000
  31
0.0
  70
0
   1
\A1;%%c135
   3
GMM003
 100
AcDbAlignedDimension
  13
 232.50000000000
  23
 170.00000000000
  33
0.0
  14
 367.50000000000
  24
 170.00000000000
  34
0.0
 100
AcDbRotatedDimension
   0
DIMENSION
   5
17A
 100
AcDbEntity
   8
LEVEL003
   6
CONTINUOUS
  62
3
 100
AcDbDimension
   2
*D4
  10
 347.50000000000
  20
 190.00000000000
  30
0.0
  11
 300.00000578782
  21
 190.00000000000
  31
0.0
  70
0
   1
\A1;%%c95
   3
GMM003
 100
AcDbAlignedDimension
  13
 252.50001157563
  23
 190.00000000000
  33
0.0
  14
 347.50000000000
  24
 190.00000000000
  34
0.0
 100
AcDbRotatedDimension
   0
LINE
   5
17C
 100
AcDbEntity
   8
LEVEL001
 100
AcDbLine
   6
CONTINUOUS
  62
3
  10
 396.09072875977
  20
 315.49417114258
  30
0.0
  11
 396.09082031250
  21
 334.50585937500
  31
0.0
   0
LINE
   5
17D
 100
AcDbEntity
   8
LEVEL001
 100
AcDbLine
   6
CONTINUOUS
  62
3
  10
 401.00000000000
  20
 335.82128906250
  30
0.0
  11
 396.09082031250
  21
 334.50585937500
  31
0.0
   0
LINE
   5
17E
 100
AcDbEntity
   8
LEVEL001
 100
AcDbLine
   6
CONTINUOUS
  62
3
  10
 401.00000000000
  20
 314.17871093750
  30
0.0
  11
 396.09072875977
  21
 315.49417114258
  31
0.0
   0
LINE
   5
17F
 100
AcDbEntity
   8
LEVEL001
 100
AcDbLine
   6
CONTINUOUS
  62
7
  10
 401.00000000000
  20
 335.82128906250
  30
0.0
  11
 401.00000000000
  21
 314.17871093750
  31
0.0
   0
LINE
   5
180
 100
AcDbEntity
   8
LEVEL001
 100
AcDbLine
   6
CONTINUOUS
  62
7
  10
 403.04162597656
  20
 337.00000000000
  30
0.0
  11
 419.20001220703
  21
 337.00000000000
  31
0.0
   0
LINE
   5
181
 100
AcDbEntity
   8
LEVEL001
 100
AcDbLine
   6
CONTINUOUS
  62
7
  10
 401.00000000000
  20
 314.17871093750
  30
0.0
  11
 403.04159545898
  21
 313.00000000000
  31
0.0
   0
LINE
   5
182
 100
AcDbEntity
   8
LEVEL001
 100
AcDbLine
   6
CONTINUOUS
  62
7
  10
 403.04159545898
  20
 313.00000000000
  30
0.0
  11
 419.20001220703
  21
 313.00000000000
  31
0.0
   0
LINE
   5
183
 100
AcDbEntity
   8
LEVEL001
 100
AcDbLine
   6
CONTINUOUS
  62
7
  10
 401.00000000000
  20
 335.82128906250
  30
0.0
  11
 403.04162597656
  21
 337.00000000000
  31
0.0
   0
ARC
   5
184
 100
AcDbEntity
   8
LEVEL001
   6
CONTINUOUS
  62
7
 100
AcDbCircle
  10
 421.20001220703
  20
 341.00000000000
  30
0.0
  40
 2.0000000000000
 100
AcDbArc
  50
 90.000000000000
  51
 180.00000000004
   0
ARC
   5
185
 100
AcDbEntity
   8
LEVEL001
   6
CONTINUOUS
  62
7
 100
AcDbCircle
  10
 443.20001220703
  20
 342.00000000000
  30
0.0
  40
 1.0000000000000
 100
AcDbArc
  50
0.0
  51
 90.000000000078
   0
ARC
   5
186
 100
AcDbEntity
   8
LEVEL001
   6
CONTINUOUS
  62
7
 100
AcDbCircle
  10
 421.20001220703
  20
 309.00000000000
  30
0.0
  40
 2.0000000000000
 100
AcDbArc
  50
 180.00000000000
  51
 269.99999999996
   0
LINE
   5
187
 100
AcDbEntity
   8
LEVEL001
 100
AcDbLine
   6
CONTINUOUS
  62
7
  10
 421.20001220703
  20
 307.00000000000
  30
0.0
  11
 427.20001220703
  21
 307.00000000000
  31
0.0
   0
ARC
   5
188
 100
AcDbEntity
   8
LEVEL001
   6
CONTINUOUS
  62
7
 100
AcDbCircle
  10
 443.20001220703
  20
 308.00000000000
  30
0.0
  40
 1.0000000000000
 100
AcDbArc
  50
 270.00000000000
  51
0.0
   0
LINE
   5
189
 100
AcDbEntity
   8
LEVEL001
 100
AcDbLine
   6
CONTINUOUS
  62
7
  10
 437.20001220703
  20
 307.00000000000
  30
0.0
  11
 443.20001220703
  21
 307.00000000000
  31
0.0
   0
LINE
   5
18A
 100
AcDbEntity
   8
LEVEL001
 100
AcDbLine
   6
CONTINUOUS
  62
7
  10
 419.20001220703
  20
 309.00000000000
  30
0.0
  11
 419.20001220703
  21
 341.00000000000
  31
0.0
   0
LINE
   5
18B
 100
AcDbEntity
   8
LEVEL001
 100
AcDbLine
   6
CONTINUOUS
  62
7
  10
 444.20001220703
  20
 342.00000000000
  30
0.0
  11
 444.20001220703
  21
 308.00000000000
  31
0.0
   0
LINE
   5
18C
 100
AcDbEntity
   8
LEVEL001
 100
AcDbLine
   6
CONTINUOUS
  62
7
  10
 403.04162597656
  20
 337.00000000000
  30
0.0
  11
 403.04162597656
  21
 330.80947875977
  31
0.0
   0
LINE
   5
18D
 100
AcDbEntity
   8
LEVEL001
 100
AcDbLine
   6
CONTINUOUS
  62
7
  10
 403.04162597656
  20
 319.19052124023
  30
0.0
  11
 403.04162597656
  21
 313.00000000000
  31
0.0
   0
LINE
   5
18E
 100
AcDbEntity
   8
LEVEL001
 100
AcDbLine
   6
CONTINUOUS
  62
7
  10
 403.04162597656
  20
 319.19052124023
  30
0.0
  11
 412.00000000000
  21
 330.80947875977
  31
0.0
   0
LINE
   5
18F
 100
AcDbEntity
   8
LEVEL001
 100
AcDbLine
   6
CONTINUOUS
  62
7
  10
 403.04162597656
  20
 330.80947875977
  30
0.0
  11
 412.00000000000
  21
 319.19052124023
  31
0.0
   0
LINE
   5
190
 100
AcDbEntity
   8
LEVEL001
 100
AcDbLine
   6
CONTINUOUS
  62
3
  10
 427.20001220703
  20
 308.50000000000
  30
0.0
  11
 437.20001220703
  21
 308.50000000000
  31
0.0
   0
LINE
   5
191
 100
AcDbEntity
   8
LEVEL001
 100
AcDbLine
   6
CONTINUOUS
  62
3
  10
 427.20001220703
  20
 310.50000000000
  30
0.0
  11
 437.20001220703
  21
 310.50000000000
  31
0.0
   0
LINE
   5
192
 100
AcDbEntity
   8
LEVEL001
 100
AcDbLine
   6
CONTINUOUS
  62
3
  10
 427.20001220703
  20
 312.50000000000
  30
0.0
  11
 437.20001220703
  21
 312.50000000000
  31
0.0
   0
LINE
   5
193
 100
AcDbEntity
   8
LEVEL001
 100
AcDbLine
   6
CONTINUOUS
  62
3
  10
 427.20001220703
  20
 314.50000000000
  30
0.0
  11
 437.20001220703
  21
 314.50000000000
  31
0.0
   0
LINE
   5
194
 100
AcDbEntity
   8
LEVEL001
 100
AcDbLine
   6
CONTINUOUS
  62
3
  10
 427.20001220703
  20
 316.50000000000
  30
0.0
  11
 437.20001220703
  21
 316.50000000000
  31
0.0
   0
LINE
   5
195
 100
AcDbEntity
   8
LEVEL001
 100
AcDbLine
   6
CONTINUOUS
  62
3
  10
 427.20001220703
  20
 318.50000000000
  30
0.0
  11
 437.20001220703
  21
 318.50000000000
  31
0.0
   0
LINE
   5
196
 100
AcDbEntity
   8
LEVEL001
 100
AcDbLine
   6
CONTINUOUS
  62
3
  10
 427.20001220703
  20
 320.50000000000
  30
0.0
  11
 437.20001220703
  21
 320.50000000000
  31
0.0
   0
LINE
   5
197
 100
AcDbEntity
   8
LEVEL001
 100
AcDbLine
   6
CONTINUOUS
  62
3
  10
 427.20001220703
  20
 322.50000000000
  30
0.0
  11
 437.20001220703
  21
 322.50000000000
  31
0.0
   0
LINE
   5
198
 100
AcDbEntity
   8
LEVEL001
 100
AcDbLine
   6
CONTINUOUS
  62
3
  10
 427.20001220703
  20
 324.50000000000
  30
0.0
  11
 437.20001220703
  21
 324.50000000000
  31
0.0
   0
LINE
   5
199
 100
AcDbEntity
   8
LEVEL001
 100
AcDbLine
   6
CONTINUOUS
  62
3
  10
 427.20001220703
  20
 326.50000000000
  30
0.0
  11
 437.20001220703
  21
 326.50000000000
  31
0.0
   0
LINE
   5
19A
 100
AcDbEntity
   8
LEVEL001
 100
AcDbLine
   6
CONTINUOUS
  62
3
  10
 427.20001220703
  20
 328.50000000000
  30
0.0
  11
 437.20001220703
  21
 328.50000000000
  31
0.0
   0
LINE
   5
19B
 100
AcDbEntity
   8
LEVEL001
 100
AcDbLine
   6
CONTINUOUS
  62
3
  10
 427.20001220703
  20
 330.50000000000
  30
0.0
  11
 437.20001220703
  21
 330.50000000000
  31
0.0
   0
LINE
   5
19C
 100
AcDbEntity
   8
LEVEL001
 100
AcDbLine
   6
CONTINUOUS
  62
3
  10
 427.20001220703
  20
 332.50000000000
  30
0.0
  11
 437.20001220703
  21
 332.50000000000
  31
0.0
   0
LINE
   5
19D
 100
AcDbEntity
   8
LEVEL001
 100
AcDbLine
   6
CONTINUOUS
  62
3
  10
 427.20001220703
  20
 334.50000000000
  30
0.0
  11
 437.20001220703
  21
 334.50000000000
  31
0.0
   0
LINE
   5
19E
 100
AcDbEntity
   8
LEVEL001
 100
AcDbLine
   6
CONTINUOUS
  62
3
  10
 427.20001220703
  20
 336.50000000000
  30
0.0
  11
 437.20001220703
  21
 336.50000000000
  31
0.0
   0
LINE
   5
19F
 100
AcDbEntity
   8
LEVEL001
 100
AcDbLine
   6
CONTINUOUS
  62
3
  10
 427.20001220703
  20
 338.50000000000
  30
0.0
  11
 437.20001220703
  21
 338.50000000000
  31
0.0
   0
LINE
   5
1A0
 100
AcDbEntity
   8
LEVEL001
 100
AcDbLine
   6
CONTINUOUS
  62
3
  10
 427.20001220703
  20
 340.50000000000
  30
0.0
  11
 437.20001220703
  21
 340.50000000000
  31
0.0
   0
LINE
   5
1A1
 100
AcDbEntity
   8
LEVEL001
 100
AcDbLine
   6
CONTINUOUS
  62
3
  10
 427.20001220703
  20
 342.50000000000
  30
0.0
  11
 437.20001220703
  21
 342.50000000000
  31
0.0
   0
LINE
   5
1A2
 100
AcDbEntity
   8
LEVEL001
 100
AcDbLine
   6
DASHDOT
  62
1
  10
 444.20001220703
  20
 307.00000000000
  30
0.0
  11
 452.20001220703
  21
 307.00000000000
  31
0.0
   0
LINE
   5
1A3
 100
AcDbEntity
   8
LEVEL001
 100
AcDbLine
   6
DASHDOT
  62
1
  10
 452.20001220703
  20
 343.00000000000
  30
0.0
  11
 452.20001220703
  21
 307.00000000000
  31
0.0
   0
LINE
   5
1A4
 100
AcDbEntity
   8
LEVEL001
 100
AcDbLine
   6
DASHDOT
  62
1
  10
 444.20001220703
  20
 342.00000000000
  30
0.0
  11
 444.20001220703
  21
 343.00000000000
  31
0.0
   0
LINE
   5
1A5
 100
AcDbEntity
   8
LEVEL001
 100
AcDbLine
   6
DASHDOT
  62
1
  10
 444.20001220703
  20
 308.00000000000
  30
0.0
  11
 444.20001220703
  21
 307.00000000000
  31
0.0
   0
LINE
   5
1A6
 100
AcDbEntity
   8
LEVEL001
 100
AcDbLine
   6
CONTINUOUS
  62
7
  10
 401.00000000000
  20
 322.38275146484
  30
0.0
  11
 403.04162597656
  21
 319.19052124023
  31
0.0
   0
LINE
   5
1A7
 100
AcDbEntity
   8
LEVEL001
 100
AcDbLine
   6
CONTINUOUS
  62
7
  10
 403.04162597656
  20
 319.19052124023
  30
0.0
  11
 412.00000000000
  21
 319.19052124023
  31
0.0
   0
LINE
   5
1A8
 100
AcDbEntity
   8
LEVEL001
 100
AcDbLine
   6
CONTINUOUS
  62
7
  10
 412.00000000000
  20
 319.19052124023
  30
0.0
  11
 412.00000000000
  21
 330.80947875977
  31
0.0
   0
LINE
   5
1A9
 100
AcDbEntity
   8
LEVEL001
 100
AcDbLine
   6
CONTINUOUS
  62
7
  10
 412.00000000000
  20
 330.80947875977
  30
0.0
  11
 403.04162597656
  21
 330.80947875977
  31
0.0
   0
LINE
   5
1AA
 100
AcDbEntity
   8
LEVEL001
 100
AcDbLine
   6
CONTINUOUS
  62
7
  10
 403.04162597656
  20
 330.80947875977
  30
0.0
  11
 401.00000000000
  21
 327.61724853516
  31
0.0
   0
LINE
   5
1AB
 100
AcDbEntity
   8
LEVEL001
 100
AcDbLine
   6
CONTINUOUS
  62
7
  10
 427.20001220703
  20
 306.50000000000
  30
0.0
  11
 427.20001220703
  21
 343.50000000000
  31
0.0
   0
LINE
   5
1AC
 100
AcDbEntity
   8
LEVEL001
 100
AcDbLine
   6
CONTINUOUS
  62
7
  10
 427.20001220703
  20
 343.50000000000
  30
0.0
  11
 437.20001220703
  21
 343.50000000000
  31
0.0
   0
LINE
   5
1AD
 100
AcDbEntity
   8
LEVEL001
 100
AcDbLine
   6
CONTINUOUS
  62
7
  10
 437.20001220703
  20
 343.50000000000
  30
0.0
  11
 437.20001220703
  21
 306.50000000000
  31
0.0
   0
LINE
   5
1AE
 100
AcDbEntity
   8
LEVEL001
 100
AcDbLine
   6
CONTINUOUS
  62
7
  10
 437.20001220703
  20
 306.50000000000
  30
0.0
  11
 427.20001220703
  21
 306.50000000000
  31
0.0
   0
LINE
   5
1AF
 100
AcDbEntity
   8
LEVEL001
 100
AcDbLine
   6
DASHDOT
  62
1
  10
 455.00000000000
  20
 325.00000000000
  30
0.0
  11
 367.50000000000
  21
 325.00000000000
  31
0.0
   0
LINE
   5
1B0
 100
AcDbEntity
   8
LEVEL001
 100
AcDbLine
   6
CONTINUOUS
  62
7
  10
 421.20001220703
  20
 343.00000000000
  30
0.0
  11
 427.20001220703
  21
 343.00000000000
  31
0.0
   0
LINE
   5
1B1
 100
AcDbEntity
   8
LEVEL001
 100
AcDbLine
   6
CONTINUOUS
  62
7
  10
 437.20001220703
  20
 343.00000000000
  30
0.0
  11
 443.20001220703
  21
 343.00000000000
  31
0.0
   0
LINE
   5
1B2
 100
AcDbEntity
   8
LEVEL001
 100
AcDbLine
   6
DASHDOT
  62
1
  10
 444.20001220703
  20
 343.00000000000
  30
0.0
  11
 452.20001220703
  21
 343.00000000000
  31
0.0
   0
DIMENSION
   5
1B3
 100
AcDbEntity
   8
LEVEL003
   6
CONTINUOUS
  62
3
 100
AcDbDimension
   2
*D5
  10
 480.00000000000
  20
 110.00000000000
  30
0.0
  11
 480.00000000000
  21
 85.000000000000
  31
0.0
  70
128
   1
\A1;50
   3
GMM004
 100
AcDbAlignedDimension
  13
 387.00000000000
  23
 60.000000000000
  33
0.0
  14
 455.00000000000
  24
 110.00000000000
  34
0.0
  50
 90.000000000000
 100
AcDbRotatedDimension
   0
DIMENSION
   5
1B5
 100
AcDbEntity
   8
LEVEL003
   6
CONTINUOUS
  62
3
 100
AcDbDimension
   2
*D6
  10
 480.00000000000
  20
 325.00000000000
  30
0.0
  11
 480.00000000000
  21
 217.50000000000
  31
0.0
  70
128
   1
\A1;215
   3
GMM005
 100
AcDbAlignedDimension
  13
 455.00000000000
  23
 110.00000000000
  33
0.0
  14
 455.00000000000
  24
 325.00000000000
  34
0.0
  50
 90.000000000000
 100
AcDbRotatedDimension
   0
LINE
   5
1B7
 100
AcDbEntity
   8
LEVEL001
 100
AcDbLine
   6
CONTINUOUS
  62
3
  10
 396.09072875977
  20
 315.49417114258
  30
0.0
  11
 390.00000000000
  21
 315.68450243249
  31
0.0
   0
LINE
   5
1B8
 100
AcDbEntity
   8
LEVEL001
 100
AcDbLine
   6
CONTINUOUS
  62
7
  10
 401.00000000000
  20
 314.17871093750
  30
0.0
  11
 390.00000000000
  21
 314.52249961330
  31
0.0
   0
LINE
   5
1B9
 100
AcDbEntity
   8
LEVEL001
 100
AcDbLine
   6
CONTINUOUS
  62
7
  10
 401.00000000000
  20
 335.82128906250
  30
0.0
  11
 390.00000000000
  21
 335.47750091656
  31
0.0
   0
LINE
   5
1BA
 100
AcDbEntity
   8
LEVEL001
 100
AcDbLine
   6
CONTINUOUS
  62
3
  10
 396.09082031250
  20
 334.50585937500
  30
0.0
  11
 390.00000000000
  21
 334.31552841111
  31
0.0
   0
LINE
   5
1BB
 100
AcDbEntity
   8
LEVEL001
 100
AcDbLine
   6
CONTINUOUS
  62
7
  10
 244.99998474121
  20
 520.00000000000
  30
0.0
  11
 246.99998474121
  21
 522.00000000000
  31
0.0
   0
ARC
   5
1BC
 100
AcDbEntity
   8
LEVEL001
   6
CONTINUOUS
  62
7
 100
AcDbCircle
  10
 344.99996948242
  20
 460.50000000000
  30
0.0
  40
 1.5000000000000
 100
AcDbArc
  50
 89.999999999996
  51
 179.99999999982
   0
ARC
   5
1BD
 100
AcDbEntity
   8
LEVEL001
   6
CONTINUOUS
  62
7
 100
AcDbCircle
  10
 344.99996948242
  20
 458.50000000000
  30
0.0
  40
 1.5000000000000
 100
AcDbArc
  50
 180.00000000000
  51
 269.99999999993
   0
LINE
   5
1BE
 100
AcDbEntity
   8
LEVEL001
 100
AcDbLine
   6
CONTINUOUS
  62
7
  10
 343.49996948242
  20
 460.50000000000
  30
0.0
  11
 343.49996948242
  21
 458.50000000000
  31
0.0
   0
LINE
   5
1BF
 100
AcDbEntity
   8
LEVEL001
 100
AcDbLine
   6
CONTINUOUS
  62
7
  10
 346.49996948242
  20
 457.00000000000
  30
0.0
  11
 347.49996948242
  21
 454.00000000000
  31
0.0
   0
LINE
   5
1C0
 100
AcDbEntity
   8
LEVEL001
 100
AcDbLine
   6
CONTINUOUS
  62
7
  10
 352.99996948242
  20
 467.00000000000
  30
0.0
  11
 354.99996948242
  21
 469.00000000000
  31
0.0
   0
LINE
   5
1C1
 100
AcDbEntity
   8
LEVEL001
 100
AcDbLine
   6
CONTINUOUS
  62
7
  10
 354.99996948242
  20
 520.00000000000
  30
0.0
  11
 352.99996948242
  21
 522.00000000000
  31
0.0
   0
LINE
   5
1C2
 100
AcDbEntity
   8
LEVEL001
 100
AcDbLine
   6
CONTINUOUS
  62
7
  10
 354.99996948242
  20
 469.00000000000
  30
0.0
  11
 354.99996948242
  21
 520.00000000000
  31
0.0
   0
LINE
   5
1C3
 100
AcDbEntity
   8
LEVEL001
 100
AcDbLine
   6
CONTINUOUS
  62
7
  10
 246.99998474121
  20
 522.00000000000
  30
0.0
  11
 352.99996948242
  21
 522.00000000000
  31
0.0
   0
DIMENSION
   5
1C4
 100
AcDbEntity
   8
LEVEL003
   6
CONTINUOUS
  62
3
 100
AcDbDimension
   2
*D7
  10
 354.99996948242
  20
 544.00000000000
  30
0.0
  11
 299.99996948242
  21
 544.00000000000
  31
0.0
  70
128
   1
\A1;%%c110
   3
GMM006
 100
AcDbAlignedDimension
  13
 244.99998474121
  23
 520.00000000000
  33
0.0
  14
 354.99996948242
  24
 520.00000000000
  34
0.0
 100
AcDbRotatedDimension
   0
LINE
   5
1C6
 100
AcDbEntity
   8
LEVEL001
 100
AcDbLine
   6
CONTINUOUS
  62
7
  10
 388.49996948242
  20
 449.00000000000
  30
0.0
  11
 389.99996948242
  21
 447.50000000000
  31
0.0
   0
LINE
   5
1C7
 100
AcDbEntity
   8
LEVEL001
 100
AcDbLine
   6
CONTINUOUS
  62
7
  10
 389.99996948242
  20
 447.50000000000
  30
0.0
  11
 390.00000000000
  21
 378.40191650391
  31
0.0
   0
LINE
   5
1C8
 100
AcDbEntity
   8
LEVEL001
 100
AcDbLine
   6
CONTINUOUS
  62
3
  10
 388.50000000000
  20
 384.00000000000
  30
0.0
  11
 390.00000000000
  21
 378.40191650391
  31
0.0
   0
LINE
   5
1C9
 100
AcDbEntity
   8
LEVEL001
 100
AcDbLine
   6
CONTINUOUS
  62
7
  10
 387.49996948242
  20
 449.00000000000
  30
0.0
  11
 387.49996948242
  21
 453.00000000000
  31
0.0
   0
LINE
   5
1CA
 100
AcDbEntity
   8
LEVEL001
 100
AcDbLine
   6
CONTINUOUS
  62
7
  10
 387.49996948242
  20
 453.00000000000
  30
0.0
  11
 386.49996948242
  21
 454.00000000000
  31
0.0
   0
LINE
   5
1CB
 100
AcDbEntity
   8
LEVEL001
 100
AcDbLine
   6
CONTINUOUS
  62
7
  10
 210.00001525879
  20
 63.000000000000
  30
0.0
  11
 210.00000000000
  21
 378.40191650391
  31
0.0
   0
LINE
   5
1CC
 100
AcDbEntity
   8
LEVEL001
 100
AcDbLine
   6
CONTINUOUS
  62
7
  10
 211.50000000000
  20
 449.00000000000
  30
0.0
  11
 210.00000000000
  21
 447.50000000000
  31
0.0
   0
LINE
   5
1CD
 100
AcDbEntity
   8
LEVEL001
 100
AcDbLine
   6
CONTINUOUS
  62
7
  10
 210.00000000000
  20
 447.50000000000
  30
0.0
  11
 210.00000000000
  21
 378.40191650391
  31
0.0
   0
LINE
   5
1CE
 100
AcDbEntity
   8
LEVEL001
 100
AcDbLine
   6
CONTINUOUS
  62
7
  10
 212.50000000000
  20
 453.00000000000
  30
0.0
  11
 213.50000000000
  21
 454.00000000000
  31
0.0
   0
LINE
   5
1CF
 100
AcDbEntity
   8
LEVEL001
 100
AcDbLine
   6
CONTINUOUS
  62
7
  10
 212.50000000000
  20
 449.00000000000
  30
0.0
  11
 212.50000000000
  21
 453.00000000000
  31
0.0
   0
LINE
   5
1D0
 100
AcDbEntity
   8
LEVEL001
 100
AcDbLine
   6
CONTINUOUS
  62
3
  10
 211.50000000000
  20
 384.00000000000
  30
0.0
  11
 210.00000000000
  21
 378.40191650391
  31
0.0
   0
DIMENSION
   5
1D1
 100
AcDbEntity
   8
LEVEL003
   6
CONTINUOUS
  62
3
 100
AcDbDimension
   2
*D8
  10
 160.00000000000
  20
 384.00000000000
  30
0.0
  11
 160.00000000000
  21
 453.00000000000
  31
0.0
  70
128
   1
\A1;138
   3
GMM005
 100
AcDbAlignedDimension
  13
 246.99998474121
  23
 522.00000000000
  33
0.0
  14
 210.00000000000
  24
 384.00000000000
  34
0.0
  50
 270.00000000000
 100
AcDbRotatedDimension
   0
DIMENSION
   5
1D3
 100
AcDbEntity
   8
LEVEL003
   6
CONTINUOUS
  62
3
 100
AcDbDimension
   2
*D9
  10
 180.00000000000
  20
 384.00000000000
  30
0.0
  11
 180.00000000000
  21
 419.00000000000
  31
0.0
  70
128
   1
\A1;70
   3
GMM005
 100
AcDbAlignedDimension
  13
 213.50000000000
  23
 454.00000000000
  33
0.0
  14
 210.00000000000
  24
 384.00000000000
  34
0.0
  50
 270.00000000000
 100
AcDbRotatedDimension
   0
DIMENSION
   5
1D5
 100
AcDbEntity
   8
LEVEL003
   6
CONTINUOUS
  62
3
 100
AcDbDimension
   2
*D10
  10
 140.00000000000
  20
 60.000000000000
  30
0.0
  11
 140.00000000000
  21
 291.00000000000
  31
0.0
  70
128
   1
\A1;462
   3
GMM005
 100
AcDbAlignedDimension
  13
 246.99998474121
  23
 522.00000000000
  33
0.0
  14
 213.00001525879
  24
 60.000000000000
  34
0.0
  50
 270.00000000000
 100
AcDbRotatedDimension
   0
LINE
   5
1D7
 100
AcDbEntity
   8
LEVEL003
 100
AcDbLine
   6
DASHDOT
  62
1
  10
 210.00000000000
  20
 447.50000000000
  30
0.0
  11
 210.00000000000
  21
 449.00000000000
  31
0.0
   0
LINE
   5
1D8
 100
AcDbEntity
   8
LEVEL003
 100
AcDbLine
   6
DASHDOT
  62
1
  10
 210.00000000000
  20
 449.00000000000
  30
0.0
  11
 207.00000000000
  21
 449.00000000000
  31
0.0
   0
LINE
   5
1D9
 100
AcDbEntity
   8
LEVEL003
 100
AcDbLine
   6
DASHDOT
  62
1
  10
 207.00000000000
  20
 449.00000000000
  30
0.0
  11
 207.00000000000
  21
 384.00000000000
  31
0.0
   0
LINE
   5
1DA
 100
AcDbEntity
   8
LEVEL003
 100
AcDbLine
   6
DASHDOT
  62
1
  10
 207.00000000000
  20
 384.00000000000
  30
0.0
  11
 210.00000000000
  21
 384.00000000000
  31
0.0
   0
LINE
   5
1DB
 100
AcDbEntity
   8
LEVEL003
 100
AcDbLine
   6
DASHDOT
  62
1
  10
 390.00000000000
  20
 447.50000000000
  30
0.0
  11
 390.00000000000
  21
 449.00000000000
  31
0.0
   0
LINE
   5
1DC
 100
AcDbEntity
   8
LEVEL003
 100
AcDbLine
   6
DASHDOT
  62
1
  10
 390.00000000000
  20
 449.00000000000
  30
0.0
  11
 393.00000000000
  21
 449.00000000000
  31
0.0
   0
LINE
   5
1DD
 100
AcDbEntity
   8
LEVEL003
 100
AcDbLine
   6
DASHDOT
  62
1
  10
 393.00000000000
  20
 449.00000000000
  30
0.0
  11
 393.00000000000
  21
 384.00000000000
  31
0.0
   0
LINE
   5
1DE
 100
AcDbEntity
   8
LEVEL003
 100
AcDbLine
   6
DASHDOT
  62
1
  10
 393.00000000000
  20
 384.00000000000
  30
0.0
  11
 390.00000000000
  21
 384.00000000000
  31
0.0
   0
LINE
   5
1DF
 100
AcDbEntity
   8
LEVEL001
 100
AcDbLine
   6
CONTINUOUS
  62
7
  10
 247.00003051758
  20
 467.00000000000
  30
0.0
  11
 245.00003051758
  21
 469.00000000000
  31
0.0
   0
LINE
   5
1E0
 100
AcDbEntity
   8
LEVEL001
 100
AcDbLine
   6
CONTINUOUS
  62
7
  10
 245.00003051758
  20
 469.00000000000
  30
0.0
  11
 245.00003051758
  21
 520.00000000000
  31
0.0
   0
LEADER
   5
1E1
 100
AcDbEntity
   8
LEVEL003
   6
CONTINUOUS
  62
3
 100
AcDbLeader
   3
GMM007
  73
0
  74
1
  75
0
  40
 8.0000000000000
  41
0.0
  76
3
  10
 344.99996948242
  20
 494.00000000000
  30
0.0
  10
 410.00000000000
  20
 534.00000000000
  30
0.0
  10
 450.00000000000
  20
 534.00000000000
  30
0.0
  77
3
   0
TEXT
   5
1E2
 100
AcDbEntity
   8
LEVEL003
  62
3
 100
AcDbText
  10
 410.00000000000
  20
 534.00000000000
  30
0.0
  40
 8.0000000000000
   1
Ｍ９０×３
   7
STANDARD
 100
AcDbText
   0
ARC
   5
1E3
 100
AcDbEntity
   8
LEVEL001
   6
CONTINUOUS
  62
7
 100
AcDbCircle
  10
 255.00003051758
  20
 460.50000000000
  30
0.0
  40
 1.5000000000000
 100
AcDbArc
  50
0.0
  51
 90.000000000115
   0
ARC
   5
1E4
 100
AcDbEntity
   8
LEVEL001
   6
CONTINUOUS
  62
7
 100
AcDbCircle
  10
 255.00003051758
  20
 458.50000000000
  30
0.0
  40
 1.5000000000000
 100
AcDbArc
  50
 270.00000000000
  51
0.0
   0
LINE
   5
1E5
 100
AcDbEntity
   8
LEVEL001
 100
AcDbLine
   6
CONTINUOUS
  62
7
  10
 256.50003051758
  20
 460.50000000000
  30
0.0
  11
 256.50003051758
  21
 458.50000000000
  31
0.0
   0
LINE
   5
1E6
 100
AcDbEntity
   8
LEVEL001
 100
AcDbLine
   6
CONTINUOUS
  62
7
  10
 253.50003051758
  20
 457.00000000000
  30
0.0
  11
 252.50003051758
  21
 454.00000000000
  31
0.0
   0
DIMENSION
   5
1E7
 100
AcDbEntity
   8
LEVEL003
   6
CONTINUOUS
  62
3
 100
AcDbDimension
   2
*D12
  10
 180.00000000000
  20
 507.00000000000
  30
0.0
  11
 180.00000000000
  21
 514.50000000000
  31
0.0
  70
128
   1
\A1;15
   3
GMM008
 100
AcDbAlignedDimension
  13
 246.99998474121
  23
 522.00000000000
  33
0.0
  14
 256.50003051758
  24
 507.00000000000
  34
0.0
  50
 270.00000000000
 100
AcDbRotatedDimension
   0
DIMENSION
   5
1E9
 100
AcDbEntity
   8
LEVEL003
   6
CONTINUOUS
  62
3
 100
AcDbDimension
   2
*D13
  10
 180.00000000000
  20
 457.00000000000
  30
0.0
  11
 180.00000000000
  21
 482.00000000000
  31
0.0
  70
128
   1
\A1;50
   3
GMM005
 100
AcDbAlignedDimension
  13
 256.50003051758
  23
 507.00000000000
  33
0.0
  14
 253.49998474121
  24
 457.00000000000
  34
0.0
  50
 270.00000000000
 100
AcDbRotatedDimension
   0
TEXT
   5
1EB
 100
AcDbEntity
   8
LEVEL003
  62
3
 100
AcDbText
  10
 445.00000000000
  20
 444.00000000000
  30
0.0
  40
 8.0000000000000
   1
Ｍ１８０×３
   7
STANDARD
 100
AcDbText
   0
LEADER
   5
1EC
 100
AcDbEntity
   8
LEVEL003
   6
CONTINUOUS
  62
3
 100
AcDbLeader
   3
GMM009
  73
0
  74
1
  75
0
  40
 8.0000000000000
  41
0.0
  76
3
  10
 389.99998207999
  20
 428.97651997170
  30
0.0
  10
 445.00000000000
  20
 444.00000000000
  30
0.0
  10
 495.00000000000
  20
 444.00000000000
  30
0.0
  77
3
   0
LINE
   5
1ED
 100
AcDbEntity
   8
LEVEL001
 100
AcDbLine
   6
DOT
  62
3
  10
 252.50000000000
  20
 175.00000000000
  30
0.0
  11
 252.50003051758
  21
 454.00000000000
  31
0.0
   0
LINE
   5
1EE
 100
AcDbEntity
   8
LEVEL001
 100
AcDbLine
   6
DOT
  62
3
  10
 232.50000000000
  20
 404.00000000000
  30
0.0
  11
 232.50000000000
  21
 104.00000000000
  31
0.0
   0
LINE
   5
1EF
 100
AcDbEntity
   8
LEVEL001
 100
AcDbLine
   6
DOT
  62
3
  10
 347.50000000000
  20
 175.00000000000
  30
0.0
  11
 347.49996948242
  21
 454.00000000000
  31
0.0
   0
LINE
   5
1F0
 100
AcDbEntity
   8
LEVEL001
 100
AcDbLine
   6
DOT
  62
3
  10
 367.50000000000
  20
 404.00000000000
  30
0.0
  11
 367.50000000000
  21
 104.00000000000
  31
0.0
   0
LINE
   5
1F1
 100
AcDbEntity
   8
LEVEL001
 100
AcDbLine
   6
CONTINUOUS
  62
7
  10
 390.00000000000
  20
 63.000000000000
  30
0.0
  11
 390.00000000000
  21
 378.40191650391
  31
0.0
   0
LINE
   5
1F2
 100
AcDbEntity
   8
LEVEL001
 100
AcDbLine
   6
CONTINUOUS
  62
7
  10
 210.00000000000
  20
 378.40191650391
  30
0.0
  11
 300.00000000000
  21
 378.40191650391
  31
0.0
   0
LINE
   5
1F3
 100
AcDbEntity
   8
LEVEL001
 100
AcDbLine
   6
CONTINUOUS
  62
7
  10
 390.00000000000
  20
 378.40191650391
  30
0.0
  11
 300.00000000000
  21
 378.40191650391
  31
0.0
   0
LINE
   5
1F4
 100
AcDbEntity
   8
LEVEL001
 100
AcDbLine
   6
CONTINUOUS
  62
7
  10
 211.50000000000
  20
 449.00000000000
  30
0.0
  11
 300.00000000000
  21
 449.00000000000
  31
0.0
   0
LINE
   5
1F5
 100
AcDbEntity
   8
LEVEL001
 100
AcDbLine
   6
CONTINUOUS
  62
7
  10
 388.49996948242
  20
 449.00000000000
  30
0.0
  11
 300.00000000000
  21
 449.00000000000
  31
0.0
   0
LINE
   5
1F6
 100
AcDbEntity
   8
LEVEL001
 100
AcDbLine
   6
CONTINUOUS
  62
7
  10
 386.49996948242
  20
 454.00000000000
  30
0.0
  11
 300.00000000000
  21
 454.00000000000
  31
0.0
   0
LINE
   5
1F7
 100
AcDbEntity
   8
LEVEL001
 100
AcDbLine
   6
CONTINUOUS
  62
7
  10
 213.50003051758
  20
 454.00000000000
  30
0.0
  11
 300.00000000000
  21
 454.00000000000
  31
0.0
   0
LINE
   5
1F8
 100
AcDbEntity
   8
LEVEL001
 100
AcDbLine
   6
CONTINUOUS
  62
7
  10
 300.00000000000
  20
 467.00000000000
  30
0.0
  11
 247.00003051758
  21
 467.00000000000
  31
0.0
   0
LINE
   5
1F9
 100
AcDbEntity
   8
LEVEL001
 100
AcDbLine
   6
CONTINUOUS
  62
7
  10
 300.00000000000
  20
 467.00000000000
  30
0.0
  11
 352.99996948242
  21
 467.00000000000
  31
0.0
   0
LINE
   5
1FA
 100
AcDbEntity
   8
LEVEL001
 100
AcDbLine
   6
CONTINUOUS
  62
7
  10
 255.00003051758
  20
 462.00000000000
  30
0.0
  11
 300.00000000000
  21
 462.00000000000
  31
0.0
   0
LINE
   5
1FB
 100
AcDbEntity
   8
LEVEL001
 100
AcDbLine
   6
CONTINUOUS
  62
7
  10
 344.99996948242
  20
 462.00000000000
  30
0.0
  11
 300.00000000000
  21
 462.00000000000
  31
0.0
   0
LINE
   5
1FC
 100
AcDbEntity
   8
LEVEL001
 100
AcDbLine
   6
CONTINUOUS
  62
7
  10
 255.00003051758
  20
 467.00000000000
  30
0.0
  11
 255.00003051758
  21
 462.00000000000
  31
0.0
   0
LINE
   5
1FD
 100
AcDbEntity
   8
LEVEL001
 100
AcDbLine
   6
CONTINUOUS
  62
7
  10
 344.99996948242
  20
 467.00000000000
  30
0.0
  11
 344.99996948242
  21
 462.00000000000
  31
0.0
   0
LINE
   5
1FE
 100
AcDbEntity
   8
LEVEL001
 100
AcDbLine
   6
DOT
  62
3
  10
 255.00003051758
  20
 467.00000000000
  30
0.0
  11
 256.50003051758
  21
 468.50000000000
  31
0.0
   0
LINE
   5
1FF
 100
AcDbEntity
   8
LEVEL001
 100
AcDbLine
   6
DOT
  62
3
  10
 256.50003051758
  20
 468.50000000000
  30
0.0
  11
 256.50003051758
  21
 492.00000000000
  31
0.0
   0
LINE
   5
200
 100
AcDbEntity
   8
LEVEL001
 100
AcDbLine
   6
DOT
  62
3
  10
 256.50003051758
  20
 468.50000000000
  30
0.0
  11
 256.50003051758
  21
 460.50000000000
  31
0.0
   0
ARC
   5
201
 100
AcDbEntity
   8
LEVEL001
   6
DOT
  62
3
 100
AcDbCircle
  10
 256.50003051758
  20
 493.50000000000
  30
0.0
  40
 1.5000000000000
 100
AcDbArc
  50
 180.00000000000
  51
 270.00000000007
   0
ARC
   5
202
 100
AcDbEntity
   8
LEVEL001
   6
DOT
  62
3
 100
AcDbCircle
  10
 256.50003051758
  20
 505.50000000000
  30
0.0
  40
 1.5000000000000
 100
AcDbArc
  50
 90.000000000000
  51
 179.99999999993
   0
LINE
   5
203
 100
AcDbEntity
   8
LEVEL001
 100
AcDbLine
   6
DOT
  62
3
  10
 255.00003051758
  20
 505.50000000000
  30
0.0
  11
 255.00003051758
  21
 493.50000000000
  31
0.0
   0
LINE
   5
204
 100
AcDbEntity
   8
LEVEL001
 100
AcDbLine
   6
DOT
  62
3
  10
 256.50003051758
  20
 507.00000000000
  30
0.0
  11
 256.50003051758
  21
 492.00000000000
  31
0.0
   0
LINE
   5
205
 100
AcDbEntity
   8
LEVEL001
 100
AcDbLine
   6
DOT
  62
3
  10
 256.50003051758
  20
 507.00000000000
  30
0.0
  11
 255.00003051758
  21
 505.50000000000
  31
0.0
   0
LINE
   5
206
 100
AcDbEntity
   8
LEVEL001
 100
AcDbLine
   6
DOT
  62
3
  10
 255.00003051758
  20
 505.50000000000
  30
0.0
  11
 255.00003051758
  21
 467.00000000000
  31
0.0
   0
ARC
   5
207
 100
AcDbEntity
   8
LEVEL001
   6
DOT
  62
3
 100
AcDbCircle
  10
 343.49996948242
  20
 505.50000000000
  30
0.0
  40
 1.5000000000000
 100
AcDbArc
  50
0.0
  51
 90.000000000074
   0
LINE
   5
208
 100
AcDbEntity
   8
LEVEL001
 100
AcDbLine
   6
DOT
  62
3
  10
 344.99996948242
  20
 505.50000000000
  30
0.0
  11
 344.99996948242
  21
 493.50000000000
  31
0.0
   0
LINE
   5
209
 100
AcDbEntity
   8
LEVEL001
 100
AcDbLine
   6
DOT
  62
3
  10
 343.49996948242
  20
 507.00000000000
  30
0.0
  11
 256.50003051758
  21
 507.00000000000
  31
0.0
   0
LINE
   5
20A
 100
AcDbEntity
   8
LEVEL001
 100
AcDbLine
   6
DOT
  62
3
  10
 344.99996948242
  20
 467.00000000000
  30
0.0
  11
 343.49996948242
  21
 468.50000000000
  31
0.0
   0
LINE
   5
20B
 100
AcDbEntity
   8
LEVEL001
 100
AcDbLine
   6
DOT
  62
3
  10
 343.49996948242
  20
 468.50000000000
  30
0.0
  11
 343.49996948242
  21
 492.00000000000
  31
0.0
   0
ARC
   5
20C
 100
AcDbEntity
   8
LEVEL001
   6
DOT
  62
3
 100
AcDbCircle
  10
 343.49996948242
  20
 493.50000000000
  30
0.0
  40
 1.5000000000000
 100
AcDbArc
  50
 270.00000000000
  51
0.0
   0
LINE
   5
20D
 100
AcDbEntity
   8
LEVEL001
 100
AcDbLine
   6
DOT
  62
3
  10
 343.49996948242
  20
 468.50000000000
  30
0.0
  11
 343.49996948242
  21
 460.50000000000
  31
0.0
   0
LINE
   5
20E
 100
AcDbEntity
   8
LEVEL001
 100
AcDbLine
   6
DOT
  62
3
  10
 343.49996948242
  20
 507.00000000000
  30
0.0
  11
 343.49996948242
  21
 492.00000000000
  31
0.0
   0
LINE
   5
20F
 100
AcDbEntity
   8
LEVEL001
 100
AcDbLine
   6
DOT
  62
3
  10
 343.49996948242
  20
 507.00000000000
  30
0.0
  11
 344.99996948242
  21
 505.50000000000
  31
0.0
   0
LINE
   5
210
 100
AcDbEntity
   8
LEVEL001
 100
AcDbLine
   6
DOT
  62
3
  10
 344.99996948242
  20
 505.50000000000
  30
0.0
  11
 344.99996948242
  21
 467.00000000000
  31
0.0
   0
LINE
   5
211
 100
AcDbEntity
   8
LEVEL001
 100
AcDbLine
   6
CONTINUOUS
  62
3
  10
 211.50000000000
  20
 449.00000000000
  30
0.0
  11
 211.50000000000
  21
 384.00000000000
  31
0.0
   0
LINE
   5
212
 100
AcDbEntity
   8
LEVEL001
 100
AcDbLine
   6
CONTINUOUS
  62
3
  10
 300.00000000000
  20
 384.00000000000
  30
0.0
  11
 210.00000000000
  21
 384.00000000000
  31
0.0
   0
LINE
   5
213
 100
AcDbEntity
   8
LEVEL001
 100
AcDbLine
   6
CONTINUOUS
  62
3
  10
 388.49996948242
  20
 449.00000000000
  30
0.0
  11
 388.50000000000
  21
 384.00000000000
  31
0.0
   0
LINE
   5
214
 100
AcDbEntity
   8
LEVEL001
 100
AcDbLine
   6
CONTINUOUS
  62
3
  10
 300.00000000000
  20
 384.00000000000
  30
0.0
  11
 390.00000000000
  21
 384.00000000000
  31
0.0
   0
LINE
   5
215
 100
AcDbEntity
   8
LEVEL001
 100
AcDbLine
   6
CONTINUOUS
  62
7
  10
 245.00003051758
  20
 520.00000000000
  30
0.0
  11
 354.99996948242
  21
 520.00000000000
  31
0.0
   0
LINE
   5
216
 100
AcDbEntity
   8
LEVEL001
 100
AcDbLine
   6
CONTINUOUS
  62
7
  10
 354.99996948242
  20
 469.00000000000
  30
0.0
  11
 245.00003051758
  21
 469.00000000000
  31
0.0
   0
LINE
   5
217
 100
AcDbEntity
   8
LEVEL001
 100
AcDbLine
   6
DASHDOT
  62
1
  10
 300.00000000000
  20
 200.00000000000
  30
0.0
  11
 300.00000000000
  21
 534.00000000000
  31
0.0
   0
ARC
   5
218
 100
AcDbEntity
   8
LEVEL001
   6
DASHDOT
  62
1
 100
AcDbCircle
  10
 300.00000000000
  20
 316.00000000000
  30
0.0
  40
 38.000000000000
 100
AcDbArc
  50
 90.000000000000
  51
 270.00000000000
   0
ARC
   5
219
 100
AcDbEntity
   8
LEVEL001
   6
DASHDOT
  62
1
 100
AcDbCircle
  10
 300.00000000000
  20
 316.00000000000
  30
0.0
  40
 38.000000000000
 100
AcDbArc
  50
 270.00000000000
  51
 90.000000000000
   0
ARC
   5
21A
 100
AcDbEntity
   8
LEVEL001
   6
CONTINUOUS
  62
7
 100
AcDbCircle
  10
 300.00001988571
  20
 315.99999999999
  30
0.0
  40
 32.500000000000
 100
AcDbArc
  50
 108.37970576227
  51
 269.99996494254
   0
ARC
   5
21B
 100
AcDbEntity
   8
LEVEL001
   6
CONTINUOUS
  62
7
 100
AcDbCircle
  10
 299.99998011429
  20
 315.99999999999
  30
0.0
  40
 32.500000000000
 100
AcDbArc
  50
 270.00003505746
  51
 71.620294237726
   0
ARC
   5
21C
 100
AcDbEntity
   8
LEVEL001
   6
CONTINUOUS
  62
7
 100
AcDbCircle
  10
 300.00000376776
  20
 316.00000000000
  30
0.0
  40
 43.500000000000
 100
AcDbArc
  50
 269.99999503732
  51
 74.130582708904
   0
ARC
   5
21D
 100
AcDbEntity
   8
LEVEL001
   6
CONTINUOUS
  62
7
 100
AcDbCircle
  10
 300.00000000000
  20
 354.00000000000
  30
0.0
  40
 12.500000000000
 100
AcDbArc
  50
 270.00000000000
  51
 90.000000000000
   0
ARC
   5
21E
 100
AcDbEntity
   8
LEVEL001
   6
CONTINUOUS
  62
7
 100
AcDbCircle
  10
 300.00000000000
  20
 354.00000000000
  30
0.0
  40
 11.500000000000
 100
AcDbArc
  50
 270.00000000000
  51
 90.000000000000
   0
ARC
   5
21F
 100
AcDbEntity
   8
LEVEL001
   6
CONTINUOUS
  62
7
 100
AcDbCircle
  10
 299.99999623224
  20
 316.00000000000
  30
0.0
  40
 43.500000000000
 100
AcDbArc
  50
 105.86941729110
  51
 270.00000496268
   0
ARC
   5
220
 100
AcDbEntity
   8
LEVEL001
   6
CONTINUOUS
  62
7
 100
AcDbCircle
  10
 300.00000000000
  20
 354.00000000000
  30
0.0
  40
 12.500000000000
 100
AcDbArc
  50
 90.000000000000
  51
 270.00000000000
   0
ARC
   5
221
 100
AcDbEntity
   8
LEVEL001
   6
CONTINUOUS
  62
7
 100
AcDbCircle
  10
 300.00000000000
  20
 354.00000000000
  30
0.0
  40
 11.500000000000
 100
AcDbArc
  50
 90.000000000000
  51
 270.00000000000
   0
LINE
   5
222
 100
AcDbEntity
   8
LEVEL001
 100
AcDbLine
   6
CONTINUOUS
  62
7
  10
 300.00000000000
  20
 457.00000000000
  30
0.0
  11
 346.49996948242
  21
 457.00000000000
  31
0.0
   0
LINE
   5
223
 100
AcDbEntity
   8
LEVEL001
 100
AcDbLine
   6
CONTINUOUS
  62
7
  10
 300.00000000000
  20
 457.00000000000
  30
0.0
  11
 253.50003051758
  21
 457.00000000000
  31
0.0
   0
TEXT
   5
224
 100
AcDbEntity
   8
LEVEL003
  62
7
 100
AcDbText
  10
 605.87625857067
  20
 35.801452717596
  30
0.0
  40
 10.000000000000
   1
ＯＳＡＫＡ ＪＡＣＫ
   7
STANDARD
 100
AcDbText
   0
CIRCLE
   5
225
 100
AcDbEntity
   8
LEVEL003
 100
AcDbCircle
   6
CONTINUOUS
  62
7
  10
 585.42984472031
  20
 42.515424555127
  30
0.0
  40
 3.0000000000000
   0
LINE
   5
226
 100
AcDbEntity
   8
LEVEL003
 100
AcDbLine
   6
CONTINUOUS
  62
7
  10
 591.31784472031
  20
 45.515424555127
  30
0.0
  11
 587.50884472031
  21
 38.915424555127
  31
0.0
   0
LINE
   5
227
 100
AcDbEntity
   8
LEVEL003
 100
AcDbLine
   6
CONTINUOUS
  62
7
  10
 587.50884472031
  20
 38.915424555127
  30
0.0
  11
 579.88784472031
  21
 38.915424555127
  31
0.0
   0
LINE
   5
228
 100
AcDbEntity
   8
LEVEL003
 100
AcDbLine
   6
CONTINUOUS
  62
7
  10
 579.02084472031
  20
 37.415424555127
  30
0.0
  11
 592.64184472031
  21
 37.415424555127
  31
0.0
   0
LINE
   5
229
 100
AcDbEntity
   8
LEVEL003
 100
AcDbLine
   6
CONTINUOUS
  62
7
  10
 592.64184472031
  20
 37.415424555127
  30
0.0
  11
 597.31784472031
  21
 45.515424555127
  31
0.0
   0
LINE
   5
22A
 100
AcDbEntity
   8
LEVEL003
 100
AcDbLine
   6
CONTINUOUS
  62
7
  10
 597.31784472031
  20
 45.515424555127
  30
0.0
  11
 591.31784472031
  21
 45.515424555127
  31
0.0
   0
LINE
   5
22B
 100
AcDbEntity
   8
LEVEL003
 100
AcDbLine
   6
CONTINUOUS
  62
7
  10
 579.88784472031
  20
 38.915424555127
  30
0.0
  11
 579.02084472031
  21
 37.415424555127
  31
0.0
   0
TEXT
   5
22C
 100
AcDbEntity
   8
LEVEL003
  62
7
 100
AcDbText
  10
 608.78725857067
  20
 52.694852717596
  30
0.0
  40
 6.0000000000000
   1
Model : ＥＴ１００Ｈ１５
   7
STANDARD
 100
AcDbText
   0
ENDSEC
  0
SECTION
  2
OBJECTS
  0
DICTIONARY
  5
C
100
AcDbDictionary
  3
ACAD_GROUP
350
D
  3
ACAD_MLINESTYLE
350
1B
  0
DICTIONARY
  5
D
102
{ACAD_REACTORS
330
C
102
}
100
AcDbDictionary
  0
DICTIONARY
  5
1B
102
{ACAD_REACTORS
330
C
102
}
100
AcDbDictionary
  3
STANDARD
350
1C
  0
MLINESTYLE
  5
1C
102
{ACAD_REACTORS
330
1B
102
}
100
AcDbMlineStyle
  2
STANDARD
 70
     0
  3

 62
   256
 51
90.0
 52
90.0
 71
     2
 49
0.5
 62
   256
  6
BYLAYER
 49
-0.5
 62
   256
  6
BYLAYER
  0
ENDSEC
   0
EOF
