   0
SECTION
   2
HEADER
   9
$ACADVER
   1
AC1014
   9
$LIMMIN
  10
0.0
  20
0.0
   9
$LIMMAX
  10
 1260.0000000000
  20
 891.00000000000
   9
$EXTMIN
  10
0.0
  20
0.0
  30
0.0
   9
$EXTMAX
  10
 1260.0000000000
  20
 891.00000000000
  30
0.0
   9
$LTSCALE
  40
 25.200000000000
   9
$HANDSEED
   5
256
   0
ENDSEC
   0
SECTION
   2
TABLES
  0
TABLE
  2
VPORT
  5
8
100
AcDbSymbolTable
 70
     1
  0
VPORT
  5
255
100
AcDbSymbolTableRecord
100
AcDbViewportTableRecord
  2
*ACTIVE
 70
     0
 10
0.0
 20
0.0
 11
1.0
 21
1.0
  12
 630.00000000000
  22
 445.50000000000
 13
0.0
 23
0.0
 14
1.0
 24
1.0
 15
0.0
 25
0.0
 16
0.0
 26
0.0
 36
1.0
 17
0.0
 27
0.0
 37
0.0
  40
 1260.0000000000
  41
 1.4787878787879
 42
50.0
 43
0.0
 44
0.0
 50
0.0
 51
0.0
 71
     0
 72
   100
 73
     1
 74
     1
 75
     0
 76
     0
 77
     0
 78
     0
  0
ENDTAB
  0
TABLE
  2
LTYPE
  5
5
100
AcDbSymbolTable
 70
    25
  0
LTYPE
  5
12
100
AcDbSymbolTableRecord
100
AcDbLinetypeTableRecord
  2
BYBLOCK
 70
     0
  3

 72
    65
 73
     0
 40
0.0
  0
LTYPE
  5
13
100
AcDbSymbolTableRecord
100
AcDbLinetypeTableRecord
  2
BYLAYER
 70
     0
  3

 72
    65
 73
     0
 40
0.0
  0
LTYPE
  5
14
100
AcDbSymbolTableRecord
100
AcDbLinetypeTableRecord
  2
CONTINUOUS
 70
     0
  3
Solid line
 72
    65
 73
     0
 40
0.0
  0
LTYPE
  5
20
100
AcDbSymbolTableRecord
100
AcDbLinetypeTableRecord
  2
BORDER
 70
     0
  3
__ __ . __ __ . __ __ . __ __ . __ __ . __ __ .
 72
    65
 73
     6
 40
1.75
 49
0.5
 74
     0
 49
-0.25
 74
     0
 49
0.5
 74
     0
 49
-0.25
 74
     0
 49
0.0
 74
     0
 49
-0.25
 74
     0
  0
LTYPE
  5
21
100
AcDbSymbolTableRecord
100
AcDbLinetypeTableRecord
  2
BORDER2
 70
     0
  3
__.__.__.__.__.__.__.__.__.__.__.__.__.__.__.__
 72
    65
 73
     6
 40
0.875
 49
0.25
 74
     0
 49
-0.125
 74
     0
 49
0.25
 74
     0
 49
-0.125
 74
     0
 49
0.0
 74
     0
 49
-0.125
 74
     0
  0
LTYPE
  5
22
100
AcDbSymbolTableRecord
100
AcDbLinetypeTableRecord
  2
BORDERX2
 70
     0
  3
____  ____  .  ____  ____  .  ____  ____  .  __
 72
    65
 73
     6
 40
3.5
 49
1.0
 74
     0
 49
-0.5
 74
     0
 49
1.0
 74
     0
 49
-0.5
 74
     0
 49
0.0
 74
     0
 49
-0.5
 74
     0
  0
LTYPE
  5
23
100
AcDbSymbolTableRecord
100
AcDbLinetypeTableRecord
  2
CENTER
 70
     0
  3
____ _ ____ _ ____ _ ____ _ ____ _ ____ _ ____ 
 72
    65
 73
     4
 40
2.0
 49
1.25
 74
     0
 49
-0.25
 74
     0
 49
0.25
 74
     0
 49
-0.25
 74
     0
  0
LTYPE
  5
24
100
AcDbSymbolTableRecord
100
AcDbLinetypeTableRecord
  2
CENTER2
 70
     0
  3
___ _ ___ _ ___ _ ___ _ ___ _ ___ _ ___ _ ___ _
 72
    65
 73
     4
 40
1.125
 49
0.75
 74
     0
 49
-0.125
 74
     0
 49
0.125
 74
     0
 49
-0.125
 74
     0
  0
LTYPE
  5
25
100
AcDbSymbolTableRecord
100
AcDbLinetypeTableRecord
  2
CENTERX2
 70
     0
  3
________  __  ________  __  ________  __  _____
 72
    65
 73
     4
 40
4.0
 49
2.5
 74
     0
 49
-0.5
 74
     0
 49
0.5
 74
     0
 49
-0.5
 74
     0
  0
LTYPE
  5
26
100
AcDbSymbolTableRecord
100
AcDbLinetypeTableRecord
  2
DASHDOT
 70
     0
  3
__ . __ . __ . __ . __ . __ . __ . __ . __ . __
 72
    65
 73
     4
 40
1.0
 49
0.5
 74
     0
 49
-0.25
 74
     0
 49
0.0
 74
     0
 49
-0.25
 74
     0
  0
LTYPE
  5
27
100
AcDbSymbolTableRecord
100
AcDbLinetypeTableRecord
  2
DASHDOT2
 70
     0
  3
_._._._._._._._._._._._._._._._._._._._._._._._
 72
    65
 73
     4
 40
0.5
 49
0.25
 74
     0
 49
-0.125
 74
     0
 49
0.0
 74
     0
 49
-0.125
 74
     0
  0
LTYPE
  5
28
100
AcDbSymbolTableRecord
100
AcDbLinetypeTableRecord
  2
DASHDOTX2
 70
     0
  3
____  .  ____  .  ____  .  ____  .  ____  .  __
 72
    65
 73
     4
 40
2.0
 49
1.0
 74
     0
 49
-0.5
 74
     0
 49
0.0
 74
     0
 49
-0.5
 74
     0
  0
LTYPE
  5
29
100
AcDbSymbolTableRecord
100
AcDbLinetypeTableRecord
  2
DASHED
 70
     0
  3
__ __ __ __ __ __ __ __ __ __ __ __ __ __ __ __
 72
    65
 73
     2
 40
0.75
 49
0.5
 74
     0
 49
-0.25
 74
     0
  0
LTYPE
  5
2A
100
AcDbSymbolTableRecord
100
AcDbLinetypeTableRecord
  2
DASHED2
 70
     0
  3
_ _ _ _ _ _ _ _ _ _ _ _ _ _ _ _ _ _ _ _ _ _ _ _
 72
    65
 73
     2
 40
0.375
 49
0.25
 74
     0
 49
-0.125
 74
     0
  0
LTYPE
  5
2B
100
AcDbSymbolTableRecord
100
AcDbLinetypeTableRecord
  2
DASHEDX2
 70
     0
  3
____  ____  ____  ____  ____  ____  ____  ____ 
 72
    65
 73
     2
 40
1.5
 49
1.0
 74
     0
 49
-0.5
 74
     0
  0
LTYPE
  5
2C
100
AcDbSymbolTableRecord
100
AcDbLinetypeTableRecord
  2
DIVIDE
 70
     0
  3
____ . . ____ . . ____ . . ____ . . ____ . . __
 72
    65
 73
     6
 40
1.25
 49
0.5
 74
     0
 49
-0.25
 74
     0
 49
0.0
 74
     0
 49
-0.25
 74
     0
 49
0.0
 74
     0
 49
-0.25
 74
     0
  0
LTYPE
  5
2D
100
AcDbSymbolTableRecord
100
AcDbLinetypeTableRecord
  2
DIVIDE2
 70
     0
  3
__..__..__..__..__..__..__..__..__..__..__..__.
 72
    65
 73
     6
 40
0.625
 49
0.25
 74
     0
 49
-0.125
 74
     0
 49
0.0
 74
     0
 49
-0.125
 74
     0
 49
0.0
 74
     0
 49
-0.125
 74
     0
  0
LTYPE
  5
2E
100
AcDbSymbolTableRecord
100
AcDbLinetypeTableRecord
  2
DIVIDEX2
 70
     0
  3
________  .  .  ________  .  .  ________  .  . 
 72
    65
 73
     6
 40
2.5
 49
1.0
 74
     0
 49
-0.5
 74
     0
 49
0.0
 74
     0
 49
-0.5
 74
     0
 49
0.0
 74
     0
 49
-0.5
 74
     0
  0
LTYPE
  5
2F
100
AcDbSymbolTableRecord
100
AcDbLinetypeTableRecord
  2
DOT
 70
     0
  3
. . . . . . . . . . . . . . . . . . . . . . . .
 72
    65
 73
     2
 40
0.25
 49
0.0
 74
     0
 49
-0.25
 74
     0
  0
LTYPE
  5
30
100
AcDbSymbolTableRecord
100
AcDbLinetypeTableRecord
  2
DOT2
 70
     0
  3
...............................................
 72
    65
 73
     2
 40
0.125
 49
0.0
 74
     0
 49
-0.125
 74
     0
  0
LTYPE
  5
31
100
AcDbSymbolTableRecord
100
AcDbLinetypeTableRecord
  2
DOTX2
 70
     0
  3
.  .  .  .  .  .  .  .  .  .  .  .  .  .  .  . 
 72
    65
 73
     2
 40
0.5
 49
0.0
 74
     0
 49
-0.5
 74
     0
  0
LTYPE
  5
32
100
AcDbSymbolTableRecord
100
AcDbLinetypeTableRecord
  2
HIDDEN
 70
     0
  3
__ __ __ __ __ __ __ __ __ __ __ __ __ __ __ __
 72
    65
 73
     2
 40
0.375
 49
0.25
 74
     0
 49
-0.125
 74
     0
  0
LTYPE
  5
33
100
AcDbSymbolTableRecord
100
AcDbLinetypeTableRecord
  2
HIDDEN2
 70
     0
  3
_ _ _ _ _ _ _ _ _ _ _ _ _ _ _ _ _ _ _ _ _ _ _ _
 72
    65
 73
     2
 40
0.1875
 49
0.125
 74
     0
 49
-0.0625
 74
     0
  0
LTYPE
  5
34
100
AcDbSymbolTableRecord
100
AcDbLinetypeTableRecord
  2
HIDDENX2
 70
     0
  3
____ ____ ____ ____ ____ ____ ____ ____ ____ __
 72
    65
 73
     2
 40
0.75
 49
0.5
 74
     0
 49
-0.25
 74
     0
  0
LTYPE
  5
35
100
AcDbSymbolTableRecord
100
AcDbLinetypeTableRecord
  2
PHANTOM
 70
     0
  3
______  __  __  ______  __  __  ______  __  __ 
 72
    65
 73
     6
 40
2.5
 49
1.25
 74
     0
 49
-0.25
 74
     0
 49
0.25
 74
     0
 49
-0.25
 74
     0
 49
0.25
 74
     0
 49
-0.25
 74
     0
  0
LTYPE
  5
36
100
AcDbSymbolTableRecord
100
AcDbLinetypeTableRecord
  2
PHANTOM2
 70
     0
  3
___ _ _ ___ _ _ ___ _ _ ___ _ _ ___ _ _ ___ _ _
 72
    65
 73
     6
 40
1.25
 49
0.625
 74
     0
 49
-0.125
 74
     0
 49
0.125
 74
     0
 49
-0.125
 74
     0
 49
0.125
 74
     0
 49
-0.125
 74
     0
  0
LTYPE
  5
37
100
AcDbSymbolTableRecord
100
AcDbLinetypeTableRecord
  2
PHANTOMX2
 70
     0
  3
____________    ____    ____    ____________   
 72
    65
 73
     6
 40
5.0
 49
2.5
 74
     0
 49
-0.5
 74
     0
 49
0.5
 74
     0
 49
-0.5
 74
     0
 49
0.5
 74
     0
 49
-0.5
 74
     0
  0
ENDTAB
   0
TABLE
   2
LAYER
   5
2
 100
AcDbSymbolTable
  70
6
   0
LAYER
   5
E
 100
AcDbSymbolTableRecord
 100
AcDbLayerTableRecord
   2
0
  70
0
  62
7
   6
CONTINUOUS
   0
LAYER
   5
39
 100
AcDbSymbolTableRecord
 100
AcDbLayerTableRecord
   2
LEVEL001
  70
0
  62
7
   6
CONTINUOUS
   0
LAYER
   5
3A
 100
AcDbSymbolTableRecord
 100
AcDbLayerTableRecord
   2
LEVEL003
  70
0
  62
7
   6
CONTINUOUS
   0
LAYER
   5
3B
 100
AcDbSymbolTableRecord
 100
AcDbLayerTableRecord
   2
LEVEL020
  70
0
  62
7
   6
CONTINUOUS
   0
LAYER
   5
3C
 100
AcDbSymbolTableRecord
 100
AcDbLayerTableRecord
   2
LEVEL050
  70
0
  62
7
   6
CONTINUOUS
   0
LAYER
   5
3D
 100
AcDbSymbolTableRecord
 100
AcDbLayerTableRecord
   2
LEVEL110
  70
0
  62
7
   6
CONTINUOUS
   0
ENDTAB
  0
TABLE
  2
STYLE
  5
3
100
AcDbSymbolTable
  70
3
  0
STYLE
  5
F
100
AcDbSymbolTableRecord
100
AcDbTextStyleTableRecord
  2
STANDARD
 70
     0
 40
0.0
 41
1.0
 50
0.0
 71
     0
 42
0.2
  3
TXT
  4
BIGFONT
  0
STYLE
  5
38
100
AcDbSymbolTableRecord
100
AcDbTextStyleTableRecord
  2
STANDARD1
 70
     4
 40
0.0
 41
1.0
 50
0.0
 71
     0
 42
0.2
  3
TXT
  4
BIGFONT
   0
STYLE
   5
3E
 100
AcDbSymbolTableRecord
 100
AcDbTextStyleTableRecord
   2
GMM001
  70
0
  40
0.0
  41
 1.0000000000000
  50
0.0
  71
     0
  42
1.0
   3
txt.shx
   4
bigfont.shx
   0
ENDTAB
  0
TABLE
  2
VIEW
  5
6
100
AcDbSymbolTable
 70
     0
  0
ENDTAB
  0
TABLE
  2
UCS
  5
7
100
AcDbSymbolTable
 70
     0
  0
ENDTAB
  0
TABLE
  2
APPID
  5
9
100
AcDbSymbolTable
 70
     1
  0
APPID
  5
10
100
AcDbSymbolTableRecord
100
AcDbRegAppTableRecord
  2
ACAD
 70
     0
  0
ENDTAB
   0
TABLE
   2
DIMSTYLE
   5
A
 100
AcDbSymbolTable
  70
11
  0
DIMSTYLE
105
1D
100
AcDbSymbolTableRecord
100
AcDbDimStyleTableRecord
  2
STANDARD
 70
     0
  3

  4

  5

  6

  7

 40
1.0
 41
0.18
 42
0.0625
 43
0.38
 44
0.18
 45
0.0
 46
0.0
 47
0.0
 48
0.0
140
0.18
141
0.09
142
0.0
143
25.4
144
1.0
145
0.0
146
1.0
147
0.09
 71
     0
 72
     0
 73
     1
 74
     1
 75
     0
 76
     0
 77
     0
 78
     0
170
     0
171
     2
172
     0
173
     0
174
     0
175
     0
176
     0
177
     0
178
     0
270
     2
271
     4
272
     4
273
     2
274
     2
340
F
275
     0
280
     0
281
     0
282
     0
283
     1
284
     0
285
     0
286
     0
287
     3
288
     0
   0
DIMSTYLE
 105
3F
 100
AcDbSymbolTableRecord
 100
AcDbDimStyleTableRecord
   2
GMM001
  70
0
   3

   4

   5

   6
_OPEN
   7
_OPEN
  40
 1.0000000000000
  41
 9.0000000000000
  42
 3.0000000000000
  43
 0.10000000000000E-5
  44
 6.0000000000000
  45
0.0
  46
0.0
  47
0.0
  48
0.0
 140
 12.000000000000
 141
 3.0000000000000
 142
0.0
 143
 0.39400000000000E-1
 144
 1.0000000000000
 145
0.0
 146
 0.62500000000000
 147
0.0
  71
0
  72
0
  73
0
  74
0
  75
0
  76
0
  77
1
  78
0
 170
0
 171
2
 172
1
 173
1
 174
0
 175
0
 176
3
 177
3
 178
7
 270
2
 271
0
 272
0
 273
2
 274
2
 340
F
 275
1
 280
0
 281
0
 282
0
 283
1
 284
0
 285
0
 286
0
 287
3
 288
1
   0
DIMSTYLE
 105
40
 100
AcDbSymbolTableRecord
 100
AcDbDimStyleTableRecord
   2
GMM002
  70
0
   3

   4

   5

   6
_OPEN
   7
_OPEN
  40
 1.0000000000000
  41
 9.0000000000000
  42
 3.0000000000000
  43
 0.10000000000000E-5
  44
 6.0000000000000
  45
0.0
  46
0.0
  47
0.0
  48
0.0
 140
 12.000000000000
 141
 3.0000000000000
 142
0.0
 143
 0.39400000000000E-1
 144
 1.0000000000000
 145
0.0
 146
 0.62500000000000
 147
 2.3999976396561
  71
0
  72
0
  73
0
  74
0
  75
0
  76
0
  77
3
  78
0
 170
0
 171
2
 172
1
 173
1
 174
0
 175
0
 176
3
 177
3
 178
3
 270
2
 271
0
 272
0
 273
2
 274
2
 340
3E
 275
1
 280
0
 281
0
 282
0
 283
1
 284
0
 285
0
 286
0
 287
3
 288
1
   0
DIMSTYLE
 105
41
 100
AcDbSymbolTableRecord
 100
AcDbDimStyleTableRecord
   2
GMM003
  70
0
   3

   4

   5

   6
_OPEN
   7
_OPEN
  40
 1.0000000000000
  41
 9.0000000000000
  42
 3.0000000000000
  43
 0.10000000000000E-5
  44
 6.0000000000000
  45
0.0
  46
0.0
  47
0.0
  48
0.0
 140
 12.000000000000
 141
 3.0000000000000
 142
0.0
 143
 0.39400000000000E-1
 144
 1.0000000000000
 145
0.0
 146
 0.62500000000000
 147
 2.4000090837476
  71
0
  72
0
  73
0
  74
0
  75
0
  76
0
  77
3
  78
0
 170
0
 171
2
 172
1
 173
1
 174
0
 175
0
 176
3
 177
3
 178
3
 270
2
 271
0
 272
0
 273
2
 274
2
 340
3E
 275
1
 280
0
 281
0
 282
0
 283
1
 284
0
 285
0
 286
0
 287
3
 288
1
   0
DIMSTYLE
 105
42
 100
AcDbSymbolTableRecord
 100
AcDbDimStyleTableRecord
   2
GMM004
  70
0
   3

   4

   5

   6
_OPEN
   7
_OPEN
  40
 1.0000000000000
  41
 9.0000000000000
  42
 3.0000000000000
  43
 0.10000000000000E-5
  44
 6.0000000000000
  45
0.0
  46
0.0
  47
0.0
  48
0.0
 140
 12.000000000000
 141
 3.0000000000000
 142
0.0
 143
 0.39400000000000E-1
 144
 1.0000000000000
 145
0.0
 146
 0.62500000000000
 147
 2.4000090837476
  71
0
  72
0
  73
0
  74
0
  75
0
  76
1
  77
3
  78
0
 170
0
 171
2
 172
1
 173
1
 174
0
 175
0
 176
3
 177
3
 178
3
 270
2
 271
0
 272
0
 273
2
 274
2
 340
3E
 275
1
 280
0
 281
0
 282
0
 283
1
 284
0
 285
0
 286
0
 287
3
 288
1
   0
DIMSTYLE
 105
43
 100
AcDbSymbolTableRecord
 100
AcDbDimStyleTableRecord
   2
GMM005
  70
0
   3

   4

   5

   6
_OPEN
   7
_OPEN
  40
 1.0000000000000
  41
 9.0000000000000
  42
 3.0000000000000
  43
 0.10000000000000E-5
  44
 6.0000000000000
  45
0.0
  46
0.0
  47
0.0
  48
0.0
 140
 12.000000000000
 141
 3.0000000000000
 142
0.0
 143
 0.39400000000000E-1
 144
 1.0000000000000
 145
0.0
 146
 0.62500000000000
 147
 2.4000090837476
  71
0
  72
0
  73
0
  74
0
  75
0
  76
0
  77
3
  78
0
 170
0
 171
2
 172
1
 173
1
 174
0
 175
0
 176
3
 177
3
 178
3
 270
2
 271
0
 272
0
 273
2
 274
2
 340
3E
 275
1
 280
0
 281
0
 282
0
 283
1
 284
0
 285
0
 286
0
 287
3
 288
1
   0
DIMSTYLE
 105
44
 100
AcDbSymbolTableRecord
 100
AcDbDimStyleTableRecord
   2
GMM006
  70
0
   3

   4

   5

   6
_OPEN
   7
_OPEN
  40
 1.0000000000000
  41
 9.0000000000000
  42
 3.0000000000000
  43
 24.000000000000
  44
 6.0000000000000
  45
0.0
  46
0.0
  47
0.0
  48
0.0
 140
 12.000000000000
 141
 3.0000000000000
 142
0.0
 143
 0.39400000000000E-1
 144
 1.0000000000000
 145
0.0
 146
 0.62500000000000
 147
 2.4000000000000
  71
0
  72
0
  73
0
  74
0
  75
1
  76
1
  77
3
  78
8
 170
0
 171
2
 172
1
 173
1
 174
0
 175
0
 176
3
 177
3
 178
3
 270
2
 271
2
 272
0
 273
2
 274
2
 340
3E
 275
0
 280
0
 281
0
 282
0
 283
1
 284
0
 285
0
 286
0
 287
3
 288
1
   0
DIMSTYLE
 105
45
 100
AcDbSymbolTableRecord
 100
AcDbDimStyleTableRecord
   2
GMM007
  70
0
   3

   4

   5

   6
_OPEN
   7
_OPEN
  40
 1.0000000000000
  41
 9.0000000000000
  42
 3.0000000000000
  43
 24.000000000000
  44
 6.0000000000000
  45
0.0
  46
0.0
  47
0.0
  48
0.0
 140
 12.000000000000
 141
 3.0000000000000
 142
0.0
 143
 0.39400000000000E-1
 144
 1.0000000000000
 145
0.0
 146
 0.62500000000000
 147
0.0
  71
0
  72
0
  73
0
  74
0
  75
0
  76
0
  77
1
  78
8
 170
0
 171
2
 172
1
 173
1
 174
0
 175
0
 176
3
 177
3
 178
7
 270
2
 271
2
 272
0
 273
2
 274
2
 340
F
 275
0
 280
0
 281
0
 282
0
 283
1
 284
0
 285
0
 286
0
 287
3
 288
1
   0
DIMSTYLE
 105
46
 100
AcDbSymbolTableRecord
 100
AcDbDimStyleTableRecord
   2
GMM008
  70
0
   3

   4

   5

   6
_OPEN
   7
_OPEN
  40
 1.0000000000000
  41
 9.0000000000000
  42
 3.0000000000000
  43
 24.000000000000
  44
 6.0000000000000
  45
0.0
  46
0.0
  47
0.0
  48
0.0
 140
 12.000000000000
 141
 3.0000000000000
 142
0.0
 143
 0.39400000000000E-1
 144
 1.0000000000000
 145
0.0
 146
 0.62500000000000
 147
 2.4000000000000
  71
0
  72
0
  73
0
  74
0
  75
1
  76
1
  77
3
  78
8
 170
0
 171
2
 172
1
 173
1
 174
0
 175
0
 176
3
 177
3
 178
3
 270
2
 271
2
 272
0
 273
2
 274
2
 340
3E
 275
0
 280
0
 281
0
 282
0
 283
1
 284
0
 285
0
 286
0
 287
3
 288
1
   0
DIMSTYLE
 105
47
 100
AcDbSymbolTableRecord
 100
AcDbDimStyleTableRecord
   2
GMM009
  70
0
   3

   4

   5

   6
_OPEN
   7
_OPEN
  40
 1.0000000000000
  41
 9.0000000000000
  42
 3.0000000000000
  43
 0.10000000000000E-5
  44
 6.0000000000000
  45
0.0
  46
0.0
  47
0.0
  48
0.0
 140
 12.000000000000
 141
 3.0000000000000
 142
0.0
 143
 0.39400000000000E-1
 144
 1.0000000000000
 145
0.0
 146
 0.62500000000000
 147
 2.4000090837476
  71
0
  72
0
  73
0
  74
0
  75
1
  76
1
  77
3
  78
0
 170
0
 171
2
 172
1
 173
1
 174
0
 175
0
 176
3
 177
3
 178
3
 270
2
 271
0
 272
0
 273
2
 274
2
 340
3E
 275
1
 280
0
 281
0
 282
0
 283
1
 284
0
 285
0
 286
0
 287
3
 288
1
   0
ENDTAB
  0
TABLE
  2
BLOCK_RECORD
  5
1
100
AcDbSymbolTable
 70
     0
  0
BLOCK_RECORD
  5
18
100
AcDbSymbolTableRecord
100
AcDbBlockTableRecord
  2
*MODEL_SPACE
  0
BLOCK_RECORD
  5
15
100
AcDbSymbolTableRecord
100
AcDbBlockTableRecord
  2
*PAPER_SPACE
   0
BLOCK_RECORD
   5
48
 100
AcDbSymbolTableRecord
 100
AcDbBlockTableRecord
   2
*D2
   0
BLOCK_RECORD
   5
49
 100
AcDbSymbolTableRecord
 100
AcDbBlockTableRecord
   2
*D3
   0
BLOCK_RECORD
   5
4A
 100
AcDbSymbolTableRecord
 100
AcDbBlockTableRecord
   2
*D4
   0
BLOCK_RECORD
   5
4B
 100
AcDbSymbolTableRecord
 100
AcDbBlockTableRecord
   2
*D5
   0
BLOCK_RECORD
   5
4C
 100
AcDbSymbolTableRecord
 100
AcDbBlockTableRecord
   2
*D6
   0
BLOCK_RECORD
   5
4D
 100
AcDbSymbolTableRecord
 100
AcDbBlockTableRecord
   2
*D7
   0
BLOCK_RECORD
   5
4E
 100
AcDbSymbolTableRecord
 100
AcDbBlockTableRecord
   2
*D8
   0
BLOCK_RECORD
   5
4F
 100
AcDbSymbolTableRecord
 100
AcDbBlockTableRecord
   2
*D9
   0
BLOCK_RECORD
   5
50
 100
AcDbSymbolTableRecord
 100
AcDbBlockTableRecord
   2
*D10
   0
BLOCK_RECORD
   5
51
 100
AcDbSymbolTableRecord
 100
AcDbBlockTableRecord
   2
*D13
   0
BLOCK_RECORD
   5
52
 100
AcDbSymbolTableRecord
 100
AcDbBlockTableRecord
   2
*D14
   0
BLOCK_RECORD
   5
53
 100
AcDbSymbolTableRecord
 100
AcDbBlockTableRecord
   2
_ARCHTICK
   0
BLOCK_RECORD
   5
54
 100
AcDbSymbolTableRecord
 100
AcDbBlockTableRecord
   2
_BOXBLANK
   0
BLOCK_RECORD
   5
55
 100
AcDbSymbolTableRecord
 100
AcDbBlockTableRecord
   2
_BOXFILLED
   0
BLOCK_RECORD
   5
56
 100
AcDbSymbolTableRecord
 100
AcDbBlockTableRecord
   2
_CLOSED
   0
BLOCK_RECORD
   5
57
 100
AcDbSymbolTableRecord
 100
AcDbBlockTableRecord
   2
_CLOSEDBLANK
   0
BLOCK_RECORD
   5
58
 100
AcDbSymbolTableRecord
 100
AcDbBlockTableRecord
   2
_DATUMBLANK
   0
BLOCK_RECORD
   5
59
 100
AcDbSymbolTableRecord
 100
AcDbBlockTableRecord
   2
_DATUMFILLED
   0
BLOCK_RECORD
   5
5A
 100
AcDbSymbolTableRecord
 100
AcDbBlockTableRecord
   2
_DOT
   0
BLOCK_RECORD
   5
5B
 100
AcDbSymbolTableRecord
 100
AcDbBlockTableRecord
   2
_DOTBLANK
   0
BLOCK_RECORD
   5
5C
 100
AcDbSymbolTableRecord
 100
AcDbBlockTableRecord
   2
_DOTSMALL
   0
BLOCK_RECORD
   5
5D
 100
AcDbSymbolTableRecord
 100
AcDbBlockTableRecord
   2
_INTEGRAL
   0
BLOCK_RECORD
   5
5E
 100
AcDbSymbolTableRecord
 100
AcDbBlockTableRecord
   2
_NONE
   0
BLOCK_RECORD
   5
5F
 100
AcDbSymbolTableRecord
 100
AcDbBlockTableRecord
   2
_OBLIQUE
   0
BLOCK_RECORD
   5
60
 100
AcDbSymbolTableRecord
 100
AcDbBlockTableRecord
   2
_OPEN
   0
BLOCK_RECORD
   5
61
 100
AcDbSymbolTableRecord
 100
AcDbBlockTableRecord
   2
_OPEN30
   0
BLOCK_RECORD
   5
62
 100
AcDbSymbolTableRecord
 100
AcDbBlockTableRecord
   2
_OPEN90
   0
BLOCK_RECORD
   5
63
 100
AcDbSymbolTableRecord
 100
AcDbBlockTableRecord
   2
_ORIGIN
   0
ENDTAB
   0
ENDSEC
  0
SECTION
  2
BLOCKS
  0
BLOCK
  5
19
100
AcDbEntity
  8
0
100
AcDbBlockBegin
  2
*MODEL_SPACE
 70
     0
 10
0.0
 20
0.0
 30
0.0
  3
*MODEL_SPACE
  1

  0
ENDBLK
  5
1A
100
AcDbEntity
  8
0
100
AcDbBlockEnd
  0
BLOCK
  5
16
100
AcDbEntity
 67
     1
  8
0
100
AcDbBlockBegin
  2
*PAPER_SPACE
 70
     0
 10
0.0
 20
0.0
 30
0.0
  3
*PAPER_SPACE
  1

  0
ENDBLK
  5
17
100
AcDbEntity
 67
     1
  8
0
100
AcDbBlockEnd
   0
BLOCK
   5
64
 100
AcDbEntity
   8
0
 100
AcDbBlockBegin
   2
_ARCHTICK
  70
0
  10
0.0
  20
0.0
  30
0.0
   3
_ARCHTICK
   0
POLYLINE
   5
65
 100
AcDbEntity
   8
0
   6
BYBLOCK
  62
0
 100
AcDb2dPolyline
  66
1
  10
0.0
  20
0.0
  30
0.0
  70
1
  40
 0.15000000000000
  41
 0.15000000000000
   0
VERTEX
   5
66
 100
AcDbEntity
   8
0
   6
BYBLOCK
  62
0
 100
AcDbVertex
 100
AcDb2dVertex
  10
-0.50000000000000
  20
-0.50000000000000
  30
0.0
  40
 0.15000000000000
  41
 0.15000000000000
   0
VERTEX
   5
67
 100
AcDbEntity
   8
0
   6
BYBLOCK
  62
0
 100
AcDbVertex
 100
AcDb2dVertex
  10
 0.50000000000000
  20
 0.50000000000000
  30
0.0
  40
 0.15000000000000
  41
 0.15000000000000
   0
SEQEND
   5
68
 100
AcDbEntity
   8
0
   6
BYBLOCK
  62
0
   0
ENDBLK
   5
69
 100
AcDbEntity
   8
0
 100
AcDbBlockEnd
   0
BLOCK
   5
6A
 100
AcDbEntity
   8
0
 100
AcDbBlockBegin
   2
_OBLIQUE
  70
0
  10
0.0
  20
0.0
  30
0.0
   3
_OBLIQUE
   0
LINE
   5
6B
 100
AcDbEntity
   8
0
 100
AcDbLine
   6
BYBLOCK
  62
0
  10
-0.50000000000000
  20
-0.50000000000000
  30
0.0
  11
 0.50000000000000
  21
 0.50000000000000
  31
0.0
   0
ENDBLK
   5
6C
 100
AcDbEntity
   8
0
 100
AcDbBlockEnd
   0
BLOCK
   5
6D
 100
AcDbEntity
   8
0
 100
AcDbBlockBegin
   2
_BOXBLANK
  70
0
  10
0.0
  20
0.0
  30
0.0
   3
_BOXBLANK
   0
LINE
   5
6E
 100
AcDbEntity
   8
0
 100
AcDbLine
   6
BYBLOCK
  62
0
  10
-0.50000000000000
  20
-0.50000000000000
  30
0.0
  11
 0.50000000000000
  21
-0.50000000000000
  31
0.0
   0
LINE
   5
6F
 100
AcDbEntity
   8
0
 100
AcDbLine
   6
BYBLOCK
  62
0
  10
 0.50000000000000
  20
-0.50000000000000
  30
0.0
  11
 0.50000000000000
  21
 0.50000000000000
  31
0.0
   0
LINE
   5
70
 100
AcDbEntity
   8
0
 100
AcDbLine
   6
BYBLOCK
  62
0
  10
 0.50000000000000
  20
 0.50000000000000
  30
0.0
  11
-0.50000000000000
  21
 0.50000000000000
  31
0.0
   0
LINE
   5
71
 100
AcDbEntity
   8
0
 100
AcDbLine
   6
BYBLOCK
  62
0
  10
-0.50000000000000
  20
 0.50000000000000
  30
0.0
  11
-0.50000000000000
  21
-0.50000000000000
  31
0.0
   0
LINE
   5
72
 100
AcDbEntity
   8
0
 100
AcDbLine
   6
BYBLOCK
  62
0
  10
-0.50000000000000
  20
0.0
  30
0.0
  11
-1.0000000000000
  21
0.0
  31
0.0
   0
ENDBLK
   5
73
 100
AcDbEntity
   8
0
 100
AcDbBlockEnd
   0
BLOCK
   5
74
 100
AcDbEntity
   8
0
 100
AcDbBlockBegin
   2
_BOXFILLED
  70
0
  10
0.0
  20
0.0
  30
0.0
   3
_BOXFILLED
   0
SOLID
   5
75
 100
AcDbEntity
   8
0
 100
AcDbTrace
   6
BYBLOCK
  62
0
  10
-0.50000000000000
  20
 0.50000000000000
  30
0.0
  11
 0.50000000000000
  21
 0.50000000000000
  31
0.0
  12
-0.50000000000000
  22
-0.50000000000000
  32
0.0
  13
 0.50000000000000
  23
-0.50000000000000
  33
0.0
   0
LINE
   5
76
 100
AcDbEntity
   8
0
 100
AcDbLine
   6
BYBLOCK
  62
0
  10
-0.50000000000000
  20
0.0
  30
0.0
  11
-1.0000000000000
  21
0.0
  31
0.0
   0
ENDBLK
   5
77
 100
AcDbEntity
   8
0
 100
AcDbBlockEnd
   0
BLOCK
   5
78
 100
AcDbEntity
   8
0
 100
AcDbBlockBegin
   2
_CLOSED
  70
0
  10
0.0
  20
0.0
  30
0.0
   3
_CLOSED
   0
LINE
   5
79
 100
AcDbEntity
   8
0
 100
AcDbLine
   6
BYBLOCK
  62
0
  10
-1.0000000000000
  20
 0.16666666666667
  30
0.0
  11
0.0
  21
0.0
  31
0.0
   0
LINE
   5
7A
 100
AcDbEntity
   8
0
 100
AcDbLine
   6
BYBLOCK
  62
0
  10
0.0
  20
0.0
  30
0.0
  11
-1.0000000000000
  21
-0.16666666666667
  31
0.0
   0
LINE
   5
7B
 100
AcDbEntity
   8
0
 100
AcDbLine
   6
BYBLOCK
  62
0
  10
-1.0000000000000
  20
 0.16666666666667
  30
0.0
  11
-1.0000000000000
  21
-0.16666666666667
  31
0.0
   0
LINE
   5
7C
 100
AcDbEntity
   8
0
 100
AcDbLine
   6
BYBLOCK
  62
0
  10
0.0
  20
0.0
  30
0.0
  11
-1.0000000000000
  21
0.0
  31
0.0
   0
ENDBLK
   5
7D
 100
AcDbEntity
   8
0
 100
AcDbBlockEnd
   0
BLOCK
   5
7E
 100
AcDbEntity
   8
0
 100
AcDbBlockBegin
   2
_OPEN
  70
0
  10
0.0
  20
0.0
  30
0.0
   3
_OPEN
   0
LINE
   5
7F
 100
AcDbEntity
   8
0
 100
AcDbLine
   6
BYBLOCK
  62
0
  10
-1.0000000000000
  20
 0.16666666666667
  30
0.0
  11
0.0
  21
0.0
  31
0.0
   0
LINE
   5
80
 100
AcDbEntity
   8
0
 100
AcDbLine
   6
BYBLOCK
  62
0
  10
0.0
  20
0.0
  30
0.0
  11
-1.0000000000000
  21
-0.16666666666667
  31
0.0
   0
LINE
   5
81
 100
AcDbEntity
   8
0
 100
AcDbLine
   6
BYBLOCK
  62
0
  10
0.0
  20
0.0
  30
0.0
  11
-1.0000000000000
  21
0.0
  31
0.0
   0
ENDBLK
   5
82
 100
AcDbEntity
   8
0
 100
AcDbBlockEnd
   0
BLOCK
   5
83
 100
AcDbEntity
   8
0
 100
AcDbBlockBegin
   2
_OPEN30
  70
0
  10
0.0
  20
0.0
  30
0.0
   3
_OPEN30
   0
LINE
   5
84
 100
AcDbEntity
   8
0
 100
AcDbLine
   6
BYBLOCK
  62
0
  10
-1.0000000000000
  20
 0.26794919243110
  30
0.0
  11
0.0
  21
0.0
  31
0.0
   0
LINE
   5
85
 100
AcDbEntity
   8
0
 100
AcDbLine
   6
BYBLOCK
  62
0
  10
0.0
  20
0.0
  30
0.0
  11
-1.0000000000000
  21
-0.26794919243110
  31
0.0
   0
LINE
   5
86
 100
AcDbEntity
   8
0
 100
AcDbLine
   6
BYBLOCK
  62
0
  10
0.0
  20
0.0
  30
0.0
  11
-1.0000000000000
  21
0.0
  31
0.0
   0
ENDBLK
   5
87
 100
AcDbEntity
   8
0
 100
AcDbBlockEnd
   0
BLOCK
   5
88
 100
AcDbEntity
   8
0
 100
AcDbBlockBegin
   2
_OPEN90
  70
0
  10
0.0
  20
0.0
  30
0.0
   3
_OPEN90
   0
LINE
   5
89
 100
AcDbEntity
   8
0
 100
AcDbLine
   6
BYBLOCK
  62
0
  10
-0.50000000000000
  20
 0.50000000000000
  30
0.0
  11
0.0
  21
0.0
  31
0.0
   0
LINE
   5
8A
 100
AcDbEntity
   8
0
 100
AcDbLine
   6
BYBLOCK
  62
0
  10
0.0
  20
0.0
  30
0.0
  11
-0.50000000000000
  21
-0.50000000000000
  31
0.0
   0
LINE
   5
8B
 100
AcDbEntity
   8
0
 100
AcDbLine
   6
BYBLOCK
  62
0
  10
0.0
  20
0.0
  30
0.0
  11
-1.0000000000000
  21
0.0
  31
0.0
   0
ENDBLK
   5
8C
 100
AcDbEntity
   8
0
 100
AcDbBlockEnd
   0
BLOCK
   5
8D
 100
AcDbEntity
   8
0
 100
AcDbBlockBegin
   2
_CLOSEDBLANK
  70
0
  10
0.0
  20
0.0
  30
0.0
   3
_CLOSEDBLANK
   0
LINE
   5
8E
 100
AcDbEntity
   8
0
 100
AcDbLine
   6
BYBLOCK
  62
0
  10
-1.0000000000000
  20
 0.16666666666667
  30
0.0
  11
0.0
  21
0.0
  31
0.0
   0
LINE
   5
8F
 100
AcDbEntity
   8
0
 100
AcDbLine
   6
BYBLOCK
  62
0
  10
0.0
  20
0.0
  30
0.0
  11
-1.0000000000000
  21
-0.16666666666667
  31
0.0
   0
LINE
   5
90
 100
AcDbEntity
   8
0
 100
AcDbLine
   6
BYBLOCK
  62
0
  10
-1.0000000000000
  20
 0.16666666666667
  30
0.0
  11
-1.0000000000000
  21
-0.16666666666667
  31
0.0
   0
ENDBLK
   5
91
 100
AcDbEntity
   8
0
 100
AcDbBlockEnd
   0
BLOCK
   5
92
 100
AcDbEntity
   8
0
 100
AcDbBlockBegin
   2
_DOT
  70
0
  10
0.0
  20
0.0
  30
0.0
   3
_DOT
   0
POLYLINE
   5
93
 100
AcDbEntity
   8
0
   6
BYBLOCK
  62
0
 100
AcDb2dPolyline
  66
1
  10
0.0
  20
0.0
  30
0.0
  70
1
  40
 0.50000000000000
  41
 0.50000000000000
   0
VERTEX
   5
94
 100
AcDbEntity
   8
0
   6
BYBLOCK
  62
0
 100
AcDbVertex
 100
AcDb2dVertex
  10
-0.25000000000000
  20
0.0
  30
0.0
  42
 1.0000000000000
  40
 0.50000000000000
  41
 0.50000000000000
   0
VERTEX
   5
95
 100
AcDbEntity
   8
0
   6
BYBLOCK
  62
0
 100
AcDbVertex
 100
AcDb2dVertex
  10
 0.25000000000000
  20
0.0
  30
0.0
  42
 1.0000000000000
  40
 0.50000000000000
  41
 0.50000000000000
   0
SEQEND
   5
96
 100
AcDbEntity
   8
0
   6
BYBLOCK
  62
0
   0
LINE
   5
97
 100
AcDbEntity
   8
0
 100
AcDbLine
   6
BYBLOCK
  62
0
  10
-0.50000000000000
  20
0.0
  30
0.0
  11
-1.0000000000000
  21
0.0
  31
0.0
   0
ENDBLK
   5
98
 100
AcDbEntity
   8
0
 100
AcDbBlockEnd
   0
BLOCK
   5
99
 100
AcDbEntity
   8
0
 100
AcDbBlockBegin
   2
_DOTSMALL
  70
0
  10
0.0
  20
0.0
  30
0.0
   3
_DOTSMALL
   0
POLYLINE
   5
9A
 100
AcDbEntity
   8
0
   6
BYBLOCK
  62
0
 100
AcDb2dPolyline
  66
1
  10
0.0
  20
0.0
  30
0.0
  70
1
  40
 0.50000000000000
  41
 0.50000000000000
   0
VERTEX
   5
9B
 100
AcDbEntity
   8
0
   6
BYBLOCK
  62
0
 100
AcDbVertex
 100
AcDb2dVertex
  10
-0.62500000000000E-1
  20
0.0
  30
0.0
  42
 1.0000000000000
  40
 0.50000000000000
  41
 0.50000000000000
   0
VERTEX
   5
9C
 100
AcDbEntity
   8
0
   6
BYBLOCK
  62
0
 100
AcDbVertex
 100
AcDb2dVertex
  10
 0.62500000000000E-1
  20
0.0
  30
0.0
  42
 1.0000000000000
  40
 0.50000000000000
  41
 0.50000000000000
   0
SEQEND
   5
9D
 100
AcDbEntity
   8
0
   6
BYBLOCK
  62
0
   0
ENDBLK
   5
9E
 100
AcDbEntity
   8
0
 100
AcDbBlockEnd
   0
BLOCK
   5
9F
 100
AcDbEntity
   8
0
 100
AcDbBlockBegin
   2
_DATUMBLANK
  70
0
  10
0.0
  20
0.0
  30
0.0
   3
_DATUMBLANK
   0
LINE
   5
A0
 100
AcDbEntity
   8
0
 100
AcDbLine
   6
BYBLOCK
  62
0
  10
0.0
  20
 0.57735027000000
  30
0.0
  11
-1.0000000000000
  21
0.0
  31
0.0
   0
LINE
   5
A1
 100
AcDbEntity
   8
0
 100
AcDbLine
   6
BYBLOCK
  62
0
  10
-1.0000000000000
  20
0.0
  30
0.0
  11
0.0
  21
-0.57735027000000
  31
0.0
   0
LINE
   5
A2
 100
AcDbEntity
   8
0
 100
AcDbLine
   6
BYBLOCK
  62
0
  10
0.0
  20
-0.57735027000000
  30
0.0
  11
0.0
  21
 0.57735027000000
  31
0.0
   0
ENDBLK
   5
A3
 100
AcDbEntity
   8
0
 100
AcDbBlockEnd
   0
BLOCK
   5
A4
 100
AcDbEntity
   8
0
 100
AcDbBlockBegin
   2
_DATUMFILLED
  70
0
  10
0.0
  20
0.0
  30
0.0
   3
_DATUMFILLED
   0
SOLID
   5
A5
 100
AcDbEntity
   8
0
 100
AcDbTrace
   6
BYBLOCK
  62
0
  10
0.0
  20
 0.57735027000000
  30
0.0
  11
-1.0000000000000
  21
0.0
  31
0.0
  12
0.0
  22
-0.57735027000000
  32
0.0
  13
0.0
  23
-0.57735027000000
  33
0.0
   0
ENDBLK
   5
A6
 100
AcDbEntity
   8
0
 100
AcDbBlockEnd
   0
BLOCK
   5
A7
 100
AcDbEntity
   8
0
 100
AcDbBlockBegin
   2
_ORIGIN
  70
0
  10
0.0
  20
0.0
  30
0.0
   3
_ORIGIN
   0
CIRCLE
   5
A8
 100
AcDbEntity
   8
0
 100
AcDbCircle
   6
BYBLOCK
  62
0
  10
0.0
  20
0.0
  30
0.0
  40
 0.50000000000000
   0
LINE
   5
A9
 100
AcDbEntity
   8
0
 100
AcDbLine
   6
BYBLOCK
  62
0
  10
0.0
  20
0.0
  30
0.0
  11
-1.0000000000000
  21
0.0
  31
0.0
   0
ENDBLK
   5
AA
 100
AcDbEntity
   8
0
 100
AcDbBlockEnd
   0
BLOCK
   5
AB
 100
AcDbEntity
   8
0
 100
AcDbBlockBegin
   2
_NONE
  70
0
  10
0.0
  20
0.0
  30
0.0
   3
_NONE
   0
CIRCLE
   5
AC
 100
AcDbEntity
   8
0
 100
AcDbCircle
   6
BYBLOCK
  62
0
  10
0.0
  20
0.0
  30
0.0
  40
 0.25000000000000
   0
ENDBLK
   5
AD
 100
AcDbEntity
   8
0
 100
AcDbBlockEnd
   0
BLOCK
   5
AE
 100
AcDbEntity
   8
0
 100
AcDbBlockBegin
   2
_DOTBLANK
  70
0
  10
0.0
  20
0.0
  30
0.0
   3
_DOTBLANK
   0
CIRCLE
   5
AF
 100
AcDbEntity
   8
0
 100
AcDbCircle
   6
BYBLOCK
  62
0
  10
0.0
  20
0.0
  30
0.0
  40
 0.50000000000000
   0
LINE
   5
B0
 100
AcDbEntity
   8
0
 100
AcDbLine
   6
BYBLOCK
  62
0
  10
-0.50000000000000
  20
0.0
  30
0.0
  11
-1.0000000000000
  21
0.0
  31
0.0
   0
ENDBLK
   5
B1
 100
AcDbEntity
   8
0
 100
AcDbBlockEnd
   0
BLOCK
   5
B2
 100
AcDbEntity
   8
0
 100
AcDbBlockBegin
   2
_INTEGRAL
  70
0
  10
0.0
  20
0.0
  30
0.0
   3
_INTEGRAL
   0
ARC
   5
B3
 100
AcDbEntity
   8
0
   6
BYBLOCK
  62
0
 100
AcDbCircle
  10
 0.44488800000000
  20
-0.91335000000000E-1
  30
0.0
  40
 0.45416700000000
 100
AcDbArc
  50
 102.00000000000
  51
 168.00000000000
   0
ARC
   5
B4
 100
AcDbEntity
   8
0
   6
BYBLOCK
  62
0
 100
AcDbCircle
  10
-0.44488800000000
  20
 0.91335000000000E-1
  30
0.0
  40
 0.45416700000000
 100
AcDbArc
  50
 282.00000000000
  51
 348.00000000000
   0
ENDBLK
   5
B5
 100
AcDbEntity
   8
0
 100
AcDbBlockEnd
   0
BLOCK
   5
B6
 100
AcDbEntity
   8
0
 100
AcDbBlockBegin
   2
*D2
  70
65
  10
0.0
  20
0.0
  30
0.0
   3
*D2
   0
LINE
   5
B7
 100
AcDbEntity
   8
LEVEL003
 100
AcDbLine
   6
CONTINUOUS
  62
3
  10
 374.00000625849
  20
 752.99999552965
  30
0.0
  11
 188.99999642372
  21
 752.99999552965
  31
0.0
   0
LINE
   5
B8
 100
AcDbEntity
   8
LEVEL003
 100
AcDbLine
   6
CONTINUOUS
  62
3
  10
 324.50000773370
  20
 104.99999552965
  30
0.0
  11
 188.99999642372
  21
 104.99999552965
  31
0.0
   0
LINE
   5
B9
 100
AcDbEntity
   8
LEVEL003
 100
AcDbLine
   6
CONTINUOUS
  62
3
  10
 194.99999642372
  20
 752.99999552965
  30
0.0
  11
 194.99999642372
  21
 447.11249552965
  31
0.0
   0
LINE
   5
BA
 100
AcDbEntity
   8
LEVEL003
 100
AcDbLine
   6
CONTINUOUS
  62
3
  10
 194.99999642372
  20
 104.99999552965
  30
0.0
  11
 194.99999642372
  21
 410.88749552965
  31
0.0
   0
INSERT
   5
BB
 100
AcDbEntity
   8
LEVEL003
   6
CONTINUOUS
  62
3
 100
AcDbBlockReference
   2
_OPEN
  10
 194.99999642372
  20
 752.99999552965
  30
0.0
  41
 9.0000000000000
  42
 9.0000000000000
  43
 9.0000000000000
  50
 90.000000000000
   0
INSERT
   5
BC
 100
AcDbEntity
   8
LEVEL003
   6
CONTINUOUS
  62
3
 100
AcDbBlockReference
   2
_OPEN
  10
 194.99999642372
  20
 104.99999552965
  30
0.0
  41
 9.0000000000000
  42
 9.0000000000000
  43
 9.0000000000000
  50
 270.00000000000
   0
MTEXT
   5
BD
 100
AcDbEntity
   8
LEVEL003
  62
3
 100
AcDbMText
  10
 192.59999878406
  20
 428.99999552965
  30
0.0
  40
 12.000000000000
  41
0.0
  71
8
  72
1
   1
\A1;648
   7
GMM001
  11
0.0
  21
 1.0000000000000
  31
0.0
   0
ENDBLK
   5
BE
 100
AcDbEntity
   8
0
 100
AcDbBlockEnd
   0
BLOCK
   5
BF
 100
AcDbEntity
   8
0
 100
AcDbBlockBegin
   2
*D3
  70
65
  10
0.0
  20
0.0
  30
0.0
   3
*D3
   0
LINE
   5
C0
 100
AcDbEntity
   8
LEVEL003
 100
AcDbLine
   6
CONTINUOUS
  62
3
  10
 374.99999105930
  20
 754.00002610683
  30
0.0
  11
 374.99999105930
  21
 800.99999427795
  31
0.0
   0
LINE
   5
C1
 100
AcDbEntity
   8
LEVEL003
 100
AcDbLine
   6
CONTINUOUS
  62
3
  10
 524.99998658896
  20
 753.99993455410
  30
0.0
  11
 524.99998658896
  21
 800.99999427795
  31
0.0
   0
LINE
   5
C2
 100
AcDbEntity
   8
LEVEL003
 100
AcDbLine
   6
CONTINUOUS
  62
3
  10
 374.99999105930
  20
 794.99999427795
  30
0.0
  11
 426.50623882413
  21
 794.99999427795
  31
0.0
   0
LINE
   5
C3
 100
AcDbEntity
   8
LEVEL003
 100
AcDbLine
   6
CONTINUOUS
  62
3
  10
 524.99998658896
  20
 794.99999427795
  30
0.0
  11
 473.49373882413
  21
 794.99999427795
  31
0.0
   0
INSERT
   5
C4
 100
AcDbEntity
   8
LEVEL003
   6
CONTINUOUS
  62
3
 100
AcDbBlockReference
   2
_OPEN
  10
 374.99999105930
  20
 794.99999427795
  30
0.0
  41
 9.0000000000000
  42
 9.0000000000000
  43
 9.0000000000000
  50
 180.00000000000
   0
INSERT
   5
C5
 100
AcDbEntity
   8
LEVEL003
   6
CONTINUOUS
  62
3
 100
AcDbBlockReference
   2
_OPEN
  10
 524.99998658896
  20
 794.99999427795
  30
0.0
  41
 9.0000000000000
  42
 9.0000000000000
  43
 9.0000000000000
  50
0.0
   0
MTEXT
   5
C6
 100
AcDbEntity
   8
LEVEL003
  62
3
 100
AcDbMText
  10
 449.99998882413
  20
 797.40000336170
  30
0.0
  40
 12.000000000000
  41
0.0
  71
8
  72
1
   1
\A1;%%c150
   7
GMM001
   0
ENDBLK
   5
C7
 100
AcDbEntity
   8
0
 100
AcDbBlockEnd
   0
BLOCK
   5
C8
 100
AcDbEntity
   8
0
 100
AcDbBlockBegin
   2
*D4
  70
65
  10
0.0
  20
0.0
  30
0.0
   3
*D4
   0
LINE
   5
C9
 100
AcDbEntity
   8
LEVEL003
 100
AcDbLine
   6
CONTINUOUS
  62
3
  10
 575.49996991456
  20
 104.99999552965
  30
0.0
  11
 695.99998167157
  21
 104.99999552965
  31
0.0
   0
LINE
   5
CA
 100
AcDbEntity
   8
LEVEL003
 100
AcDbLine
   6
CONTINUOUS
  62
3
  10
 689.99998167157
  20
 104.99999552965
  30
0.0
  11
 689.99998167157
  21
 118.97500241399
  31
0.0
   0
LINE
   5
CB
 100
AcDbEntity
   8
LEVEL003
 100
AcDbLine
   6
CONTINUOUS
  62
3
  10
 689.99998167157
  20
 155.00000929832
  30
0.0
  11
 689.99998167157
  21
 141.02500241399
  31
0.0
   0
INSERT
   5
CC
 100
AcDbEntity
   8
LEVEL003
   6
CONTINUOUS
  62
3
 100
AcDbBlockReference
   2
_OPEN
  10
 689.99998167157
  20
 104.99999552965
  30
0.0
  41
 9.0000000000000
  42
 9.0000000000000
  43
 9.0000000000000
  50
 270.00000000000
   0
INSERT
   5
CD
 100
AcDbEntity
   8
LEVEL003
   6
CONTINUOUS
  62
3
 100
AcDbBlockReference
   2
_OPEN
  10
 689.99998167157
  20
 155.00000929832
  30
0.0
  41
 9.0000000000000
  42
 9.0000000000000
  43
 9.0000000000000
  50
 90.000000000000
   0
MTEXT
   5
CE
 100
AcDbEntity
   8
LEVEL003
  62
3
 100
AcDbMText
  10
 687.59997258782
  20
 130.00000241399
  30
0.0
  40
 12.000000000000
  41
0.0
  71
8
  72
1
   1
\A1;50
   7
GMM001
  11
0.0
  21
 1.0000000000000
  31
0.0
   0
ENDBLK
   5
CF
 100
AcDbEntity
   8
0
 100
AcDbBlockEnd
   0
BLOCK
   5
D0
 100
AcDbEntity
   8
0
 100
AcDbBlockBegin
   2
*D5
  70
65
  10
0.0
  20
0.0
  30
0.0
   3
*D5
   0
LINE
   5
D1
 100
AcDbEntity
   8
LEVEL003
 100
AcDbLine
   6
CONTINUOUS
  62
3
  10
 645.49999834597
  20
 155.00000929832
  30
0.0
  11
 695.99998167157
  21
 155.00000929832
  31
0.0
   0
LINE
   5
D2
 100
AcDbEntity
   8
LEVEL003
 100
AcDbLine
   6
CONTINUOUS
  62
3
  10
 645.49999834597
  20
 550.00003209710
  30
0.0
  11
 695.99998167157
  21
 550.00003209710
  31
0.0
   0
LINE
   5
D3
 100
AcDbEntity
   8
LEVEL003
 100
AcDbLine
   6
CONTINUOUS
  62
3
  10
 689.99998167157
  20
 155.00000929832
  30
0.0
  11
 689.99998167157
  21
 334.38748379636
  31
0.0
   0
LINE
   5
D4
 100
AcDbEntity
   8
LEVEL003
 100
AcDbLine
   6
CONTINUOUS
  62
3
  10
 689.99998167157
  20
 550.00003209710
  30
0.0
  11
 689.99998167157
  21
 370.61248379636
  31
0.0
   0
INSERT
   5
D5
 100
AcDbEntity
   8
LEVEL003
   6
CONTINUOUS
  62
3
 100
AcDbBlockReference
   2
_OPEN
  10
 689.99998167157
  20
 155.00000929832
  30
0.0
  41
 9.0000000000000
  42
 9.0000000000000
  43
 9.0000000000000
  50
 270.00000000000
   0
INSERT
   5
D6
 100
AcDbEntity
   8
LEVEL003
   6
CONTINUOUS
  62
3
 100
AcDbBlockReference
   2
_OPEN
  10
 689.99998167157
  20
 550.00003209710
  30
0.0
  41
 9.0000000000000
  42
 9.0000000000000
  43
 9.0000000000000
  50
 90.000000000000
   0
MTEXT
   5
D7
 100
AcDbEntity
   8
LEVEL003
  62
3
 100
AcDbMText
  10
 687.59997258782
  20
 352.49998379636
  30
0.0
  40
 12.000000000000
  41
0.0
  71
8
  72
1
   1
\A1;395
   7
GMM001
  11
0.0
  21
 1.0000000000000
  31
0.0
   0
ENDBLK
   5
D8
 100
AcDbEntity
   8
0
 100
AcDbBlockEnd
   0
BLOCK
   5
D9
 100
AcDbEntity
   8
0
 100
AcDbBlockBegin
   2
*D6
  70
65
  10
0.0
  20
0.0
  30
0.0
   3
*D6
   0
LINE
   5
DA
 100
AcDbEntity
   8
LEVEL003
 100
AcDbLine
   6
CONTINUOUS
  62
3
  10
 374.00000625849
  20
 752.99999552965
  30
0.0
  11
 218.99999552965
  21
 752.99999552965
  31
0.0
   0
LINE
   5
DB
 100
AcDbEntity
   8
LEVEL003
 100
AcDbLine
   6
CONTINUOUS
  62
3
  10
 322.00001475215
  20
 595.00003075600
  30
0.0
  11
 218.99999552965
  21
 595.00003075600
  31
0.0
   0
LINE
   5
DC
 100
AcDbEntity
   8
LEVEL003
 100
AcDbLine
   6
CONTINUOUS
  62
3
  10
 224.99999552965
  20
 752.99999552965
  30
0.0
  11
 224.99999552965
  21
 690.14376314282
  31
0.0
   0
LINE
   5
DD
 100
AcDbEntity
   8
LEVEL003
 100
AcDbLine
   6
CONTINUOUS
  62
3
  10
 224.99999552965
  20
 595.00003075600
  30
0.0
  11
 224.99999552965
  21
 657.85626314282
  31
0.0
   0
INSERT
   5
DE
 100
AcDbEntity
   8
LEVEL003
   6
CONTINUOUS
  62
3
 100
AcDbBlockReference
   2
_OPEN
  10
 224.99999552965
  20
 752.99999552965
  30
0.0
  41
 9.0000000000000
  42
 9.0000000000000
  43
 9.0000000000000
  50
 90.000000000000
   0
INSERT
   5
DF
 100
AcDbEntity
   8
LEVEL003
   6
CONTINUOUS
  62
3
 100
AcDbBlockReference
   2
_OPEN
  10
 224.99999552965
  20
 595.00003075600
  30
0.0
  41
 9.0000000000000
  42
 9.0000000000000
  43
 9.0000000000000
  50
 270.00000000000
   0
MTEXT
   5
E0
 100
AcDbEntity
   8
LEVEL003
  62
3
 100
AcDbMText
  10
 222.59998644590
  20
 674.00001314282
  30
0.0
  40
 12.000000000000
  41
0.0
  71
8
  72
1
   1
\A1;158
   7
GMM001
  11
0.0
  21
 1.0000000000000
  31
0.0
   0
ENDBLK
   5
E1
 100
AcDbEntity
   8
0
 100
AcDbBlockEnd
   0
BLOCK
   5
E2
 100
AcDbEntity
   8
0
 100
AcDbBlockBegin
   2
*D7
  70
65
  10
0.0
  20
0.0
  30
0.0
   3
*D7
   0
LINE
   5
E3
 100
AcDbEntity
   8
LEVEL003
 100
AcDbLine
   6
CONTINUOUS
  62
3
  10
 325.49998413026
  20
 659.99999830127
  30
0.0
  11
 248.99999463558
  21
 659.99999830127
  31
0.0
   0
LINE
   5
E4
 100
AcDbEntity
   8
LEVEL003
 100
AcDbLine
   6
CONTINUOUS
  62
3
  10
 322.00001475215
  20
 595.00003075600
  30
0.0
  11
 248.99999463558
  21
 595.00003075600
  31
0.0
   0
LINE
   5
E5
 100
AcDbEntity
   8
LEVEL003
 100
AcDbLine
   6
CONTINUOUS
  62
3
  10
 254.99999463558
  20
 659.99999830127
  30
0.0
  11
 254.99999463558
  21
 639.57501452863
  31
0.0
   0
LINE
   5
E6
 100
AcDbEntity
   8
LEVEL003
 100
AcDbLine
   6
CONTINUOUS
  62
3
  10
 254.99999463558
  20
 595.00003075600
  30
0.0
  11
 254.99999463558
  21
 615.42501452863
  31
0.0
   0
INSERT
   5
E7
 100
AcDbEntity
   8
LEVEL003
   6
CONTINUOUS
  62
3
 100
AcDbBlockReference
   2
_OPEN
  10
 254.99999463558
  20
 659.99999830127
  30
0.0
  41
 9.0000000000000
  42
 9.0000000000000
  43
 9.0000000000000
  50
 90.000000000000
   0
INSERT
   5
E8
 100
AcDbEntity
   8
LEVEL003
   6
CONTINUOUS
  62
3
 100
AcDbBlockReference
   2
_OPEN
  10
 254.99999463558
  20
 595.00003075600
  30
0.0
  41
 9.0000000000000
  42
 9.0000000000000
  43
 9.0000000000000
  50
 270.00000000000
   0
MTEXT
   5
E9
 100
AcDbEntity
   8
LEVEL003
  62
3
 100
AcDbMText
  10
 252.59998555183
  20
 627.50001452863
  30
0.0
  40
 12.000000000000
  41
0.0
  71
8
  72
1
   1
\A1;65
   7
GMM001
  11
0.0
  21
 1.0000000000000
  31
0.0
   0
ENDBLK
   5
EA
 100
AcDbEntity
   8
0
 100
AcDbBlockEnd
   0
BLOCK
   5
EB
 100
AcDbEntity
   8
0
 100
AcDbBlockBegin
   2
*D8
  70
65
  10
0.0
  20
0.0
  30
0.0
   3
*D8
   0
LINE
   5
EC
 100
AcDbEntity
   8
LEVEL003
 100
AcDbLine
   6
CONTINUOUS
  62
3
  10
 374.00000625849
  20
 752.99999552965
  30
0.0
  11
 248.99999463558
  21
 752.99999552965
  31
0.0
   0
LINE
   5
ED
 100
AcDbEntity
   8
LEVEL003
 100
AcDbLine
   6
CONTINUOUS
  62
3
  10
 254.99999463558
  20
 752.99999552965
  30
0.0
  11
 254.99999463558
  21
 752.57498064339
  31
0.0
   0
LINE
   5
EE
 100
AcDbEntity
   8
LEVEL003
 100
AcDbLine
   6
CONTINUOUS
  62
3
  10
 254.99999463558
  20
 727.99996575713
  30
0.0
  11
 254.99999463558
  21
 728.42498064339
  31
0.0
   0
INSERT
   5
EF
 100
AcDbEntity
   8
LEVEL003
   6
CONTINUOUS
  62
3
 100
AcDbBlockReference
   2
_OPEN
  10
 254.99999463558
  20
 752.99999552965
  30
0.0
  41
 9.0000000000000
  42
 9.0000000000000
  43
 9.0000000000000
  50
 90.000000000000
   0
INSERT
   5
F0
 100
AcDbEntity
   8
LEVEL003
   6
CONTINUOUS
  62
3
 100
AcDbBlockReference
   2
_OPEN
  10
 254.99999463558
  20
 727.99996575713
  30
0.0
  41
 9.0000000000000
  42
 9.0000000000000
  43
 9.0000000000000
  50
 270.00000000000
   0
MTEXT
   5
F1
 100
AcDbEntity
   8
LEVEL003
  62
3
 100
AcDbMText
  10
 252.59998555183
  20
 740.49998064339
  30
0.0
  40
 12.000000000000
  41
0.0
  71
8
  72
1
   1
\A1;25
   7
GMM001
  11
0.0
  21
 1.0000000000000
  31
0.0
   0
ENDBLK
   5
F2
 100
AcDbEntity
   8
0
 100
AcDbBlockEnd
   0
BLOCK
   5
F3
 100
AcDbEntity
   8
0
 100
AcDbBlockBegin
   2
*D9
  70
65
  10
0.0
  20
0.0
  30
0.0
   3
*D9
   0
LINE
   5
F4
 100
AcDbEntity
   8
LEVEL003
 100
AcDbLine
   6
CONTINUOUS
  62
3
  10
 389.00002816319
  20
 727.99996575713
  30
0.0
  11
 248.99999463558
  21
 727.99996575713
  31
0.0
   0
LINE
   5
F5
 100
AcDbEntity
   8
LEVEL003
 100
AcDbLine
   6
CONTINUOUS
  62
3
  10
 377.99997353554
  20
 662.99999821186
  30
0.0
  11
 248.99999463558
  21
 662.99999821186
  31
0.0
   0
LINE
   5
F6
 100
AcDbEntity
   8
LEVEL003
 100
AcDbLine
   6
CONTINUOUS
  62
3
  10
 254.99999463558
  20
 727.99996575713
  30
0.0
  11
 254.99999463558
  21
 707.57498198450
  31
0.0
   0
LINE
   5
F7
 100
AcDbEntity
   8
LEVEL003
 100
AcDbLine
   6
CONTINUOUS
  62
3
  10
 254.99999463558
  20
 662.99999821186
  30
0.0
  11
 254.99999463558
  21
 683.42498198450
  31
0.0
   0
INSERT
   5
F8
 100
AcDbEntity
   8
LEVEL003
   6
CONTINUOUS
  62
3
 100
AcDbBlockReference
   2
_OPEN
  10
 254.99999463558
  20
 727.99996575713
  30
0.0
  41
 9.0000000000000
  42
 9.0000000000000
  43
 9.0000000000000
  50
 90.000000000000
   0
INSERT
   5
F9
 100
AcDbEntity
   8
LEVEL003
   6
CONTINUOUS
  62
3
 100
AcDbBlockReference
   2
_OPEN
  10
 254.99999463558
  20
 662.99999821186
  30
0.0
  41
 9.0000000000000
  42
 9.0000000000000
  43
 9.0000000000000
  50
 270.00000000000
   0
MTEXT
   5
FA
 100
AcDbEntity
   8
LEVEL003
  62
3
 100
AcDbMText
  10
 252.59998555183
  20
 695.49998198450
  30
0.0
  40
 12.000000000000
  41
0.0
  71
8
  72
1
   1
\A1;65
   7
GMM001
  11
0.0
  21
 1.0000000000000
  31
0.0
   0
ENDBLK
   5
FB
 100
AcDbEntity
   8
0
 100
AcDbBlockEnd
   0
BLOCK
   5
FC
 100
AcDbEntity
   8
0
 100
AcDbBlockBegin
   2
*D10
  70
65
  10
0.0
  20
0.0
  30
0.0
   3
*D10
   0
LINE
   5
FD
 100
AcDbEntity
   8
LEVEL003
 100
AcDbLine
   6
CONTINUOUS
  62
3
  10
 379.99998882413
  20
 540.00001484156
  30
0.0
  11
 456.50623882413
  21
 540.00001484156
  31
0.0
   0
LINE
   5
FE
 100
AcDbEntity
   8
LEVEL003
 100
AcDbLine
   6
CONTINUOUS
  62
3
  10
 519.99998882413
  20
 540.00001484156
  30
0.0
  11
 503.49373882413
  21
 540.00001484156
  31
0.0
   0
INSERT
   5
FF
 100
AcDbEntity
   8
LEVEL003
   6
CONTINUOUS
  62
3
 100
AcDbBlockReference
   2
_OPEN
  10
 379.99998882413
  20
 540.00001484156
  30
0.0
  41
 9.0000000000000
  42
 9.0000000000000
  43
 9.0000000000000
  50
 180.00000000000
   0
INSERT
   5
100
 100
AcDbEntity
   8
LEVEL003
   6
CONTINUOUS
  62
3
 100
AcDbBlockReference
   2
_OPEN
  10
 519.99998882413
  20
 540.00001484156
  30
0.0
  41
 9.0000000000000
  42
 9.0000000000000
  43
 9.0000000000000
  50
0.0
   0
MTEXT
   5
101
 100
AcDbEntity
   8
LEVEL003
  62
3
 100
AcDbMText
  10
 479.99998882413
  20
 542.40001484156
  30
0.0
  40
 12.000000000000
  41
0.0
  71
8
  72
1
   1
\A1;%%c140
   7
GMM001
   0
ENDBLK
   5
102
 100
AcDbEntity
   8
0
 100
AcDbBlockEnd
   0
BLOCK
   5
103
 100
AcDbEntity
   8
0
 100
AcDbBlockBegin
   2
*D13
  70
65
  10
0.0
  20
0.0
  30
0.0
   3
*D13
   0
LINE
   5
104
 100
AcDbEntity
   8
LEVEL003
 100
AcDbLine
   6
CONTINUOUS
  62
3
  10
 352.49999172986
  20
 322.50000000000
  30
0.0
  11
 455.45623882413
  21
 322.50000000000
  31
0.0
   0
LINE
   5
105
 100
AcDbEntity
   8
LEVEL003
 100
AcDbLine
   6
CONTINUOUS
  62
3
  10
 547.49998591840
  20
 322.50000000000
  30
0.0
  11
 504.54373882413
  21
 322.50000000000
  31
0.0
   0
INSERT
   5
106
 100
AcDbEntity
   8
LEVEL003
   6
CONTINUOUS
  62
3
 100
AcDbBlockReference
   2
_OPEN
  10
 352.49999172986
  20
 322.50000000000
  30
0.0
  41
 9.0000000000000
  42
 9.0000000000000
  43
 9.0000000000000
  50
 180.00000000000
   0
INSERT
   5
107
 100
AcDbEntity
   8
LEVEL003
   6
CONTINUOUS
  62
3
 100
AcDbBlockReference
   2
_OPEN
  10
 547.49998591840
  20
 322.50000000000
  30
0.0
  41
 9.0000000000000
  42
 9.0000000000000
  43
 9.0000000000000
  50
0.0
   0
MTEXT
   5
108
 100
AcDbEntity
   8
LEVEL003
  62
3
 100
AcDbMText
  10
 479.99998882413
  20
 324.90000000000
  30
0.0
  40
 12.000000000000
  41
0.0
  71
8
  72
1
   1
\A1;%%c195
   7
GMM001
   0
ENDBLK
   5
109
 100
AcDbEntity
   8
0
 100
AcDbBlockEnd
   0
BLOCK
   5
10A
 100
AcDbEntity
   8
0
 100
AcDbBlockBegin
   2
*D14
  70
65
  10
0.0
  20
0.0
  30
0.0
   3
*D14
   0
LINE
   5
10B
 100
AcDbEntity
   8
LEVEL003
 100
AcDbLine
   6
CONTINUOUS
  62
3
  10
 322.49999262393
  20
 299.99998971820
  30
0.0
  11
 453.48748882413
  21
 299.99998971820
  31
0.0
   0
LINE
   5
10C
 100
AcDbEntity
   8
LEVEL003
 100
AcDbLine
   6
CONTINUOUS
  62
3
  10
 577.49998502433
  20
 299.99998971820
  30
0.0
  11
 506.51248882413
  21
 299.99998971820
  31
0.0
   0
INSERT
   5
10D
 100
AcDbEntity
   8
LEVEL003
   6
CONTINUOUS
  62
3
 100
AcDbBlockReference
   2
_OPEN
  10
 322.49999262393
  20
 299.99998971820
  30
0.0
  41
 9.0000000000000
  42
 9.0000000000000
  43
 9.0000000000000
  50
 180.00000000000
   0
INSERT
   5
10E
 100
AcDbEntity
   8
LEVEL003
   6
CONTINUOUS
  62
3
 100
AcDbBlockReference
   2
_OPEN
  10
 577.49998502433
  20
 299.99998971820
  30
0.0
  41
 9.0000000000000
  42
 9.0000000000000
  43
 9.0000000000000
  50
0.0
   0
MTEXT
   5
10F
 100
AcDbEntity
   8
LEVEL003
  62
3
 100
AcDbMText
  10
 479.99998882413
  20
 302.39999880195
  30
0.0
  40
 12.000000000000
  41
0.0
  71
8
  72
1
   1
\A1;%%c255
   7
GMM001
   0
ENDBLK
   5
110
 100
AcDbEntity
   8
0
 100
AcDbBlockEnd
   0
ENDSEC
   0
SECTION
   2
ENTITIES
   0
LINE
   5
111
 100
AcDbEntity
   8
LEVEL001
 100
AcDbLine
   6
CONTINUOUS
  62
7
  10
 577.49998502433
  20
 110.00001063943
  30
0.0
  11
 572.49996991456
  21
 104.99999552965
  31
0.0
   0
LINE
   5
112
 100
AcDbEntity
   8
LEVEL001
 100
AcDbLine
   6
CONTINUOUS
  62
7
  10
 322.49999262393
  20
 110.00001063943
  30
0.0
  11
 327.50000773370
  21
 104.99999552965
  31
0.0
   0
LINE
   5
113
 100
AcDbEntity
   8
LEVEL001
 100
AcDbLine
   6
CONTINUOUS
  62
7
  10
 572.49996991456
  20
 104.99999552965
  30
0.0
  11
 327.50000773370
  21
 104.99999552965
  31
0.0
   0
LINE
   5
114
 100
AcDbEntity
   8
LEVEL001
 100
AcDbLine
   6
CONTINUOUS
  62
3
  10
 583.59071360258
  20
 145.49418072420
  30
0.0
  11
 583.59080515531
  21
 164.50588364882
  31
0.0
   0
LINE
   5
115
 100
AcDbEntity
   8
LEVEL001
 100
AcDbLine
   6
CONTINUOUS
  62
3
  10
 588.49999995530
  20
 165.82126752075
  30
0.0
  11
 583.59080515531
  21
 164.50588364882
  31
0.0
   0
LINE
   5
116
 100
AcDbEntity
   8
LEVEL001
 100
AcDbLine
   6
CONTINUOUS
  62
3
  10
 588.49999995530
  20
 144.17875107590
  30
0.0
  11
 583.59071360258
  21
 145.49418072420
  31
0.0
   0
LINE
   5
117
 100
AcDbEntity
   8
LEVEL001
 100
AcDbLine
   6
CONTINUOUS
  62
7
  10
 588.49999995530
  20
 165.82126752075
  30
0.0
  11
 588.49999995530
  21
 144.17875107590
  31
0.0
   0
LINE
   5
118
 100
AcDbEntity
   8
LEVEL001
 100
AcDbLine
   6
CONTINUOUS
  62
7
  10
 590.54162587101
  20
 167.00000894070
  30
0.0
  11
 606.69999636114
  21
 167.00000894070
  31
0.0
   0
LINE
   5
119
 100
AcDbEntity
   8
LEVEL001
 100
AcDbLine
   6
CONTINUOUS
  62
7
  10
 588.49999995530
  20
 144.17875107590
  30
0.0
  11
 590.54158009465
  21
 143.00000965595
  31
0.0
   0
LINE
   5
11A
 100
AcDbEntity
   8
LEVEL001
 100
AcDbLine
   6
CONTINUOUS
  62
7
  10
 590.54158009465
  20
 143.00000965595
  30
0.0
  11
 606.69999636114
  21
 143.00000965595
  31
0.0
   0
LINE
   5
11B
 100
AcDbEntity
   8
LEVEL001
 100
AcDbLine
   6
CONTINUOUS
  62
7
  10
 588.49999995530
  20
 165.82126752075
  30
0.0
  11
 590.54162587101
  21
 167.00000894070
  31
0.0
   0
ARC
   5
11C
 100
AcDbEntity
   8
LEVEL001
   6
CONTINUOUS
  62
7
 100
AcDbCircle
  10
 608.69999618226
  20
 171.00000894074
  30
0.0
  40
 1.9999998211861
 100
AcDbArc
  50
 89.999559451105
  51
 180.00044054835
   0
LINE
   5
11D
 100
AcDbEntity
   8
LEVEL001
 100
AcDbLine
   6
CONTINUOUS
  62
7
  10
 608.70001156032
  20
 173.00000876188
  30
0.0
  11
 614.70001138151
  21
 173.00000876188
  31
0.0
   0
ARC
   5
11E
 100
AcDbEntity
   8
LEVEL001
   6
CONTINUOUS
  62
7
 100
AcDbCircle
  10
 630.69998044681
  20
 172.00000885140
  30
0.0
  40
 0.99999991059304
 100
AcDbArc
  50
 0.87084259210090E-3
  51
 89.999129157629
   0
LINE
   5
11F
 100
AcDbEntity
   8
LEVEL001
 100
AcDbLine
   6
CONTINUOUS
  62
7
  10
 624.69999582469
  20
 173.00000876188
  30
0.0
  11
 630.69999564588
  21
 173.00000876188
  31
0.0
   0
ARC
   5
120
 100
AcDbEntity
   8
LEVEL001
   6
CONTINUOUS
  62
7
 100
AcDbCircle
  10
 608.69999618225
  20
 139.00000965589
  30
0.0
  40
 1.9999998211861
 100
AcDbArc
  50
 179.99955945108
  51
 270.00044054926
   0
LINE
   5
121
 100
AcDbEntity
   8
LEVEL001
 100
AcDbLine
   6
CONTINUOUS
  62
7
  10
 608.70001156032
  20
 137.00000983477
  30
0.0
  11
 614.70001138151
  21
 137.00000983477
  31
0.0
   0
ARC
   5
122
 100
AcDbEntity
   8
LEVEL001
   6
CONTINUOUS
  62
7
 100
AcDbCircle
  10
 630.69998044681
  20
 138.00000974524
  30
0.0
  40
 0.99999991059304
 100
AcDbArc
  50
 270.00087084255
  51
0.0
   0
LINE
   5
123
 100
AcDbEntity
   8
LEVEL001
 100
AcDbLine
   6
CONTINUOUS
  62
7
  10
 624.69999582469
  20
 137.00000983477
  30
0.0
  11
 630.69999564588
  21
 137.00000983477
  31
0.0
   0
LINE
   5
124
 100
AcDbEntity
   8
LEVEL001
 100
AcDbLine
   6
CONTINUOUS
  62
7
  10
 606.69999636114
  20
 139.00002503395
  30
0.0
  11
 606.69999636114
  21
 170.99999356270
  31
0.0
   0
LINE
   5
125
 100
AcDbEntity
   8
LEVEL001
 100
AcDbLine
   6
CONTINUOUS
  62
7
  10
 631.69998035729
  20
 172.00002405047
  30
0.0
  11
 631.69998035729
  21
 137.99999454618
  31
0.0
   0
LINE
   5
126
 100
AcDbEntity
   8
LEVEL001
 100
AcDbLine
   6
CONTINUOUS
  62
7
  10
 590.54162587101
  20
 167.00000894070
  30
0.0
  11
 590.54162587101
  21
 160.80948788495
  31
0.0
   0
LINE
   5
127
 100
AcDbEntity
   8
LEVEL001
 100
AcDbLine
   6
CONTINUOUS
  62
7
  10
 590.54162587101
  20
 149.19053071169
  30
0.0
  11
 590.54162587101
  21
 143.00000965595
  31
0.0
   0
LINE
   5
128
 100
AcDbEntity
   8
LEVEL001
 100
AcDbLine
   6
CONTINUOUS
  62
7
  10
 590.54162587101
  20
 149.19053071169
  30
0.0
  11
 599.49996910989
  21
 160.80948788495
  31
0.0
   0
LINE
   5
129
 100
AcDbEntity
   8
LEVEL001
 100
AcDbLine
   6
CONTINUOUS
  62
7
  10
 590.54162587101
  20
 160.80948788495
  30
0.0
  11
 599.49996910989
  21
 149.19053071169
  31
0.0
   0
LINE
   5
12A
 100
AcDbEntity
   8
LEVEL001
 100
AcDbLine
   6
DASHDOT
  62
1
  10
 631.69998035729
  20
 173.00000876188
  30
0.0
  11
 639.69999537766
  21
 173.00000876188
  31
0.0
   0
LINE
   5
12B
 100
AcDbEntity
   8
LEVEL001
 100
AcDbLine
   6
DASHDOT
  62
1
  10
 631.69998035729
  20
 137.00000983477
  30
0.0
  11
 639.69999537766
  21
 137.00000983477
  31
0.0
   0
LINE
   5
12C
 100
AcDbEntity
   8
LEVEL001
 100
AcDbLine
   6
DASHDOT
  62
1
  10
 639.69999537766
  20
 173.00000876188
  30
0.0
  11
 639.69999537766
  21
 137.00000983477
  31
0.0
   0
LINE
   5
12D
 100
AcDbEntity
   8
LEVEL001
 100
AcDbLine
   6
DASHDOT
  62
1
  10
 631.69998035729
  20
 172.00002405047
  30
0.0
  11
 631.69998035729
  21
 173.00000876188
  31
0.0
   0
LINE
   5
12E
 100
AcDbEntity
   8
LEVEL001
 100
AcDbLine
   6
DASHDOT
  62
1
  10
 631.69998035729
  20
 137.99999454618
  30
0.0
  11
 631.69998035729
  21
 137.00000983477
  31
0.0
   0
LINE
   5
12F
 100
AcDbEntity
   8
LEVEL001
 100
AcDbLine
   6
CONTINUOUS
  62
3
  10
 614.70001138151
  20
 138.50000979006
  30
0.0
  11
 624.69999582469
  21
 138.50000979006
  31
0.0
   0
LINE
   5
130
 100
AcDbEntity
   8
LEVEL001
 100
AcDbLine
   6
CONTINUOUS
  62
3
  10
 614.70001138151
  20
 140.50002498925
  30
0.0
  11
 624.69999582469
  21
 140.50002498925
  31
0.0
   0
LINE
   5
131
 100
AcDbEntity
   8
LEVEL001
 100
AcDbLine
   6
CONTINUOUS
  62
3
  10
 614.70001138151
  20
 142.49999441206
  30
0.0
  11
 624.69999582469
  21
 142.49999441206
  31
0.0
   0
LINE
   5
132
 100
AcDbEntity
   8
LEVEL001
 100
AcDbLine
   6
CONTINUOUS
  62
3
  10
 614.70001138151
  20
 144.50000961125
  30
0.0
  11
 624.69999582469
  21
 144.50000961125
  31
0.0
   0
LINE
   5
133
 100
AcDbEntity
   8
LEVEL001
 100
AcDbLine
   6
CONTINUOUS
  62
3
  10
 614.70001138151
  20
 146.50002481043
  30
0.0
  11
 624.69999582469
  21
 146.50002481043
  31
0.0
   0
LINE
   5
134
 100
AcDbEntity
   8
LEVEL001
 100
AcDbLine
   6
CONTINUOUS
  62
3
  10
 614.70001138151
  20
 148.49999423325
  30
0.0
  11
 624.69999582469
  21
 148.49999423325
  31
0.0
   0
LINE
   5
135
 100
AcDbEntity
   8
LEVEL001
 100
AcDbLine
   6
CONTINUOUS
  62
3
  10
 614.70001138151
  20
 150.50000943243
  30
0.0
  11
 624.69999582469
  21
 150.50000943243
  31
0.0
   0
LINE
   5
136
 100
AcDbEntity
   8
LEVEL001
 100
AcDbLine
   6
CONTINUOUS
  62
3
  10
 614.70001138151
  20
 152.50002463162
  30
0.0
  11
 624.69999582469
  21
 152.50002463162
  31
0.0
   0
LINE
   5
137
 100
AcDbEntity
   8
LEVEL001
 100
AcDbLine
   6
CONTINUOUS
  62
3
  10
 614.70001138151
  20
 154.49999405444
  30
0.0
  11
 624.69999582469
  21
 154.49999405444
  31
0.0
   0
LINE
   5
138
 100
AcDbEntity
   8
LEVEL001
 100
AcDbLine
   6
CONTINUOUS
  62
3
  10
 614.70001138151
  20
 156.50000925362
  30
0.0
  11
 624.69999582469
  21
 156.50000925362
  31
0.0
   0
LINE
   5
139
 100
AcDbEntity
   8
LEVEL001
 100
AcDbLine
   6
CONTINUOUS
  62
3
  10
 614.70001138151
  20
 158.50002445280
  30
0.0
  11
 624.69999582469
  21
 158.50002445280
  31
0.0
   0
LINE
   5
13A
 100
AcDbEntity
   8
LEVEL001
 100
AcDbLine
   6
CONTINUOUS
  62
3
  10
 614.70001138151
  20
 160.49999387562
  30
0.0
  11
 624.69999582469
  21
 160.49999387562
  31
0.0
   0
LINE
   5
13B
 100
AcDbEntity
   8
LEVEL001
 100
AcDbLine
   6
CONTINUOUS
  62
3
  10
 614.70001138151
  20
 162.50000907481
  30
0.0
  11
 624.69999582469
  21
 162.50000907481
  31
0.0
   0
LINE
   5
13C
 100
AcDbEntity
   8
LEVEL001
 100
AcDbLine
   6
CONTINUOUS
  62
3
  10
 614.70001138151
  20
 164.50002427399
  30
0.0
  11
 624.69999582469
  21
 164.50002427399
  31
0.0
   0
LINE
   5
13D
 100
AcDbEntity
   8
LEVEL001
 100
AcDbLine
   6
CONTINUOUS
  62
3
  10
 614.70001138151
  20
 166.49999369681
  30
0.0
  11
 624.69999582469
  21
 166.49999369681
  31
0.0
   0
LINE
   5
13E
 100
AcDbEntity
   8
LEVEL001
 100
AcDbLine
   6
CONTINUOUS
  62
3
  10
 614.70001138151
  20
 168.50000889599
  30
0.0
  11
 624.69999582469
  21
 168.50000889599
  31
0.0
   0
LINE
   5
13F
 100
AcDbEntity
   8
LEVEL001
 100
AcDbLine
   6
CONTINUOUS
  62
3
  10
 614.70001138151
  20
 170.50002409518
  30
0.0
  11
 624.69999582469
  21
 170.50002409518
  31
0.0
   0
LINE
   5
140
 100
AcDbEntity
   8
LEVEL001
 100
AcDbLine
   6
CONTINUOUS
  62
3
  10
 614.70001138151
  20
 172.49999351800
  30
0.0
  11
 624.69999582469
  21
 172.49999351800
  31
0.0
   0
LINE
   5
141
 100
AcDbEntity
   8
LEVEL001
 100
AcDbLine
   6
DASHDOT
  62
1
  10
 319.49999271333
  20
 150.99997889996
  30
0.0
  11
 359.99999150634
  21
 150.99997889996
  31
0.0
   0
LINE
   5
142
 100
AcDbEntity
   8
LEVEL001
 100
AcDbLine
   6
DOT
  62
3
  10
 323.24999260157
  20
 146.74996376783
  30
0.0
  11
 323.24999260157
  21
 155.24999403209
  31
0.0
   0
LINE
   5
143
 100
AcDbEntity
   8
LEVEL001
 100
AcDbLine
   6
DOT
  62
3
  10
 322.49999262393
  20
 145.99996379018
  30
0.0
  11
 323.24999260157
  21
 146.74996376783
  31
0.0
   0
LINE
   5
144
 100
AcDbEntity
   8
LEVEL001
 100
AcDbLine
   6
DOT
  62
3
  10
 323.24999260157
  20
 146.74996376783
  30
0.0
  11
 337.29903393093
  21
 146.74996376783
  31
0.0
   0
LINE
   5
145
 100
AcDbEntity
   8
LEVEL001
 100
AcDbLine
   6
DOT
  62
3
  10
 337.29903393093
  20
 146.74996376783
  30
0.0
  11
 338.59802986389
  21
 148.99991792441
  31
0.0
   0
LINE
   5
146
 100
AcDbEntity
   8
LEVEL001
 100
AcDbLine
   6
DOT
  62
3
  10
 338.59802986389
  20
 153.00003987551
  30
0.0
  11
 337.29903393093
  21
 155.24999403209
  31
0.0
   0
LINE
   5
147
 100
AcDbEntity
   8
LEVEL001
 100
AcDbLine
   6
DOT
  62
3
  10
 337.29903393093
  20
 155.24999403209
  30
0.0
  11
 323.24999260157
  21
 155.24999403209
  31
0.0
   0
LINE
   5
148
 100
AcDbEntity
   8
LEVEL001
 100
AcDbLine
   6
DOT
  62
3
  10
 323.24999260157
  20
 155.24999403209
  30
0.0
  11
 322.49999262393
  21
 155.99999400973
  31
0.0
   0
CIRCLE
   5
149
 100
AcDbEntity
   8
LEVEL001
 100
AcDbCircle
   6
DOT
  62
3
  10
 336.36203749889
  20
 150.99997889996
  30
0.0
  40
 3.0000009834766
   0
LINE
   5
14A
 100
AcDbEntity
   8
LEVEL001
 100
AcDbLine
   6
DOT
  62
3
  10
 333.36203758830
  20
 146.74996376783
  30
0.0
  11
 332.61203761065
  21
 145.99996379018
  31
0.0
   0
LINE
   5
14B
 100
AcDbEntity
   8
LEVEL001
 100
AcDbLine
   6
DOT
  62
3
  10
 332.61203761065
  20
 145.99996379018
  30
0.0
  11
 324.11205312276
  21
 145.99996379018
  31
0.0
   0
LINE
   5
14C
 100
AcDbEntity
   8
LEVEL001
 100
AcDbLine
   6
DOT
  62
3
  10
 324.11205312276
  20
 145.99996379018
  30
0.0
  11
 323.36205314511
  21
 146.74996376783
  31
0.0
   0
LINE
   5
14D
 100
AcDbEntity
   8
LEVEL001
 100
AcDbLine
   6
DOT
  62
3
  10
 323.36205314511
  20
 146.74996376783
  30
0.0
  11
 323.36205314511
  21
 155.24994825572
  31
0.0
   0
LINE
   5
14E
 100
AcDbEntity
   8
LEVEL001
 100
AcDbLine
   6
DOT
  62
3
  10
 323.36205314511
  20
 155.24994825572
  30
0.0
  11
 324.11205312276
  21
 155.99994823337
  31
0.0
   0
LINE
   5
14F
 100
AcDbEntity
   8
LEVEL001
 100
AcDbLine
   6
DOT
  62
3
  10
 324.11205312276
  20
 155.99994823337
  30
0.0
  11
 332.61203761065
  21
 155.99994823337
  31
0.0
   0
LINE
   5
150
 100
AcDbEntity
   8
LEVEL001
 100
AcDbLine
   6
DOT
  62
3
  10
 332.61203761065
  20
 155.99994823337
  30
0.0
  11
 333.36203758830
  21
 155.24994825572
  31
0.0
   0
LINE
   5
151
 100
AcDbEntity
   8
LEVEL001
 100
AcDbLine
   6
DOT
  62
3
  10
 333.36203758830
  20
 155.24994825572
  30
0.0
  11
 333.36203758830
  21
 146.74996376783
  31
0.0
   0
LINE
   5
152
 100
AcDbEntity
   8
LEVEL001
 100
AcDbLine
   6
DOT
  62
3
  10
 332.61203761065
  20
 145.99996379018
  30
0.0
  11
 332.61203761065
  21
 155.99994823337
  31
0.0
   0
LINE
   5
153
 100
AcDbEntity
   8
LEVEL001
 100
AcDbLine
   6
DOT
  62
3
  10
 324.11205312276
  20
 155.99994823337
  30
0.0
  11
 324.11205312276
  21
 145.99996379018
  31
0.0
   0
LINE
   5
154
 100
AcDbEntity
   8
LEVEL001
 100
AcDbLine
   6
DOT
  62
3
  10
 322.49999262393
  20
 145.99996379018
  30
0.0
  11
 324.11205312276
  21
 145.99996379018
  31
0.0
   0
LINE
   5
155
 100
AcDbEntity
   8
LEVEL001
 100
AcDbLine
   6
DOT
  62
3
  10
 332.61203761065
  20
 145.99996379018
  30
0.0
  11
 334.49999226630
  21
 145.99996379018
  31
0.0
   0
LINE
   5
156
 100
AcDbEntity
   8
LEVEL001
 100
AcDbLine
   6
DOT
  62
3
  10
 334.49999226630
  20
 145.99996379018
  30
0.0
  11
 337.29903393093
  21
 146.74996376783
  31
0.0
   0
LINE
   5
157
 100
AcDbEntity
   8
LEVEL001
 100
AcDbLine
   6
DOT
  62
3
  10
 337.29903393093
  20
 155.24999403209
  30
0.0
  11
 334.49999226630
  21
 155.99999400973
  31
0.0
   0
LINE
   5
158
 100
AcDbEntity
   8
LEVEL001
 100
AcDbLine
   6
DOT
  62
3
  10
 334.49999226630
  20
 155.99999400973
  30
0.0
  11
 332.61203761065
  21
 155.99999400973
  31
0.0
   0
LINE
   5
159
 100
AcDbEntity
   8
LEVEL001
 100
AcDbLine
   6
DOT
  62
3
  10
 324.11205312276
  20
 155.99999400973
  30
0.0
  11
 322.49999262393
  21
 155.99999400973
  31
0.0
   0
LINE
   5
15A
 100
AcDbEntity
   8
LEVEL001
 100
AcDbLine
   6
DOT
  62
3
  10
 334.49999226630
  20
 145.99996379018
  30
0.0
  11
 334.49999226630
  21
 148.64780611849
  31
0.0
   0
LINE
   5
15B
 100
AcDbEntity
   8
LEVEL001
 100
AcDbLine
   6
DOT
  62
3
  10
 334.49999226630
  20
 153.35215168142
  30
0.0
  11
 334.49999226630
  21
 155.99999400973
  31
0.0
   0
LINE
   5
15C
 100
AcDbEntity
   8
LEVEL001
 100
AcDbLine
   6
DOT
  62
3
  10
 337.29903393093
  20
 146.74996376783
  30
0.0
  11
 337.29903393093
  21
 148.15007969290
  31
0.0
   0
LINE
   5
15D
 100
AcDbEntity
   8
LEVEL001
 100
AcDbLine
   6
DOT
  62
3
  10
 337.29903393093
  20
 153.84987810701
  30
0.0
  11
 337.29903393093
  21
 155.24999403209
  31
0.0
   0
LINE
   5
15E
 100
AcDbEntity
   8
LEVEL001
 100
AcDbLine
   6
DOT
  62
3
  10
 352.68680507878
  20
 152.99981099368
  30
0.0
  11
 338.59807564026
  21
 152.99999409914
  31
0.0
   0
LINE
   5
15F
 100
AcDbEntity
   8
LEVEL001
 100
AcDbLine
   6
DOT
  62
3
  10
 338.59802986389
  20
 148.99996370077
  30
0.0
  11
 355.05618977379
  21
 148.99996370077
  31
0.0
   0
LINE
   5
160
 100
AcDbEntity
   8
LEVEL001
 100
AcDbLine
   6
CONTINUOUS
  62
7
  10
 588.49999995530
  20
 157.61727301427
  30
0.0
  11
 590.54162587101
  21
 160.80948788495
  31
0.0
   0
LINE
   5
161
 100
AcDbEntity
   8
LEVEL001
 100
AcDbLine
   6
CONTINUOUS
  62
7
  10
 590.54162587101
  20
 160.80948788495
  30
0.0
  11
 599.49996910989
  21
 160.80948788495
  31
0.0
   0
LINE
   5
162
 100
AcDbEntity
   8
LEVEL001
 100
AcDbLine
   6
CONTINUOUS
  62
7
  10
 599.49996910989
  20
 160.80948788495
  30
0.0
  11
 599.49996910989
  21
 149.19053071169
  31
0.0
   0
LINE
   5
163
 100
AcDbEntity
   8
LEVEL001
 100
AcDbLine
   6
CONTINUOUS
  62
7
  10
 599.49996910989
  20
 149.19053071169
  30
0.0
  11
 590.54162587101
  21
 149.19053071169
  31
0.0
   0
LINE
   5
164
 100
AcDbEntity
   8
LEVEL001
 100
AcDbLine
   6
CONTINUOUS
  62
7
  10
 590.54162587101
  20
 149.19053071169
  30
0.0
  11
 588.49999995530
  21
 152.38274558238
  31
0.0
   0
LINE
   5
165
 100
AcDbEntity
   8
LEVEL001
 100
AcDbLine
   6
CONTINUOUS
  62
7
  10
 614.70001138151
  20
 136.49999459088
  30
0.0
  11
 614.70001138151
  21
 173.50002400577
  31
0.0
   0
LINE
   5
166
 100
AcDbEntity
   8
LEVEL001
 100
AcDbLine
   6
CONTINUOUS
  62
7
  10
 614.70001138151
  20
 173.50002400577
  30
0.0
  11
 624.69999582469
  21
 173.50002400577
  31
0.0
   0
LINE
   5
167
 100
AcDbEntity
   8
LEVEL001
 100
AcDbLine
   6
CONTINUOUS
  62
7
  10
 624.69999582469
  20
 173.50002400577
  30
0.0
  11
 624.69999582469
  21
 136.49999459088
  31
0.0
   0
LINE
   5
168
 100
AcDbEntity
   8
LEVEL001
 100
AcDbLine
   6
CONTINUOUS
  62
7
  10
 624.69999582469
  20
 136.49999459088
  30
0.0
  11
 614.70001138151
  21
 136.49999459088
  31
0.0
   0
LINE
   5
169
 100
AcDbEntity
   8
LEVEL001
 100
AcDbLine
   6
CONTINUOUS
  62
3
  10
 583.59071360258
  20
 145.49418072420
  30
0.0
  11
 577.49998502433
  21
 145.68452435829
  31
0.0
   0
LINE
   5
16A
 100
AcDbEntity
   8
LEVEL001
 100
AcDbLine
   6
CONTINUOUS
  62
7
  10
 588.49999995530
  20
 144.17875107590
  30
0.0
  11
 577.49998502433
  21
 144.52252299963
  31
0.0
   0
LINE
   5
16B
 100
AcDbEntity
   8
LEVEL001
 100
AcDbLine
   6
CONTINUOUS
  62
3
  10
 583.59080515531
  20
 164.50588364882
  30
0.0
  11
 577.49998502433
  21
 164.31550129923
  31
0.0
   0
LINE
   5
16C
 100
AcDbEntity
   8
LEVEL001
 100
AcDbLine
   6
CONTINUOUS
  62
7
  10
 588.49999995530
  20
 165.82126752075
  30
0.0
  11
 577.49998502433
  21
 165.47749639178
  31
0.0
   0
LINE
   5
16D
 100
AcDbEntity
   8
LEVEL001
 100
AcDbLine
   6
DASHDOT
  62
1
  10
 642.49999834597
  20
 155.00000929832
  30
0.0
  11
 547.49998591840
  21
 155.00000929832
  31
0.0
   0
LINE
   5
16E
 100
AcDbEntity
   8
LEVEL001
 100
AcDbLine
   6
CONTINUOUS
  62
7
  10
 322.50001497567
  20
 110.00001063943
  30
0.0
  11
 449.99998882413
  21
 110.00001063943
  31
0.0
   0
LINE
   5
16F
 100
AcDbEntity
   8
LEVEL001
 100
AcDbLine
   6
CONTINUOUS
  62
7
  10
 577.49998502433
  20
 110.00001063943
  30
0.0
  11
 449.99998882413
  21
 110.00001063943
  31
0.0
   0
LEADER
   5
170
 100
AcDbEntity
   8
LEVEL003
   6
CONTINUOUS
  62
3
 100
AcDbLeader
   3
GMM001
  73
0
  74
1
  75
0
  40
 12.000000000000
  41
0.0
  76
3
  10
 577.50000067055
  20
 144.99128648665
  30
0.0
  10
 600.00000000000
  20
 120.00000000000
  30
0.0
  10
 659.99999821186
  20
 120.00000000000
  30
0.0
  77
3
   0
TEXT
   5
171
 100
AcDbEntity
   8
LEVEL003
  62
3
 100
AcDbText
  10
 600.00000000000
  20
 120.00000000000
  30
0.0
  40
 11.999999642372
   1
Ｒ１／２
   7
STANDARD
 100
AcDbText
   0
LINE
   5
172
 100
AcDbEntity
   8
LEVEL001
 100
AcDbLine
   6
CONTINUOUS
  62
7
  10
 576.50000031292
  20
 579.99993965030
  30
0.0
  11
 577.49998502433
  21
 579.00000071526
  31
0.0
   0
ARC
   5
173
 100
AcDbEntity
   8
LEVEL001
   6
CONTINUOUS
  62
7
 100
AcDbCircle
  10
 509.99997183656
  20
 664.99999821180
  30
0.0
  40
 2.0000000000000
 100
AcDbArc
  50
 180.00087597008
  51
 270.00043543165
   0
LINE
   5
174
 100
AcDbEntity
   8
LEVEL001
 100
AcDbLine
   6
CONTINUOUS
  62
7
  10
 507.99997183681
  20
 666.99993705750
  30
0.0
  11
 507.99997183681
  21
 664.99996763468
  31
0.0
   0
LINE
   5
175
 100
AcDbEntity
   8
LEVEL001
 100
AcDbLine
   6
CONTINUOUS
  62
7
  10
 522.99997138977
  20
 752.99999552965
  30
0.0
  11
 524.99998658896
  21
 750.99993455410
  31
0.0
   0
LINE
   5
176
 100
AcDbEntity
   8
LEVEL001
 100
AcDbLine
   6
CONTINUOUS
  62
7
  10
 524.99998658896
  20
 669.99993696809
  30
0.0
  11
 522.99997138977
  21
 667.99996754527
  31
0.0
   0
LINE
   5
177
 100
AcDbEntity
   8
LEVEL001
 100
AcDbLine
   6
CONTINUOUS
  62
7
  10
 524.99998658896
  20
 669.99993696809
  30
0.0
  11
 524.99998658896
  21
 750.99993455410
  31
0.0
   0
LINE
   5
178
 100
AcDbEntity
   8
LEVEL001
 100
AcDbLine
   6
CONTINUOUS
  62
7
  10
 323.49997733533
  20
 580.00003120303
  30
0.0
  11
 322.49999262393
  21
 579.00000071526
  31
0.0
   0
LINE
   5
179
 100
AcDbEntity
   8
LEVEL001
 100
AcDbLine
   6
CONTINUOUS
  62
7
  10
 374.99999105930
  20
 670.00002852082
  30
0.0
  11
 377.00000625849
  21
 667.99996754527
  31
0.0
   0
LINE
   5
17A
 100
AcDbEntity
   8
LEVEL001
 100
AcDbLine
   6
CONTINUOUS
  62
7
  10
 377.00000625849
  20
 752.99999552965
  30
0.0
  11
 374.99999105930
  21
 751.00002610683
  31
0.0
   0
LINE
   5
17B
 100
AcDbEntity
   8
LEVEL001
 100
AcDbLine
   6
CONTINUOUS
  62
7
  10
 374.99999105930
  20
 751.00002610683
  30
0.0
  11
 374.99999105930
  21
 670.00002852082
  31
0.0
   0
LINE
   5
17C
 100
AcDbEntity
   8
LEVEL001
 100
AcDbLine
   6
CONTINUOUS
  62
7
  10
 377.00000625849
  20
 752.99999552965
  30
0.0
  11
 522.99997138977
  21
 752.99999552965
  31
0.0
   0
LINE
   5
17D
 100
AcDbEntity
   8
LEVEL001
 100
AcDbLine
   6
CONTINUOUS
  62
3
  10
 583.59071360258
  20
 540.49420352297
  30
0.0
  11
 583.59080515531
  21
 559.50586067123
  31
0.0
   0
LINE
   5
17E
 100
AcDbEntity
   8
LEVEL001
 100
AcDbLine
   6
CONTINUOUS
  62
3
  10
 588.49999995530
  20
 560.82129031952
  30
0.0
  11
 583.59080515531
  21
 559.50586067123
  31
0.0
   0
LINE
   5
17F
 100
AcDbEntity
   8
LEVEL001
 100
AcDbLine
   6
CONTINUOUS
  62
3
  10
 588.49999995530
  20
 539.17877387468
  30
0.0
  11
 583.59071360258
  21
 540.49420352297
  31
0.0
   0
LINE
   5
180
 100
AcDbEntity
   8
LEVEL001
 100
AcDbLine
   6
CONTINUOUS
  62
7
  10
 588.49999995530
  20
 560.82129031952
  30
0.0
  11
 588.49999995530
  21
 539.17877387468
  31
0.0
   0
LINE
   5
181
 100
AcDbEntity
   8
LEVEL001
 100
AcDbLine
   6
CONTINUOUS
  62
7
  10
 590.54162587101
  20
 562.00003173947
  30
0.0
  11
 606.69999636114
  21
 562.00003173947
  31
0.0
   0
LINE
   5
182
 100
AcDbEntity
   8
LEVEL001
 100
AcDbLine
   6
CONTINUOUS
  62
7
  10
 588.49999995530
  20
 539.17877387468
  30
0.0
  11
 590.54158009465
  21
 538.00003245473
  31
0.0
   0
LINE
   5
183
 100
AcDbEntity
   8
LEVEL001
 100
AcDbLine
   6
CONTINUOUS
  62
7
  10
 590.54158009465
  20
 538.00003245473
  30
0.0
  11
 606.69999636114
  21
 538.00003245473
  31
0.0
   0
LINE
   5
184
 100
AcDbEntity
   8
LEVEL001
 100
AcDbLine
   6
CONTINUOUS
  62
7
  10
 588.49999995530
  20
 560.82129031952
  30
0.0
  11
 590.54162587101
  21
 562.00003173947
  31
0.0
   0
ARC
   5
185
 100
AcDbEntity
   8
LEVEL001
   6
CONTINUOUS
  62
7
 100
AcDbCircle
  10
 608.69999618138
  20
 566.00003173957
  30
0.0
  40
 1.9999998211861
 100
AcDbArc
  50
 89.999559425662
  51
 180.00175194628
   0
LINE
   5
186
 100
AcDbEntity
   8
LEVEL001
 100
AcDbLine
   6
CONTINUOUS
  62
7
  10
 608.70001156032
  20
 568.00003156066
  30
0.0
  11
 614.70001138151
  21
 568.00003156066
  31
0.0
   0
ARC
   5
187
 100
AcDbEntity
   8
LEVEL001
   6
CONTINUOUS
  62
7
 100
AcDbCircle
  10
 630.69998044713
  20
 567.00003165017
  30
0.0
  40
 0.99999991059304
 100
AcDbArc
  50
 359.99824805037
  51
 89.999129176337
   0
LINE
   5
188
 100
AcDbEntity
   8
LEVEL001
 100
AcDbLine
   6
CONTINUOUS
  62
7
  10
 624.69999582469
  20
 568.00003156066
  30
0.0
  11
 630.69999564588
  21
 568.00003156066
  31
0.0
   0
ARC
   5
189
 100
AcDbEntity
   8
LEVEL001
   6
CONTINUOUS
  62
7
 100
AcDbCircle
  10
 608.69999618209
  20
 534.00003245467
  30
0.0
  40
 1.9999998211861
 100
AcDbArc
  50
 180.00087084748
  51
 270.00044055399
   0
LINE
   5
18A
 100
AcDbEntity
   8
LEVEL001
 100
AcDbLine
   6
CONTINUOUS
  62
7
  10
 608.70001156032
  20
 532.00003263354
  30
0.0
  11
 614.70001138151
  21
 532.00003263354
  31
0.0
   0
ARC
   5
18B
 100
AcDbEntity
   8
LEVEL001
   6
CONTINUOUS
  62
7
 100
AcDbCircle
  10
 630.69998044856
  20
 533.00003254401
  30
0.0
  40
 0.99999991059304
 100
AcDbArc
  50
 270.00087074266
  51
 359.99650636491
   0
LINE
   5
18C
 100
AcDbEntity
   8
LEVEL001
 100
AcDbLine
   6
CONTINUOUS
  62
7
  10
 624.69999582469
  20
 532.00003263354
  30
0.0
  11
 630.69999564588
  21
 532.00003263354
  31
0.0
   0
LINE
   5
18D
 100
AcDbEntity
   8
LEVEL001
 100
AcDbLine
   6
CONTINUOUS
  62
7
  10
 606.69999636114
  20
 534.00000205636
  30
0.0
  11
 606.69999636114
  21
 565.99997058511
  31
0.0
   0
LINE
   5
18E
 100
AcDbEntity
   8
LEVEL001
 100
AcDbLine
   6
CONTINUOUS
  62
7
  10
 631.69998035729
  20
 567.00000107288
  30
0.0
  11
 631.69998035729
  21
 532.99997156859
  31
0.0
   0
LINE
   5
18F
 100
AcDbEntity
   8
LEVEL001
 100
AcDbLine
   6
CONTINUOUS
  62
7
  10
 590.54162587101
  20
 562.00003173947
  30
0.0
  11
 590.54162587101
  21
 555.80951068373
  31
0.0
   0
LINE
   5
190
 100
AcDbEntity
   8
LEVEL001
 100
AcDbLine
   6
CONTINUOUS
  62
7
  10
 590.54162587101
  20
 544.19055351047
  30
0.0
  11
 590.54162587101
  21
 538.00003245473
  31
0.0
   0
LINE
   5
191
 100
AcDbEntity
   8
LEVEL001
 100
AcDbLine
   6
CONTINUOUS
  62
7
  10
 590.54162587101
  20
 544.19055351047
  30
0.0
  11
 599.49996910989
  21
 555.80951068373
  31
0.0
   0
LINE
   5
192
 100
AcDbEntity
   8
LEVEL001
 100
AcDbLine
   6
CONTINUOUS
  62
7
  10
 590.54162587101
  20
 555.80951068373
  30
0.0
  11
 599.49996910989
  21
 544.19055351047
  31
0.0
   0
LINE
   5
193
 100
AcDbEntity
   8
LEVEL001
 100
AcDbLine
   6
DASHDOT
  62
1
  10
 631.69998035729
  20
 568.00003156066
  30
0.0
  11
 639.69999537766
  21
 568.00003156066
  31
0.0
   0
LINE
   5
194
 100
AcDbEntity
   8
LEVEL001
 100
AcDbLine
   6
DASHDOT
  62
1
  10
 631.69998035729
  20
 532.00003263354
  30
0.0
  11
 639.69999537766
  21
 532.00003263354
  31
0.0
   0
LINE
   5
195
 100
AcDbEntity
   8
LEVEL001
 100
AcDbLine
   6
DASHDOT
  62
1
  10
 639.69999537766
  20
 568.00003156066
  30
0.0
  11
 639.69999537766
  21
 532.00003263354
  31
0.0
   0
LINE
   5
196
 100
AcDbEntity
   8
LEVEL001
 100
AcDbLine
   6
DASHDOT
  62
1
  10
 631.69998035729
  20
 567.00000107288
  30
0.0
  11
 631.69998035729
  21
 568.00003156066
  31
0.0
   0
LINE
   5
197
 100
AcDbEntity
   8
LEVEL001
 100
AcDbLine
   6
DASHDOT
  62
1
  10
 631.69998035729
  20
 532.99997156859
  30
0.0
  11
 631.69998035729
  21
 532.00003263354
  31
0.0
   0
LINE
   5
198
 100
AcDbEntity
   8
LEVEL001
 100
AcDbLine
   6
CONTINUOUS
  62
3
  10
 614.70001138151
  20
 533.50003258884
  30
0.0
  11
 624.69999582469
  21
 533.50003258884
  31
0.0
   0
LINE
   5
199
 100
AcDbEntity
   8
LEVEL001
 100
AcDbLine
   6
CONTINUOUS
  62
3
  10
 614.70001138151
  20
 535.50000201166
  30
0.0
  11
 624.69999582469
  21
 535.50000201166
  31
0.0
   0
LINE
   5
19A
 100
AcDbEntity
   8
LEVEL001
 100
AcDbLine
   6
CONTINUOUS
  62
3
  10
 614.70001138151
  20
 537.49997143447
  30
0.0
  11
 624.69999582469
  21
 537.49997143447
  31
0.0
   0
LINE
   5
19B
 100
AcDbEntity
   8
LEVEL001
 100
AcDbLine
   6
CONTINUOUS
  62
3
  10
 614.70001138151
  20
 539.50003241002
  30
0.0
  11
 624.69999582469
  21
 539.50003241002
  31
0.0
   0
LINE
   5
19C
 100
AcDbEntity
   8
LEVEL001
 100
AcDbLine
   6
CONTINUOUS
  62
3
  10
 614.70001138151
  20
 541.50000183284
  30
0.0
  11
 624.69999582469
  21
 541.50000183284
  31
0.0
   0
LINE
   5
19D
 100
AcDbEntity
   8
LEVEL001
 100
AcDbLine
   6
CONTINUOUS
  62
3
  10
 614.70001138151
  20
 543.49997125566
  30
0.0
  11
 624.69999582469
  21
 543.49997125566
  31
0.0
   0
LINE
   5
19E
 100
AcDbEntity
   8
LEVEL001
 100
AcDbLine
   6
CONTINUOUS
  62
3
  10
 614.70001138151
  20
 545.50003223121
  30
0.0
  11
 624.69999582469
  21
 545.50003223121
  31
0.0
   0
LINE
   5
19F
 100
AcDbEntity
   8
LEVEL001
 100
AcDbLine
   6
CONTINUOUS
  62
3
  10
 614.70001138151
  20
 547.50000165403
  30
0.0
  11
 624.69999582469
  21
 547.50000165403
  31
0.0
   0
LINE
   5
1A0
 100
AcDbEntity
   8
LEVEL001
 100
AcDbLine
   6
CONTINUOUS
  62
3
  10
 614.70001138151
  20
 549.49997107685
  30
0.0
  11
 624.69999582469
  21
 549.49997107685
  31
0.0
   0
LINE
   5
1A1
 100
AcDbEntity
   8
LEVEL001
 100
AcDbLine
   6
CONTINUOUS
  62
3
  10
 614.70001138151
  20
 551.50003205240
  30
0.0
  11
 624.69999582469
  21
 551.50003205240
  31
0.0
   0
LINE
   5
1A2
 100
AcDbEntity
   8
LEVEL001
 100
AcDbLine
   6
CONTINUOUS
  62
3
  10
 614.70001138151
  20
 553.50000147521
  30
0.0
  11
 624.69999582469
  21
 553.50000147521
  31
0.0
   0
LINE
   5
1A3
 100
AcDbEntity
   8
LEVEL001
 100
AcDbLine
   6
CONTINUOUS
  62
3
  10
 614.70001138151
  20
 555.49997089803
  30
0.0
  11
 624.69999582469
  21
 555.49997089803
  31
0.0
   0
LINE
   5
1A4
 100
AcDbEntity
   8
LEVEL001
 100
AcDbLine
   6
CONTINUOUS
  62
3
  10
 614.70001138151
  20
 557.50003187358
  30
0.0
  11
 624.69999582469
  21
 557.50003187358
  31
0.0
   0
LINE
   5
1A5
 100
AcDbEntity
   8
LEVEL001
 100
AcDbLine
   6
CONTINUOUS
  62
3
  10
 614.70001138151
  20
 559.50000129640
  30
0.0
  11
 624.69999582469
  21
 559.50000129640
  31
0.0
   0
LINE
   5
1A6
 100
AcDbEntity
   8
LEVEL001
 100
AcDbLine
   6
CONTINUOUS
  62
3
  10
 614.70001138151
  20
 561.49997071922
  30
0.0
  11
 624.69999582469
  21
 561.49997071922
  31
0.0
   0
LINE
   5
1A7
 100
AcDbEntity
   8
LEVEL001
 100
AcDbLine
   6
CONTINUOUS
  62
3
  10
 614.70001138151
  20
 563.50003169477
  30
0.0
  11
 624.69999582469
  21
 563.50003169477
  31
0.0
   0
LINE
   5
1A8
 100
AcDbEntity
   8
LEVEL001
 100
AcDbLine
   6
CONTINUOUS
  62
3
  10
 614.70001138151
  20
 565.50000111759
  30
0.0
  11
 624.69999582469
  21
 565.50000111759
  31
0.0
   0
LINE
   5
1A9
 100
AcDbEntity
   8
LEVEL001
 100
AcDbLine
   6
CONTINUOUS
  62
3
  10
 614.70001138151
  20
 567.49997054041
  30
0.0
  11
 624.69999582469
  21
 567.49997054041
  31
0.0
   0
DIMENSION
   5
1AA
 100
AcDbEntity
   8
LEVEL003
   6
CONTINUOUS
  62
3
 100
AcDbDimension
   2
*D2
  10
 194.99999642372
  20
 104.99999552965
  30
0.0
  11
 194.99999642372
  21
 428.99999552965
  31
0.0
  70
128
   1
\A1;648
   3
GMM002
 100
AcDbAlignedDimension
  13
 377.00000625849
  23
 752.99999552965
  33
0.0
  14
 327.50000773370
  24
 104.99999552965
  34
0.0
  50
 270.00000000000
 100
AcDbRotatedDimension
   0
DIMENSION
   5
1AC
 100
AcDbEntity
   8
LEVEL003
   6
CONTINUOUS
  62
3
 100
AcDbDimension
   2
*D3
  10
 524.99998658896
  20
 794.99999427795
  30
0.0
  11
 449.99998882413
  21
 794.99999427795
  31
0.0
  70
128
   1
\A1;%%c150
   3
GMM003
 100
AcDbAlignedDimension
  13
 374.99999105930
  23
 751.00002610683
  33
0.0
  14
 524.99998658896
  24
 750.99993455410
  34
0.0
 100
AcDbRotatedDimension
   0
DIMENSION
   5
1AE
 100
AcDbEntity
   8
LEVEL003
   6
CONTINUOUS
  62
3
 100
AcDbDimension
   2
*D4
  10
 689.99998167157
  20
 155.00000929832
  30
0.0
  11
 689.99998167157
  21
 130.00000241399
  31
0.0
  70
128
   1
\A1;50
   3
GMM004
 100
AcDbAlignedDimension
  13
 572.49996991456
  23
 104.99999552965
  33
0.0
  14
 642.49999834597
  24
 155.00000929832
  34
0.0
  50
 90.000000000000
 100
AcDbRotatedDimension
   0
DIMENSION
   5
1B0
 100
AcDbEntity
   8
LEVEL003
   6
CONTINUOUS
  62
3
 100
AcDbDimension
   2
*D5
  10
 689.99998167157
  20
 550.00003209710
  30
0.0
  11
 689.99998167157
  21
 352.49998379636
  31
0.0
  70
128
   1
\A1;395
   3
GMM005
 100
AcDbAlignedDimension
  13
 642.49999834597
  23
 155.00000929832
  33
0.0
  14
 642.49999834597
  24
 550.00003209710
  34
0.0
  50
 90.000000000000
 100
AcDbRotatedDimension
   0
LINE
   5
1B2
 100
AcDbEntity
   8
LEVEL001
 100
AcDbLine
   6
CONTINUOUS
  62
7
  10
 588.49999995530
  20
 552.61725003668
  30
0.0
  11
 590.54162587101
  21
 555.80951068373
  31
0.0
   0
LINE
   5
1B3
 100
AcDbEntity
   8
LEVEL001
 100
AcDbLine
   6
CONTINUOUS
  62
7
  10
 590.54162587101
  20
 555.80951068373
  30
0.0
  11
 599.49996910989
  21
 555.80951068373
  31
0.0
   0
LINE
   5
1B4
 100
AcDbEntity
   8
LEVEL001
 100
AcDbLine
   6
CONTINUOUS
  62
7
  10
 599.49996910989
  20
 555.80951068373
  30
0.0
  11
 599.49996910989
  21
 544.19055351047
  31
0.0
   0
LINE
   5
1B5
 100
AcDbEntity
   8
LEVEL001
 100
AcDbLine
   6
CONTINUOUS
  62
7
  10
 599.49996910989
  20
 544.19055351047
  30
0.0
  11
 590.54162587101
  21
 544.19055351047
  31
0.0
   0
LINE
   5
1B6
 100
AcDbEntity
   8
LEVEL001
 100
AcDbLine
   6
CONTINUOUS
  62
7
  10
 590.54162587101
  20
 544.19055351047
  30
0.0
  11
 588.49999995530
  21
 547.38272260479
  31
0.0
   0
LINE
   5
1B7
 100
AcDbEntity
   8
LEVEL001
 100
AcDbLine
   6
CONTINUOUS
  62
7
  10
 614.70001138151
  20
 531.49997161329
  30
0.0
  11
 614.70001138151
  21
 568.50000102818
  31
0.0
   0
LINE
   5
1B8
 100
AcDbEntity
   8
LEVEL001
 100
AcDbLine
   6
CONTINUOUS
  62
7
  10
 614.70001138151
  20
 568.50000102818
  30
0.0
  11
 624.69999582469
  21
 568.50000102818
  31
0.0
   0
LINE
   5
1B9
 100
AcDbEntity
   8
LEVEL001
 100
AcDbLine
   6
CONTINUOUS
  62
7
  10
 624.69999582469
  20
 568.50000102818
  30
0.0
  11
 624.69999582469
  21
 531.49997161329
  31
0.0
   0
LINE
   5
1BA
 100
AcDbEntity
   8
LEVEL001
 100
AcDbLine
   6
CONTINUOUS
  62
7
  10
 624.69999582469
  20
 531.49997161329
  30
0.0
  11
 614.70001138151
  21
 531.49997161329
  31
0.0
   0
LINE
   5
1BB
 100
AcDbEntity
   8
LEVEL001
 100
AcDbLine
   6
CONTINUOUS
  62
7
  10
 519.00000411272
  20
 662.99999821186
  30
0.0
  11
 519.99998882413
  21
 659.99999830127
  31
0.0
   0
LINE
   5
1BC
 100
AcDbEntity
   8
LEVEL001
 100
AcDbLine
   6
CONTINUOUS
  62
7
  10
 572.50000058115
  20
 658.99996781349
  30
0.0
  11
 571.50001586974
  21
 659.99999830127
  31
0.0
   0
LINE
   5
1BD
 100
AcDbEntity
   8
LEVEL001
 100
AcDbLine
   6
CONTINUOUS
  62
7
  10
 572.50000058115
  20
 658.99996781349
  30
0.0
  11
 572.50000058115
  21
 655.00002896786
  31
0.0
   0
LINE
   5
1BE
 100
AcDbEntity
   8
LEVEL001
 100
AcDbLine
   6
CONTINUOUS
  62
7
  10
 572.50000058115
  20
 655.00002896786
  30
0.0
  11
 573.00001582503
  21
 655.00002896786
  31
0.0
   0
LINE
   5
1BF
 100
AcDbEntity
   8
LEVEL001
 100
AcDbLine
   6
CONTINUOUS
  62
7
  10
 573.00001582503
  20
 655.00002896786
  30
0.0
  11
 574.99998524785
  21
 652.99996799231
  31
0.0
   0
LINE
   5
1C0
 100
AcDbEntity
   8
LEVEL001
 100
AcDbLine
   6
CONTINUOUS
  62
7
  10
 574.99998524785
  20
 652.99996799231
  30
0.0
  11
 574.99998524785
  21
 587.53591965032
  31
0.0
   0
LINE
   5
1C1
 100
AcDbEntity
   8
LEVEL001
 100
AcDbLine
   6
CONTINUOUS
  62
3
  10
 573.00001582503
  20
 595.00003075600
  30
0.0
  11
 574.99998524785
  21
 587.53591965032
  31
0.0
   0
ARC
   5
1C2
 100
AcDbEntity
   8
LEVEL001
   6
CONTINUOUS
  62
7
 100
AcDbCircle
  10
 576.49998524782
  20
 581.49993965030
  30
0.0
  40
 1.5000000000000
 100
AcDbArc
  50
 179.99999999995
  51
 270.00000000117
   0
LINE
   5
1C3
 100
AcDbEntity
   8
LEVEL001
 100
AcDbLine
   6
CONTINUOUS
  62
7
  10
 574.99998524785
  20
 587.53591965032
  30
0.0
  11
 574.99998524785
  21
 581.49993965030
  31
0.0
   0
LINE
   5
1C4
 100
AcDbEntity
   8
LEVEL001
 100
AcDbLine
   6
CONTINUOUS
  62
7
  10
 323.49999968708
  20
 579.99993965030
  30
0.0
  11
 322.50001497567
  21
 579.00000071526
  31
0.0
   0
LINE
   5
1C5
 100
AcDbEntity
   8
LEVEL001
 100
AcDbLine
   6
CONTINUOUS
  62
7
  10
 326.99998417497
  20
 655.00002896786
  30
0.0
  11
 325.00001475215
  21
 652.99996799231
  31
0.0
   0
LINE
   5
1C6
 100
AcDbEntity
   8
LEVEL001
 100
AcDbLine
   6
CONTINUOUS
  62
7
  10
 325.00001475215
  20
 652.99996799231
  30
0.0
  11
 325.00001475215
  21
 587.53591965032
  31
0.0
   0
LINE
   5
1C7
 100
AcDbEntity
   8
LEVEL001
 100
AcDbLine
   6
CONTINUOUS
  62
3
  10
 326.99998417497
  20
 595.00003075600
  30
0.0
  11
 325.00001475215
  21
 587.53591965032
  31
0.0
   0
ARC
   5
1C8
 100
AcDbEntity
   8
LEVEL001
   6
CONTINUOUS
  62
7
 100
AcDbCircle
  10
 323.50001475215
  20
 581.49993965032
  30
0.0
  40
 1.5000000000000
 100
AcDbArc
  50
 270.00000000000
  51
0.0
   0
LINE
   5
1C9
 100
AcDbEntity
   8
LEVEL001
 100
AcDbLine
   6
CONTINUOUS
  62
7
  10
 325.00001475215
  20
 587.53591965032
  30
0.0
  11
 325.00001475215
  21
 581.49993965030
  31
0.0
   0
LINE
   5
1CA
 100
AcDbEntity
   8
LEVEL001
 100
AcDbLine
   6
CONTINUOUS
  62
7
  10
 380.99999588728
  20
 662.99999821186
  30
0.0
  11
 380.00001117587
  21
 659.99999830127
  31
0.0
   0
LINE
   5
1CB
 100
AcDbEntity
   8
LEVEL001
 100
AcDbLine
   6
CONTINUOUS
  62
7
  10
 327.49999941885
  20
 658.99996781349
  30
0.0
  11
 328.49998413026
  21
 659.99999830127
  31
0.0
   0
LINE
   5
1CC
 100
AcDbEntity
   8
LEVEL001
 100
AcDbLine
   6
CONTINUOUS
  62
7
  10
 327.49999941885
  20
 658.99996781349
  30
0.0
  11
 327.49999941885
  21
 655.00002896786
  31
0.0
   0
LINE
   5
1CD
 100
AcDbEntity
   8
LEVEL001
 100
AcDbLine
   6
CONTINUOUS
  62
7
  10
 327.49999941885
  20
 655.00002896786
  30
0.0
  11
 326.99998417497
  21
 655.00002896786
  31
0.0
   0
ARC
   5
1CE
 100
AcDbEntity
   8
LEVEL001
   6
CONTINUOUS
  62
7
 100
AcDbCircle
  10
 390.00002816344
  20
 664.99999821183
  30
0.0
  40
 2.0000000000000
 100
AcDbArc
  50
 269.99956456847
  51
0.0
   0
LINE
   5
1CF
 100
AcDbEntity
   8
LEVEL001
 100
AcDbLine
   6
CONTINUOUS
  62
7
  10
 392.00002816319
  20
 666.99993705750
  30
0.0
  11
 392.00002816319
  21
 664.99996763468
  31
0.0
   0
DIMENSION
   5
1D0
 100
AcDbEntity
   8
LEVEL003
   6
CONTINUOUS
  62
3
 100
AcDbDimension
   2
*D6
  10
 224.99999552965
  20
 595.00003075600
  30
0.0
  11
 224.99999552965
  21
 674.00001314282
  31
0.0
  70
128
   1
\A1;158
   3
GMM005
 100
AcDbAlignedDimension
  13
 377.00000625849
  23
 752.99999552965
  33
0.0
  14
 325.00001475215
  24
 595.00003075600
  34
0.0
  50
 270.00000000000
 100
AcDbRotatedDimension
   0
DIMENSION
   5
1D2
 100
AcDbEntity
   8
LEVEL003
   6
CONTINUOUS
  62
3
 100
AcDbDimension
   2
*D7
  10
 254.99999463558
  20
 595.00003075600
  30
0.0
  11
 254.99999463558
  21
 627.50001452863
  31
0.0
  70
128
   1
\A1;65
   3
GMM005
 100
AcDbAlignedDimension
  13
 328.49998413026
  23
 659.99999830127
  33
0.0
  14
 325.00001475215
  24
 595.00003075600
  34
0.0
  50
 270.00000000000
 100
AcDbRotatedDimension
   0
LINE
   5
1D4
 100
AcDbEntity
   8
LEVEL001
 100
AcDbLine
   6
DASHDOT
  62
1
  10
 572.99998524785
  20
 656.49997016788
  30
0.0
  11
 577.99998524785
  21
 656.49997016788
  31
0.0
   0
LINE
   5
1D5
 100
AcDbEntity
   8
LEVEL001
 100
AcDbLine
   6
DASHDOT
  62
1
  10
 577.99998524785
  20
 656.49997016788
  30
0.0
  11
 577.99998524785
  21
 581.49993965030
  31
0.0
   0
LINE
   5
1D6
 100
AcDbEntity
   8
LEVEL001
 100
AcDbLine
   6
DASHDOT
  62
1
  10
 577.99998524785
  20
 581.49993965030
  30
0.0
  11
 574.99998524785
  21
 581.49993965030
  31
0.0
   0
LINE
   5
1D7
 100
AcDbEntity
   8
LEVEL001
 100
AcDbLine
   6
DASHDOT
  62
1
  10
 327.00001475215
  20
 656.49997016788
  30
0.0
  11
 322.00001475215
  21
 656.49997016788
  31
0.0
   0
LINE
   5
1D8
 100
AcDbEntity
   8
LEVEL001
 100
AcDbLine
   6
DASHDOT
  62
1
  10
 322.00001475215
  20
 656.49997016788
  30
0.0
  11
 322.00001475215
  21
 581.49993965030
  31
0.0
   0
LINE
   5
1D9
 100
AcDbEntity
   8
LEVEL001
 100
AcDbLine
   6
DASHDOT
  62
1
  10
 322.00001475215
  20
 581.49993965030
  30
0.0
  11
 325.00001475215
  21
 581.49993965030
  31
0.0
   0
DIMENSION
   5
1DA
 100
AcDbEntity
   8
LEVEL003
   6
CONTINUOUS
  62
3
 100
AcDbDimension
   2
*D8
  10
 254.99999463558
  20
 727.99996575713
  30
0.0
  11
 254.99999463558
  21
 740.49998064339
  31
0.0
  70
128
   1
\A1;25
   3
GMM004
 100
AcDbAlignedDimension
  13
 377.00000625849
  23
 752.99999552965
  33
0.0
  14
 392.00002816319
  24
 727.99996575713
  34
0.0
  50
 270.00000000000
 100
AcDbRotatedDimension
   0
DIMENSION
   5
1DC
 100
AcDbEntity
   8
LEVEL003
   6
CONTINUOUS
  62
3
 100
AcDbDimension
   2
*D9
  10
 254.99999463558
  20
 662.99999821186
  30
0.0
  11
 254.99999463558
  21
 695.49998198450
  31
0.0
  70
128
   1
\A1;65
   3
GMM005
 100
AcDbAlignedDimension
  13
 392.00002816319
  23
 727.99996575713
  33
0.0
  14
 380.99997353554
  24
 662.99999821186
  34
0.0
  50
 270.00000000000
 100
AcDbRotatedDimension
   0
DIMENSION
   5
1DE
 100
AcDbEntity
   8
LEVEL003
   6
CONTINUOUS
  62
3
 100
AcDbDimension
   2
*D10
  10
 519.99998882413
  20
 540.00001484156
  30
0.0
  11
 479.99998882413
  21
 540.00001484156
  31
0.0
  70
128
   1
\A1;%%c140
   3
GMM006
 100
AcDbAlignedDimension
  13
 379.99998882413
  23
 540.00001484156
  33
0.0
  14
 519.99998882413
  24
 540.00001484156
  34
0.0
 100
AcDbRotatedDimension
   0
LINE
   5
1E0
 100
AcDbEntity
   8
LEVEL001
 100
AcDbLine
   6
CONTINUOUS
  62
7
  10
 588.49999995530
  20
 560.82129031952
  30
0.0
  11
 577.49998502433
  21
 560.47751919055
  31
0.0
   0
LINE
   5
1E1
 100
AcDbEntity
   8
LEVEL001
 100
AcDbLine
   6
CONTINUOUS
  62
3
  10
 583.59080515531
  20
 559.50586067123
  30
0.0
  11
 577.49998502433
  21
 559.31547832164
  31
0.0
   0
LINE
   5
1E2
 100
AcDbEntity
   8
LEVEL001
 100
AcDbLine
   6
DASHDOT
  62
1
  10
 642.49999834597
  20
 550.00003209710
  30
0.0
  11
 547.49998591840
  21
 550.00003209710
  31
0.0
   0
LINE
   5
1E3
 100
AcDbEntity
   8
LEVEL001
 100
AcDbLine
   6
CONTINUOUS
  62
7
  10
 588.49999995530
  20
 539.17877387468
  30
0.0
  11
 577.49998502433
  21
 539.52254579841
  31
0.0
   0
LINE
   5
1E4
 100
AcDbEntity
   8
LEVEL001
 100
AcDbLine
   6
CONTINUOUS
  62
3
  10
 583.59071360258
  20
 540.49420352297
  30
0.0
  11
 577.49998502433
  21
 540.68450891241
  31
0.0
   0
LINE
   5
1E5
 100
AcDbEntity
   8
LEVEL001
 100
AcDbLine
   6
DOT
  62
3
  10
 519.99998882413
  20
 659.99999830127
  30
0.0
  11
 519.99998882413
  21
 259.99998328090
  31
0.0
   0
LINE
   5
1E6
 100
AcDbEntity
   8
LEVEL001
 100
AcDbLine
   6
DOT
  62
3
  10
 380.00001117587
  20
 659.99999830127
  30
0.0
  11
 380.00001117587
  21
 259.99998328090
  31
0.0
   0
LINE
   5
1E7
 100
AcDbEntity
   8
LEVEL001
 100
AcDbLine
   6
DOT
  62
3
  10
 547.49998591840
  20
 589.99996986985
  30
0.0
  11
 547.49998591840
  21
 164.99997907877
  31
0.0
   0
LINE
   5
1E8
 100
AcDbEntity
   8
LEVEL001
 100
AcDbLine
   6
DOT
  62
3
  10
 352.50001408160
  20
 589.99996986985
  30
0.0
  11
 352.50001408160
  21
 164.99997907877
  31
0.0
   0
LINE
   5
1E9
 100
AcDbEntity
   8
LEVEL001
 100
AcDbLine
   6
CONTINUOUS
  62
7
  10
 577.49998502433
  20
 579.00000071526
  30
0.0
  11
 577.49998502433
  21
 110.00001063943
  31
0.0
   0
LINE
   5
1EA
 100
AcDbEntity
   8
LEVEL001
 100
AcDbLine
   6
CONTINUOUS
  62
7
  10
 322.50001497567
  20
 579.00000071526
  30
0.0
  11
 322.50001497567
  21
 110.00001063943
  31
0.0
   0
LINE
   5
1EB
 100
AcDbEntity
   8
LEVEL001
 100
AcDbLine
   6
DASHDOT
  62
1
  10
 319.49999271333
  20
 557.00004729628
  30
0.0
  11
 359.99999150634
  21
 557.00004729628
  31
0.0
   0
LINE
   5
1EC
 100
AcDbEntity
   8
LEVEL001
 100
AcDbLine
   6
DOT
  62
3
  10
 323.24999260157
  20
 552.75003216416
  30
0.0
  11
 323.24999260157
  21
 561.25006242841
  31
0.0
   0
LINE
   5
1ED
 100
AcDbEntity
   8
LEVEL001
 100
AcDbLine
   6
DOT
  62
3
  10
 322.49999262393
  20
 552.00003218651
  30
0.0
  11
 323.24999260157
  21
 552.75003216416
  31
0.0
   0
LINE
   5
1EE
 100
AcDbEntity
   8
LEVEL001
 100
AcDbLine
   6
DOT
  62
3
  10
 323.24999260157
  20
 552.75003216416
  30
0.0
  11
 337.29903393093
  21
 552.75003216416
  31
0.0
   0
LINE
   5
1EF
 100
AcDbEntity
   8
LEVEL001
 100
AcDbLine
   6
DOT
  62
3
  10
 337.29903393093
  20
 552.75003216416
  30
0.0
  11
 338.59802986389
  21
 554.99998632073
  31
0.0
   0
LINE
   5
1F0
 100
AcDbEntity
   8
LEVEL001
 100
AcDbLine
   6
DOT
  62
3
  10
 338.59802986389
  20
 559.00010827183
  30
0.0
  11
 337.29903393093
  21
 561.25006242841
  31
0.0
   0
LINE
   5
1F1
 100
AcDbEntity
   8
LEVEL001
 100
AcDbLine
   6
DOT
  62
3
  10
 337.29903393093
  20
 561.25006242841
  30
0.0
  11
 323.24999260157
  21
 561.25006242841
  31
0.0
   0
LINE
   5
1F2
 100
AcDbEntity
   8
LEVEL001
 100
AcDbLine
   6
DOT
  62
3
  10
 323.24999260157
  20
 561.25006242841
  30
0.0
  11
 322.49999262393
  21
 562.00006240606
  31
0.0
   0
CIRCLE
   5
1F3
 100
AcDbEntity
   8
LEVEL001
 100
AcDbCircle
   6
DOT
  62
3
  10
 336.36203749889
  20
 557.00004729628
  30
0.0
  40
 3.0000009834766
   0
LINE
   5
1F4
 100
AcDbEntity
   8
LEVEL001
 100
AcDbLine
   6
DOT
  62
3
  10
 333.36203758830
  20
 552.75003216416
  30
0.0
  11
 332.61203761065
  21
 552.00003218651
  31
0.0
   0
LINE
   5
1F5
 100
AcDbEntity
   8
LEVEL001
 100
AcDbLine
   6
DOT
  62
3
  10
 332.61203761065
  20
 552.00003218651
  30
0.0
  11
 324.11205312276
  21
 552.00003218651
  31
0.0
   0
LINE
   5
1F6
 100
AcDbEntity
   8
LEVEL001
 100
AcDbLine
   6
DOT
  62
3
  10
 324.11205312276
  20
 552.00003218651
  30
0.0
  11
 323.36205314511
  21
 552.75003216416
  31
0.0
   0
LINE
   5
1F7
 100
AcDbEntity
   8
LEVEL001
 100
AcDbLine
   6
DOT
  62
3
  10
 323.36205314511
  20
 552.75003216416
  30
0.0
  11
 323.36205314511
  21
 561.25001665205
  31
0.0
   0
LINE
   5
1F8
 100
AcDbEntity
   8
LEVEL001
 100
AcDbLine
   6
DOT
  62
3
  10
 323.36205314511
  20
 561.25001665205
  30
0.0
  11
 324.11205312276
  21
 562.00001662970
  31
0.0
   0
LINE
   5
1F9
 100
AcDbEntity
   8
LEVEL001
 100
AcDbLine
   6
DOT
  62
3
  10
 324.11205312276
  20
 562.00001662970
  30
0.0
  11
 332.61203761065
  21
 562.00001662970
  31
0.0
   0
LINE
   5
1FA
 100
AcDbEntity
   8
LEVEL001
 100
AcDbLine
   6
DOT
  62
3
  10
 332.61203761065
  20
 562.00001662970
  30
0.0
  11
 333.36203758830
  21
 561.25001665205
  31
0.0
   0
LINE
   5
1FB
 100
AcDbEntity
   8
LEVEL001
 100
AcDbLine
   6
DOT
  62
3
  10
 333.36203758830
  20
 561.25001665205
  30
0.0
  11
 333.36203758830
  21
 552.75003216416
  31
0.0
   0
LINE
   5
1FC
 100
AcDbEntity
   8
LEVEL001
 100
AcDbLine
   6
DOT
  62
3
  10
 332.61203761065
  20
 552.00003218651
  30
0.0
  11
 332.61203761065
  21
 562.00001662970
  31
0.0
   0
LINE
   5
1FD
 100
AcDbEntity
   8
LEVEL001
 100
AcDbLine
   6
DOT
  62
3
  10
 324.11205312276
  20
 562.00001662970
  30
0.0
  11
 324.11205312276
  21
 552.00003218651
  31
0.0
   0
LINE
   5
1FE
 100
AcDbEntity
   8
LEVEL001
 100
AcDbLine
   6
DOT
  62
3
  10
 322.49999262393
  20
 552.00003218651
  30
0.0
  11
 324.11205312276
  21
 552.00003218651
  31
0.0
   0
LINE
   5
1FF
 100
AcDbEntity
   8
LEVEL001
 100
AcDbLine
   6
DOT
  62
3
  10
 332.61203761065
  20
 552.00003218651
  30
0.0
  11
 334.49999226630
  21
 552.00003218651
  31
0.0
   0
LINE
   5
200
 100
AcDbEntity
   8
LEVEL001
 100
AcDbLine
   6
DOT
  62
3
  10
 334.49999226630
  20
 552.00003218651
  30
0.0
  11
 337.29903393093
  21
 552.75003216416
  31
0.0
   0
LINE
   5
201
 100
AcDbEntity
   8
LEVEL001
 100
AcDbLine
   6
DOT
  62
3
  10
 337.29903393093
  20
 561.25006242841
  30
0.0
  11
 334.49999226630
  21
 562.00006240606
  31
0.0
   0
LINE
   5
202
 100
AcDbEntity
   8
LEVEL001
 100
AcDbLine
   6
DOT
  62
3
  10
 334.49999226630
  20
 562.00006240606
  30
0.0
  11
 332.61203761065
  21
 562.00006240606
  31
0.0
   0
LINE
   5
203
 100
AcDbEntity
   8
LEVEL001
 100
AcDbLine
   6
DOT
  62
3
  10
 324.11205312276
  20
 562.00006240606
  30
0.0
  11
 322.49999262393
  21
 562.00006240606
  31
0.0
   0
LINE
   5
204
 100
AcDbEntity
   8
LEVEL001
 100
AcDbLine
   6
DOT
  62
3
  10
 334.49999226630
  20
 552.00003218651
  30
0.0
  11
 334.49999226630
  21
 554.64787451482
  31
0.0
   0
LINE
   5
205
 100
AcDbEntity
   8
LEVEL001
 100
AcDbLine
   6
DOT
  62
3
  10
 334.49999226630
  20
 559.35222007775
  30
0.0
  11
 334.49999226630
  21
 562.00006240606
  31
0.0
   0
LINE
   5
206
 100
AcDbEntity
   8
LEVEL001
 100
AcDbLine
   6
DOT
  62
3
  10
 337.29903393093
  20
 552.75003216416
  30
0.0
  11
 337.29903393093
  21
 554.15014808923
  31
0.0
   0
LINE
   5
207
 100
AcDbEntity
   8
LEVEL001
 100
AcDbLine
   6
DOT
  62
3
  10
 337.29903393093
  20
 559.84994650334
  30
0.0
  11
 337.29903393093
  21
 561.25006242841
  31
0.0
   0
LINE
   5
208
 100
AcDbEntity
   8
LEVEL001
 100
AcDbLine
   6
DOT
  62
3
  10
 352.68680507878
  20
 558.99987939000
  30
0.0
  11
 338.59807564026
  21
 559.00006249547
  31
0.0
   0
LINE
   5
209
 100
AcDbEntity
   8
LEVEL001
 100
AcDbLine
   6
DOT
  62
3
  10
 338.59802986389
  20
 555.00003209710
  30
0.0
  11
 355.05618977379
  21
 555.00003209710
  31
0.0
   0
LINE
   5
20A
 100
AcDbEntity
   8
LEVEL001
 100
AcDbLine
   6
CONTINUOUS
  62
7
  10
 449.99998882413
  20
 667.99996754527
  30
0.0
  11
 522.99997138977
  21
 667.99996754527
  31
0.0
   0
LINE
   5
20B
 100
AcDbEntity
   8
LEVEL001
 100
AcDbLine
   6
CONTINUOUS
  62
7
  10
 449.99998882413
  20
 662.99999821186
  30
0.0
  11
 519.00000411272
  21
 662.99999821186
  31
0.0
   0
LINE
   5
20C
 100
AcDbEntity
   8
LEVEL001
 100
AcDbLine
   6
CONTINUOUS
  62
3
  10
 573.00001582503
  20
 655.00002896786
  30
0.0
  11
 573.00001582503
  21
 595.00003075600
  31
0.0
   0
LINE
   5
20D
 100
AcDbEntity
   8
LEVEL001
 100
AcDbLine
   6
CONTINUOUS
  62
3
  10
 449.99998882413
  20
 595.00003075600
  30
0.0
  11
 574.99998524785
  21
 595.00003075600
  31
0.0
   0
LINE
   5
20E
 100
AcDbEntity
   8
LEVEL001
 100
AcDbLine
   6
CONTINUOUS
  62
7
  10
 449.99998882413
  20
 659.99999830127
  30
0.0
  11
 571.50001586974
  21
 659.99999830127
  31
0.0
   0
LINE
   5
20F
 100
AcDbEntity
   8
LEVEL001
 100
AcDbLine
   6
CONTINUOUS
  62
3
  10
 326.99998417497
  20
 655.00002896786
  30
0.0
  11
 326.99998417497
  21
 595.00003075600
  31
0.0
   0
LINE
   5
210
 100
AcDbEntity
   8
LEVEL001
 100
AcDbLine
   6
CONTINUOUS
  62
3
  10
 449.99998882413
  20
 595.00003075600
  30
0.0
  11
 325.00001475215
  21
 595.00003075600
  31
0.0
   0
LINE
   5
211
 100
AcDbEntity
   8
LEVEL001
 100
AcDbLine
   6
CONTINUOUS
  62
7
  10
 449.99998882413
  20
 659.99999830127
  30
0.0
  11
 328.49998413026
  21
 659.99999830127
  31
0.0
   0
LINE
   5
212
 100
AcDbEntity
   8
LEVEL001
 100
AcDbLine
   6
CONTINUOUS
  62
7
  10
 449.99998882413
  20
 667.99996754527
  30
0.0
  11
 377.00002861023
  21
 667.99996754527
  31
0.0
   0
LINE
   5
213
 100
AcDbEntity
   8
LEVEL001
 100
AcDbLine
   6
CONTINUOUS
  62
7
  10
 449.99998882413
  20
 662.99999821186
  30
0.0
  11
 380.99999588728
  21
 662.99999821186
  31
0.0
   0
LINE
   5
214
 100
AcDbEntity
   8
LEVEL001
 100
AcDbLine
   6
DOT
  62
3
  10
 507.99997183681
  20
 727.99996575713
  30
0.0
  11
 509.99998703599
  21
 725.99999633431
  31
0.0
   0
LINE
   5
215
 100
AcDbEntity
   8
LEVEL001
 100
AcDbLine
   6
DOT
  62
3
  10
 509.99998703599
  20
 725.99999633431
  30
0.0
  11
 509.99998703599
  21
 668.99999803305
  31
0.0
   0
LINE
   5
216
 100
AcDbEntity
   8
LEVEL001
 100
AcDbLine
   6
DOT
  62
3
  10
 509.99998703599
  20
 667.99996754527
  30
0.0
  11
 507.99997183681
  21
 669.99993696809
  31
0.0
   0
LINE
   5
217
 100
AcDbEntity
   8
LEVEL001
 100
AcDbLine
   6
DOT
  62
3
  10
 507.99997183681
  20
 669.99993696809
  30
0.0
  11
 507.99997183681
  21
 697.99996665120
  31
0.0
   0
ARC
   5
218
 100
AcDbEntity
   8
LEVEL001
   6
DOT
  62
3
 100
AcDbCircle
  10
 507.99998703625
  20
 725.99996575719
  30
0.0
  40
 2.0000000000000
 100
AcDbArc
  50
 0.87597008053276E-3
  51
 90.000435432050
   0
LINE
   5
219
 100
AcDbEntity
   8
LEVEL001
 100
AcDbLine
   6
DOT
  62
3
  10
 507.99997183681
  20
 727.99996575713
  30
0.0
  11
 507.99997183681
  21
 697.99996665120
  31
0.0
   0
LINE
   5
21A
 100
AcDbEntity
   8
LEVEL001
 100
AcDbLine
   6
DOT
  62
3
  10
 507.99997183681
  20
 669.99993696809
  30
0.0
  11
 507.99997183681
  21
 666.99993705750
  31
0.0
   0
LINE
   5
21B
 100
AcDbEntity
   8
LEVEL001
 100
AcDbLine
   6
DOT
  62
3
  10
 509.99998703599
  20
 668.99999803305
  30
0.0
  11
 509.99998703599
  21
 667.99996754527
  31
0.0
   0
LINE
   5
21C
 100
AcDbEntity
   8
LEVEL001
 100
AcDbLine
   6
DOT
  62
3
  10
 392.00002816319
  20
 727.99996575713
  30
0.0
  11
 390.00001296401
  21
 725.99999633431
  31
0.0
   0
LINE
   5
21D
 100
AcDbEntity
   8
LEVEL001
 100
AcDbLine
   6
DOT
  62
3
  10
 390.00001296401
  20
 725.99999633431
  30
0.0
  11
 390.00001296401
  21
 668.99999803305
  31
0.0
   0
LINE
   5
21E
 100
AcDbEntity
   8
LEVEL001
 100
AcDbLine
   6
DOT
  62
3
  10
 390.00001296401
  20
 667.99996754527
  30
0.0
  11
 392.00002816319
  21
 669.99993696809
  31
0.0
   0
LINE
   5
21F
 100
AcDbEntity
   8
LEVEL001
 100
AcDbLine
   6
DOT
  62
3
  10
 392.00002816319
  20
 669.99993696809
  30
0.0
  11
 392.00002816319
  21
 697.99996665120
  31
0.0
   0
ARC
   5
220
 100
AcDbEntity
   8
LEVEL001
   6
DOT
  62
3
 100
AcDbCircle
  10
 392.00001296376
  20
 725.99996575718
  30
0.0
  40
 2.0000000000000
 100
AcDbArc
  50
 89.999564568233
  51
 179.99912402960
   0
LINE
   5
221
 100
AcDbEntity
   8
LEVEL001
 100
AcDbLine
   6
DOT
  62
3
  10
 392.00002816319
  20
 727.99996575713
  30
0.0
  11
 392.00002816319
  21
 697.99996665120
  31
0.0
   0
LINE
   5
222
 100
AcDbEntity
   8
LEVEL001
 100
AcDbLine
   6
DOT
  62
3
  10
 392.00002816319
  20
 669.99993696809
  30
0.0
  11
 392.00002816319
  21
 666.99993705750
  31
0.0
   0
LINE
   5
223
 100
AcDbEntity
   8
LEVEL001
 100
AcDbLine
   6
DOT
  62
3
  10
 390.00001296401
  20
 668.99999803305
  30
0.0
  11
 390.00001296401
  21
 667.99996754527
  31
0.0
   0
LINE
   5
224
 100
AcDbEntity
   8
LEVEL001
 100
AcDbLine
   6
DOT
  62
3
  10
 392.00002816319
  20
 727.99996575713
  30
0.0
  11
 507.99997183681
  21
 727.99996575713
  31
0.0
   0
LINE
   5
225
 100
AcDbEntity
   8
LEVEL001
 100
AcDbLine
   6
CONTINUOUS
  62
7
  10
 524.99998658896
  20
 750.99993455410
  30
0.0
  11
 449.99998882413
  21
 750.99993455410
  31
0.0
   0
LINE
   5
226
 100
AcDbEntity
   8
LEVEL001
 100
AcDbLine
   6
CONTINUOUS
  62
7
  10
 374.99999105930
  20
 751.00002610683
  30
0.0
  11
 449.99998882413
  21
 751.00002610683
  31
0.0
   0
LINE
   5
227
 100
AcDbEntity
   8
LEVEL001
 100
AcDbLine
   6
CONTINUOUS
  62
7
  10
 374.99999105930
  20
 670.00002852082
  30
0.0
  11
 449.99998882413
  21
 670.00002852082
  31
0.0
   0
LINE
   5
228
 100
AcDbEntity
   8
LEVEL001
 100
AcDbLine
   6
CONTINUOUS
  62
7
  10
 524.99998658896
  20
 669.99993696809
  30
0.0
  11
 449.99998882413
  21
 669.99993696809
  31
0.0
   0
LINE
   5
229
 100
AcDbEntity
   8
LEVEL001
 100
AcDbLine
   6
CONTINUOUS
  62
7
  10
 573.00001582503
  20
 655.00002896786
  30
0.0
  11
 449.99998882413
  21
 655.00002896786
  31
0.0
   0
LINE
   5
22A
 100
AcDbEntity
   8
LEVEL001
 100
AcDbLine
   6
CONTINUOUS
  62
7
  10
 327.49999941885
  20
 655.00002896786
  30
0.0
  11
 449.99998882413
  21
 655.00002896786
  31
0.0
   0
LINE
   5
22B
 100
AcDbEntity
   8
LEVEL001
 100
AcDbLine
   6
CONTINUOUS
  62
7
  10
 323.50001475215
  20
 579.99993965030
  30
0.0
  11
 449.99998882413
  21
 579.99993965030
  31
0.0
   0
LINE
   5
22C
 100
AcDbEntity
   8
LEVEL001
 100
AcDbLine
   6
CONTINUOUS
  62
7
  10
 576.49998524785
  20
 579.99993965030
  30
0.0
  11
 449.99998882413
  21
 579.99993965030
  31
0.0
   0
LINE
   5
22D
 100
AcDbEntity
   8
LEVEL001
 100
AcDbLine
   6
DASHDOT
  62
1
  10
 449.99998882413
  20
 759.00000518560
  30
0.0
  11
 449.99998882413
  21
 90.000000000000
  31
0.0
   0
TEXT
   5
22E
 100
AcDbEntity
   8
LEVEL003
  62
3
 100
AcDbText
  10
 614.99998301268
  20
 629.99999919534
  30
0.0
  40
 11.999999642372
   1
Ｍ２５０×４
   7
STANDARD
 100
AcDbText
   0
LEADER
   5
22F
 100
AcDbEntity
   8
LEVEL003
   6
CONTINUOUS
  62
3
 100
AcDbLeader
   3
GMM007
  73
0
  74
1
  75
0
  40
 12.000000000000
  41
0.0
  76
3
  10
 574.99998524785
  20
 614.99999964237
  30
0.0
  10
 604.99998435378
  20
 629.99999919534
  30
0.0
  10
 690.00000000000
  20
 629.99999919534
  30
0.0
  77
3
   0
LEADER
   5
230
 100
AcDbEntity
   8
LEVEL003
   6
CONTINUOUS
  62
3
 100
AcDbLeader
   3
GMM007
  73
0
  74
1
  75
0
  40
 12.000000000000
  41
0.0
  76
3
  10
 509.99998703599
  20
 689.99999740720
  30
0.0
  10
 555.00000000000
  20
 720.00001484156
  30
0.0
  10
 645.00000000000
  20
 720.00001484156
  30
0.0
  77
3
   0
TEXT
   5
231
 100
AcDbEntity
   8
LEVEL003
  62
3
 100
AcDbText
  10
 555.00000000000
  20
 720.00001484156
  30
0.0
  40
 11.999999642372
   1
Ｍ１２０×４
   7
STANDARD
 100
AcDbText
   0
ARC
   5
232
 100
AcDbEntity
   8
LEVEL001
   6
DASHDOT
  62
1
 100
AcDbCircle
  10
 449.99998882413
  20
 435.99997264147
  30
0.0
  40
 44.000013947486
 100
AcDbArc
  50
 90.000000000000
  51
 270.00000000000
   0
LINE
   5
233
 100
AcDbEntity
   8
LEVEL001
 100
AcDbLine
   6
DOT
  62
3
  10
 441.50000433624
  20
 494.99998614192
  30
0.0
  11
 440.49997384846
  21
 496.00001662970
  31
0.0
   0
ARC
   5
234
 100
AcDbEntity
   8
LEVEL001
   6
CONTINUOUS
  62
7
 100
AcDbCircle
  10
 450.00011146324
  20
 436.00001555661
  30
0.0
  40
 37.499996021390
 100
AcDbArc
  50
 104.67506868496
  51
 269.99981262123
   0
LINE
   5
235
 100
AcDbEntity
   8
LEVEL001
 100
AcDbLine
   6
CONTINUOUS
  62
7
  10
 441.50000433624
  20
 464.99998703599
  30
0.0
  11
 440.49997384846
  21
 464.00004810095
  31
0.0
   0
LINE
   5
236
 100
AcDbEntity
   8
LEVEL001
 100
AcDbLine
   6
CONTINUOUS
  62
7
  10
 449.99998882413
  20
 494.99998614192
  30
0.0
  11
 441.50000433624
  21
 494.99998614192
  31
0.0
   0
LINE
   5
237
 100
AcDbEntity
   8
LEVEL001
 100
AcDbLine
   6
CONTINUOUS
  62
7
  10
 441.50000433624
  20
 494.99998614192
  30
0.0
  11
 441.50000433624
  21
 464.99998703599
  31
0.0
   0
LINE
   5
238
 100
AcDbEntity
   8
LEVEL001
 100
AcDbLine
   6
CONTINUOUS
  62
7
  10
 441.50000433624
  20
 464.99998703599
  30
0.0
  11
 449.99998882413
  21
 464.99998703599
  31
0.0
   0
LINE
   5
239
 100
AcDbEntity
   8
LEVEL001
 100
AcDbLine
   6
CONTINUOUS
  62
7
  10
 449.99998882413
  20
 496.00001662970
  30
0.0
  11
 440.49997384846
  21
 496.00001662970
  31
0.0
   0
LINE
   5
23A
 100
AcDbEntity
   8
LEVEL001
 100
AcDbLine
   6
CONTINUOUS
  62
7
  10
 440.49997384846
  20
 496.00001662970
  30
0.0
  11
 440.49997384846
  21
 464.00004810095
  31
0.0
   0
LINE
   5
23B
 100
AcDbEntity
   8
LEVEL001
 100
AcDbLine
   6
CONTINUOUS
  62
7
  10
 440.49997384846
  20
 464.00004810095
  30
0.0
  11
 449.99998882413
  21
 464.00004810095
  31
0.0
   0
ARC
   5
23C
 100
AcDbEntity
   8
LEVEL001
   6
CONTINUOUS
  62
7
 100
AcDbCircle
  10
 449.99960633851
  20
 435.99998408411
  30
0.0
  40
 50.499994680286
 100
AcDbArc
  50
 100.84259713542
  51
 270.00043395672
   0
ARC
   5
23D
 100
AcDbEntity
   8
LEVEL001
   6
DASHDOT
  62
1
 100
AcDbCircle
  10
 450.00001117587
  20
 435.99997264147
  30
0.0
  40
 44.000013947486
 100
AcDbArc
  50
 270.00000000000
  51
 90.000000000000
   0
LINE
   5
23E
 100
AcDbEntity
   8
LEVEL001
 100
AcDbLine
   6
DOT
  62
3
  10
 458.49999566376
  20
 464.99998703599
  30
0.0
  11
 459.50002615154
  21
 464.00004810095
  31
0.0
   0
ARC
   5
23F
 100
AcDbEntity
   8
LEVEL001
   6
CONTINUOUS
  62
7
 100
AcDbCircle
  10
 450.00039366149
  20
 435.99998408411
  30
0.0
  40
 50.499994680286
 100
AcDbArc
  50
 269.99956604329
  51
 79.157402864581
   0
LINE
   5
240
 100
AcDbEntity
   8
LEVEL001
 100
AcDbLine
   6
CONTINUOUS
  62
7
  10
 450.00001117587
  20
 494.99998614192
  30
0.0
  11
 458.49999566376
  21
 494.99998614192
  31
0.0
   0
LINE
   5
241
 100
AcDbEntity
   8
LEVEL001
 100
AcDbLine
   6
CONTINUOUS
  62
7
  10
 458.49999566376
  20
 494.99998614192
  30
0.0
  11
 458.49999566376
  21
 464.99998703599
  31
0.0
   0
LINE
   5
242
 100
AcDbEntity
   8
LEVEL001
 100
AcDbLine
   6
CONTINUOUS
  62
7
  10
 458.49999566376
  20
 464.99998703599
  30
0.0
  11
 450.00001117587
  21
 464.99998703599
  31
0.0
   0
LINE
   5
243
 100
AcDbEntity
   8
LEVEL001
 100
AcDbLine
   6
CONTINUOUS
  62
7
  10
 450.00001117587
  20
 496.00001662970
  30
0.0
  11
 459.50002615154
  21
 496.00001662970
  31
0.0
   0
LINE
   5
244
 100
AcDbEntity
   8
LEVEL001
 100
AcDbLine
   6
CONTINUOUS
  62
7
  10
 459.50002615154
  20
 496.00001662970
  30
0.0
  11
 459.50002615154
  21
 464.00004810095
  31
0.0
   0
LINE
   5
245
 100
AcDbEntity
   8
LEVEL001
 100
AcDbLine
   6
CONTINUOUS
  62
7
  10
 459.50002615154
  20
 464.00004810095
  30
0.0
  11
 450.00001117587
  21
 464.00004810095
  31
0.0
   0
LINE
   5
246
 100
AcDbEntity
   8
LEVEL001
 100
AcDbLine
   6
CONTINUOUS
  62
7
  10
 458.49999566376
  20
 494.99998614192
  30
0.0
  11
 459.50002615154
  21
 496.00001662970
  31
0.0
   0
ARC
   5
247
 100
AcDbEntity
   8
LEVEL001
   6
CONTINUOUS
  62
7
 100
AcDbCircle
  10
 449.99988853676
  20
 436.00001555661
  30
0.0
  40
 37.499996021390
 100
AcDbArc
  50
 270.00018737877
  51
 75.324931315046
   0
DIMENSION
   5
248
 100
AcDbEntity
   8
LEVEL003
   6
CONTINUOUS
  62
3
 100
AcDbDimension
   2
*D13
  10
 547.49998591840
  20
 322.50000000000
  30
0.0
  11
 479.99998882413
  21
 322.50000000000
  31
0.0
  70
128
   1
\A1;%%c195
   3
GMM008
 100
AcDbAlignedDimension
  13
 352.49999172986
  23
 322.50000000000
  33
0.0
  14
 547.49998591840
  24
 322.50000000000
  34
0.0
 100
AcDbRotatedDimension
   0
DIMENSION
   5
24A
 100
AcDbEntity
   8
LEVEL003
   6
CONTINUOUS
  62
3
 100
AcDbDimension
   2
*D14
  10
 577.49998502433
  20
 299.99998971820
  30
0.0
  11
 479.99998882413
  21
 299.99998971820
  31
0.0
  70
128
   1
\A1;%%c255
   3
GMM009
 100
AcDbAlignedDimension
  13
 322.49999262393
  23
 299.99998971820
  33
0.0
  14
 577.49998502433
  24
 299.99998971820
  34
0.0
 100
AcDbRotatedDimension
   0
TEXT
   5
24C
 100
AcDbEntity
   8
LEVEL003
  62
7
 100
AcDbText
  10
 781.32431728735
  20
 30.385514348063
  30
0.0
  40
 20.000000000000
   1
ＯＳＡＫＡ ＪＡＣＫ
   7
STANDARD
 100
AcDbText
   0
CIRCLE
   5
24D
 100
AcDbEntity
   8
LEVEL003
 100
AcDbCircle
   6
CONTINUOUS
  62
7
  10
 740.43148958663
  20
 43.813458023125
  30
0.0
  40
 6.0000000000000
   0
LINE
   5
24E
 100
AcDbEntity
   8
LEVEL003
 100
AcDbLine
   6
CONTINUOUS
  62
7
  10
 752.20748958663
  20
 49.813458023125
  30
0.0
  11
 744.58948958663
  21
 36.613458023125
  31
0.0
   0
LINE
   5
24F
 100
AcDbEntity
   8
LEVEL003
 100
AcDbLine
   6
CONTINUOUS
  62
7
  10
 744.58948958663
  20
 36.613458023125
  30
0.0
  11
 729.34748958663
  21
 36.613458023125
  31
0.0
   0
LINE
   5
250
 100
AcDbEntity
   8
LEVEL003
 100
AcDbLine
   6
CONTINUOUS
  62
7
  10
 727.61348958663
  20
 33.613458023125
  30
0.0
  11
 754.85548958663
  21
 33.613458023125
  31
0.0
   0
LINE
   5
251
 100
AcDbEntity
   8
LEVEL003
 100
AcDbLine
   6
CONTINUOUS
  62
7
  10
 754.85548958663
  20
 33.613458023125
  30
0.0
  11
 764.20748958663
  21
 49.813458023125
  31
0.0
   0
LINE
   5
252
 100
AcDbEntity
   8
LEVEL003
 100
AcDbLine
   6
CONTINUOUS
  62
7
  10
 764.20748958663
  20
 49.813458023125
  30
0.0
  11
 752.20748958663
  21
 49.813458023125
  31
0.0
   0
LINE
   5
253
 100
AcDbEntity
   8
LEVEL003
 100
AcDbLine
   6
CONTINUOUS
  62
7
  10
 729.34748958663
  20
 36.613458023125
  30
0.0
  11
 727.61348958663
  21
 33.613458023125
  31
0.0
   0
TEXT
   5
254
 100
AcDbEntity
   8
LEVEL003
  62
7
 100
AcDbText
  10
 787.14631728735
  20
 64.172314348063
  30
0.0
  40
 12.000000000000
   1
Model : ＥＴ２００Ｈ３０
   7
STANDARD
 100
AcDbText
   0
ENDSEC
  0
SECTION
  2
OBJECTS
  0
DICTIONARY
  5
C
100
AcDbDictionary
  3
ACAD_GROUP
350
D
  3
ACAD_MLINESTYLE
350
1B
  0
DICTIONARY
  5
D
102
{ACAD_REACTORS
330
C
102
}
100
AcDbDictionary
  0
DICTIONARY
  5
1B
102
{ACAD_REACTORS
330
C
102
}
100
AcDbDictionary
  3
STANDARD
350
1C
  0
MLINESTYLE
  5
1C
102
{ACAD_REACTORS
330
1B
102
}
100
AcDbMlineStyle
  2
STANDARD
 70
     0
  3

 62
   256
 51
90.0
 52
90.0
 71
     2
 49
0.5
 62
   256
  6
BYLAYER
 49
-0.5
 62
   256
  6
BYLAYER
  0
ENDSEC
   0
EOF
