   0
SECTION
   2
HEADER
   9
$ACADVER
   1
AC1014
   9
$LIMMIN
  10
0.0
  20
0.0
   9
$LIMMAX
  10
 1260.0000000000
  20
 902.00000000000
   9
$EXTMIN
  10
0.0
  20
0.0
  30
0.0
   9
$EXTMAX
  10
 1260.0000000000
  20
 902.00000000000
  30
0.0
   9
$LTSCALE
  40
 25.200000000000
   9
$HANDSEED
   5
252
   0
ENDSEC
   0
SECTION
   2
TABLES
  0
TABLE
  2
VPORT
  5
8
100
AcDbSymbolTable
 70
     1
  0
VPORT
  5
251
100
AcDbSymbolTableRecord
100
AcDbViewportTableRecord
  2
*ACTIVE
 70
     0
 10
0.0
 20
0.0
 11
1.0
 21
1.0
  12
 630.00000000000
  22
 451.00000000000
 13
0.0
 23
0.0
 14
1.0
 24
1.0
 15
0.0
 25
0.0
 16
0.0
 26
0.0
 36
1.0
 17
0.0
 27
0.0
 37
0.0
  40
 1260.0000000000
  41
 1.4787878787879
 42
50.0
 43
0.0
 44
0.0
 50
0.0
 51
0.0
 71
     0
 72
   100
 73
     1
 74
     1
 75
     0
 76
     0
 77
     0
 78
     0
  0
ENDTAB
  0
TABLE
  2
LTYPE
  5
5
100
AcDbSymbolTable
 70
    25
  0
LTYPE
  5
12
100
AcDbSymbolTableRecord
100
AcDbLinetypeTableRecord
  2
BYBLOCK
 70
     0
  3

 72
    65
 73
     0
 40
0.0
  0
LTYPE
  5
13
100
AcDbSymbolTableRecord
100
AcDbLinetypeTableRecord
  2
BYLAYER
 70
     0
  3

 72
    65
 73
     0
 40
0.0
  0
LTYPE
  5
14
100
AcDbSymbolTableRecord
100
AcDbLinetypeTableRecord
  2
CONTINUOUS
 70
     0
  3
Solid line
 72
    65
 73
     0
 40
0.0
  0
LTYPE
  5
20
100
AcDbSymbolTableRecord
100
AcDbLinetypeTableRecord
  2
BORDER
 70
     0
  3
__ __ . __ __ . __ __ . __ __ . __ __ . __ __ .
 72
    65
 73
     6
 40
1.75
 49
0.5
 74
     0
 49
-0.25
 74
     0
 49
0.5
 74
     0
 49
-0.25
 74
     0
 49
0.0
 74
     0
 49
-0.25
 74
     0
  0
LTYPE
  5
21
100
AcDbSymbolTableRecord
100
AcDbLinetypeTableRecord
  2
BORDER2
 70
     0
  3
__.__.__.__.__.__.__.__.__.__.__.__.__.__.__.__
 72
    65
 73
     6
 40
0.875
 49
0.25
 74
     0
 49
-0.125
 74
     0
 49
0.25
 74
     0
 49
-0.125
 74
     0
 49
0.0
 74
     0
 49
-0.125
 74
     0
  0
LTYPE
  5
22
100
AcDbSymbolTableRecord
100
AcDbLinetypeTableRecord
  2
BORDERX2
 70
     0
  3
____  ____  .  ____  ____  .  ____  ____  .  __
 72
    65
 73
     6
 40
3.5
 49
1.0
 74
     0
 49
-0.5
 74
     0
 49
1.0
 74
     0
 49
-0.5
 74
     0
 49
0.0
 74
     0
 49
-0.5
 74
     0
  0
LTYPE
  5
23
100
AcDbSymbolTableRecord
100
AcDbLinetypeTableRecord
  2
CENTER
 70
     0
  3
____ _ ____ _ ____ _ ____ _ ____ _ ____ _ ____ 
 72
    65
 73
     4
 40
2.0
 49
1.25
 74
     0
 49
-0.25
 74
     0
 49
0.25
 74
     0
 49
-0.25
 74
     0
  0
LTYPE
  5
24
100
AcDbSymbolTableRecord
100
AcDbLinetypeTableRecord
  2
CENTER2
 70
     0
  3
___ _ ___ _ ___ _ ___ _ ___ _ ___ _ ___ _ ___ _
 72
    65
 73
     4
 40
1.125
 49
0.75
 74
     0
 49
-0.125
 74
     0
 49
0.125
 74
     0
 49
-0.125
 74
     0
  0
LTYPE
  5
25
100
AcDbSymbolTableRecord
100
AcDbLinetypeTableRecord
  2
CENTERX2
 70
     0
  3
________  __  ________  __  ________  __  _____
 72
    65
 73
     4
 40
4.0
 49
2.5
 74
     0
 49
-0.5
 74
     0
 49
0.5
 74
     0
 49
-0.5
 74
     0
  0
LTYPE
  5
26
100
AcDbSymbolTableRecord
100
AcDbLinetypeTableRecord
  2
DASHDOT
 70
     0
  3
__ . __ . __ . __ . __ . __ . __ . __ . __ . __
 72
    65
 73
     4
 40
1.0
 49
0.5
 74
     0
 49
-0.25
 74
     0
 49
0.0
 74
     0
 49
-0.25
 74
     0
  0
LTYPE
  5
27
100
AcDbSymbolTableRecord
100
AcDbLinetypeTableRecord
  2
DASHDOT2
 70
     0
  3
_._._._._._._._._._._._._._._._._._._._._._._._
 72
    65
 73
     4
 40
0.5
 49
0.25
 74
     0
 49
-0.125
 74
     0
 49
0.0
 74
     0
 49
-0.125
 74
     0
  0
LTYPE
  5
28
100
AcDbSymbolTableRecord
100
AcDbLinetypeTableRecord
  2
DASHDOTX2
 70
     0
  3
____  .  ____  .  ____  .  ____  .  ____  .  __
 72
    65
 73
     4
 40
2.0
 49
1.0
 74
     0
 49
-0.5
 74
     0
 49
0.0
 74
     0
 49
-0.5
 74
     0
  0
LTYPE
  5
29
100
AcDbSymbolTableRecord
100
AcDbLinetypeTableRecord
  2
DASHED
 70
     0
  3
__ __ __ __ __ __ __ __ __ __ __ __ __ __ __ __
 72
    65
 73
     2
 40
0.75
 49
0.5
 74
     0
 49
-0.25
 74
     0
  0
LTYPE
  5
2A
100
AcDbSymbolTableRecord
100
AcDbLinetypeTableRecord
  2
DASHED2
 70
     0
  3
_ _ _ _ _ _ _ _ _ _ _ _ _ _ _ _ _ _ _ _ _ _ _ _
 72
    65
 73
     2
 40
0.375
 49
0.25
 74
     0
 49
-0.125
 74
     0
  0
LTYPE
  5
2B
100
AcDbSymbolTableRecord
100
AcDbLinetypeTableRecord
  2
DASHEDX2
 70
     0
  3
____  ____  ____  ____  ____  ____  ____  ____ 
 72
    65
 73
     2
 40
1.5
 49
1.0
 74
     0
 49
-0.5
 74
     0
  0
LTYPE
  5
2C
100
AcDbSymbolTableRecord
100
AcDbLinetypeTableRecord
  2
DIVIDE
 70
     0
  3
____ . . ____ . . ____ . . ____ . . ____ . . __
 72
    65
 73
     6
 40
1.25
 49
0.5
 74
     0
 49
-0.25
 74
     0
 49
0.0
 74
     0
 49
-0.25
 74
     0
 49
0.0
 74
     0
 49
-0.25
 74
     0
  0
LTYPE
  5
2D
100
AcDbSymbolTableRecord
100
AcDbLinetypeTableRecord
  2
DIVIDE2
 70
     0
  3
__..__..__..__..__..__..__..__..__..__..__..__.
 72
    65
 73
     6
 40
0.625
 49
0.25
 74
     0
 49
-0.125
 74
     0
 49
0.0
 74
     0
 49
-0.125
 74
     0
 49
0.0
 74
     0
 49
-0.125
 74
     0
  0
LTYPE
  5
2E
100
AcDbSymbolTableRecord
100
AcDbLinetypeTableRecord
  2
DIVIDEX2
 70
     0
  3
________  .  .  ________  .  .  ________  .  . 
 72
    65
 73
     6
 40
2.5
 49
1.0
 74
     0
 49
-0.5
 74
     0
 49
0.0
 74
     0
 49
-0.5
 74
     0
 49
0.0
 74
     0
 49
-0.5
 74
     0
  0
LTYPE
  5
2F
100
AcDbSymbolTableRecord
100
AcDbLinetypeTableRecord
  2
DOT
 70
     0
  3
. . . . . . . . . . . . . . . . . . . . . . . .
 72
    65
 73
     2
 40
0.25
 49
0.0
 74
     0
 49
-0.25
 74
     0
  0
LTYPE
  5
30
100
AcDbSymbolTableRecord
100
AcDbLinetypeTableRecord
  2
DOT2
 70
     0
  3
...............................................
 72
    65
 73
     2
 40
0.125
 49
0.0
 74
     0
 49
-0.125
 74
     0
  0
LTYPE
  5
31
100
AcDbSymbolTableRecord
100
AcDbLinetypeTableRecord
  2
DOTX2
 70
     0
  3
.  .  .  .  .  .  .  .  .  .  .  .  .  .  .  . 
 72
    65
 73
     2
 40
0.5
 49
0.0
 74
     0
 49
-0.5
 74
     0
  0
LTYPE
  5
32
100
AcDbSymbolTableRecord
100
AcDbLinetypeTableRecord
  2
HIDDEN
 70
     0
  3
__ __ __ __ __ __ __ __ __ __ __ __ __ __ __ __
 72
    65
 73
     2
 40
0.375
 49
0.25
 74
     0
 49
-0.125
 74
     0
  0
LTYPE
  5
33
100
AcDbSymbolTableRecord
100
AcDbLinetypeTableRecord
  2
HIDDEN2
 70
     0
  3
_ _ _ _ _ _ _ _ _ _ _ _ _ _ _ _ _ _ _ _ _ _ _ _
 72
    65
 73
     2
 40
0.1875
 49
0.125
 74
     0
 49
-0.0625
 74
     0
  0
LTYPE
  5
34
100
AcDbSymbolTableRecord
100
AcDbLinetypeTableRecord
  2
HIDDENX2
 70
     0
  3
____ ____ ____ ____ ____ ____ ____ ____ ____ __
 72
    65
 73
     2
 40
0.75
 49
0.5
 74
     0
 49
-0.25
 74
     0
  0
LTYPE
  5
35
100
AcDbSymbolTableRecord
100
AcDbLinetypeTableRecord
  2
PHANTOM
 70
     0
  3
______  __  __  ______  __  __  ______  __  __ 
 72
    65
 73
     6
 40
2.5
 49
1.25
 74
     0
 49
-0.25
 74
     0
 49
0.25
 74
     0
 49
-0.25
 74
     0
 49
0.25
 74
     0
 49
-0.25
 74
     0
  0
LTYPE
  5
36
100
AcDbSymbolTableRecord
100
AcDbLinetypeTableRecord
  2
PHANTOM2
 70
     0
  3
___ _ _ ___ _ _ ___ _ _ ___ _ _ ___ _ _ ___ _ _
 72
    65
 73
     6
 40
1.25
 49
0.625
 74
     0
 49
-0.125
 74
     0
 49
0.125
 74
     0
 49
-0.125
 74
     0
 49
0.125
 74
     0
 49
-0.125
 74
     0
  0
LTYPE
  5
37
100
AcDbSymbolTableRecord
100
AcDbLinetypeTableRecord
  2
PHANTOMX2
 70
     0
  3
____________    ____    ____    ____________   
 72
    65
 73
     6
 40
5.0
 49
2.5
 74
     0
 49
-0.5
 74
     0
 49
0.5
 74
     0
 49
-0.5
 74
     0
 49
0.5
 74
     0
 49
-0.5
 74
     0
  0
ENDTAB
   0
TABLE
   2
LAYER
   5
2
 100
AcDbSymbolTable
  70
6
   0
LAYER
   5
E
 100
AcDbSymbolTableRecord
 100
AcDbLayerTableRecord
   2
0
  70
0
  62
7
   6
CONTINUOUS
   0
LAYER
   5
39
 100
AcDbSymbolTableRecord
 100
AcDbLayerTableRecord
   2
LEVEL001
  70
0
  62
7
   6
CONTINUOUS
   0
LAYER
   5
3A
 100
AcDbSymbolTableRecord
 100
AcDbLayerTableRecord
   2
LEVEL003
  70
0
  62
7
   6
CONTINUOUS
   0
LAYER
   5
3B
 100
AcDbSymbolTableRecord
 100
AcDbLayerTableRecord
   2
LEVEL020
  70
0
  62
7
   6
CONTINUOUS
   0
LAYER
   5
3C
 100
AcDbSymbolTableRecord
 100
AcDbLayerTableRecord
   2
LEVEL050
  70
0
  62
7
   6
CONTINUOUS
   0
LAYER
   5
3D
 100
AcDbSymbolTableRecord
 100
AcDbLayerTableRecord
   2
LEVEL110
  70
0
  62
7
   6
CONTINUOUS
   0
ENDTAB
  0
TABLE
  2
STYLE
  5
3
100
AcDbSymbolTable
  70
3
  0
STYLE
  5
F
100
AcDbSymbolTableRecord
100
AcDbTextStyleTableRecord
  2
STANDARD
 70
     0
 40
0.0
 41
1.0
 50
0.0
 71
     0
 42
0.2
  3
TXT
  4
BIGFONT
  0
STYLE
  5
38
100
AcDbSymbolTableRecord
100
AcDbTextStyleTableRecord
  2
STANDARD1
 70
     4
 40
0.0
 41
1.0
 50
0.0
 71
     0
 42
0.2
  3
TXT
  4
BIGFONT
   0
STYLE
   5
3E
 100
AcDbSymbolTableRecord
 100
AcDbTextStyleTableRecord
   2
GMM001
  70
0
  40
0.0
  41
 1.0000000000000
  50
0.0
  71
     0
  42
1.0
   3
txt.shx
   4
bigfont.shx
   0
ENDTAB
  0
TABLE
  2
VIEW
  5
6
100
AcDbSymbolTable
 70
     0
  0
ENDTAB
  0
TABLE
  2
UCS
  5
7
100
AcDbSymbolTable
 70
     0
  0
ENDTAB
  0
TABLE
  2
APPID
  5
9
100
AcDbSymbolTable
 70
     1
  0
APPID
  5
10
100
AcDbSymbolTableRecord
100
AcDbRegAppTableRecord
  2
ACAD
 70
     0
  0
ENDTAB
   0
TABLE
   2
DIMSTYLE
   5
A
 100
AcDbSymbolTable
  70
12
  0
DIMSTYLE
105
1D
100
AcDbSymbolTableRecord
100
AcDbDimStyleTableRecord
  2
STANDARD
 70
     0
  3

  4

  5

  6

  7

 40
1.0
 41
0.18
 42
0.0625
 43
0.38
 44
0.18
 45
0.0
 46
0.0
 47
0.0
 48
0.0
140
0.18
141
0.09
142
0.0
143
25.4
144
1.0
145
0.0
146
1.0
147
0.09
 71
     0
 72
     0
 73
     1
 74
     1
 75
     0
 76
     0
 77
     0
 78
     0
170
     0
171
     2
172
     0
173
     0
174
     0
175
     0
176
     0
177
     0
178
     0
270
     2
271
     4
272
     4
273
     2
274
     2
340
F
275
     0
280
     0
281
     0
282
     0
283
     1
284
     0
285
     0
286
     0
287
     3
288
     0
   0
DIMSTYLE
 105
3F
 100
AcDbSymbolTableRecord
 100
AcDbDimStyleTableRecord
   2
GMM001
  70
0
   3

   4

   5

   6
_OPEN
   7
_OPEN
  40
 1.0000000000000
  41
 9.0000000000000
  42
 3.0000000000000
  43
 0.10000000000000E-5
  44
 6.0000000000000
  45
0.0
  46
0.0
  47
0.0
  48
0.0
 140
 12.000000000000
 141
 3.0000000000000
 142
0.0
 143
 0.39400000000000E-1
 144
 1.0000000000000
 145
0.0
 146
 0.62500000000000
 147
 2.3999633073818
  71
0
  72
0
  73
0
  74
0
  75
0
  76
1
  77
3
  78
0
 170
0
 171
2
 172
1
 173
1
 174
0
 175
0
 176
3
 177
3
 178
3
 270
2
 271
0
 272
0
 273
2
 274
2
 340
3E
 275
1
 280
0
 281
0
 282
0
 283
1
 284
0
 285
0
 286
0
 287
3
 288
1
   0
DIMSTYLE
 105
40
 100
AcDbSymbolTableRecord
 100
AcDbDimStyleTableRecord
   2
GMM002
  70
0
   3

   4

   5

   6
_OPEN
   7
_OPEN
  40
 1.0000000000000
  41
 9.0000000000000
  42
 3.0000000000000
  43
 0.10000000000000E-5
  44
 6.0000000000000
  45
0.0
  46
0.0
  47
0.0
  48
0.0
 140
 12.000000000000
 141
 3.0000000000000
 142
0.0
 143
 0.39400000000000E-1
 144
 1.0000000000000
 145
0.0
 146
 0.62500000000000
 147
 2.3999633073818
  71
0
  72
0
  73
0
  74
0
  75
0
  76
0
  77
3
  78
0
 170
0
 171
2
 172
1
 173
1
 174
0
 175
0
 176
3
 177
3
 178
3
 270
2
 271
0
 272
0
 273
2
 274
2
 340
3E
 275
1
 280
0
 281
0
 282
0
 283
1
 284
0
 285
0
 286
0
 287
3
 288
1
   0
DIMSTYLE
 105
41
 100
AcDbSymbolTableRecord
 100
AcDbDimStyleTableRecord
   2
GMM003
  70
0
   3

   4

   5

   6
_OPEN
   7
_OPEN
  40
 1.0000000000000
  41
 9.0000000000000
  42
 3.0000000000000
  43
 24.000000000000
  44
 6.0000000000000
  45
0.0
  46
0.0
  47
0.0
  48
0.0
 140
 12.000000000000
 141
 3.0000000000000
 142
0.0
 143
 0.39400000000000E-1
 144
 1.0000000000000
 145
0.0
 146
 0.62500000000000
 147
 2.4000000000000
  71
0
  72
0
  73
0
  74
0
  75
0
  76
1
  77
3
  78
8
 170
0
 171
2
 172
1
 173
1
 174
0
 175
0
 176
3
 177
3
 178
3
 270
2
 271
2
 272
0
 273
2
 274
2
 340
3E
 275
0
 280
0
 281
0
 282
0
 283
1
 284
0
 285
0
 286
0
 287
3
 288
0
   0
DIMSTYLE
 105
42
 100
AcDbSymbolTableRecord
 100
AcDbDimStyleTableRecord
   2
GMM004
  70
0
   3

   4

   5

   6
_OPEN
   7
_OPEN
  40
 1.0000000000000
  41
 9.0000000000000
  42
 3.0000000000000
  43
 24.000000000000
  44
 6.0000000000000
  45
0.0
  46
0.0
  47
0.0
  48
0.0
 140
 12.000000000000
 141
 3.0000000000000
 142
0.0
 143
 0.39400000000000E-1
 144
 1.0000000000000
 145
0.0
 146
 0.62500000000000
 147
 2.4000000000000
  71
0
  72
0
  73
0
  74
0
  75
0
  76
0
  77
3
  78
8
 170
0
 171
2
 172
1
 173
1
 174
0
 175
0
 176
3
 177
3
 178
3
 270
2
 271
2
 272
0
 273
2
 274
2
 340
3E
 275
0
 280
0
 281
0
 282
0
 283
1
 284
0
 285
0
 286
0
 287
3
 288
0
   0
DIMSTYLE
 105
43
 100
AcDbSymbolTableRecord
 100
AcDbDimStyleTableRecord
   2
GMM005
  70
0
   3

   4

   5

   6
_OPEN
   7
_OPEN
  40
 1.0000000000000
  41
 9.0000000000000
  42
 3.0000000000000
  43
 0.10000000000000E-5
  44
 6.0000000000000
  45
0.0
  46
0.0
  47
0.0
  48
0.0
 140
 12.000000000000
 141
 3.0000000000000
 142
0.0
 143
 0.39400000000000E-1
 144
 1.0000000000000
 145
0.0
 146
 0.62500000000000
 147
 2.3999976396561
  71
0
  72
0
  73
0
  74
0
  75
0
  76
0
  77
3
  78
0
 170
0
 171
2
 172
1
 173
1
 174
0
 175
0
 176
3
 177
3
 178
3
 270
2
 271
0
 272
0
 273
2
 274
2
 340
3E
 275
1
 280
0
 281
0
 282
0
 283
1
 284
0
 285
0
 286
0
 287
3
 288
1
   0
DIMSTYLE
 105
44
 100
AcDbSymbolTableRecord
 100
AcDbDimStyleTableRecord
   2
GMM006
  70
0
   3

   4

   5

   6
_OPEN
   7
_OPEN
  40
 1.0000000000000
  41
 9.0000000000000
  42
 3.0000000000000
  43
 24.000000000000
  44
 6.0000000000000
  45
0.0
  46
0.0
  47
0.0
  48
0.0
 140
 12.000000000000
 141
 3.0000000000000
 142
0.0
 143
 0.39400000000000E-1
 144
 1.0000000000000
 145
0.0
 146
 0.62500000000000
 147
0.0
  71
0
  72
0
  73
0
  74
0
  75
0
  76
0
  77
1
  78
8
 170
0
 171
2
 172
1
 173
1
 174
0
 175
0
 176
3
 177
3
 178
7
 270
2
 271
2
 272
0
 273
2
 274
2
 340
F
 275
0
 280
0
 281
0
 282
0
 283
1
 284
0
 285
0
 286
0
 287
3
 288
1
   0
DIMSTYLE
 105
45
 100
AcDbSymbolTableRecord
 100
AcDbDimStyleTableRecord
   2
GMM007
  70
0
   3

   4

   5

   6
_OPEN
   7
_OPEN
  40
 1.0000000000000
  41
 9.0000000000000
  42
 3.0000000000000
  43
 0.10000000000000E-5
  44
 6.0000000000000
  45
0.0
  46
0.0
  47
0.0
  48
0.0
 140
 12.000000000000
 141
 3.0000000000000
 142
0.0
 143
 0.39400000000000E-1
 144
 1.0000000000000
 145
0.0
 146
 0.62500000000000
 147
 2.4000090837476
  71
0
  72
0
  73
0
  74
0
  75
1
  76
1
  77
3
  78
0
 170
0
 171
2
 172
1
 173
1
 174
0
 175
0
 176
3
 177
3
 178
3
 270
2
 271
0
 272
0
 273
2
 274
2
 340
3E
 275
1
 280
0
 281
0
 282
0
 283
1
 284
0
 285
0
 286
0
 287
3
 288
1
   0
DIMSTYLE
 105
46
 100
AcDbSymbolTableRecord
 100
AcDbDimStyleTableRecord
   2
GMM008
  70
0
   3

   4

   5

   6
_OPEN
   7
_OPEN
  40
 1.0000000000000
  41
 9.0000000000000
  42
 3.0000000000000
  43
 24.000000000000
  44
 6.0000000000000
  45
0.0
  46
0.0
  47
0.0
  48
0.0
 140
 12.000000000000
 141
 3.0000000000000
 142
0.0
 143
 0.39400000000000E-1
 144
 1.0000000000000
 145
0.0
 146
 0.62500000000000
 147
 2.4000000000000
  71
0
  72
0
  73
0
  74
0
  75
1
  76
1
  77
3
  78
8
 170
0
 171
2
 172
1
 173
1
 174
0
 175
0
 176
3
 177
3
 178
3
 270
2
 271
2
 272
0
 273
2
 274
2
 340
3E
 275
0
 280
0
 281
0
 282
0
 283
1
 284
0
 285
0
 286
0
 287
3
 288
0
   0
DIMSTYLE
 105
47
 100
AcDbSymbolTableRecord
 100
AcDbDimStyleTableRecord
   2
GMM009
  70
0
   3

   4

   5

   6
_OPEN
   7
_OPEN
  40
 1.0000000000000
  41
 9.0000000000000
  42
 3.0000000000000
  43
 0.10000000000000E-5
  44
 6.0000000000000
  45
0.0
  46
0.0
  47
0.0
  48
0.0
 140
 12.000000000000
 141
 3.0000000000000
 142
0.0
 143
 0.39400000000000E-1
 144
 1.0000000000000
 145
0.0
 146
 0.62500000000000
 147
 2.4000090837476
  71
0
  72
0
  73
0
  74
0
  75
0
  76
0
  77
3
  78
0
 170
0
 171
2
 172
1
 173
1
 174
0
 175
0
 176
3
 177
3
 178
3
 270
2
 271
0
 272
0
 273
2
 274
2
 340
3E
 275
1
 280
0
 281
0
 282
0
 283
1
 284
0
 285
0
 286
0
 287
3
 288
1
   0
DIMSTYLE
 105
48
 100
AcDbSymbolTableRecord
 100
AcDbDimStyleTableRecord
   2
GMM010
  70
0
   3

   4

   5

   6
_OPEN
   7
_OPEN
  40
 1.0000000000000
  41
 9.0000000000000
  42
 3.0000000000000
  43
 24.000000000000
  44
 6.0000000000000
  45
0.0
  46
0.0
  47
0.0
  48
0.0
 140
 12.000000000000
 141
 3.0000000000000
 142
0.0
 143
 0.39400000000000E-1
 144
 1.0000000000000
 145
0.0
 146
 0.62500000000000
 147
0.0
  71
0
  72
0
  73
0
  74
0
  75
0
  76
0
  77
1
  78
8
 170
0
 171
2
 172
1
 173
1
 174
0
 175
0
 176
3
 177
3
 178
7
 270
2
 271
2
 272
0
 273
2
 274
2
 340
F
 275
0
 280
0
 281
0
 282
0
 283
1
 284
0
 285
0
 286
0
 287
3
 288
1
   0
ENDTAB
  0
TABLE
  2
BLOCK_RECORD
  5
1
100
AcDbSymbolTable
 70
     0
  0
BLOCK_RECORD
  5
18
100
AcDbSymbolTableRecord
100
AcDbBlockTableRecord
  2
*MODEL_SPACE
  0
BLOCK_RECORD
  5
15
100
AcDbSymbolTableRecord
100
AcDbBlockTableRecord
  2
*PAPER_SPACE
   0
BLOCK_RECORD
   5
49
 100
AcDbSymbolTableRecord
 100
AcDbBlockTableRecord
   2
*D1
   0
BLOCK_RECORD
   5
4A
 100
AcDbSymbolTableRecord
 100
AcDbBlockTableRecord
   2
*D2
   0
BLOCK_RECORD
   5
4B
 100
AcDbSymbolTableRecord
 100
AcDbBlockTableRecord
   2
*D3
   0
BLOCK_RECORD
   5
4C
 100
AcDbSymbolTableRecord
 100
AcDbBlockTableRecord
   2
*D4
   0
BLOCK_RECORD
   5
4D
 100
AcDbSymbolTableRecord
 100
AcDbBlockTableRecord
   2
*D5
   0
BLOCK_RECORD
   5
4E
 100
AcDbSymbolTableRecord
 100
AcDbBlockTableRecord
   2
*D6
   0
BLOCK_RECORD
   5
4F
 100
AcDbSymbolTableRecord
 100
AcDbBlockTableRecord
   2
*D7
   0
BLOCK_RECORD
   5
50
 100
AcDbSymbolTableRecord
 100
AcDbBlockTableRecord
   2
*D10
   0
BLOCK_RECORD
   5
51
 100
AcDbSymbolTableRecord
 100
AcDbBlockTableRecord
   2
*D11
   0
BLOCK_RECORD
   5
52
 100
AcDbSymbolTableRecord
 100
AcDbBlockTableRecord
   2
*D12
   0
BLOCK_RECORD
   5
53
 100
AcDbSymbolTableRecord
 100
AcDbBlockTableRecord
   2
*D13
   0
BLOCK_RECORD
   5
54
 100
AcDbSymbolTableRecord
 100
AcDbBlockTableRecord
   2
_ARCHTICK
   0
BLOCK_RECORD
   5
55
 100
AcDbSymbolTableRecord
 100
AcDbBlockTableRecord
   2
_BOXBLANK
   0
BLOCK_RECORD
   5
56
 100
AcDbSymbolTableRecord
 100
AcDbBlockTableRecord
   2
_BOXFILLED
   0
BLOCK_RECORD
   5
57
 100
AcDbSymbolTableRecord
 100
AcDbBlockTableRecord
   2
_CLOSED
   0
BLOCK_RECORD
   5
58
 100
AcDbSymbolTableRecord
 100
AcDbBlockTableRecord
   2
_CLOSEDBLANK
   0
BLOCK_RECORD
   5
59
 100
AcDbSymbolTableRecord
 100
AcDbBlockTableRecord
   2
_DATUMBLANK
   0
BLOCK_RECORD
   5
5A
 100
AcDbSymbolTableRecord
 100
AcDbBlockTableRecord
   2
_DATUMFILLED
   0
BLOCK_RECORD
   5
5B
 100
AcDbSymbolTableRecord
 100
AcDbBlockTableRecord
   2
_DOT
   0
BLOCK_RECORD
   5
5C
 100
AcDbSymbolTableRecord
 100
AcDbBlockTableRecord
   2
_DOTBLANK
   0
BLOCK_RECORD
   5
5D
 100
AcDbSymbolTableRecord
 100
AcDbBlockTableRecord
   2
_DOTSMALL
   0
BLOCK_RECORD
   5
5E
 100
AcDbSymbolTableRecord
 100
AcDbBlockTableRecord
   2
_INTEGRAL
   0
BLOCK_RECORD
   5
5F
 100
AcDbSymbolTableRecord
 100
AcDbBlockTableRecord
   2
_NONE
   0
BLOCK_RECORD
   5
60
 100
AcDbSymbolTableRecord
 100
AcDbBlockTableRecord
   2
_OBLIQUE
   0
BLOCK_RECORD
   5
61
 100
AcDbSymbolTableRecord
 100
AcDbBlockTableRecord
   2
_OPEN
   0
BLOCK_RECORD
   5
62
 100
AcDbSymbolTableRecord
 100
AcDbBlockTableRecord
   2
_OPEN30
   0
BLOCK_RECORD
   5
63
 100
AcDbSymbolTableRecord
 100
AcDbBlockTableRecord
   2
_OPEN90
   0
BLOCK_RECORD
   5
64
 100
AcDbSymbolTableRecord
 100
AcDbBlockTableRecord
   2
_ORIGIN
   0
ENDTAB
   0
ENDSEC
  0
SECTION
  2
BLOCKS
  0
BLOCK
  5
19
100
AcDbEntity
  8
0
100
AcDbBlockBegin
  2
*MODEL_SPACE
 70
     0
 10
0.0
 20
0.0
 30
0.0
  3
*MODEL_SPACE
  1

  0
ENDBLK
  5
1A
100
AcDbEntity
  8
0
100
AcDbBlockEnd
  0
BLOCK
  5
16
100
AcDbEntity
 67
     1
  8
0
100
AcDbBlockBegin
  2
*PAPER_SPACE
 70
     0
 10
0.0
 20
0.0
 30
0.0
  3
*PAPER_SPACE
  1

  0
ENDBLK
  5
17
100
AcDbEntity
 67
     1
  8
0
100
AcDbBlockEnd
   0
BLOCK
   5
65
 100
AcDbEntity
   8
0
 100
AcDbBlockBegin
   2
_ARCHTICK
  70
0
  10
0.0
  20
0.0
  30
0.0
   3
_ARCHTICK
   0
POLYLINE
   5
66
 100
AcDbEntity
   8
0
   6
BYBLOCK
  62
0
 100
AcDb2dPolyline
  66
1
  10
0.0
  20
0.0
  30
0.0
  70
1
  40
 0.15000000000000
  41
 0.15000000000000
   0
VERTEX
   5
67
 100
AcDbEntity
   8
0
   6
BYBLOCK
  62
0
 100
AcDbVertex
 100
AcDb2dVertex
  10
-0.50000000000000
  20
-0.50000000000000
  30
0.0
  40
 0.15000000000000
  41
 0.15000000000000
   0
VERTEX
   5
68
 100
AcDbEntity
   8
0
   6
BYBLOCK
  62
0
 100
AcDbVertex
 100
AcDb2dVertex
  10
 0.50000000000000
  20
 0.50000000000000
  30
0.0
  40
 0.15000000000000
  41
 0.15000000000000
   0
SEQEND
   5
69
 100
AcDbEntity
   8
0
   6
BYBLOCK
  62
0
   0
ENDBLK
   5
6A
 100
AcDbEntity
   8
0
 100
AcDbBlockEnd
   0
BLOCK
   5
6B
 100
AcDbEntity
   8
0
 100
AcDbBlockBegin
   2
_OBLIQUE
  70
0
  10
0.0
  20
0.0
  30
0.0
   3
_OBLIQUE
   0
LINE
   5
6C
 100
AcDbEntity
   8
0
 100
AcDbLine
   6
BYBLOCK
  62
0
  10
-0.50000000000000
  20
-0.50000000000000
  30
0.0
  11
 0.50000000000000
  21
 0.50000000000000
  31
0.0
   0
ENDBLK
   5
6D
 100
AcDbEntity
   8
0
 100
AcDbBlockEnd
   0
BLOCK
   5
6E
 100
AcDbEntity
   8
0
 100
AcDbBlockBegin
   2
_BOXBLANK
  70
0
  10
0.0
  20
0.0
  30
0.0
   3
_BOXBLANK
   0
LINE
   5
6F
 100
AcDbEntity
   8
0
 100
AcDbLine
   6
BYBLOCK
  62
0
  10
-0.50000000000000
  20
-0.50000000000000
  30
0.0
  11
 0.50000000000000
  21
-0.50000000000000
  31
0.0
   0
LINE
   5
70
 100
AcDbEntity
   8
0
 100
AcDbLine
   6
BYBLOCK
  62
0
  10
 0.50000000000000
  20
-0.50000000000000
  30
0.0
  11
 0.50000000000000
  21
 0.50000000000000
  31
0.0
   0
LINE
   5
71
 100
AcDbEntity
   8
0
 100
AcDbLine
   6
BYBLOCK
  62
0
  10
 0.50000000000000
  20
 0.50000000000000
  30
0.0
  11
-0.50000000000000
  21
 0.50000000000000
  31
0.0
   0
LINE
   5
72
 100
AcDbEntity
   8
0
 100
AcDbLine
   6
BYBLOCK
  62
0
  10
-0.50000000000000
  20
 0.50000000000000
  30
0.0
  11
-0.50000000000000
  21
-0.50000000000000
  31
0.0
   0
LINE
   5
73
 100
AcDbEntity
   8
0
 100
AcDbLine
   6
BYBLOCK
  62
0
  10
-0.50000000000000
  20
0.0
  30
0.0
  11
-1.0000000000000
  21
0.0
  31
0.0
   0
ENDBLK
   5
74
 100
AcDbEntity
   8
0
 100
AcDbBlockEnd
   0
BLOCK
   5
75
 100
AcDbEntity
   8
0
 100
AcDbBlockBegin
   2
_BOXFILLED
  70
0
  10
0.0
  20
0.0
  30
0.0
   3
_BOXFILLED
   0
SOLID
   5
76
 100
AcDbEntity
   8
0
 100
AcDbTrace
   6
BYBLOCK
  62
0
  10
-0.50000000000000
  20
 0.50000000000000
  30
0.0
  11
 0.50000000000000
  21
 0.50000000000000
  31
0.0
  12
-0.50000000000000
  22
-0.50000000000000
  32
0.0
  13
 0.50000000000000
  23
-0.50000000000000
  33
0.0
   0
LINE
   5
77
 100
AcDbEntity
   8
0
 100
AcDbLine
   6
BYBLOCK
  62
0
  10
-0.50000000000000
  20
0.0
  30
0.0
  11
-1.0000000000000
  21
0.0
  31
0.0
   0
ENDBLK
   5
78
 100
AcDbEntity
   8
0
 100
AcDbBlockEnd
   0
BLOCK
   5
79
 100
AcDbEntity
   8
0
 100
AcDbBlockBegin
   2
_CLOSED
  70
0
  10
0.0
  20
0.0
  30
0.0
   3
_CLOSED
   0
LINE
   5
7A
 100
AcDbEntity
   8
0
 100
AcDbLine
   6
BYBLOCK
  62
0
  10
-1.0000000000000
  20
 0.16666666666667
  30
0.0
  11
0.0
  21
0.0
  31
0.0
   0
LINE
   5
7B
 100
AcDbEntity
   8
0
 100
AcDbLine
   6
BYBLOCK
  62
0
  10
0.0
  20
0.0
  30
0.0
  11
-1.0000000000000
  21
-0.16666666666667
  31
0.0
   0
LINE
   5
7C
 100
AcDbEntity
   8
0
 100
AcDbLine
   6
BYBLOCK
  62
0
  10
-1.0000000000000
  20
 0.16666666666667
  30
0.0
  11
-1.0000000000000
  21
-0.16666666666667
  31
0.0
   0
LINE
   5
7D
 100
AcDbEntity
   8
0
 100
AcDbLine
   6
BYBLOCK
  62
0
  10
0.0
  20
0.0
  30
0.0
  11
-1.0000000000000
  21
0.0
  31
0.0
   0
ENDBLK
   5
7E
 100
AcDbEntity
   8
0
 100
AcDbBlockEnd
   0
BLOCK
   5
7F
 100
AcDbEntity
   8
0
 100
AcDbBlockBegin
   2
_OPEN
  70
0
  10
0.0
  20
0.0
  30
0.0
   3
_OPEN
   0
LINE
   5
80
 100
AcDbEntity
   8
0
 100
AcDbLine
   6
BYBLOCK
  62
0
  10
-1.0000000000000
  20
 0.16666666666667
  30
0.0
  11
0.0
  21
0.0
  31
0.0
   0
LINE
   5
81
 100
AcDbEntity
   8
0
 100
AcDbLine
   6
BYBLOCK
  62
0
  10
0.0
  20
0.0
  30
0.0
  11
-1.0000000000000
  21
-0.16666666666667
  31
0.0
   0
LINE
   5
82
 100
AcDbEntity
   8
0
 100
AcDbLine
   6
BYBLOCK
  62
0
  10
0.0
  20
0.0
  30
0.0
  11
-1.0000000000000
  21
0.0
  31
0.0
   0
ENDBLK
   5
83
 100
AcDbEntity
   8
0
 100
AcDbBlockEnd
   0
BLOCK
   5
84
 100
AcDbEntity
   8
0
 100
AcDbBlockBegin
   2
_OPEN30
  70
0
  10
0.0
  20
0.0
  30
0.0
   3
_OPEN30
   0
LINE
   5
85
 100
AcDbEntity
   8
0
 100
AcDbLine
   6
BYBLOCK
  62
0
  10
-1.0000000000000
  20
 0.26794919243110
  30
0.0
  11
0.0
  21
0.0
  31
0.0
   0
LINE
   5
86
 100
AcDbEntity
   8
0
 100
AcDbLine
   6
BYBLOCK
  62
0
  10
0.0
  20
0.0
  30
0.0
  11
-1.0000000000000
  21
-0.26794919243110
  31
0.0
   0
LINE
   5
87
 100
AcDbEntity
   8
0
 100
AcDbLine
   6
BYBLOCK
  62
0
  10
0.0
  20
0.0
  30
0.0
  11
-1.0000000000000
  21
0.0
  31
0.0
   0
ENDBLK
   5
88
 100
AcDbEntity
   8
0
 100
AcDbBlockEnd
   0
BLOCK
   5
89
 100
AcDbEntity
   8
0
 100
AcDbBlockBegin
   2
_OPEN90
  70
0
  10
0.0
  20
0.0
  30
0.0
   3
_OPEN90
   0
LINE
   5
8A
 100
AcDbEntity
   8
0
 100
AcDbLine
   6
BYBLOCK
  62
0
  10
-0.50000000000000
  20
 0.50000000000000
  30
0.0
  11
0.0
  21
0.0
  31
0.0
   0
LINE
   5
8B
 100
AcDbEntity
   8
0
 100
AcDbLine
   6
BYBLOCK
  62
0
  10
0.0
  20
0.0
  30
0.0
  11
-0.50000000000000
  21
-0.50000000000000
  31
0.0
   0
LINE
   5
8C
 100
AcDbEntity
   8
0
 100
AcDbLine
   6
BYBLOCK
  62
0
  10
0.0
  20
0.0
  30
0.0
  11
-1.0000000000000
  21
0.0
  31
0.0
   0
ENDBLK
   5
8D
 100
AcDbEntity
   8
0
 100
AcDbBlockEnd
   0
BLOCK
   5
8E
 100
AcDbEntity
   8
0
 100
AcDbBlockBegin
   2
_CLOSEDBLANK
  70
0
  10
0.0
  20
0.0
  30
0.0
   3
_CLOSEDBLANK
   0
LINE
   5
8F
 100
AcDbEntity
   8
0
 100
AcDbLine
   6
BYBLOCK
  62
0
  10
-1.0000000000000
  20
 0.16666666666667
  30
0.0
  11
0.0
  21
0.0
  31
0.0
   0
LINE
   5
90
 100
AcDbEntity
   8
0
 100
AcDbLine
   6
BYBLOCK
  62
0
  10
0.0
  20
0.0
  30
0.0
  11
-1.0000000000000
  21
-0.16666666666667
  31
0.0
   0
LINE
   5
91
 100
AcDbEntity
   8
0
 100
AcDbLine
   6
BYBLOCK
  62
0
  10
-1.0000000000000
  20
 0.16666666666667
  30
0.0
  11
-1.0000000000000
  21
-0.16666666666667
  31
0.0
   0
ENDBLK
   5
92
 100
AcDbEntity
   8
0
 100
AcDbBlockEnd
   0
BLOCK
   5
93
 100
AcDbEntity
   8
0
 100
AcDbBlockBegin
   2
_DOT
  70
0
  10
0.0
  20
0.0
  30
0.0
   3
_DOT
   0
POLYLINE
   5
94
 100
AcDbEntity
   8
0
   6
BYBLOCK
  62
0
 100
AcDb2dPolyline
  66
1
  10
0.0
  20
0.0
  30
0.0
  70
1
  40
 0.50000000000000
  41
 0.50000000000000
   0
VERTEX
   5
95
 100
AcDbEntity
   8
0
   6
BYBLOCK
  62
0
 100
AcDbVertex
 100
AcDb2dVertex
  10
-0.25000000000000
  20
0.0
  30
0.0
  42
 1.0000000000000
  40
 0.50000000000000
  41
 0.50000000000000
   0
VERTEX
   5
96
 100
AcDbEntity
   8
0
   6
BYBLOCK
  62
0
 100
AcDbVertex
 100
AcDb2dVertex
  10
 0.25000000000000
  20
0.0
  30
0.0
  42
 1.0000000000000
  40
 0.50000000000000
  41
 0.50000000000000
   0
SEQEND
   5
97
 100
AcDbEntity
   8
0
   6
BYBLOCK
  62
0
   0
LINE
   5
98
 100
AcDbEntity
   8
0
 100
AcDbLine
   6
BYBLOCK
  62
0
  10
-0.50000000000000
  20
0.0
  30
0.0
  11
-1.0000000000000
  21
0.0
  31
0.0
   0
ENDBLK
   5
99
 100
AcDbEntity
   8
0
 100
AcDbBlockEnd
   0
BLOCK
   5
9A
 100
AcDbEntity
   8
0
 100
AcDbBlockBegin
   2
_DOTSMALL
  70
0
  10
0.0
  20
0.0
  30
0.0
   3
_DOTSMALL
   0
POLYLINE
   5
9B
 100
AcDbEntity
   8
0
   6
BYBLOCK
  62
0
 100
AcDb2dPolyline
  66
1
  10
0.0
  20
0.0
  30
0.0
  70
1
  40
 0.50000000000000
  41
 0.50000000000000
   0
VERTEX
   5
9C
 100
AcDbEntity
   8
0
   6
BYBLOCK
  62
0
 100
AcDbVertex
 100
AcDb2dVertex
  10
-0.62500000000000E-1
  20
0.0
  30
0.0
  42
 1.0000000000000
  40
 0.50000000000000
  41
 0.50000000000000
   0
VERTEX
   5
9D
 100
AcDbEntity
   8
0
   6
BYBLOCK
  62
0
 100
AcDbVertex
 100
AcDb2dVertex
  10
 0.62500000000000E-1
  20
0.0
  30
0.0
  42
 1.0000000000000
  40
 0.50000000000000
  41
 0.50000000000000
   0
SEQEND
   5
9E
 100
AcDbEntity
   8
0
   6
BYBLOCK
  62
0
   0
ENDBLK
   5
9F
 100
AcDbEntity
   8
0
 100
AcDbBlockEnd
   0
BLOCK
   5
A0
 100
AcDbEntity
   8
0
 100
AcDbBlockBegin
   2
_DATUMBLANK
  70
0
  10
0.0
  20
0.0
  30
0.0
   3
_DATUMBLANK
   0
LINE
   5
A1
 100
AcDbEntity
   8
0
 100
AcDbLine
   6
BYBLOCK
  62
0
  10
0.0
  20
 0.57735027000000
  30
0.0
  11
-1.0000000000000
  21
0.0
  31
0.0
   0
LINE
   5
A2
 100
AcDbEntity
   8
0
 100
AcDbLine
   6
BYBLOCK
  62
0
  10
-1.0000000000000
  20
0.0
  30
0.0
  11
0.0
  21
-0.57735027000000
  31
0.0
   0
LINE
   5
A3
 100
AcDbEntity
   8
0
 100
AcDbLine
   6
BYBLOCK
  62
0
  10
0.0
  20
-0.57735027000000
  30
0.0
  11
0.0
  21
 0.57735027000000
  31
0.0
   0
ENDBLK
   5
A4
 100
AcDbEntity
   8
0
 100
AcDbBlockEnd
   0
BLOCK
   5
A5
 100
AcDbEntity
   8
0
 100
AcDbBlockBegin
   2
_DATUMFILLED
  70
0
  10
0.0
  20
0.0
  30
0.0
   3
_DATUMFILLED
   0
SOLID
   5
A6
 100
AcDbEntity
   8
0
 100
AcDbTrace
   6
BYBLOCK
  62
0
  10
0.0
  20
 0.57735027000000
  30
0.0
  11
-1.0000000000000
  21
0.0
  31
0.0
  12
0.0
  22
-0.57735027000000
  32
0.0
  13
0.0
  23
-0.57735027000000
  33
0.0
   0
ENDBLK
   5
A7
 100
AcDbEntity
   8
0
 100
AcDbBlockEnd
   0
BLOCK
   5
A8
 100
AcDbEntity
   8
0
 100
AcDbBlockBegin
   2
_ORIGIN
  70
0
  10
0.0
  20
0.0
  30
0.0
   3
_ORIGIN
   0
CIRCLE
   5
A9
 100
AcDbEntity
   8
0
 100
AcDbCircle
   6
BYBLOCK
  62
0
  10
0.0
  20
0.0
  30
0.0
  40
 0.50000000000000
   0
LINE
   5
AA
 100
AcDbEntity
   8
0
 100
AcDbLine
   6
BYBLOCK
  62
0
  10
0.0
  20
0.0
  30
0.0
  11
-1.0000000000000
  21
0.0
  31
0.0
   0
ENDBLK
   5
AB
 100
AcDbEntity
   8
0
 100
AcDbBlockEnd
   0
BLOCK
   5
AC
 100
AcDbEntity
   8
0
 100
AcDbBlockBegin
   2
_NONE
  70
0
  10
0.0
  20
0.0
  30
0.0
   3
_NONE
   0
CIRCLE
   5
AD
 100
AcDbEntity
   8
0
 100
AcDbCircle
   6
BYBLOCK
  62
0
  10
0.0
  20
0.0
  30
0.0
  40
 0.25000000000000
   0
ENDBLK
   5
AE
 100
AcDbEntity
   8
0
 100
AcDbBlockEnd
   0
BLOCK
   5
AF
 100
AcDbEntity
   8
0
 100
AcDbBlockBegin
   2
_DOTBLANK
  70
0
  10
0.0
  20
0.0
  30
0.0
   3
_DOTBLANK
   0
CIRCLE
   5
B0
 100
AcDbEntity
   8
0
 100
AcDbCircle
   6
BYBLOCK
  62
0
  10
0.0
  20
0.0
  30
0.0
  40
 0.50000000000000
   0
LINE
   5
B1
 100
AcDbEntity
   8
0
 100
AcDbLine
   6
BYBLOCK
  62
0
  10
-0.50000000000000
  20
0.0
  30
0.0
  11
-1.0000000000000
  21
0.0
  31
0.0
   0
ENDBLK
   5
B2
 100
AcDbEntity
   8
0
 100
AcDbBlockEnd
   0
BLOCK
   5
B3
 100
AcDbEntity
   8
0
 100
AcDbBlockBegin
   2
_INTEGRAL
  70
0
  10
0.0
  20
0.0
  30
0.0
   3
_INTEGRAL
   0
ARC
   5
B4
 100
AcDbEntity
   8
0
   6
BYBLOCK
  62
0
 100
AcDbCircle
  10
 0.44488800000000
  20
-0.91335000000000E-1
  30
0.0
  40
 0.45416700000000
 100
AcDbArc
  50
 102.00000000000
  51
 168.00000000000
   0
ARC
   5
B5
 100
AcDbEntity
   8
0
   6
BYBLOCK
  62
0
 100
AcDbCircle
  10
-0.44488800000000
  20
 0.91335000000000E-1
  30
0.0
  40
 0.45416700000000
 100
AcDbArc
  50
 282.00000000000
  51
 348.00000000000
   0
ENDBLK
   5
B6
 100
AcDbEntity
   8
0
 100
AcDbBlockEnd
   0
BLOCK
   5
B7
 100
AcDbEntity
   8
0
 100
AcDbBlockBegin
   2
*D1
  70
65
  10
0.0
  20
0.0
  30
0.0
   3
*D1
   0
LINE
   5
B8
 100
AcDbEntity
   8
LEVEL003
 100
AcDbLine
   6
CONTINUOUS
  62
3
  10
 1125.0000000000
  20
 713.49998100102
  30
0.0
  11
 1125.0000000000
  21
 800.99999374098
  31
0.0
   0
LINE
   5
B9
 100
AcDbEntity
   8
LEVEL003
 100
AcDbLine
   6
CONTINUOUS
  62
3
  10
 1125.0000000000
  20
 794.99999374098
  30
0.0
  11
 1087.5937562330
  21
 794.99999374098
  31
0.0
   0
LINE
   5
BA
 100
AcDbEntity
   8
LEVEL003
 100
AcDbLine
   6
CONTINUOUS
  62
3
  10
 1020.0000031292
  20
 794.99999374098
  30
0.0
  11
 1057.4062562330
  21
 794.99999374098
  31
0.0
   0
INSERT
   5
BB
 100
AcDbEntity
   8
LEVEL003
   6
CONTINUOUS
  62
3
 100
AcDbBlockReference
   2
_OPEN
  10
 1125.0000000000
  20
 794.99999374098
  30
0.0
  41
 9.0000000000000
  42
 9.0000000000000
  43
 9.0000000000000
  50
0.0
   0
INSERT
   5
BC
 100
AcDbEntity
   8
LEVEL003
   6
CONTINUOUS
  62
3
 100
AcDbBlockReference
   2
_OPEN
  10
 1020.0000031292
  20
 794.99999374098
  30
0.0
  41
 9.0000000000000
  42
 9.0000000000000
  43
 9.0000000000000
  50
 180.00000000000
   0
MTEXT
   5
BD
 100
AcDbEntity
   8
LEVEL003
  62
3
 100
AcDbMText
  10
 1072.5000062330
  20
 797.39995704836
  30
0.0
  40
 12.000000000000
  41
0.0
  71
8
  72
1
   1
\A1;105
   7
GMM001
   0
ENDBLK
   5
BE
 100
AcDbEntity
   8
0
 100
AcDbBlockEnd
   0
BLOCK
   5
BF
 100
AcDbEntity
   8
0
 100
AcDbBlockBegin
   2
*D2
  70
65
  10
0.0
  20
0.0
  30
0.0
   3
*D2
   0
LINE
   5
C0
 100
AcDbEntity
   8
LEVEL003
 100
AcDbLine
   6
CONTINUOUS
  62
3
  10
 1020.0000031292
  20
 780.49996374548
  30
0.0
  11
 1020.0000031292
  21
 800.99998456162
  31
0.0
   0
LINE
   5
C1
 100
AcDbEntity
   8
LEVEL003
 100
AcDbLine
   6
CONTINUOUS
  62
3
  10
 402.00002154708
  20
 780.49996374548
  30
0.0
  11
 402.00002154708
  21
 800.99998456162
  31
0.0
   0
LINE
   5
C2
 100
AcDbEntity
   8
LEVEL003
 100
AcDbLine
   6
CONTINUOUS
  62
3
  10
 1020.0000031292
  20
 794.99998456162
  30
0.0
  11
 727.14376407787
  21
 794.99998456162
  31
0.0
   0
LINE
   5
C3
 100
AcDbEntity
   8
LEVEL003
 100
AcDbLine
   6
CONTINUOUS
  62
3
  10
 402.00002154708
  20
 794.99998456162
  30
0.0
  11
 694.85626407787
  21
 794.99998456162
  31
0.0
   0
INSERT
   5
C4
 100
AcDbEntity
   8
LEVEL003
   6
CONTINUOUS
  62
3
 100
AcDbBlockReference
   2
_OPEN
  10
 1020.0000031292
  20
 794.99998456162
  30
0.0
  41
 9.0000000000000
  42
 9.0000000000000
  43
 9.0000000000000
  50
0.0
   0
INSERT
   5
C5
 100
AcDbEntity
   8
LEVEL003
   6
CONTINUOUS
  62
3
 100
AcDbBlockReference
   2
_OPEN
  10
 402.00002154708
  20
 794.99998456162
  30
0.0
  41
 9.0000000000000
  42
 9.0000000000000
  43
 9.0000000000000
  50
 180.00000000000
   0
MTEXT
   5
C6
 100
AcDbEntity
   8
LEVEL003
  62
3
 100
AcDbMText
  10
 711.00001407787
  20
 797.39994786900
  30
0.0
  40
 12.000000000000
  41
0.0
  71
8
  72
1
   1
\A1;618
   7
GMM001
   0
ENDBLK
   5
C7
 100
AcDbEntity
   8
0
 100
AcDbBlockEnd
   0
BLOCK
   5
C8
 100
AcDbEntity
   8
0
 100
AcDbBlockBegin
   2
*D3
  70
65
  10
0.0
  20
0.0
  30
0.0
   3
*D3
   0
LINE
   5
C9
 100
AcDbEntity
   8
LEVEL003
 100
AcDbLine
   6
CONTINUOUS
  62
3
  10
 198.99998944998
  20
 509.00001743436
  30
0.0
  11
 198.99998944998
  21
 429.00001654029
  31
0.0
   0
LINE
   5
CA
 100
AcDbEntity
   8
LEVEL003
 100
AcDbLine
   6
CONTINUOUS
  62
3
  10
 198.99998944998
  20
 435.00001654029
  30
0.0
  11
 199.42499289215
  21
 435.00001654029
  31
0.0
   0
LINE
   5
CB
 100
AcDbEntity
   8
LEVEL003
 100
AcDbLine
   6
CONTINUOUS
  62
3
  10
 223.99999633431
  20
 435.00001654029
  30
0.0
  11
 223.57499289215
  21
 435.00001654029
  31
0.0
   0
INSERT
   5
CC
 100
AcDbEntity
   8
LEVEL003
   6
CONTINUOUS
  62
3
 100
AcDbBlockReference
   2
_OPEN
  10
 198.99998944998
  20
 435.00001654029
  30
0.0
  41
 9.0000000000000
  42
 9.0000000000000
  43
 9.0000000000000
  50
 180.00000000000
   0
INSERT
   5
CD
 100
AcDbEntity
   8
LEVEL003
   6
CONTINUOUS
  62
3
 100
AcDbBlockReference
   2
_OPEN
  10
 223.99999633431
  20
 435.00001654029
  30
0.0
  41
 9.0000000000000
  42
 9.0000000000000
  43
 9.0000000000000
  50
0.0
   0
MTEXT
   5
CE
 100
AcDbEntity
   8
LEVEL003
  62
3
 100
AcDbMText
  10
 211.49999289215
  20
 437.40001654029
  30
0.0
  40
 12.000000000000
  41
0.0
  71
8
  72
1
   1
\A1;25
   7
GMM001
   0
ENDBLK
   5
CF
 100
AcDbEntity
   8
0
 100
AcDbBlockEnd
   0
BLOCK
   5
D0
 100
AcDbEntity
   8
0
 100
AcDbBlockBegin
   2
*D4
  70
65
  10
0.0
  20
0.0
  30
0.0
   3
*D4
   0
LINE
   5
D1
 100
AcDbEntity
   8
LEVEL003
 100
AcDbLine
   6
CONTINUOUS
  62
3
  10
 223.99999633431
  20
 524.00005006790
  30
0.0
  11
 223.99999633431
  21
 429.00001654029
  31
0.0
   0
LINE
   5
D2
 100
AcDbEntity
   8
LEVEL003
 100
AcDbLine
   6
CONTINUOUS
  62
3
  10
 288.99996387959
  20
 513.00003513694
  30
0.0
  11
 288.99996387959
  21
 429.00001654029
  31
0.0
   0
LINE
   5
D3
 100
AcDbEntity
   8
LEVEL003
 100
AcDbLine
   6
CONTINUOUS
  62
3
  10
 223.99999633431
  20
 435.00001654029
  30
0.0
  11
 244.42498010695
  21
 435.00001654029
  31
0.0
   0
LINE
   5
D4
 100
AcDbEntity
   8
LEVEL003
 100
AcDbLine
   6
CONTINUOUS
  62
3
  10
 288.99996387959
  20
 435.00001654029
  30
0.0
  11
 268.57498010695
  21
 435.00001654029
  31
0.0
   0
INSERT
   5
D5
 100
AcDbEntity
   8
LEVEL003
   6
CONTINUOUS
  62
3
 100
AcDbBlockReference
   2
_OPEN
  10
 223.99999633431
  20
 435.00001654029
  30
0.0
  41
 9.0000000000000
  42
 9.0000000000000
  43
 9.0000000000000
  50
 180.00000000000
   0
INSERT
   5
D6
 100
AcDbEntity
   8
LEVEL003
   6
CONTINUOUS
  62
3
 100
AcDbBlockReference
   2
_OPEN
  10
 288.99996387959
  20
 435.00001654029
  30
0.0
  41
 9.0000000000000
  42
 9.0000000000000
  43
 9.0000000000000
  50
0.0
   0
MTEXT
   5
D7
 100
AcDbEntity
   8
LEVEL003
  62
3
 100
AcDbMText
  10
 256.49998010695
  20
 437.40001654029
  30
0.0
  40
 12.000000000000
  41
0.0
  71
8
  72
1
   1
\A1;65
   7
GMM001
   0
ENDBLK
   5
D8
 100
AcDbEntity
   8
0
 100
AcDbBlockEnd
   0
BLOCK
   5
D9
 100
AcDbEntity
   8
0
 100
AcDbBlockBegin
   2
*D5
  70
65
  10
0.0
  20
0.0
  30
0.0
   3
*D5
   0
LINE
   5
DA
 100
AcDbEntity
   8
LEVEL003
 100
AcDbLine
   6
CONTINUOUS
  62
3
  10
 291.99996379018
  20
 460.50002838671
  30
0.0
  11
 291.99996379018
  21
 429.00001654029
  31
0.0
   0
LINE
   5
DB
 100
AcDbEntity
   8
LEVEL003
 100
AcDbLine
   6
CONTINUOUS
  62
3
  10
 356.99993133545
  20
 457.00005900860
  30
0.0
  11
 356.99993133545
  21
 429.00001654029
  31
0.0
   0
LINE
   5
DC
 100
AcDbEntity
   8
LEVEL003
 100
AcDbLine
   6
CONTINUOUS
  62
3
  10
 291.99996379018
  20
 435.00001654029
  30
0.0
  11
 312.42494756282
  21
 435.00001654029
  31
0.0
   0
LINE
   5
DD
 100
AcDbEntity
   8
LEVEL003
 100
AcDbLine
   6
CONTINUOUS
  62
3
  10
 356.99993133545
  20
 435.00001654029
  30
0.0
  11
 336.57494756282
  21
 435.00001654029
  31
0.0
   0
INSERT
   5
DE
 100
AcDbEntity
   8
LEVEL003
   6
CONTINUOUS
  62
3
 100
AcDbBlockReference
   2
_OPEN
  10
 291.99996379018
  20
 435.00001654029
  30
0.0
  41
 9.0000000000000
  42
 9.0000000000000
  43
 9.0000000000000
  50
 180.00000000000
   0
INSERT
   5
DF
 100
AcDbEntity
   8
LEVEL003
   6
CONTINUOUS
  62
3
 100
AcDbBlockReference
   2
_OPEN
  10
 356.99993133545
  20
 435.00001654029
  30
0.0
  41
 9.0000000000000
  42
 9.0000000000000
  43
 9.0000000000000
  50
0.0
   0
MTEXT
   5
E0
 100
AcDbEntity
   8
LEVEL003
  62
3
 100
AcDbMText
  10
 324.49994756282
  20
 437.40001654029
  30
0.0
  40
 12.000000000000
  41
0.0
  71
8
  72
1
   1
\A1;65
   7
GMM001
   0
ENDBLK
   5
E1
 100
AcDbEntity
   8
0
 100
AcDbBlockEnd
   0
BLOCK
   5
E2
 100
AcDbEntity
   8
0
 100
AcDbBlockBegin
   2
*D6
  70
65
  10
0.0
  20
0.0
  30
0.0
   3
*D6
   0
LINE
   5
E3
 100
AcDbEntity
   8
LEVEL003
 100
AcDbLine
   6
CONTINUOUS
  62
3
  10
 198.99998944998
  20
 509.00001743436
  30
0.0
  11
 198.99998944998
  21
 399.00001654029
  31
0.0
   0
LINE
   5
E4
 100
AcDbEntity
   8
LEVEL003
 100
AcDbLine
   6
CONTINUOUS
  62
3
  10
 356.99993133545
  20
 457.00005900860
  30
0.0
  11
 356.99993133545
  21
 399.00001654029
  31
0.0
   0
LINE
   5
E5
 100
AcDbEntity
   8
LEVEL003
 100
AcDbLine
   6
CONTINUOUS
  62
3
  10
 198.99998944998
  20
 405.00001654029
  30
0.0
  11
 261.85621039271
  21
 405.00001654029
  31
0.0
   0
LINE
   5
E6
 100
AcDbEntity
   8
LEVEL003
 100
AcDbLine
   6
CONTINUOUS
  62
3
  10
 356.99993133545
  20
 405.00001654029
  30
0.0
  11
 294.14371039271
  21
 405.00001654029
  31
0.0
   0
INSERT
   5
E7
 100
AcDbEntity
   8
LEVEL003
   6
CONTINUOUS
  62
3
 100
AcDbBlockReference
   2
_OPEN
  10
 198.99998944998
  20
 405.00001654029
  30
0.0
  41
 9.0000000000000
  42
 9.0000000000000
  43
 9.0000000000000
  50
 180.00000000000
   0
INSERT
   5
E8
 100
AcDbEntity
   8
LEVEL003
   6
CONTINUOUS
  62
3
 100
AcDbBlockReference
   2
_OPEN
  10
 356.99993133545
  20
 405.00001654029
  30
0.0
  41
 9.0000000000000
  42
 9.0000000000000
  43
 9.0000000000000
  50
0.0
   0
MTEXT
   5
E9
 100
AcDbEntity
   8
LEVEL003
  62
3
 100
AcDbMText
  10
 277.99996039271
  20
 407.40001654029
  30
0.0
  40
 12.000000000000
  41
0.0
  71
8
  72
1
   1
\A1;158
   7
GMM001
   0
ENDBLK
   5
EA
 100
AcDbEntity
   8
0
 100
AcDbBlockEnd
   0
BLOCK
   5
EB
 100
AcDbEntity
   8
0
 100
AcDbBlockBegin
   2
*D7
  70
65
  10
0.0
  20
0.0
  30
0.0
   3
*D7
   0
LINE
   5
EC
 100
AcDbEntity
   8
LEVEL003
 100
AcDbLine
   6
CONTINUOUS
  62
3
  10
 197.99998176098
  20
 659.99999776483
  30
0.0
  11
 159.00003129244
  21
 659.99999776483
  31
0.0
   0
LINE
   5
ED
 100
AcDbEntity
   8
LEVEL003
 100
AcDbLine
   6
CONTINUOUS
  62
3
  10
 197.99998176098
  20
 510.00000223517
  30
0.0
  11
 159.00003129244
  21
 510.00000223517
  31
0.0
   0
LINE
   5
EE
 100
AcDbEntity
   8
LEVEL003
 100
AcDbLine
   6
CONTINUOUS
  62
3
  10
 165.00003129244
  20
 659.99999776483
  30
0.0
  11
 165.00003129244
  21
 608.49375000000
  31
0.0
   0
LINE
   5
EF
 100
AcDbEntity
   8
LEVEL003
 100
AcDbLine
   6
CONTINUOUS
  62
3
  10
 165.00003129244
  20
 510.00000223517
  30
0.0
  11
 165.00003129244
  21
 561.50625000000
  31
0.0
   0
INSERT
   5
F0
 100
AcDbEntity
   8
LEVEL003
   6
CONTINUOUS
  62
3
 100
AcDbBlockReference
   2
_OPEN
  10
 165.00003129244
  20
 659.99999776483
  30
0.0
  41
 9.0000000000000
  42
 9.0000000000000
  43
 9.0000000000000
  50
 90.000000000000
   0
INSERT
   5
F1
 100
AcDbEntity
   8
LEVEL003
   6
CONTINUOUS
  62
3
 100
AcDbBlockReference
   2
_OPEN
  10
 165.00003129244
  20
 510.00000223517
  30
0.0
  41
 9.0000000000000
  42
 9.0000000000000
  43
 9.0000000000000
  50
 270.00000000000
   0
MTEXT
   5
F2
 100
AcDbEntity
   8
LEVEL003
  62
3
 100
AcDbMText
  10
 162.60003365278
  20
 585.00000000000
  30
0.0
  40
 12.000000000000
  41
0.0
  71
8
  72
1
   1
\A1;%%c150
   7
GMM001
  11
0.0
  21
 1.0000000000000
  31
0.0
   0
ENDBLK
   5
F3
 100
AcDbEntity
   8
0
 100
AcDbBlockEnd
   0
BLOCK
   5
F4
 100
AcDbEntity
   8
0
 100
AcDbBlockBegin
   2
*D10
  70
65
  10
0.0
  20
0.0
  30
0.0
   3
*D10
   0
LINE
   5
F5
 100
AcDbEntity
   8
LEVEL003
 100
AcDbLine
   6
CONTINUOUS
  62
3
  10
 750.00001117587
  20
 457.50000379980
  30
0.0
  11
 750.00001117587
  21
 558.48750000000
  31
0.0
   0
LINE
   5
F6
 100
AcDbEntity
   8
LEVEL003
 100
AcDbLine
   6
CONTINUOUS
  62
3
  10
 750.00001117587
  20
 712.49999620020
  30
0.0
  11
 750.00001117587
  21
 611.51250000000
  31
0.0
   0
INSERT
   5
F7
 100
AcDbEntity
   8
LEVEL003
   6
CONTINUOUS
  62
3
 100
AcDbBlockReference
   2
_OPEN
  10
 750.00001117587
  20
 457.50000379980
  30
0.0
  41
 9.0000000000000
  42
 9.0000000000000
  43
 9.0000000000000
  50
 270.00000000000
   0
INSERT
   5
F8
 100
AcDbEntity
   8
LEVEL003
   6
CONTINUOUS
  62
3
 100
AcDbBlockReference
   2
_OPEN
  10
 750.00001117587
  20
 712.49999620020
  30
0.0
  41
 9.0000000000000
  42
 9.0000000000000
  43
 9.0000000000000
  50
 90.000000000000
   0
MTEXT
   5
F9
 100
AcDbEntity
   8
LEVEL003
  62
3
 100
AcDbMText
  10
 747.60000209212
  20
 585.00000000000
  30
0.0
  40
 12.000000000000
  41
0.0
  71
8
  72
1
   1
\A1;%%c255
   7
GMM001
  11
0.0
  21
 1.0000000000000
  31
0.0
   0
ENDBLK
   5
FA
 100
AcDbEntity
   8
0
 100
AcDbBlockEnd
   0
BLOCK
   5
FB
 100
AcDbEntity
   8
0
 100
AcDbBlockBegin
   2
*D11
  70
65
  10
0.0
  20
0.0
  30
0.0
   3
*D11
   0
LINE
   5
FC
 100
AcDbEntity
   8
LEVEL003
 100
AcDbLine
   6
CONTINUOUS
  62
3
  10
 690.00003129244
  20
 654.99998265505
  30
0.0
  11
 690.00003129244
  21
 608.49376654029
  31
0.0
   0
LINE
   5
FD
 100
AcDbEntity
   8
LEVEL003
 100
AcDbLine
   6
CONTINUOUS
  62
3
  10
 690.00003129244
  20
 515.00005042553
  30
0.0
  11
 690.00003129244
  21
 561.50626654029
  31
0.0
   0
INSERT
   5
FE
 100
AcDbEntity
   8
LEVEL003
   6
CONTINUOUS
  62
3
 100
AcDbBlockReference
   2
_OPEN
  10
 690.00003129244
  20
 654.99998265505
  30
0.0
  41
 9.0000000000000
  42
 9.0000000000000
  43
 9.0000000000000
  50
 90.000000000000
   0
INSERT
   5
FF
 100
AcDbEntity
   8
LEVEL003
   6
CONTINUOUS
  62
3
 100
AcDbBlockReference
   2
_OPEN
  10
 690.00003129244
  20
 515.00005042553
  30
0.0
  41
 9.0000000000000
  42
 9.0000000000000
  43
 9.0000000000000
  50
 270.00000000000
   0
MTEXT
   5
100
 100
AcDbEntity
   8
LEVEL003
  62
3
 100
AcDbMText
  10
 687.60003129244
  20
 585.00001654029
  30
0.0
  40
 12.000000000000
  41
0.0
  71
8
  72
1
   1
\A1;%%c140
   7
GMM001
  11
0.0
  21
 1.0000000000000
  31
0.0
   0
ENDBLK
   5
101
 100
AcDbEntity
   8
0
 100
AcDbBlockEnd
   0
BLOCK
   5
102
 100
AcDbEntity
   8
0
 100
AcDbBlockBegin
   2
*D12
  70
65
  10
0.0
  20
0.0
  30
0.0
   3
*D12
   0
LINE
   5
103
 100
AcDbEntity
   8
LEVEL003
 100
AcDbLine
   6
CONTINUOUS
  62
3
  10
 720.00003129244
  20
 682.49999709427
  30
0.0
  11
 720.00003129244
  21
 609.54376654029
  31
0.0
   0
LINE
   5
104
 100
AcDbEntity
   8
LEVEL003
 100
AcDbLine
   6
CONTINUOUS
  62
3
  10
 720.00003129244
  20
 487.50003598630
  30
0.0
  11
 720.00003129244
  21
 560.45626654029
  31
0.0
   0
INSERT
   5
105
 100
AcDbEntity
   8
LEVEL003
   6
CONTINUOUS
  62
3
 100
AcDbBlockReference
   2
_OPEN
  10
 720.00003129244
  20
 682.49999709427
  30
0.0
  41
 9.0000000000000
  42
 9.0000000000000
  43
 9.0000000000000
  50
 90.000000000000
   0
INSERT
   5
106
 100
AcDbEntity
   8
LEVEL003
   6
CONTINUOUS
  62
3
 100
AcDbBlockReference
   2
_OPEN
  10
 720.00003129244
  20
 487.50003598630
  30
0.0
  41
 9.0000000000000
  42
 9.0000000000000
  43
 9.0000000000000
  50
 270.00000000000
   0
MTEXT
   5
107
 100
AcDbEntity
   8
LEVEL003
  62
3
 100
AcDbMText
  10
 717.60003129244
  20
 585.00001654029
  30
0.0
  40
 12.000000000000
  41
0.0
  71
8
  72
1
   1
\A1;%%c195
   7
GMM001
  11
0.0
  21
 1.0000000000000
  31
0.0
   0
ENDBLK
   5
108
 100
AcDbEntity
   8
0
 100
AcDbBlockEnd
   0
BLOCK
   5
109
 100
AcDbEntity
   8
0
 100
AcDbBlockBegin
   2
*D13
  70
65
  10
0.0
  20
0.0
  30
0.0
   3
*D13
   0
LINE
   5
10A
 100
AcDbEntity
   8
LEVEL003
 100
AcDbLine
   6
CONTINUOUS
  62
3
  10
 198.99998944998
  20
 509.00001743436
  30
0.0
  11
 198.99998944998
  21
 384.00000000000
  31
0.0
   0
LINE
   5
10B
 100
AcDbEntity
   8
LEVEL003
 100
AcDbLine
   6
CONTINUOUS
  62
3
  10
 1125.0000000000
  20
 456.50001899898
  30
0.0
  11
 1125.0000000000
  21
 384.00000000000
  31
0.0
   0
LINE
   5
10C
 100
AcDbEntity
   8
LEVEL003
 100
AcDbLine
   6
CONTINUOUS
  62
3
  10
 198.99998944998
  20
 390.00000000000
  30
0.0
  11
 643.88748328090
  21
 390.00000000000
  31
0.0
   0
LINE
   5
10D
 100
AcDbEntity
   8
LEVEL003
 100
AcDbLine
   6
CONTINUOUS
  62
3
  10
 1125.0000000000
  20
 390.00000000000
  30
0.0
  11
 680.11248328090
  21
 390.00000000000
  31
0.0
   0
INSERT
   5
10E
 100
AcDbEntity
   8
LEVEL003
   6
CONTINUOUS
  62
3
 100
AcDbBlockReference
   2
_OPEN
  10
 198.99998944998
  20
 390.00000000000
  30
0.0
  41
 9.0000000000000
  42
 9.0000000000000
  43
 9.0000000000000
  50
 180.00000000000
   0
INSERT
   5
10F
 100
AcDbEntity
   8
LEVEL003
   6
CONTINUOUS
  62
3
 100
AcDbBlockReference
   2
_OPEN
  10
 1125.0000000000
  20
 390.00000000000
  30
0.0
  41
 9.0000000000000
  42
 9.0000000000000
  43
 9.0000000000000
  50
0.0
   0
MTEXT
   5
110
 100
AcDbEntity
   8
LEVEL003
  62
3
 100
AcDbMText
  10
 661.99998328090
  20
 392.40000908375
  30
0.0
  40
 12.000000000000
  41
0.0
  71
8
  72
1
   1
\A1;926
   7
GMM001
   0
ENDBLK
   5
111
 100
AcDbEntity
   8
0
 100
AcDbBlockEnd
   0
ENDSEC
   0
SECTION
   2
ENTITIES
   0
ARC
   5
112
 100
AcDbEntity
   8
LEVEL001
   6
CONTINUOUS
  62
7
 100
AcDbCircle
  10
 147.00002154705
  20
 899.99998971820
  30
0.0
  40
 1.4999999552965
 100
AcDbArc
  50
 0.39273581949928E-3
  51
 89.999999998794
   0
ARC
   5
113
 100
AcDbEntity
   8
LEVEL001
   6
CONTINUOUS
  62
7
 100
AcDbCircle
  10
 286.99996387964
  20
 644.99998301265
  30
0.0
  40
 2.0000000000000
 100
AcDbArc
  50
 270.00022027194
  51
 0.43542506115326E-3
   0
LINE
   5
114
 100
AcDbEntity
   8
LEVEL001
 100
AcDbLine
   6
CONTINUOUS
  62
7
  10
 281.99997934699
  20
 659.99999776483
  30
0.0
  11
 283.99997165799
  21
 657.99998256564
  31
0.0
   0
LINE
   5
115
 100
AcDbEntity
   8
LEVEL001
 100
AcDbLine
   6
CONTINUOUS
  62
7
  10
 198.99998944998
  20
 657.99998256564
  30
0.0
  11
 200.99998176098
  21
 659.99999776483
  31
0.0
   0
LINE
   5
116
 100
AcDbEntity
   8
LEVEL001
 100
AcDbLine
   6
CONTINUOUS
  62
7
  10
 198.99998944998
  20
 585.00000000000
  30
0.0
  11
 198.99998944998
  21
 657.99998256564
  31
0.0
   0
LINE
   5
117
 100
AcDbEntity
   8
LEVEL001
 100
AcDbLine
   6
CONTINUOUS
  62
7
  10
 200.99998176098
  20
 659.99999776483
  30
0.0
  11
 281.99997934699
  21
 659.99999776483
  31
0.0
   0
LINE
   5
118
 100
AcDbEntity
   8
LEVEL001
 100
AcDbLine
   6
CONTINUOUS
  62
7
  10
 288.99996387959
  20
 653.99999794364
  30
0.0
  11
 291.99996379018
  21
 654.99998265505
  31
0.0
   0
LINE
   5
119
 100
AcDbEntity
   8
LEVEL001
 100
AcDbLine
   6
CONTINUOUS
  62
3
  10
 411.50585012120
  20
 718.59072477845
  30
0.0
  11
 392.49414719659
  21
 718.59081633118
  31
0.0
   0
LINE
   5
11A
 100
AcDbEntity
   8
LEVEL001
 100
AcDbLine
   6
CONTINUOUS
  62
3
  10
 391.17876332466
  20
 723.50001113117
  30
0.0
  11
 392.49414719659
  21
 718.59081633118
  31
0.0
   0
LINE
   5
11B
 100
AcDbEntity
   8
LEVEL001
 100
AcDbLine
   6
CONTINUOUS
  62
3
  10
 412.82127976950
  20
 723.50001113117
  30
0.0
  11
 411.50585012120
  21
 718.59072477845
  31
0.0
   0
LINE
   5
11C
 100
AcDbEntity
   8
LEVEL001
 100
AcDbLine
   6
CONTINUOUS
  62
7
  10
 391.17876332466
  20
 723.50001113117
  30
0.0
  11
 412.82127976950
  21
 723.50001113117
  31
0.0
   0
LINE
   5
11D
 100
AcDbEntity
   8
LEVEL001
 100
AcDbLine
   6
CONTINUOUS
  62
7
  10
 390.00002190471
  20
 725.54163704688
  30
0.0
  11
 390.00002190471
  21
 741.70000753701
  31
0.0
   0
LINE
   5
11E
 100
AcDbEntity
   8
LEVEL001
 100
AcDbLine
   6
CONTINUOUS
  62
7
  10
 412.82127976950
  20
 723.50001113117
  30
0.0
  11
 414.00002118945
  21
 725.54159127052
  31
0.0
   0
LINE
   5
11F
 100
AcDbEntity
   8
LEVEL001
 100
AcDbLine
   6
CONTINUOUS
  62
7
  10
 414.00002118945
  20
 725.54159127052
  30
0.0
  11
 414.00002118945
  21
 741.70000753701
  31
0.0
   0
LINE
   5
120
 100
AcDbEntity
   8
LEVEL001
 100
AcDbLine
   6
CONTINUOUS
  62
7
  10
 391.17876332466
  20
 723.50001113117
  30
0.0
  11
 390.00002190471
  21
 725.54163704688
  31
0.0
   0
ARC
   5
121
 100
AcDbEntity
   8
LEVEL001
   6
CONTINUOUS
  62
7
 100
AcDbCircle
  10
 386.00002190377
  20
 743.70000735818
  30
0.0
  40
 1.9999998211861
 100
AcDbArc
  50
 179.99824805588
  51
 269.99978487575
   0
LINE
   5
122
 100
AcDbEntity
   8
LEVEL001
 100
AcDbLine
   6
CONTINUOUS
  62
7
  10
 384.00002208352
  20
 743.70006851256
  30
0.0
  11
 384.00002208352
  21
 749.70006833374
  31
0.0
   0
ARC
   5
123
 100
AcDbEntity
   8
LEVEL001
   6
CONTINUOUS
  62
7
 100
AcDbCircle
  10
 385.00002199369
  20
 765.70003739896
  30
0.0
  40
 0.99999991059304
 100
AcDbArc
  50
 89.999559428525
  51
 180.00175194531
   0
LINE
   5
124
 100
AcDbEntity
   8
LEVEL001
 100
AcDbLine
   6
CONTINUOUS
  62
7
  10
 384.00002208352
  20
 759.70000700057
  30
0.0
  11
 384.00002208352
  21
 765.70000682175
  31
0.0
   0
ARC
   5
125
 100
AcDbEntity
   8
LEVEL001
   6
CONTINUOUS
  62
7
 100
AcDbCircle
  10
 418.00002119039
  20
 743.70000735808
  30
0.0
  40
 1.9999998211861
 100
AcDbArc
  50
 269.99955942599
  51
 0.17519468675108E-2
   0
LINE
   5
126
 100
AcDbEntity
   8
LEVEL001
 100
AcDbLine
   6
CONTINUOUS
  62
7
  10
 420.00002101064
  20
 743.70006851256
  30
0.0
  11
 420.00002101064
  21
 749.70006833374
  31
0.0
   0
ARC
   5
127
 100
AcDbEntity
   8
LEVEL001
   6
CONTINUOUS
  62
7
 100
AcDbCircle
  10
 419.00002110048
  20
 765.70003739905
  30
0.0
  40
 0.99999991059304
 100
AcDbArc
  50
 359.99824804976
  51
 89.999129175334
   0
LINE
   5
128
 100
AcDbEntity
   8
LEVEL001
 100
AcDbLine
   6
CONTINUOUS
  62
7
  10
 420.00002101064
  20
 759.70000700057
  30
0.0
  11
 420.00002101064
  21
 765.70000682175
  31
0.0
   0
LINE
   5
129
 100
AcDbEntity
   8
LEVEL001
 100
AcDbLine
   6
CONTINUOUS
  62
7
  10
 418.00000581145
  20
 741.70000753701
  30
0.0
  11
 386.00001439452
  21
 741.70000753701
  31
0.0
   0
LINE
   5
12A
 100
AcDbEntity
   8
LEVEL001
 100
AcDbLine
   6
CONTINUOUS
  62
7
  10
 385.00002968311
  20
 766.70003730953
  30
0.0
  11
 419.00003629923
  21
 766.70003730953
  31
0.0
   0
LINE
   5
12B
 100
AcDbEntity
   8
LEVEL001
 100
AcDbLine
   6
CONTINUOUS
  62
7
  10
 390.00002190471
  20
 725.54163704688
  30
0.0
  11
 396.19054296045
  21
 725.54163704688
  31
0.0
   0
LINE
   5
12C
 100
AcDbEntity
   8
LEVEL001
 100
AcDbLine
   6
CONTINUOUS
  62
7
  10
 407.80950013371
  20
 725.54163704688
  30
0.0
  11
 414.00002118945
  21
 725.54163704688
  31
0.0
   0
LINE
   5
12D
 100
AcDbEntity
   8
LEVEL001
 100
AcDbLine
   6
CONTINUOUS
  62
7
  10
 407.80950013371
  20
 725.54163704688
  30
0.0
  11
 396.19054296045
  21
 734.49993450940
  31
0.0
   0
LINE
   5
12E
 100
AcDbEntity
   8
LEVEL001
 100
AcDbLine
   6
CONTINUOUS
  62
7
  10
 396.19054296045
  20
 725.54163704688
  30
0.0
  11
 407.80950013371
  21
 734.49993450940
  31
0.0
   0
LINE
   5
12F
 100
AcDbEntity
   8
LEVEL001
 100
AcDbLine
   6
DASHDOT
  62
1
  10
 384.00002208352
  20
 766.70003730953
  30
0.0
  11
 384.00002208352
  21
 774.70000655353
  31
0.0
   0
LINE
   5
130
 100
AcDbEntity
   8
LEVEL001
 100
AcDbLine
   6
DASHDOT
  62
1
  10
 420.00002101064
  20
 766.70003730953
  30
0.0
  11
 420.00002101064
  21
 774.70000655353
  31
0.0
   0
LINE
   5
131
 100
AcDbEntity
   8
LEVEL001
 100
AcDbLine
   6
DASHDOT
  62
1
  10
 384.00002208352
  20
 774.70000655353
  30
0.0
  11
 420.00002101064
  21
 774.70000655353
  31
0.0
   0
LINE
   5
132
 100
AcDbEntity
   8
LEVEL001
 100
AcDbLine
   6
DASHDOT
  62
1
  10
 385.00002968311
  20
 766.70003730953
  30
0.0
  11
 384.00002208352
  21
 766.70003730953
  31
0.0
   0
LINE
   5
133
 100
AcDbEntity
   8
LEVEL001
 100
AcDbLine
   6
DASHDOT
  62
1
  10
 419.00003629923
  20
 766.70003730953
  30
0.0
  11
 420.00002101064
  21
 766.70003730953
  31
0.0
   0
LINE
   5
134
 100
AcDbEntity
   8
LEVEL001
 100
AcDbLine
   6
CONTINUOUS
  62
3
  10
 418.50002105534
  20
 749.70006833374
  30
0.0
  11
 418.50002105534
  21
 759.70000700057
  31
0.0
   0
LINE
   5
135
 100
AcDbEntity
   8
LEVEL001
 100
AcDbLine
   6
CONTINUOUS
  62
3
  10
 416.50000585616
  20
 749.70006833374
  30
0.0
  11
 416.50000585616
  21
 759.70000700057
  31
0.0
   0
LINE
   5
136
 100
AcDbEntity
   8
LEVEL001
 100
AcDbLine
   6
CONTINUOUS
  62
3
  10
 414.50003643334
  20
 749.70006833374
  30
0.0
  11
 414.50003643334
  21
 759.70000700057
  31
0.0
   0
LINE
   5
137
 100
AcDbEntity
   8
LEVEL001
 100
AcDbLine
   6
CONTINUOUS
  62
3
  10
 412.50002123415
  20
 749.70006833374
  30
0.0
  11
 412.50002123415
  21
 759.70000700057
  31
0.0
   0
LINE
   5
138
 100
AcDbEntity
   8
LEVEL001
 100
AcDbLine
   6
CONTINUOUS
  62
3
  10
 410.50000603497
  20
 749.70006833374
  30
0.0
  11
 410.50000603497
  21
 759.70000700057
  31
0.0
   0
LINE
   5
139
 100
AcDbEntity
   8
LEVEL001
 100
AcDbLine
   6
CONTINUOUS
  62
3
  10
 408.50003661215
  20
 749.70006833374
  30
0.0
  11
 408.50003661215
  21
 759.70000700057
  31
0.0
   0
LINE
   5
13A
 100
AcDbEntity
   8
LEVEL001
 100
AcDbLine
   6
CONTINUOUS
  62
3
  10
 406.50002141297
  20
 749.70006833374
  30
0.0
  11
 406.50002141297
  21
 759.70000700057
  31
0.0
   0
LINE
   5
13B
 100
AcDbEntity
   8
LEVEL001
 100
AcDbLine
   6
CONTINUOUS
  62
3
  10
 404.50000621378
  20
 749.70006833374
  30
0.0
  11
 404.50000621378
  21
 759.70000700057
  31
0.0
   0
LINE
   5
13C
 100
AcDbEntity
   8
LEVEL001
 100
AcDbLine
   6
CONTINUOUS
  62
3
  10
 402.50003679097
  20
 749.70006833374
  30
0.0
  11
 402.50003679097
  21
 759.70000700057
  31
0.0
   0
LINE
   5
13D
 100
AcDbEntity
   8
LEVEL001
 100
AcDbLine
   6
CONTINUOUS
  62
3
  10
 400.50002159178
  20
 749.70006833374
  30
0.0
  11
 400.50002159178
  21
 759.70000700057
  31
0.0
   0
LINE
   5
13E
 100
AcDbEntity
   8
LEVEL001
 100
AcDbLine
   6
CONTINUOUS
  62
3
  10
 398.50000639260
  20
 749.70006833374
  30
0.0
  11
 398.50000639260
  21
 759.70000700057
  31
0.0
   0
LINE
   5
13F
 100
AcDbEntity
   8
LEVEL001
 100
AcDbLine
   6
CONTINUOUS
  62
3
  10
 396.50003696978
  20
 749.70006833374
  30
0.0
  11
 396.50003696978
  21
 759.70000700057
  31
0.0
   0
LINE
   5
140
 100
AcDbEntity
   8
LEVEL001
 100
AcDbLine
   6
CONTINUOUS
  62
3
  10
 394.50002177060
  20
 749.70006833374
  30
0.0
  11
 394.50002177060
  21
 759.70000700057
  31
0.0
   0
LINE
   5
141
 100
AcDbEntity
   8
LEVEL001
 100
AcDbLine
   6
CONTINUOUS
  62
3
  10
 392.50000657141
  20
 749.70006833374
  30
0.0
  11
 392.50000657141
  21
 759.70000700057
  31
0.0
   0
LINE
   5
142
 100
AcDbEntity
   8
LEVEL001
 100
AcDbLine
   6
CONTINUOUS
  62
3
  10
 390.50003714859
  20
 749.70006833374
  30
0.0
  11
 390.50003714859
  21
 759.70000700057
  31
0.0
   0
LINE
   5
143
 100
AcDbEntity
   8
LEVEL001
 100
AcDbLine
   6
CONTINUOUS
  62
3
  10
 388.50002194941
  20
 749.70006833374
  30
0.0
  11
 388.50002194941
  21
 759.70000700057
  31
0.0
   0
LINE
   5
144
 100
AcDbEntity
   8
LEVEL001
 100
AcDbLine
   6
CONTINUOUS
  62
3
  10
 386.50002963841
  20
 749.70006833374
  30
0.0
  11
 386.50002963841
  21
 759.70000700057
  31
0.0
   0
LINE
   5
145
 100
AcDbEntity
   8
LEVEL001
 100
AcDbLine
   6
CONTINUOUS
  62
3
  10
 384.50001443922
  20
 749.70006833374
  30
0.0
  11
 384.50001443922
  21
 759.70000700057
  31
0.0
   0
LINE
   5
146
 100
AcDbEntity
   8
LEVEL001
 100
AcDbLine
   6
CONTINUOUS
  62
7
  10
 198.99998944998
  20
 512.00001743436
  30
0.0
  11
 200.99998176098
  21
 510.00000223517
  31
0.0
   0
LINE
   5
147
 100
AcDbEntity
   8
LEVEL001
 100
AcDbLine
   6
CONTINUOUS
  62
7
  10
 198.99998944998
  20
 585.00000000000
  30
0.0
  11
 198.99998944998
  21
 512.00001743436
  31
0.0
   0
DIMENSION
   5
148
 100
AcDbEntity
   8
LEVEL003
   6
CONTINUOUS
  62
3
 100
AcDbDimension
   2
*D1
  10
 1020.0000031292
  20
 794.99999374098
  30
0.0
  11
 1072.5000062330
  21
 794.99999374098
  31
0.0
  70
128
   1
\A1;105
   3
GMM001
 100
AcDbAlignedDimension
  13
 1125.0000000000
  23
 710.49998100102
  33
0.0
  14
 1020.0000031292
  24
 777.49996374548
  34
0.0
  50
 180.00000000000
 100
AcDbRotatedDimension
   0
DIMENSION
   5
14A
 100
AcDbEntity
   8
LEVEL003
   6
CONTINUOUS
  62
3
 100
AcDbDimension
   2
*D2
  10
 402.00002154708
  20
 794.99998456162
  30
0.0
  11
 711.00001407787
  21
 794.99998456162
  31
0.0
  70
128
   1
\A1;618
   3
GMM002
 100
AcDbAlignedDimension
  13
 1020.0000031292
  23
 777.49996374548
  33
0.0
  14
 402.00002154708
  24
 777.49996374548
  34
0.0
  50
 180.00000000000
 100
AcDbRotatedDimension
   0
LINE
   5
14C
 100
AcDbEntity
   8
LEVEL001
 100
AcDbLine
   6
DASHDOT
  62
1
  10
 402.00011309981
  20
 450.00000402331
  30
0.0
  11
 402.00011309981
  21
 495.00000268221
  31
0.0
   0
LINE
   5
14D
 100
AcDbEntity
   8
LEVEL001
 100
AcDbLine
   6
DOT
  62
3
  10
 406.25008245557
  20
 458.25000377744
  30
0.0
  11
 397.75014374405
  21
 458.25000377744
  31
0.0
   0
LINE
   5
14E
 100
AcDbEntity
   8
LEVEL001
 100
AcDbLine
   6
DOT
  62
3
  10
 407.00008243322
  20
 457.50000379980
  30
0.0
  11
 406.25008245557
  21
 458.25000377744
  31
0.0
   0
LINE
   5
14F
 100
AcDbEntity
   8
LEVEL001
 100
AcDbLine
   6
DOT
  62
3
  10
 406.25008245557
  20
 458.25000377744
  30
0.0
  11
 406.25008245557
  21
 472.29904510680
  31
0.0
   0
LINE
   5
150
 100
AcDbEntity
   8
LEVEL001
 100
AcDbLine
   6
DOT
  62
3
  10
 406.25008245557
  20
 472.29904510680
  30
0.0
  11
 404.00017407536
  21
 473.59804103976
  31
0.0
   0
LINE
   5
151
 100
AcDbEntity
   8
LEVEL001
 100
AcDbLine
   6
DOT
  62
3
  10
 400.00005212426
  20
 473.59804103976
  30
0.0
  11
 397.75014374405
  21
 472.29904510680
  31
0.0
   0
LINE
   5
152
 100
AcDbEntity
   8
LEVEL001
 100
AcDbLine
   6
DOT
  62
3
  10
 397.75014374405
  20
 472.29904510680
  30
0.0
  11
 397.75014374405
  21
 458.25000377744
  31
0.0
   0
LINE
   5
153
 100
AcDbEntity
   8
LEVEL001
 100
AcDbLine
   6
DOT
  62
3
  10
 397.75014374405
  20
 458.25000377744
  30
0.0
  11
 397.00014376640
  21
 457.50000379980
  31
0.0
   0
CIRCLE
   5
154
 100
AcDbEntity
   8
LEVEL001
 100
AcDbCircle
   6
DOT
  62
3
  10
 402.00011309981
  20
 471.36204867476
  30
0.0
  40
 3.0000009834766
   0
LINE
   5
155
 100
AcDbEntity
   8
LEVEL001
 100
AcDbLine
   6
DOT
  62
3
  10
 406.25008245557
  20
 468.36204876417
  30
0.0
  11
 407.00008243322
  21
 467.61204878652
  31
0.0
   0
LINE
   5
156
 100
AcDbEntity
   8
LEVEL001
 100
AcDbLine
   6
DOT
  62
3
  10
 407.00008243322
  20
 467.61204878652
  30
0.0
  11
 407.00008243322
  21
 459.11206429863
  31
0.0
   0
LINE
   5
157
 100
AcDbEntity
   8
LEVEL001
 100
AcDbLine
   6
DOT
  62
3
  10
 407.00008243322
  20
 459.11206429863
  30
0.0
  11
 406.25008245557
  21
 458.36206432098
  31
0.0
   0
LINE
   5
158
 100
AcDbEntity
   8
LEVEL001
 100
AcDbLine
   6
DOT
  62
3
  10
 406.25008245557
  20
 458.36206432098
  30
0.0
  11
 397.75014374405
  21
 458.36206432098
  31
0.0
   0
LINE
   5
159
 100
AcDbEntity
   8
LEVEL001
 100
AcDbLine
   6
DOT
  62
3
  10
 397.75014374405
  20
 458.36206432098
  30
0.0
  11
 397.00014376640
  21
 459.11206429863
  31
0.0
   0
LINE
   5
15A
 100
AcDbEntity
   8
LEVEL001
 100
AcDbLine
   6
DOT
  62
3
  10
 397.00014376640
  20
 459.11206429863
  30
0.0
  11
 397.00014376640
  21
 467.61204878652
  31
0.0
   0
LINE
   5
15B
 100
AcDbEntity
   8
LEVEL001
 100
AcDbLine
   6
DOT
  62
3
  10
 397.00014376640
  20
 467.61204878652
  30
0.0
  11
 397.75014374405
  21
 468.36204876417
  31
0.0
   0
LINE
   5
15C
 100
AcDbEntity
   8
LEVEL001
 100
AcDbLine
   6
DOT
  62
3
  10
 397.75014374405
  20
 468.36204876417
  30
0.0
  11
 406.25008245557
  21
 468.36204876417
  31
0.0
   0
LINE
   5
15D
 100
AcDbEntity
   8
LEVEL001
 100
AcDbLine
   6
DOT
  62
3
  10
 407.00008243322
  20
 467.61204878652
  30
0.0
  11
 397.00014376640
  21
 467.61204878652
  31
0.0
   0
LINE
   5
15E
 100
AcDbEntity
   8
LEVEL001
 100
AcDbLine
   6
DOT
  62
3
  10
 397.00014376640
  20
 459.11206429863
  30
0.0
  11
 407.00008243322
  21
 459.11206429863
  31
0.0
   0
LINE
   5
15F
 100
AcDbEntity
   8
LEVEL001
 100
AcDbLine
   6
DOT
  62
3
  10
 407.00008243322
  20
 457.50000379980
  30
0.0
  11
 407.00008243322
  21
 459.11206429863
  31
0.0
   0
LINE
   5
160
 100
AcDbEntity
   8
LEVEL001
 100
AcDbLine
   6
DOT
  62
3
  10
 407.00008243322
  20
 467.61204878652
  30
0.0
  11
 407.00008243322
  21
 469.50000344217
  31
0.0
   0
LINE
   5
161
 100
AcDbEntity
   8
LEVEL001
 100
AcDbLine
   6
DOT
  62
3
  10
 407.00008243322
  20
 469.50000344217
  30
0.0
  11
 406.25008245557
  21
 472.29904510680
  31
0.0
   0
LINE
   5
162
 100
AcDbEntity
   8
LEVEL001
 100
AcDbLine
   6
DOT
  62
3
  10
 397.75014374405
  20
 472.29904510680
  30
0.0
  11
 397.00014376640
  21
 469.50000344217
  31
0.0
   0
LINE
   5
163
 100
AcDbEntity
   8
LEVEL001
 100
AcDbLine
   6
DOT
  62
3
  10
 397.00014376640
  20
 469.50000344217
  30
0.0
  11
 397.00014376640
  21
 467.61204878652
  31
0.0
   0
LINE
   5
164
 100
AcDbEntity
   8
LEVEL001
 100
AcDbLine
   6
DOT
  62
3
  10
 397.00014376640
  20
 459.11206429863
  30
0.0
  11
 397.00014376640
  21
 457.50000379980
  31
0.0
   0
LINE
   5
165
 100
AcDbEntity
   8
LEVEL001
 100
AcDbLine
   6
DOT
  62
3
  10
 407.00008243322
  20
 469.50000344217
  30
0.0
  11
 404.35228588127
  21
 469.50000344217
  31
0.0
   0
LINE
   5
166
 100
AcDbEntity
   8
LEVEL001
 100
AcDbLine
   6
DOT
  62
3
  10
 399.64794031835
  20
 469.50000344217
  30
0.0
  11
 397.00014376640
  21
 469.50000344217
  31
0.0
   0
LINE
   5
167
 100
AcDbEntity
   8
LEVEL001
 100
AcDbLine
   6
DOT
  62
3
  10
 406.25008245557
  20
 472.29904510680
  30
0.0
  11
 404.85005808323
  21
 472.29904510680
  31
0.0
   0
LINE
   5
168
 100
AcDbEntity
   8
LEVEL001
 100
AcDbLine
   6
DOT
  62
3
  10
 399.15016811639
  20
 472.29904510680
  30
0.0
  11
 397.75014374405
  21
 472.29904510680
  31
0.0
   0
LINE
   5
169
 100
AcDbEntity
   8
LEVEL001
 100
AcDbLine
   6
DOT
  62
3
  10
 404.00008252263
  20
 473.59804103976
  30
0.0
  11
 404.00017407536
  21
 477.50001846254
  31
0.0
   0
LINE
   5
16A
 100
AcDbEntity
   8
LEVEL001
 100
AcDbLine
   6
DOT
  62
3
  10
 400.00014367699
  20
 477.50001846254
  30
0.0
  11
 400.00014367699
  21
 473.59808681613
  31
0.0
   0
LINE
   5
16B
 100
AcDbEntity
   8
LEVEL001
 100
AcDbLine
   6
CONTINUOUS
  62
7
  10
 399.38275783113
  20
 723.50001113117
  30
0.0
  11
 396.19054296045
  21
 725.54163704688
  31
0.0
   0
LINE
   5
16C
 100
AcDbEntity
   8
LEVEL001
 100
AcDbLine
   6
CONTINUOUS
  62
7
  10
 396.19054296045
  20
 725.54163704688
  30
0.0
  11
 396.19054296045
  21
 734.49993450940
  31
0.0
   0
LINE
   5
16D
 100
AcDbEntity
   8
LEVEL001
 100
AcDbLine
   6
CONTINUOUS
  62
7
  10
 396.19054296045
  20
 734.49993450940
  30
0.0
  11
 407.80950013371
  21
 734.49993450940
  31
0.0
   0
LINE
   5
16E
 100
AcDbEntity
   8
LEVEL001
 100
AcDbLine
   6
CONTINUOUS
  62
7
  10
 407.80950013371
  20
 734.49993450940
  30
0.0
  11
 407.80950013371
  21
 725.54163704688
  31
0.0
   0
LINE
   5
16F
 100
AcDbEntity
   8
LEVEL001
 100
AcDbLine
   6
CONTINUOUS
  62
7
  10
 407.80950013371
  20
 725.54163704688
  30
0.0
  11
 404.61728526302
  21
 723.50001113117
  31
0.0
   0
LINE
   5
170
 100
AcDbEntity
   8
LEVEL001
 100
AcDbLine
   6
CONTINUOUS
  62
7
  10
 420.50003625452
  20
 749.70006833374
  30
0.0
  11
 383.50002972782
  21
 749.70006833374
  31
0.0
   0
LINE
   5
171
 100
AcDbEntity
   8
LEVEL001
 100
AcDbLine
   6
CONTINUOUS
  62
7
  10
 383.50002972782
  20
 749.70006833374
  30
0.0
  11
 383.50002972782
  21
 759.70000700057
  31
0.0
   0
LINE
   5
172
 100
AcDbEntity
   8
LEVEL001
 100
AcDbLine
   6
CONTINUOUS
  62
7
  10
 383.50002972782
  20
 759.70000700057
  30
0.0
  11
 420.50003625452
  21
 759.70000700057
  31
0.0
   0
LINE
   5
173
 100
AcDbEntity
   8
LEVEL001
 100
AcDbLine
   6
CONTINUOUS
  62
7
  10
 420.50003625452
  20
 759.70000700057
  30
0.0
  11
 420.50003625452
  21
 749.70006833374
  31
0.0
   0
LINE
   5
174
 100
AcDbEntity
   8
LEVEL001
 100
AcDbLine
   6
DASHDOT
  62
1
  10
 402.00002154708
  20
 777.49996374548
  30
0.0
  11
 402.00002154708
  21
 682.49999709427
  31
0.0
   0
LINE
   5
175
 100
AcDbEntity
   8
LEVEL001
 100
AcDbLine
   6
CONTINUOUS
  62
7
  10
 292.99999427795
  20
 707.49998940527
  30
0.0
  11
 291.99996379018
  21
 706.50000469387
  31
0.0
   0
LINE
   5
176
 100
AcDbEntity
   8
LEVEL001
 100
AcDbLine
   6
CONTINUOUS
  62
7
  10
 292.99999427795
  20
 707.49998940527
  30
0.0
  11
 296.99993312359
  21
 707.49998940527
  31
0.0
   0
LINE
   5
177
 100
AcDbEntity
   8
LEVEL001
 100
AcDbLine
   6
CONTINUOUS
  62
7
  10
 296.99993312359
  20
 707.49998940527
  30
0.0
  11
 296.99993312359
  21
 708.00000464916
  31
0.0
   0
LINE
   5
178
 100
AcDbEntity
   8
LEVEL001
 100
AcDbLine
   6
CONTINUOUS
  62
7
  10
 296.99993312359
  20
 708.00000464916
  30
0.0
  11
 298.99999409914
  21
 709.99997407198
  31
0.0
   0
LINE
   5
179
 100
AcDbEntity
   8
LEVEL001
 100
AcDbLine
   6
CONTINUOUS
  62
7
  10
 298.99999409914
  20
 709.99997407198
  30
0.0
  11
 364.46404244113
  21
 709.99997407198
  31
0.0
   0
LINE
   5
17A
 100
AcDbEntity
   8
LEVEL001
 100
AcDbLine
   6
DASHDOT
  62
1
  10
 295.49999192357
  20
 707.99997407198
  30
0.0
  11
 295.49999192357
  21
 712.99997407198
  31
0.0
   0
LINE
   5
17B
 100
AcDbEntity
   8
LEVEL001
 100
AcDbLine
   6
DASHDOT
  62
1
  10
 295.49999192357
  20
 712.99997407198
  30
0.0
  11
 370.50002244115
  21
 712.99997407198
  31
0.0
   0
LINE
   5
17C
 100
AcDbEntity
   8
LEVEL001
 100
AcDbLine
   6
DASHDOT
  62
1
  10
 370.50002244115
  20
 712.99997407198
  30
0.0
  11
 370.50002244115
  21
 709.99997407198
  31
0.0
   0
LINE
   5
17D
 100
AcDbEntity
   8
LEVEL001
 100
AcDbLine
   6
CONTINUOUS
  62
3
  10
 356.99993133545
  20
 708.00000464916
  30
0.0
  11
 364.46404244113
  21
 709.99997407198
  31
0.0
   0
ARC
   5
17E
 100
AcDbEntity
   8
LEVEL001
   6
CONTINUOUS
  62
7
 100
AcDbCircle
  10
 370.50002244115
  20
 711.49997407198
  30
0.0
  40
 1.5000000000000
 100
AcDbArc
  50
 270.00000000000
  51
 0.60795242551281E-10
   0
LINE
   5
17F
 100
AcDbEntity
   8
LEVEL001
 100
AcDbLine
   6
CONTINUOUS
  62
7
  10
 364.46404244113
  20
 709.99997407198
  30
0.0
  11
 370.50002244115
  21
 709.99997407198
  31
0.0
   0
LINE
   5
180
 100
AcDbEntity
   8
LEVEL001
 100
AcDbLine
   6
CONTINUOUS
  62
7
  10
 372.00002244115
  20
 711.49997407198
  30
0.0
  11
 373.00003004074
  21
 712.49995878339
  31
0.0
   0
LINE
   5
181
 100
AcDbEntity
   8
LEVEL001
 100
AcDbLine
   6
CONTINUOUS
  62
7
  10
 281.99997934699
  20
 510.00003531575
  30
0.0
  11
 283.99997165799
  21
 512.00005051493
  31
0.0
   0
LINE
   5
182
 100
AcDbEntity
   8
LEVEL001
 100
AcDbLine
   6
CONTINUOUS
  62
7
  10
 200.99998176098
  20
 510.00003531575
  30
0.0
  11
 281.99997934699
  21
 510.00003531575
  31
0.0
   0
LINE
   5
183
 100
AcDbEntity
   8
LEVEL001
 100
AcDbLine
   6
CONTINUOUS
  62
7
  10
 288.99996387959
  20
 516.00003513694
  30
0.0
  11
 291.99996379018
  21
 515.00005042553
  31
0.0
   0
LINE
   5
184
 100
AcDbEntity
   8
LEVEL001
 100
AcDbLine
   6
CONTINUOUS
  62
7
  10
 292.99999427795
  20
 462.50004367530
  30
0.0
  11
 291.99996379018
  21
 463.50002838671
  31
0.0
   0
LINE
   5
185
 100
AcDbEntity
   8
LEVEL001
 100
AcDbLine
   6
CONTINUOUS
  62
7
  10
 292.99999427795
  20
 462.50004367530
  30
0.0
  11
 296.99993312359
  21
 462.50004367530
  31
0.0
   0
LINE
   5
186
 100
AcDbEntity
   8
LEVEL001
 100
AcDbLine
   6
CONTINUOUS
  62
7
  10
 296.99993312359
  20
 462.50004367530
  30
0.0
  11
 296.99993312359
  21
 462.00002843141
  31
0.0
   0
LINE
   5
187
 100
AcDbEntity
   8
LEVEL001
 100
AcDbLine
   6
CONTINUOUS
  62
7
  10
 296.99993312359
  20
 462.00002843141
  30
0.0
  11
 298.99999409914
  21
 460.00005900860
  31
0.0
   0
LINE
   5
188
 100
AcDbEntity
   8
LEVEL001
 100
AcDbLine
   6
CONTINUOUS
  62
7
  10
 298.99999409914
  20
 460.00005900860
  30
0.0
  11
 364.46404244113
  21
 460.00005900860
  31
0.0
   0
LINE
   5
189
 100
AcDbEntity
   8
LEVEL001
 100
AcDbLine
   6
CONTINUOUS
  62
3
  10
 296.99993312359
  20
 462.00002843141
  30
0.0
  11
 356.99993133545
  21
 462.00002843141
  31
0.0
   0
LINE
   5
18A
 100
AcDbEntity
   8
LEVEL001
 100
AcDbLine
   6
CONTINUOUS
  62
3
  10
 356.99993133545
  20
 462.00002843141
  30
0.0
  11
 356.99993133545
  21
 460.00005900860
  31
0.0
   0
LINE
   5
18B
 100
AcDbEntity
   8
LEVEL001
 100
AcDbLine
   6
DASHDOT
  62
1
  10
 295.49999192357
  20
 462.00005900860
  30
0.0
  11
 295.49999192357
  21
 457.00005900860
  31
0.0
   0
LINE
   5
18C
 100
AcDbEntity
   8
LEVEL001
 100
AcDbLine
   6
DASHDOT
  62
1
  10
 295.49999192357
  20
 457.00005900860
  30
0.0
  11
 370.50002244115
  21
 457.00005900860
  31
0.0
   0
LINE
   5
18D
 100
AcDbEntity
   8
LEVEL001
 100
AcDbLine
   6
DASHDOT
  62
1
  10
 370.50002244115
  20
 457.00005900860
  30
0.0
  11
 370.50002244115
  21
 460.00005900860
  31
0.0
   0
LINE
   5
18E
 100
AcDbEntity
   8
LEVEL001
 100
AcDbLine
   6
CONTINUOUS
  62
3
  10
 356.99993133545
  20
 462.00002843141
  30
0.0
  11
 364.46404244113
  21
 460.00005900860
  31
0.0
   0
ARC
   5
18F
 100
AcDbEntity
   8
LEVEL001
   6
CONTINUOUS
  62
7
 100
AcDbCircle
  10
 370.50002244115
  20
 458.50005900860
  30
0.0
  40
 1.5000000000000
 100
AcDbArc
  50
0.0
  51
 89.999999999970
   0
LINE
   5
190
 100
AcDbEntity
   8
LEVEL001
 100
AcDbLine
   6
CONTINUOUS
  62
7
  10
 364.46404244113
  20
 460.00005900860
  30
0.0
  11
 370.50002244115
  21
 460.00005900860
  31
0.0
   0
LINE
   5
191
 100
AcDbEntity
   8
LEVEL001
 100
AcDbLine
   6
CONTINUOUS
  62
7
  10
 372.00002244115
  20
 458.50005900860
  30
0.0
  11
 373.00003004074
  21
 457.50007429719
  31
0.0
   0
LINE
   5
192
 100
AcDbEntity
   8
LEVEL001
 100
AcDbLine
   6
DOT
  62
3
  10
 507.00001841783
  20
 593.50000683963
  30
0.0
  11
 507.99995735288
  21
 594.50003732741
  31
0.0
   0
CIRCLE
   5
193
 100
AcDbEntity
   8
LEVEL001
 100
AcDbCircle
   6
DASHDOT
  62
1
  10
 536.00003281236
  20
 585.00000000000
  30
0.0
  40
 44.000013947486
   0
LINE
   5
194
 100
AcDbEntity
   8
LEVEL001
 100
AcDbLine
   6
CONTINUOUS
  62
7
  10
 373.00003004074
  20
 457.50000379980
  30
0.0
  11
 1123.0000305772
  21
 457.50000379980
  31
0.0
   0
DIMENSION
   5
195
 100
AcDbEntity
   8
LEVEL003
   6
CONTINUOUS
  62
3
 100
AcDbDimension
   2
*D3
  10
 223.99999633431
  20
 435.00001654029
  30
0.0
  11
 211.49999289215
  21
 435.00001654029
  31
0.0
  70
0
   1
\A1;25
   3
GMM003
 100
AcDbAlignedDimension
  13
 198.99998944998
  23
 512.00001743436
  33
0.0
  14
 223.99999633431
  24
 527.00005006790
  34
0.0
 100
AcDbRotatedDimension
   0
DIMENSION
   5
197
 100
AcDbEntity
   8
LEVEL003
   6
CONTINUOUS
  62
3
 100
AcDbDimension
   2
*D4
  10
 288.99996387959
  20
 435.00001654029
  30
0.0
  11
 256.49998010695
  21
 435.00001654029
  31
0.0
  70
0
   1
\A1;65
   3
GMM004
 100
AcDbAlignedDimension
  13
 223.99999633431
  23
 527.00005006790
  33
0.0
  14
 288.99996387959
  24
 516.00003513694
  34
0.0
 100
AcDbRotatedDimension
   0
DIMENSION
   5
199
 100
AcDbEntity
   8
LEVEL003
   6
CONTINUOUS
  62
3
 100
AcDbDimension
   2
*D5
  10
 356.99993133545
  20
 435.00001654029
  30
0.0
  11
 324.49994756282
  21
 435.00001654029
  31
0.0
  70
0
   1
\A1;65
   3
GMM004
 100
AcDbAlignedDimension
  13
 291.99996379018
  23
 463.50002838671
  33
0.0
  14
 356.99993133545
  24
 460.00005900860
  34
0.0
 100
AcDbRotatedDimension
   0
DIMENSION
   5
19B
 100
AcDbEntity
   8
LEVEL003
   6
CONTINUOUS
  62
3
 100
AcDbDimension
   2
*D6
  10
 356.99993133545
  20
 405.00001654029
  30
0.0
  11
 277.99996039271
  21
 405.00001654029
  31
0.0
  70
0
   1
\A1;158
   3
GMM004
 100
AcDbAlignedDimension
  13
 198.99998944998
  23
 512.00001743436
  33
0.0
  14
 356.99993133545
  24
 460.00005900860
  34
0.0
 100
AcDbRotatedDimension
   0
DIMENSION
   5
19D
 100
AcDbEntity
   8
LEVEL003
   6
CONTINUOUS
  62
3
 100
AcDbDimension
   2
*D7
  10
 165.00003129244
  20
 510.00000223517
  30
0.0
  11
 165.00003129244
  21
 585.00000000000
  31
0.0
  70
128
   1
\A1;%%c150
   3
GMM005
 100
AcDbAlignedDimension
  13
 200.99998176098
  23
 659.99999776483
  33
0.0
  14
 200.99998176098
  24
 510.00000223517
  34
0.0
  50
 270.00000000000
 100
AcDbRotatedDimension
   0
LINE
   5
19F
 100
AcDbEntity
   8
LEVEL001
 100
AcDbLine
   6
DASHDOT
  62
1
  10
 195.00003129244
  20
 585.00000000000
  30
0.0
  11
 1139.9999995530
  21
 585.00000000000
  31
0.0
   0
TEXT
   5
1A0
 100
AcDbEntity
   8
LEVEL003
  62
3
 100
AcDbText
  10
 120.00002995133
  20
 704.99999642372
  30
0.0
  40
 12.000000000000
   1
Ｍ１２０×４
  41
 0.78750000000000
   7
STANDARD
 100
AcDbText
   0
LEADER
   5
1A1
 100
AcDbEntity
   8
LEVEL003
   6
CONTINUOUS
  62
3
 100
AcDbLeader
   3
GMM006
  73
0
  74
1
  75
0
  40
 12.000000000000
  41
0.0
  76
3
  10
 242.23452312336
  20
 644.99999821186
  30
0.0
  10
 190.00000000000
  20
 705.00000000000
  30
0.0
  10
 120.00002995133
  20
 705.00000000000
  30
0.0
  77
3
   0
TEXT
   5
1A2
 100
AcDbEntity
   8
LEVEL003
  62
3
 100
AcDbText
  10
 250.00000000000
  20
 810.00000000000
  30
0.0
  40
 12.000000000000
   1
Ｍ２５０×４
  41
 0.78750000000000
   7
STANDARD
 100
AcDbText
   0
LEADER
   5
1A3
 100
AcDbEntity
   8
LEVEL003
   6
CONTINUOUS
  62
3
 100
AcDbLeader
   3
GMM006
  73
0
  74
1
  75
0
  40
 12.000000000000
  41
0.0
  76
3
  10
 333.35317422013
  20
 709.99997407198
  30
0.0
  10
 310.00000000000
  20
 810.00000000000
  30
0.0
  10
 250.00000000000
  20
 810.00000000000
  30
0.0
  77
3
   0
DIMENSION
   5
1A4
 100
AcDbEntity
   8
LEVEL003
   6
CONTINUOUS
  62
3
 100
AcDbDimension
   2
*D10
  10
 750.00001117587
  20
 712.49999620020
  30
0.0
  11
 750.00001117587
  21
 585.00000000000
  31
0.0
  70
128
   1
\A1;%%c255
   3
GMM007
 100
AcDbAlignedDimension
  13
 750.00001117587
  23
 457.50000379980
  33
0.0
  14
 750.00001117587
  24
 712.49999620020
  34
0.0
  50
 90.000000000000
 100
AcDbRotatedDimension
   0
LINE
   5
1A6
 100
AcDbEntity
   8
LEVEL001
 100
AcDbLine
   6
CONTINUOUS
  62
7
  10
 1123.0000305772
  20
 712.49999620020
  30
0.0
  11
 1125.0000000000
  21
 710.49998100102
  31
0.0
   0
LINE
   5
1A7
 100
AcDbEntity
   8
LEVEL001
 100
AcDbLine
   6
CONTINUOUS
  62
3
  10
 1029.5058317034
  20
 718.59072477845
  30
0.0
  11
 1010.4941745551
  21
 718.59081633118
  31
0.0
   0
LINE
   5
1A8
 100
AcDbEntity
   8
LEVEL001
 100
AcDbLine
   6
CONTINUOUS
  62
3
  10
 1009.1787449068
  20
 723.50001113117
  30
0.0
  11
 1010.4941745551
  21
 718.59081633118
  31
0.0
   0
LINE
   5
1A9
 100
AcDbEntity
   8
LEVEL001
 100
AcDbLine
   6
CONTINUOUS
  62
3
  10
 1030.8212613517
  20
 723.50001113117
  30
0.0
  11
 1029.5058317034
  21
 718.59072477845
  31
0.0
   0
LINE
   5
1AA
 100
AcDbEntity
   8
LEVEL001
 100
AcDbLine
   6
CONTINUOUS
  62
7
  10
 1009.1787449068
  20
 723.50001113117
  30
0.0
  11
 1030.8212613517
  21
 723.50001113117
  31
0.0
   0
LINE
   5
1AB
 100
AcDbEntity
   8
LEVEL001
 100
AcDbLine
   6
CONTINUOUS
  62
7
  10
 1008.0000034869
  20
 725.54163704688
  30
0.0
  11
 1008.0000034869
  21
 741.70000753701
  31
0.0
   0
LINE
   5
1AC
 100
AcDbEntity
   8
LEVEL001
 100
AcDbLine
   6
CONTINUOUS
  62
7
  10
 1030.8212613517
  20
 723.50001113117
  30
0.0
  11
 1032.0000027716
  21
 725.54159127052
  31
0.0
   0
LINE
   5
1AD
 100
AcDbEntity
   8
LEVEL001
 100
AcDbLine
   6
CONTINUOUS
  62
7
  10
 1032.0000027716
  20
 725.54159127052
  30
0.0
  11
 1032.0000027716
  21
 741.70000753701
  31
0.0
   0
LINE
   5
1AE
 100
AcDbEntity
   8
LEVEL001
 100
AcDbLine
   6
CONTINUOUS
  62
7
  10
 1009.1787449068
  20
 723.50001113117
  30
0.0
  11
 1008.0000034869
  21
 725.54163704688
  31
0.0
   0
ARC
   5
1AF
 100
AcDbEntity
   8
LEVEL001
   6
CONTINUOUS
  62
7
 100
AcDbCircle
  10
 1004.0000034859
  20
 743.70000735795
  30
0.0
  40
 1.9999998211861
 100
AcDbArc
  50
 179.99824804943
  51
 269.99912917732
   0
LINE
   5
1B0
 100
AcDbEntity
   8
LEVEL001
 100
AcDbLine
   6
CONTINUOUS
  62
7
  10
 1002.0000036657
  20
 743.70006851256
  30
0.0
  11
 1002.0000036657
  21
 749.70006833374
  31
0.0
   0
ARC
   5
1B1
 100
AcDbEntity
   8
LEVEL001
   6
CONTINUOUS
  62
7
 100
AcDbCircle
  10
 1003.0000035758
  20
 765.70003739946
  30
0.0
  40
 0.99999991059304
 100
AcDbArc
  50
 89.998248030904
  51
 180.00175197379
   0
LINE
   5
1B2
 100
AcDbEntity
   8
LEVEL001
 100
AcDbLine
   6
CONTINUOUS
  62
7
  10
 1002.0000036657
  20
 759.70000700057
  30
0.0
  11
 1002.0000036657
  21
 765.70000682175
  31
0.0
   0
ARC
   5
1B3
 100
AcDbEntity
   8
LEVEL001
   6
CONTINUOUS
  62
7
 100
AcDbCircle
  10
 1036.0000027726
  20
 743.70000735788
  30
0.0
  40
 1.9999998211861
 100
AcDbArc
  50
 270.00087082239
  51
 0.17519524042210E-2
   0
LINE
   5
1B4
 100
AcDbEntity
   8
LEVEL001
 100
AcDbLine
   6
CONTINUOUS
  62
7
  10
 1038.0000025928
  20
 743.70006851256
  30
0.0
  11
 1038.0000025928
  21
 749.70006833374
  31
0.0
   0
ARC
   5
1B5
 100
AcDbEntity
   8
LEVEL001
   6
CONTINUOUS
  62
7
 100
AcDbCircle
  10
 1037.0000026827
  20
 765.70003739940
  30
0.0
  40
 0.99999991059304
 100
AcDbArc
  50
 359.99824802959
  51
 90.001751972600
   0
LINE
   5
1B6
 100
AcDbEntity
   8
LEVEL001
 100
AcDbLine
   6
CONTINUOUS
  62
7
  10
 1038.0000025928
  20
 759.70000700057
  30
0.0
  11
 1038.0000025928
  21
 765.70000682175
  31
0.0
   0
LINE
   5
1B7
 100
AcDbEntity
   8
LEVEL001
 100
AcDbLine
   6
CONTINUOUS
  62
7
  10
 1036.0000331700
  20
 741.70000753701
  30
0.0
  11
 1003.9999730885
  21
 741.70000753701
  31
0.0
   0
LINE
   5
1B8
 100
AcDbEntity
   8
LEVEL001
 100
AcDbLine
   6
CONTINUOUS
  62
7
  10
 1003.0000341535
  20
 766.70003730953
  30
0.0
  11
 1036.9999721050
  21
 766.70003730953
  31
0.0
   0
LINE
   5
1B9
 100
AcDbEntity
   8
LEVEL001
 100
AcDbLine
   6
CONTINUOUS
  62
7
  10
 1008.0000034869
  20
 725.54163704688
  30
0.0
  11
 1014.1905245426
  21
 725.54163704688
  31
0.0
   0
LINE
   5
1BA
 100
AcDbEntity
   8
LEVEL001
 100
AcDbLine
   6
CONTINUOUS
  62
7
  10
 1025.8094817159
  20
 725.54163704688
  30
0.0
  11
 1032.0000027716
  21
 725.54163704688
  31
0.0
   0
LINE
   5
1BB
 100
AcDbEntity
   8
LEVEL001
 100
AcDbLine
   6
CONTINUOUS
  62
7
  10
 1025.8094817159
  20
 725.54163704688
  30
0.0
  11
 1014.1905245426
  21
 734.49993450940
  31
0.0
   0
LINE
   5
1BC
 100
AcDbEntity
   8
LEVEL001
 100
AcDbLine
   6
CONTINUOUS
  62
7
  10
 1014.1905245426
  20
 725.54163704688
  30
0.0
  11
 1025.8094817159
  21
 734.49993450940
  31
0.0
   0
LINE
   5
1BD
 100
AcDbEntity
   8
LEVEL001
 100
AcDbLine
   6
DASHDOT
  62
1
  10
 1002.0000036657
  20
 766.70003730953
  30
0.0
  11
 1002.0000036657
  21
 774.70000655353
  31
0.0
   0
LINE
   5
1BE
 100
AcDbEntity
   8
LEVEL001
 100
AcDbLine
   6
DASHDOT
  62
1
  10
 1038.0000025928
  20
 766.70003730953
  30
0.0
  11
 1038.0000025928
  21
 774.70000655353
  31
0.0
   0
LINE
   5
1BF
 100
AcDbEntity
   8
LEVEL001
 100
AcDbLine
   6
DASHDOT
  62
1
  10
 1002.0000036657
  20
 774.70000655353
  30
0.0
  11
 1038.0000025928
  21
 774.70000655353
  31
0.0
   0
LINE
   5
1C0
 100
AcDbEntity
   8
LEVEL001
 100
AcDbLine
   6
DASHDOT
  62
1
  10
 1003.0000341535
  20
 766.70003730953
  30
0.0
  11
 1002.0000036657
  21
 766.70003730953
  31
0.0
   0
LINE
   5
1C1
 100
AcDbEntity
   8
LEVEL001
 100
AcDbLine
   6
DASHDOT
  62
1
  10
 1036.9999721050
  20
 766.70003730953
  30
0.0
  11
 1038.0000025928
  21
 766.70003730953
  31
0.0
   0
LINE
   5
1C2
 100
AcDbEntity
   8
LEVEL001
 100
AcDbLine
   6
CONTINUOUS
  62
3
  10
 1036.5000026375
  20
 749.70006833374
  30
0.0
  11
 1036.5000026375
  21
 759.70000700057
  31
0.0
   0
LINE
   5
1C3
 100
AcDbEntity
   8
LEVEL001
 100
AcDbLine
   6
CONTINUOUS
  62
3
  10
 1034.5000332147
  20
 749.70006833374
  30
0.0
  11
 1034.5000332147
  21
 759.70000700057
  31
0.0
   0
LINE
   5
1C4
 100
AcDbEntity
   8
LEVEL001
 100
AcDbLine
   6
CONTINUOUS
  62
3
  10
 1032.4999722391
  20
 749.70006833374
  30
0.0
  11
 1032.4999722391
  21
 759.70000700057
  31
0.0
   0
LINE
   5
1C5
 100
AcDbEntity
   8
LEVEL001
 100
AcDbLine
   6
CONTINUOUS
  62
3
  10
 1030.5000028163
  20
 749.70006833374
  30
0.0
  11
 1030.5000028163
  21
 759.70000700057
  31
0.0
   0
LINE
   5
1C6
 100
AcDbEntity
   8
LEVEL001
 100
AcDbLine
   6
CONTINUOUS
  62
3
  10
 1028.5000333935
  20
 749.70006833374
  30
0.0
  11
 1028.5000333935
  21
 759.70000700057
  31
0.0
   0
LINE
   5
1C7
 100
AcDbEntity
   8
LEVEL001
 100
AcDbLine
   6
CONTINUOUS
  62
3
  10
 1026.4999724180
  20
 749.70006833374
  30
0.0
  11
 1026.4999724180
  21
 759.70000700057
  31
0.0
   0
LINE
   5
1C8
 100
AcDbEntity
   8
LEVEL001
 100
AcDbLine
   6
CONTINUOUS
  62
3
  10
 1024.5000029951
  20
 749.70006833374
  30
0.0
  11
 1024.5000029951
  21
 759.70000700057
  31
0.0
   0
LINE
   5
1C9
 100
AcDbEntity
   8
LEVEL001
 100
AcDbLine
   6
CONTINUOUS
  62
3
  10
 1022.5000335723
  20
 749.70006833374
  30
0.0
  11
 1022.5000335723
  21
 759.70000700057
  31
0.0
   0
LINE
   5
1CA
 100
AcDbEntity
   8
LEVEL001
 100
AcDbLine
   6
CONTINUOUS
  62
3
  10
 1020.4999725968
  20
 749.70006833374
  30
0.0
  11
 1020.4999725968
  21
 759.70000700057
  31
0.0
   0
LINE
   5
1CB
 100
AcDbEntity
   8
LEVEL001
 100
AcDbLine
   6
CONTINUOUS
  62
3
  10
 1018.5000031739
  20
 749.70006833374
  30
0.0
  11
 1018.5000031739
  21
 759.70000700057
  31
0.0
   0
LINE
   5
1CC
 100
AcDbEntity
   8
LEVEL001
 100
AcDbLine
   6
CONTINUOUS
  62
3
  10
 1016.5000337511
  20
 749.70006833374
  30
0.0
  11
 1016.5000337511
  21
 759.70000700057
  31
0.0
   0
LINE
   5
1CD
 100
AcDbEntity
   8
LEVEL001
 100
AcDbLine
   6
CONTINUOUS
  62
3
  10
 1014.4999727756
  20
 749.70006833374
  30
0.0
  11
 1014.4999727756
  21
 759.70000700057
  31
0.0
   0
LINE
   5
1CE
 100
AcDbEntity
   8
LEVEL001
 100
AcDbLine
   6
CONTINUOUS
  62
3
  10
 1012.5000033528
  20
 749.70006833374
  30
0.0
  11
 1012.5000033528
  21
 759.70000700057
  31
0.0
   0
LINE
   5
1CF
 100
AcDbEntity
   8
LEVEL001
 100
AcDbLine
   6
CONTINUOUS
  62
3
  10
 1010.5000339299
  20
 749.70006833374
  30
0.0
  11
 1010.5000339299
  21
 759.70000700057
  31
0.0
   0
LINE
   5
1D0
 100
AcDbEntity
   8
LEVEL001
 100
AcDbLine
   6
CONTINUOUS
  62
3
  10
 1008.4999729544
  20
 749.70006833374
  30
0.0
  11
 1008.4999729544
  21
 759.70000700057
  31
0.0
   0
LINE
   5
1D1
 100
AcDbEntity
   8
LEVEL001
 100
AcDbLine
   6
CONTINUOUS
  62
3
  10
 1006.5000035316
  20
 749.70006833374
  30
0.0
  11
 1006.5000035316
  21
 759.70000700057
  31
0.0
   0
LINE
   5
1D2
 100
AcDbEntity
   8
LEVEL001
 100
AcDbLine
   6
CONTINUOUS
  62
3
  10
 1004.5000341088
  20
 749.70006833374
  30
0.0
  11
 1004.5000341088
  21
 759.70000700057
  31
0.0
   0
LINE
   5
1D3
 100
AcDbEntity
   8
LEVEL001
 100
AcDbLine
   6
CONTINUOUS
  62
3
  10
 1002.4999731332
  20
 749.70006833374
  30
0.0
  11
 1002.4999731332
  21
 759.70000700057
  31
0.0
   0
LINE
   5
1D4
 100
AcDbEntity
   8
LEVEL001
 100
AcDbLine
   6
CONTINUOUS
  62
7
  10
 1123.0000305772
  20
 457.50000379980
  30
0.0
  11
 1125.0000000000
  21
 459.50001899898
  31
0.0
   0
LINE
   5
1D5
 100
AcDbEntity
   8
LEVEL001
 100
AcDbLine
   6
DASHDOT
  62
1
  10
 1020.0000946820
  20
 450.00000402331
  30
0.0
  11
 1020.0000946820
  21
 495.00000268221
  31
0.0
   0
LINE
   5
1D6
 100
AcDbEntity
   8
LEVEL001
 100
AcDbLine
   6
CONTINUOUS
  62
7
  10
 1125.0000000000
  20
 710.49998100102
  30
0.0
  11
 1125.0000000000
  21
 459.50001899898
  31
0.0
   0
LINE
   5
1D7
 100
AcDbEntity
   8
LEVEL001
 100
AcDbLine
   6
DOT
  62
3
  10
 1024.2500640377
  20
 458.25000377744
  30
0.0
  11
 1015.7501253262
  21
 458.25000377744
  31
0.0
   0
LINE
   5
1D8
 100
AcDbEntity
   8
LEVEL001
 100
AcDbLine
   6
DOT
  62
3
  10
 1025.0000640154
  20
 457.50000379980
  30
0.0
  11
 1024.2500640377
  21
 458.25000377744
  31
0.0
   0
LINE
   5
1D9
 100
AcDbEntity
   8
LEVEL001
 100
AcDbLine
   6
DOT
  62
3
  10
 1024.2500640377
  20
 458.25000377744
  30
0.0
  11
 1024.2500640377
  21
 472.29904510680
  31
0.0
   0
LINE
   5
1DA
 100
AcDbEntity
   8
LEVEL001
 100
AcDbLine
   6
DOT
  62
3
  10
 1024.2500640377
  20
 472.29904510680
  30
0.0
  11
 1022.0001556575
  21
 473.59804103976
  31
0.0
   0
LINE
   5
1DB
 100
AcDbEntity
   8
LEVEL001
 100
AcDbLine
   6
DOT
  62
3
  10
 1018.0000337064
  20
 473.59804103976
  30
0.0
  11
 1015.7501253262
  21
 472.29904510680
  31
0.0
   0
LINE
   5
1DC
 100
AcDbEntity
   8
LEVEL001
 100
AcDbLine
   6
DOT
  62
3
  10
 1015.7501253262
  20
 472.29904510680
  30
0.0
  11
 1015.7501253262
  21
 458.25000377744
  31
0.0
   0
LINE
   5
1DD
 100
AcDbEntity
   8
LEVEL001
 100
AcDbLine
   6
DOT
  62
3
  10
 1015.7501253262
  20
 458.25000377744
  30
0.0
  11
 1015.0001253486
  21
 457.50000379980
  31
0.0
   0
CIRCLE
   5
1DE
 100
AcDbEntity
   8
LEVEL001
 100
AcDbCircle
   6
DOT
  62
3
  10
 1020.0000946820
  20
 471.36204867476
  30
0.0
  40
 3.0000009834766
   0
LINE
   5
1DF
 100
AcDbEntity
   8
LEVEL001
 100
AcDbLine
   6
DOT
  62
3
  10
 1024.2500640377
  20
 468.36204876417
  30
0.0
  11
 1025.0000640154
  21
 467.61204878652
  31
0.0
   0
LINE
   5
1E0
 100
AcDbEntity
   8
LEVEL001
 100
AcDbLine
   6
DOT
  62
3
  10
 1025.0000640154
  20
 467.61204878652
  30
0.0
  11
 1025.0000640154
  21
 459.11206429863
  31
0.0
   0
LINE
   5
1E1
 100
AcDbEntity
   8
LEVEL001
 100
AcDbLine
   6
DOT
  62
3
  10
 1025.0000640154
  20
 459.11206429863
  30
0.0
  11
 1024.2500640377
  21
 458.36206432098
  31
0.0
   0
LINE
   5
1E2
 100
AcDbEntity
   8
LEVEL001
 100
AcDbLine
   6
DOT
  62
3
  10
 1024.2500640377
  20
 458.36206432098
  30
0.0
  11
 1015.7501253262
  21
 458.36206432098
  31
0.0
   0
LINE
   5
1E3
 100
AcDbEntity
   8
LEVEL001
 100
AcDbLine
   6
DOT
  62
3
  10
 1015.7501253262
  20
 458.36206432098
  30
0.0
  11
 1015.0001253486
  21
 459.11206429863
  31
0.0
   0
LINE
   5
1E4
 100
AcDbEntity
   8
LEVEL001
 100
AcDbLine
   6
DOT
  62
3
  10
 1015.0001253486
  20
 459.11206429863
  30
0.0
  11
 1015.0001253486
  21
 467.61204878652
  31
0.0
   0
LINE
   5
1E5
 100
AcDbEntity
   8
LEVEL001
 100
AcDbLine
   6
DOT
  62
3
  10
 1015.0001253486
  20
 467.61204878652
  30
0.0
  11
 1015.7501253262
  21
 468.36204876417
  31
0.0
   0
LINE
   5
1E6
 100
AcDbEntity
   8
LEVEL001
 100
AcDbLine
   6
DOT
  62
3
  10
 1015.7501253262
  20
 468.36204876417
  30
0.0
  11
 1024.2500640377
  21
 468.36204876417
  31
0.0
   0
LINE
   5
1E7
 100
AcDbEntity
   8
LEVEL001
 100
AcDbLine
   6
DOT
  62
3
  10
 1025.0000640154
  20
 467.61204878652
  30
0.0
  11
 1015.0001253486
  21
 467.61204878652
  31
0.0
   0
LINE
   5
1E8
 100
AcDbEntity
   8
LEVEL001
 100
AcDbLine
   6
DOT
  62
3
  10
 1015.0001253486
  20
 459.11206429863
  30
0.0
  11
 1025.0000640154
  21
 459.11206429863
  31
0.0
   0
LINE
   5
1E9
 100
AcDbEntity
   8
LEVEL001
 100
AcDbLine
   6
DOT
  62
3
  10
 1025.0000640154
  20
 457.50000379980
  30
0.0
  11
 1025.0000640154
  21
 459.11206429863
  31
0.0
   0
LINE
   5
1EA
 100
AcDbEntity
   8
LEVEL001
 100
AcDbLine
   6
DOT
  62
3
  10
 1025.0000640154
  20
 467.61204878652
  30
0.0
  11
 1025.0000640154
  21
 469.50000344217
  31
0.0
   0
LINE
   5
1EB
 100
AcDbEntity
   8
LEVEL001
 100
AcDbLine
   6
DOT
  62
3
  10
 1025.0000640154
  20
 469.50000344217
  30
0.0
  11
 1024.2500640377
  21
 472.29904510680
  31
0.0
   0
LINE
   5
1EC
 100
AcDbEntity
   8
LEVEL001
 100
AcDbLine
   6
DOT
  62
3
  10
 1015.7501253262
  20
 472.29904510680
  30
0.0
  11
 1015.0001253486
  21
 469.50000344217
  31
0.0
   0
LINE
   5
1ED
 100
AcDbEntity
   8
LEVEL001
 100
AcDbLine
   6
DOT
  62
3
  10
 1015.0001253486
  20
 469.50000344217
  30
0.0
  11
 1015.0001253486
  21
 467.61204878652
  31
0.0
   0
LINE
   5
1EE
 100
AcDbEntity
   8
LEVEL001
 100
AcDbLine
   6
DOT
  62
3
  10
 1015.0001253486
  20
 459.11206429863
  30
0.0
  11
 1015.0001253486
  21
 457.50000379980
  31
0.0
   0
LINE
   5
1EF
 100
AcDbEntity
   8
LEVEL001
 100
AcDbLine
   6
DOT
  62
3
  10
 1025.0000640154
  20
 469.50000344217
  30
0.0
  11
 1022.3522674634
  21
 469.50000344217
  31
0.0
   0
LINE
   5
1F0
 100
AcDbEntity
   8
LEVEL001
 100
AcDbLine
   6
DOT
  62
3
  10
 1017.6479219005
  20
 469.50000344217
  30
0.0
  11
 1015.0001253486
  21
 469.50000344217
  31
0.0
   0
LINE
   5
1F1
 100
AcDbEntity
   8
LEVEL001
 100
AcDbLine
   6
DOT
  62
3
  10
 1024.2500640377
  20
 472.29904510680
  30
0.0
  11
 1022.8500396654
  21
 472.29904510680
  31
0.0
   0
LINE
   5
1F2
 100
AcDbEntity
   8
LEVEL001
 100
AcDbLine
   6
DOT
  62
3
  10
 1017.1501496986
  20
 472.29904510680
  30
0.0
  11
 1015.7501253262
  21
 472.29904510680
  31
0.0
   0
LINE
   5
1F3
 100
AcDbEntity
   8
LEVEL001
 100
AcDbLine
   6
DOT
  62
3
  10
 1022.0000641048
  20
 473.59804103976
  30
0.0
  11
 1022.0001556575
  21
 477.50001846254
  31
0.0
   0
LINE
   5
1F4
 100
AcDbEntity
   8
LEVEL001
 100
AcDbLine
   6
DOT
  62
3
  10
 1018.0001252592
  20
 477.50001846254
  30
0.0
  11
 1018.0001252592
  21
 473.59808681613
  31
0.0
   0
LINE
   5
1F5
 100
AcDbEntity
   8
LEVEL001
 100
AcDbLine
   6
CONTINUOUS
  62
7
  10
 1017.3827851897
  20
 723.50001113117
  30
0.0
  11
 1014.1905245426
  21
 725.54163704688
  31
0.0
   0
LINE
   5
1F6
 100
AcDbEntity
   8
LEVEL001
 100
AcDbLine
   6
CONTINUOUS
  62
7
  10
 1014.1905245426
  20
 725.54163704688
  30
0.0
  11
 1014.1905245426
  21
 734.49993450940
  31
0.0
   0
LINE
   5
1F7
 100
AcDbEntity
   8
LEVEL001
 100
AcDbLine
   6
CONTINUOUS
  62
7
  10
 1014.1905245426
  20
 734.49993450940
  30
0.0
  11
 1025.8094817159
  21
 734.49993450940
  31
0.0
   0
LINE
   5
1F8
 100
AcDbEntity
   8
LEVEL001
 100
AcDbLine
   6
CONTINUOUS
  62
7
  10
 1025.8094817159
  20
 734.49993450940
  30
0.0
  11
 1025.8094817159
  21
 725.54163704688
  31
0.0
   0
LINE
   5
1F9
 100
AcDbEntity
   8
LEVEL001
 100
AcDbLine
   6
CONTINUOUS
  62
7
  10
 1025.8094817159
  20
 725.54163704688
  30
0.0
  11
 1022.6172210688
  21
 723.50001113117
  31
0.0
   0
LINE
   5
1FA
 100
AcDbEntity
   8
LEVEL001
 100
AcDbLine
   6
CONTINUOUS
  62
7
  10
 1038.4999720603
  20
 749.70006833374
  30
0.0
  11
 1001.5000341982
  21
 749.70006833374
  31
0.0
   0
LINE
   5
1FB
 100
AcDbEntity
   8
LEVEL001
 100
AcDbLine
   6
CONTINUOUS
  62
7
  10
 1001.5000341982
  20
 749.70006833374
  30
0.0
  11
 1001.5000341982
  21
 759.70000700057
  31
0.0
   0
LINE
   5
1FC
 100
AcDbEntity
   8
LEVEL001
 100
AcDbLine
   6
CONTINUOUS
  62
7
  10
 1001.5000341982
  20
 759.70000700057
  30
0.0
  11
 1038.4999720603
  21
 759.70000700057
  31
0.0
   0
LINE
   5
1FD
 100
AcDbEntity
   8
LEVEL001
 100
AcDbLine
   6
CONTINUOUS
  62
7
  10
 1038.4999720603
  20
 759.70000700057
  30
0.0
  11
 1038.4999720603
  21
 749.70006833374
  31
0.0
   0
LINE
   5
1FE
 100
AcDbEntity
   8
LEVEL001
 100
AcDbLine
   6
DASHDOT
  62
1
  10
 1020.0000031292
  20
 777.49996374548
  30
0.0
  11
 1020.0000031292
  21
 682.49999709427
  31
0.0
   0
DIMENSION
   5
1FF
 100
AcDbEntity
   8
LEVEL003
   6
CONTINUOUS
  62
3
 100
AcDbDimension
   2
*D11
  10
 690.00003129244
  20
 515.00005042553
  30
0.0
  11
 690.00003129244
  21
 585.00001654029
  31
0.0
  70
0
   1
\A1;%%c140
   3
GMM008
 100
AcDbAlignedDimension
  13
 690.00003129244
  23
 654.99998265505
  33
0.0
  14
 690.00003129244
  24
 515.00005042553
  34
0.0
  50
 270.00000000000
 100
AcDbRotatedDimension
   0
DIMENSION
   5
201
 100
AcDbEntity
   8
LEVEL003
   6
CONTINUOUS
  62
3
 100
AcDbDimension
   2
*D12
  10
 720.00003129244
  20
 487.50003598630
  30
0.0
  11
 720.00003129244
  21
 585.00001654029
  31
0.0
  70
0
   1
\A1;%%c195
   3
GMM008
 100
AcDbAlignedDimension
  13
 720.00003129244
  23
 682.49999709427
  33
0.0
  14
 720.00003129244
  24
 487.50003598630
  34
0.0
  50
 270.00000000000
 100
AcDbRotatedDimension
   0
DIMENSION
   5
203
 100
AcDbEntity
   8
LEVEL003
   6
CONTINUOUS
  62
3
 100
AcDbDimension
   2
*D13
  10
 1125.0000000000
  20
 390.00000000000
  30
0.0
  11
 661.99998328090
  21
 390.00000000000
  31
0.0
  70
128
   1
\A1;926
   3
GMM009
 100
AcDbAlignedDimension
  13
 198.99998944998
  23
 512.00001743436
  33
0.0
  14
 1125.0000000000
  24
 459.50001899898
  34
0.0
 100
AcDbRotatedDimension
   0
ARC
   5
205
 100
AcDbEntity
   8
LEVEL001
   6
CONTINUOUS
  62
7
 100
AcDbCircle
  10
 535.99998989721
  20
 585.00012263911
  30
0.0
  40
 37.499996021390
 100
AcDbArc
  50
 194.67506868496
  51
0.0
   0
LINE
   5
206
 100
AcDbEntity
   8
LEVEL001
 100
AcDbLine
   6
CONTINUOUS
  62
7
  10
 477.00001931190
  20
 585.00000000000
  30
0.0
  11
 477.00001931190
  21
 576.50001551211
  31
0.0
   0
LINE
   5
207
 100
AcDbEntity
   8
LEVEL001
 100
AcDbLine
   6
CONTINUOUS
  62
7
  10
 477.00001931190
  20
 576.50001551211
  30
0.0
  11
 507.00001841783
  21
 576.50001551211
  31
0.0
   0
LINE
   5
208
 100
AcDbEntity
   8
LEVEL001
 100
AcDbLine
   6
CONTINUOUS
  62
7
  10
 507.00001841783
  20
 576.50001551211
  30
0.0
  11
 507.00001841783
  21
 585.00000000000
  31
0.0
   0
LINE
   5
209
 100
AcDbEntity
   8
LEVEL001
 100
AcDbLine
   6
CONTINUOUS
  62
7
  10
 475.99998882413
  20
 585.00000000000
  30
0.0
  11
 475.99998882413
  21
 575.49998502433
  31
0.0
   0
LINE
   5
20A
 100
AcDbEntity
   8
LEVEL001
 100
AcDbLine
   6
CONTINUOUS
  62
7
  10
 475.99998882413
  20
 575.49998502433
  30
0.0
  11
 507.99995735288
  21
 575.49998502433
  31
0.0
   0
LINE
   5
20B
 100
AcDbEntity
   8
LEVEL001
 100
AcDbLine
   6
CONTINUOUS
  62
7
  10
 507.99995735288
  20
 575.49998502433
  30
0.0
  11
 507.99995735288
  21
 585.00000000000
  31
0.0
   0
ARC
   5
20C
 100
AcDbEntity
   8
LEVEL001
   6
CONTINUOUS
  62
7
 100
AcDbCircle
  10
 536.00002136971
  20
 585.00040483736
  30
0.0
  40
 50.499994680286
 100
AcDbArc
  50
 0.25797135341799E-11
  51
 169.15740286458
   0
LINE
   5
20D
 100
AcDbEntity
   8
LEVEL001
 100
AcDbLine
   6
CONTINUOUS
  62
7
  10
 477.00001931190
  20
 593.50000683963
  30
0.0
  11
 475.99998882413
  21
 594.50003732741
  31
0.0
   0
LINE
   5
20E
 100
AcDbEntity
   8
LEVEL001
 100
AcDbLine
   6
CONTINUOUS
  62
7
  10
 477.00001931190
  20
 585.00002235174
  30
0.0
  11
 477.00001931190
  21
 593.50000683963
  31
0.0
   0
LINE
   5
20F
 100
AcDbEntity
   8
LEVEL001
 100
AcDbLine
   6
CONTINUOUS
  62
7
  10
 477.00001931190
  20
 593.50000683963
  30
0.0
  11
 507.00001841783
  21
 593.50000683963
  31
0.0
   0
LINE
   5
210
 100
AcDbEntity
   8
LEVEL001
 100
AcDbLine
   6
CONTINUOUS
  62
7
  10
 507.00001841783
  20
 593.50000683963
  30
0.0
  11
 507.00001841783
  21
 585.00002235174
  31
0.0
   0
LINE
   5
211
 100
AcDbEntity
   8
LEVEL001
 100
AcDbLine
   6
CONTINUOUS
  62
7
  10
 475.99998882413
  20
 585.00002235174
  30
0.0
  11
 475.99998882413
  21
 594.50003732741
  31
0.0
   0
LINE
   5
212
 100
AcDbEntity
   8
LEVEL001
 100
AcDbLine
   6
CONTINUOUS
  62
7
  10
 475.99998882413
  20
 594.50003732741
  30
0.0
  11
 507.99995735288
  21
 594.50003732741
  31
0.0
   0
LINE
   5
213
 100
AcDbEntity
   8
LEVEL001
 100
AcDbLine
   6
CONTINUOUS
  62
7
  10
 507.99995735288
  20
 594.50003732741
  30
0.0
  11
 507.99995735288
  21
 585.00002235174
  31
0.0
   0
ARC
   5
214
 100
AcDbEntity
   8
LEVEL001
   6
CONTINUOUS
  62
7
 100
AcDbCircle
  10
 535.99998989721
  20
 584.99989971263
  30
0.0
  40
 37.499996021390
 100
AcDbArc
  50
 0.18737878350829E-3
  51
 165.32493131503
   0
ARC
   5
215
 100
AcDbEntity
   8
LEVEL001
   6
CONTINUOUS
  62
7
 100
AcDbCircle
  10
 536.00002136971
  20
 584.99961751438
  30
0.0
  40
 50.499994680286
 100
AcDbArc
  50
 190.84259713542
  51
 0.43395671389136E-3
   0
LINE
   5
216
 100
AcDbEntity
   8
LEVEL001
 100
AcDbLine
   6
DOT
  62
3
  10
 942.99991318584
  20
 654.99998265505
  30
0.0
  11
 291.99996379018
  21
 654.99998265505
  31
0.0
   0
LINE
   5
217
 100
AcDbEntity
   8
LEVEL001
 100
AcDbLine
   6
DOT
  62
3
  10
 942.99991318584
  20
 515.00005042553
  30
0.0
  11
 291.99996379018
  21
 515.00005042553
  31
0.0
   0
LINE
   5
218
 100
AcDbEntity
   8
LEVEL001
 100
AcDbLine
   6
DOT
  62
3
  10
 370.99996906519
  20
 682.49999709427
  30
0.0
  11
 1051.9999716580
  21
 682.49999709427
  31
0.0
   0
LINE
   5
219
 100
AcDbEntity
   8
LEVEL001
 100
AcDbLine
   6
DOT
  62
3
  10
 370.99996906519
  20
 487.50003598630
  30
0.0
  11
 1051.9999716580
  21
 487.50003598630
  31
0.0
   0
LINE
   5
21A
 100
AcDbEntity
   8
LEVEL001
 100
AcDbLine
   6
CONTINUOUS
  62
7
  10
 391.17876332466
  20
 723.50001113117
  30
0.0
  11
 391.52253445363
  21
 712.49999620019
  31
0.0
   0
LINE
   5
21B
 100
AcDbEntity
   8
LEVEL001
 100
AcDbLine
   6
CONTINUOUS
  62
7
  10
 412.82127976950
  20
 723.50001113117
  30
0.0
  11
 412.47750916869
  21
 712.50003853075
  31
0.0
   0
LINE
   5
21C
 100
AcDbEntity
   8
LEVEL001
 100
AcDbLine
   6
CONTINUOUS
  62
3
  10
 392.49414719659
  20
 718.59081633118
  30
0.0
  11
 392.68452947280
  21
 712.49999854750
  31
0.0
   0
LINE
   5
21D
 100
AcDbEntity
   8
LEVEL001
 100
AcDbLine
   6
CONTINUOUS
  62
3
  10
 411.50585012120
  20
 718.59072477845
  30
0.0
  11
 411.31550773665
  21
 712.50003618342
  31
0.0
   0
LINE
   5
21E
 100
AcDbEntity
   8
LEVEL001
 100
AcDbLine
   6
CONTINUOUS
  62
7
  10
 1009.1787449068
  20
 723.50001113117
  30
0.0
  11
 1009.5224770208
  21
 712.50124460467
  31
0.0
   0
LINE
   5
21F
 100
AcDbEntity
   8
LEVEL001
 100
AcDbLine
   6
CONTINUOUS
  62
7
  10
 1030.8212613517
  20
 723.50001113117
  30
0.0
  11
 1030.4775297659
  21
 712.50128693538
  31
0.0
   0
LINE
   5
220
 100
AcDbEntity
   8
LEVEL001
 100
AcDbLine
   6
CONTINUOUS
  62
3
  10
 1010.4941745551
  20
 718.59081633118
  30
0.0
  11
 1010.6844413358
  21
 712.50124695192
  31
0.0
   0
LINE
   5
221
 100
AcDbEntity
   8
LEVEL001
 100
AcDbLine
   6
CONTINUOUS
  62
3
  10
 1029.5058317034
  20
 718.59072477845
  30
0.0
  11
 1029.3155665697
  21
 712.50128458814
  31
0.0
   0
LINE
   5
222
 100
AcDbEntity
   8
LEVEL001
 100
AcDbLine
   6
CONTINUOUS
  62
7
  10
 373.00003004074
  20
 712.49995878339
  30
0.0
  11
 1123.0000305742
  21
 712.50147383751
  31
0.0
   0
LINE
   5
223
 100
AcDbEntity
   8
LEVEL001
 100
AcDbLine
   6
CONTINUOUS
  62
7
  10
 283.99997165799
  20
 642.99998301268
  30
0.0
  11
 286.99997156859
  21
 642.99998301268
  31
0.0
   0
LINE
   5
224
 100
AcDbEntity
   8
LEVEL001
 100
AcDbLine
   6
CONTINUOUS
  62
7
  10
 283.99997165799
  20
 585.00000000000
  30
0.0
  11
 283.99997165799
  21
 657.99998256564
  31
0.0
   0
LINE
   5
225
 100
AcDbEntity
   8
LEVEL001
 100
AcDbLine
   6
DOT
  62
3
  10
 225.99998864532
  20
 642.99998301268
  30
0.0
  11
 223.99999633431
  21
 640.99996781349
  31
0.0
   0
ARC
   5
226
 100
AcDbEntity
   8
LEVEL001
   6
DOT
  62
3
 100
AcDbCircle
  10
 225.99997344607
  20
 642.99999821190
  30
0.0
  40
 2.0000000000000
 100
AcDbArc
  50
 90.000220271940
  51
 180.00043542543
   0
LINE
   5
227
 100
AcDbEntity
   8
LEVEL001
 100
AcDbLine
   6
DOT
  62
3
  10
 223.99999633431
  20
 642.99998301268
  30
0.0
  11
 223.99999633431
  21
 585.00000000000
  31
0.0
   0
LINE
   5
228
 100
AcDbEntity
   8
LEVEL001
 100
AcDbLine
   6
DOT
  62
3
  10
 228.99996566773
  20
 642.99998301268
  30
0.0
  11
 230.99995797873
  21
 644.99999821186
  31
0.0
   0
LINE
   5
229
 100
AcDbEntity
   8
LEVEL001
 100
AcDbLine
   6
DOT
  62
3
  10
 225.99996575713
  20
 644.99999821186
  30
0.0
  11
 283.99997165799
  21
 644.99999821186
  31
0.0
   0
LINE
   5
22A
 100
AcDbEntity
   8
LEVEL001
 100
AcDbLine
   6
DOT
  62
3
  10
 283.99997165799
  20
 644.99999821186
  30
0.0
  11
 281.99997934699
  21
 642.99998301268
  31
0.0
   0
LINE
   5
22B
 100
AcDbEntity
   8
LEVEL001
 100
AcDbLine
   6
DOT
  62
3
  10
 283.99997165799
  20
 642.99998301268
  30
0.0
  11
 225.99997344607
  21
 642.99998301268
  31
0.0
   0
LINE
   5
22C
 100
AcDbEntity
   8
LEVEL001
 100
AcDbLine
   6
CONTINUOUS
  62
7
  10
 288.99996387959
  20
 585.00000000000
  30
0.0
  11
 288.99996387959
  21
 653.99999794364
  31
0.0
   0
LINE
   5
22D
 100
AcDbEntity
   8
LEVEL001
 100
AcDbLine
   6
CONTINUOUS
  62
7
  10
 291.99996379018
  20
 585.00000000000
  30
0.0
  11
 291.99996379018
  21
 706.50000469387
  31
0.0
   0
LINE
   5
22E
 100
AcDbEntity
   8
LEVEL001
 100
AcDbLine
   6
CONTINUOUS
  62
7
  10
 200.99998176098
  20
 659.99999776483
  30
0.0
  11
 200.99998176098
  21
 585.00000000000
  31
0.0
   0
LINE
   5
22F
 100
AcDbEntity
   8
LEVEL001
 100
AcDbLine
   6
CONTINUOUS
  62
7
  10
 281.99997934699
  20
 659.99999776483
  30
0.0
  11
 281.99997934699
  21
 585.00000000000
  31
0.0
   0
LINE
   5
230
 100
AcDbEntity
   8
LEVEL001
 100
AcDbLine
   6
CONTINUOUS
  62
7
  10
 296.99993312359
  20
 708.00000464916
  30
0.0
  11
 296.99993312359
  21
 585.00000000000
  31
0.0
   0
LINE
   5
231
 100
AcDbEntity
   8
LEVEL001
 100
AcDbLine
   6
CONTINUOUS
  62
7
  10
 372.00002244115
  20
 711.49997407198
  30
0.0
  11
 372.00002244115
  21
 585.00000000000
  31
0.0
   0
LINE
   5
232
 100
AcDbEntity
   8
LEVEL001
 100
AcDbLine
   6
CONTINUOUS
  62
3
  10
 296.99993312359
  20
 708.00000464916
  30
0.0
  11
 356.99993133545
  21
 708.00000464916
  31
0.0
   0
LINE
   5
233
 100
AcDbEntity
   8
LEVEL001
 100
AcDbLine
   6
CONTINUOUS
  62
3
  10
 356.99993133545
  20
 585.00000000000
  30
0.0
  11
 356.99993133545
  21
 709.99997407198
  31
0.0
   0
LINE
   5
234
 100
AcDbEntity
   8
LEVEL001
 100
AcDbLine
   6
CONTINUOUS
  62
7
  10
 283.99997165799
  20
 585.00000000000
  30
0.0
  11
 283.99997165799
  21
 512.00001743436
  31
0.0
   0
LINE
   5
235
 100
AcDbEntity
   8
LEVEL001
 100
AcDbLine
   6
DOT
  62
3
  10
 223.99999633431
  20
 527.00001698732
  30
0.0
  11
 223.99999633431
  21
 585.00000000000
  31
0.0
   0
LINE
   5
236
 100
AcDbEntity
   8
LEVEL001
 100
AcDbLine
   6
CONTINUOUS
  62
7
  10
 288.99996387959
  20
 585.00000000000
  30
0.0
  11
 288.99996387959
  21
 516.00000205636
  31
0.0
   0
LINE
   5
237
 100
AcDbEntity
   8
LEVEL001
 100
AcDbLine
   6
CONTINUOUS
  62
7
  10
 291.99996379018
  20
 585.00000000000
  30
0.0
  11
 291.99996379018
  21
 463.49999530613
  31
0.0
   0
LINE
   5
238
 100
AcDbEntity
   8
LEVEL001
 100
AcDbLine
   6
CONTINUOUS
  62
7
  10
 200.99998176098
  20
 510.00000223517
  30
0.0
  11
 200.99998176098
  21
 585.00000000000
  31
0.0
   0
LINE
   5
239
 100
AcDbEntity
   8
LEVEL001
 100
AcDbLine
   6
CONTINUOUS
  62
7
  10
 281.99997934699
  20
 510.00000223517
  30
0.0
  11
 281.99997934699
  21
 585.00000000000
  31
0.0
   0
LINE
   5
23A
 100
AcDbEntity
   8
LEVEL001
 100
AcDbLine
   6
CONTINUOUS
  62
7
  10
 296.99993312359
  20
 461.99999535084
  30
0.0
  11
 296.99993312359
  21
 585.00000000000
  31
0.0
   0
LINE
   5
23B
 100
AcDbEntity
   8
LEVEL001
 100
AcDbLine
   6
CONTINUOUS
  62
7
  10
 372.00002244115
  20
 458.50002592802
  30
0.0
  11
 372.00002244115
  21
 585.00000000000
  31
0.0
   0
LINE
   5
23C
 100
AcDbEntity
   8
LEVEL001
 100
AcDbLine
   6
CONTINUOUS
  62
3
  10
 356.99993133545
  20
 585.00000000000
  30
0.0
  11
 356.99993133545
  21
 460.00002592802
  31
0.0
   0
LINE
   5
23D
 100
AcDbEntity
   8
LEVEL001
 100
AcDbLine
   6
DOT
  62
3
  10
 225.99998864532
  20
 527.00001698732
  30
0.0
  11
 223.99999633431
  21
 529.00003218651
  31
0.0
   0
ARC
   5
23E
 100
AcDbEntity
   8
LEVEL001
   6
DOT
  62
3
 100
AcDbCircle
  10
 225.99997344606
  20
 527.00000178813
  30
0.0
  40
 2.0000000000000
 100
AcDbArc
  50
 179.99956457511
  51
 269.99977972834
   0
LINE
   5
23F
 100
AcDbEntity
   8
LEVEL001
 100
AcDbLine
   6
DOT
  62
3
  10
 228.99996566773
  20
 527.00001698732
  30
0.0
  11
 230.99995797873
  21
 525.00000178814
  31
0.0
   0
LINE
   5
240
 100
AcDbEntity
   8
LEVEL001
 100
AcDbLine
   6
DOT
  62
3
  10
 225.99996575713
  20
 525.00000178814
  30
0.0
  11
 283.99997165799
  21
 525.00000178814
  31
0.0
   0
LINE
   5
241
 100
AcDbEntity
   8
LEVEL001
 100
AcDbLine
   6
DOT
  62
3
  10
 283.99997165799
  20
 527.00001698732
  30
0.0
  11
 225.99997344607
  21
 527.00001698732
  31
0.0
   0
TEXT
   5
242
 100
AcDbEntity
   8
LEVEL003
  62
3
 100
AcDbText
  10
 450.00002011657
  20
 734.99999552965
  30
0.0
  40
 11.999999642372
   1
Ｒ１／２
   7
STANDARD
 100
AcDbText
   0
LEADER
   5
243
 100
AcDbEntity
   8
LEVEL003
   6
CONTINUOUS
  62
3
 100
AcDbLeader
   3
GMM010
  73
0
  74
1
  75
0
  40
 12.000000000000
  41
0.0
  76
3
  10
 412.47750916869
  20
 712.50003853075
  30
0.0
  10
 450.00002011657
  20
 734.99999552965
  30
0.0
  10
 510.00001832843
  20
 734.99999552965
  30
0.0
  77
3
   0
LINE
   5
244
 100
AcDbEntity
   8
LEVEL001
 100
AcDbLine
   6
CONTINUOUS
  62
7
  10
 1123.0000305742
  20
 712.50147383751
  30
0.0
  11
 1123.0000305742
  21
 585.00000000000
  31
0.0
   0
LINE
   5
245
 100
AcDbEntity
   8
LEVEL001
 100
AcDbLine
   6
CONTINUOUS
  62
7
  10
 1123.0000305772
  20
 457.50000379980
  30
0.0
  11
 1123.0000305772
  21
 585.00000000000
  31
0.0
   0
ARC
   5
246
 100
AcDbEntity
   8
LEVEL001
   6
CONTINUOUS
  62
7
 100
AcDbCircle
  10
 286.99996387962
  20
 525.00001698734
  30
0.0
  40
 2.0000000000000
 100
AcDbArc
  50
0.0
  51
 89.999779727627
   0
LINE
   5
247
 100
AcDbEntity
   8
LEVEL001
 100
AcDbLine
   6
CONTINUOUS
  62
7
  10
 283.99997165799
  20
 527.00001698732
  30
0.0
  11
 286.99997156859
  21
 527.00001698732
  31
0.0
   0
TEXT
   5
248
 100
AcDbEntity
   8
LEVEL003
  62
7
 100
AcDbText
  10
 1021.7130243249
  20
 215.28963327878
  30
0.0
  40
 20.000000000000
   1
ＯＳＡＫＡ ＪＡＣＫ
   7
STANDARD
 100
AcDbText
   0
CIRCLE
   5
249
 100
AcDbEntity
   8
LEVEL003
 100
AcDbCircle
   6
CONTINUOUS
  62
7
  10
 980.82019662433
  20
 228.71757695384
  30
0.0
  40
 6.0000000000000
   0
LINE
   5
24A
 100
AcDbEntity
   8
LEVEL003
 100
AcDbLine
   6
CONTINUOUS
  62
7
  10
 992.59619662433
  20
 234.71757695384
  30
0.0
  11
 984.97819662433
  21
 221.51757695384
  31
0.0
   0
LINE
   5
24B
 100
AcDbEntity
   8
LEVEL003
 100
AcDbLine
   6
CONTINUOUS
  62
7
  10
 984.97819662433
  20
 221.51757695384
  30
0.0
  11
 969.73619662433
  21
 221.51757695384
  31
0.0
   0
LINE
   5
24C
 100
AcDbEntity
   8
LEVEL003
 100
AcDbLine
   6
CONTINUOUS
  62
7
  10
 968.00219662433
  20
 218.51757695384
  30
0.0
  11
 995.24419662433
  21
 218.51757695384
  31
0.0
   0
LINE
   5
24D
 100
AcDbEntity
   8
LEVEL003
 100
AcDbLine
   6
CONTINUOUS
  62
7
  10
 995.24419662433
  20
 218.51757695384
  30
0.0
  11
 1004.5961966243
  21
 234.71757695384
  31
0.0
   0
LINE
   5
24E
 100
AcDbEntity
   8
LEVEL003
 100
AcDbLine
   6
CONTINUOUS
  62
7
  10
 1004.5961966243
  20
 234.71757695384
  30
0.0
  11
 992.59619662433
  21
 234.71757695384
  31
0.0
   0
LINE
   5
24F
 100
AcDbEntity
   8
LEVEL003
 100
AcDbLine
   6
CONTINUOUS
  62
7
  10
 969.73619662433
  20
 221.51757695384
  30
0.0
  11
 968.00219662433
  21
 218.51757695384
  31
0.0
   0
TEXT
   5
250
 100
AcDbEntity
   8
LEVEL003
  62
7
 100
AcDbText
  10
 1027.5350243249
  20
 249.07643327878
  30
0.0
  40
 12.000000000000
   1
Model : ＥＴ２００Ｈ５０
   7
STANDARD
 100
AcDbText
   0
ENDSEC
  0
SECTION
  2
OBJECTS
  0
DICTIONARY
  5
C
100
AcDbDictionary
  3
ACAD_GROUP
350
D
  3
ACAD_MLINESTYLE
350
1B
  0
DICTIONARY
  5
D
102
{ACAD_REACTORS
330
C
102
}
100
AcDbDictionary
  0
DICTIONARY
  5
1B
102
{ACAD_REACTORS
330
C
102
}
100
AcDbDictionary
  3
STANDARD
350
1C
  0
MLINESTYLE
  5
1C
102
{ACAD_REACTORS
330
1B
102
}
100
AcDbMlineStyle
  2
STANDARD
 70
     0
  3

 62
   256
 51
90.0
 52
90.0
 71
     2
 49
0.5
 62
   256
  6
BYLAYER
 49
-0.5
 62
   256
  6
BYLAYER
  0
ENDSEC
   0
EOF
