   0
SECTION
   2
HEADER
   9
$ACADVER
   1
AC1014
   9
$LIMMIN
  10
0.0
  20
0.0
   9
$LIMMAX
  10
 1680.0000000000
  20
 1188.0000000000
   9
$EXTMIN
  10
0.0
  20
0.0
  30
0.0
   9
$EXTMAX
  10
 1680.0000000000
  20
 1188.0000000000
  30
0.0
   9
$LTSCALE
  40
 33.600000000000
   9
$HANDSEED
   5
240
   0
ENDSEC
   0
SECTION
   2
TABLES
  0
TABLE
  2
VPORT
  5
8
100
AcDbSymbolTable
 70
     1
  0
VPORT
  5
23F
100
AcDbSymbolTableRecord
100
AcDbViewportTableRecord
  2
*ACTIVE
 70
     0
 10
0.0
 20
0.0
 11
1.0
 21
1.0
  12
 840.00000000000
  22
 594.00000000000
 13
0.0
 23
0.0
 14
1.0
 24
1.0
 15
0.0
 25
0.0
 16
0.0
 26
0.0
 36
1.0
 17
0.0
 27
0.0
 37
0.0
  40
 1680.0000000000
  41
 1.4787878787879
 42
50.0
 43
0.0
 44
0.0
 50
0.0
 51
0.0
 71
     0
 72
   100
 73
     1
 74
     1
 75
     0
 76
     0
 77
     0
 78
     0
  0
ENDTAB
  0
TABLE
  2
LTYPE
  5
5
100
AcDbSymbolTable
 70
    25
  0
LTYPE
  5
12
100
AcDbSymbolTableRecord
100
AcDbLinetypeTableRecord
  2
BYBLOCK
 70
     0
  3

 72
    65
 73
     0
 40
0.0
  0
LTYPE
  5
13
100
AcDbSymbolTableRecord
100
AcDbLinetypeTableRecord
  2
BYLAYER
 70
     0
  3

 72
    65
 73
     0
 40
0.0
  0
LTYPE
  5
14
100
AcDbSymbolTableRecord
100
AcDbLinetypeTableRecord
  2
CONTINUOUS
 70
     0
  3
Solid line
 72
    65
 73
     0
 40
0.0
  0
LTYPE
  5
20
100
AcDbSymbolTableRecord
100
AcDbLinetypeTableRecord
  2
BORDER
 70
     0
  3
__ __ . __ __ . __ __ . __ __ . __ __ . __ __ .
 72
    65
 73
     6
 40
1.75
 49
0.5
 74
     0
 49
-0.25
 74
     0
 49
0.5
 74
     0
 49
-0.25
 74
     0
 49
0.0
 74
     0
 49
-0.25
 74
     0
  0
LTYPE
  5
21
100
AcDbSymbolTableRecord
100
AcDbLinetypeTableRecord
  2
BORDER2
 70
     0
  3
__.__.__.__.__.__.__.__.__.__.__.__.__.__.__.__
 72
    65
 73
     6
 40
0.875
 49
0.25
 74
     0
 49
-0.125
 74
     0
 49
0.25
 74
     0
 49
-0.125
 74
     0
 49
0.0
 74
     0
 49
-0.125
 74
     0
  0
LTYPE
  5
22
100
AcDbSymbolTableRecord
100
AcDbLinetypeTableRecord
  2
BORDERX2
 70
     0
  3
____  ____  .  ____  ____  .  ____  ____  .  __
 72
    65
 73
     6
 40
3.5
 49
1.0
 74
     0
 49
-0.5
 74
     0
 49
1.0
 74
     0
 49
-0.5
 74
     0
 49
0.0
 74
     0
 49
-0.5
 74
     0
  0
LTYPE
  5
23
100
AcDbSymbolTableRecord
100
AcDbLinetypeTableRecord
  2
CENTER
 70
     0
  3
____ _ ____ _ ____ _ ____ _ ____ _ ____ _ ____ 
 72
    65
 73
     4
 40
2.0
 49
1.25
 74
     0
 49
-0.25
 74
     0
 49
0.25
 74
     0
 49
-0.25
 74
     0
  0
LTYPE
  5
24
100
AcDbSymbolTableRecord
100
AcDbLinetypeTableRecord
  2
CENTER2
 70
     0
  3
___ _ ___ _ ___ _ ___ _ ___ _ ___ _ ___ _ ___ _
 72
    65
 73
     4
 40
1.125
 49
0.75
 74
     0
 49
-0.125
 74
     0
 49
0.125
 74
     0
 49
-0.125
 74
     0
  0
LTYPE
  5
25
100
AcDbSymbolTableRecord
100
AcDbLinetypeTableRecord
  2
CENTERX2
 70
     0
  3
________  __  ________  __  ________  __  _____
 72
    65
 73
     4
 40
4.0
 49
2.5
 74
     0
 49
-0.5
 74
     0
 49
0.5
 74
     0
 49
-0.5
 74
     0
  0
LTYPE
  5
26
100
AcDbSymbolTableRecord
100
AcDbLinetypeTableRecord
  2
DASHDOT
 70
     0
  3
__ . __ . __ . __ . __ . __ . __ . __ . __ . __
 72
    65
 73
     4
 40
1.0
 49
0.5
 74
     0
 49
-0.25
 74
     0
 49
0.0
 74
     0
 49
-0.25
 74
     0
  0
LTYPE
  5
27
100
AcDbSymbolTableRecord
100
AcDbLinetypeTableRecord
  2
DASHDOT2
 70
     0
  3
_._._._._._._._._._._._._._._._._._._._._._._._
 72
    65
 73
     4
 40
0.5
 49
0.25
 74
     0
 49
-0.125
 74
     0
 49
0.0
 74
     0
 49
-0.125
 74
     0
  0
LTYPE
  5
28
100
AcDbSymbolTableRecord
100
AcDbLinetypeTableRecord
  2
DASHDOTX2
 70
     0
  3
____  .  ____  .  ____  .  ____  .  ____  .  __
 72
    65
 73
     4
 40
2.0
 49
1.0
 74
     0
 49
-0.5
 74
     0
 49
0.0
 74
     0
 49
-0.5
 74
     0
  0
LTYPE
  5
29
100
AcDbSymbolTableRecord
100
AcDbLinetypeTableRecord
  2
DASHED
 70
     0
  3
__ __ __ __ __ __ __ __ __ __ __ __ __ __ __ __
 72
    65
 73
     2
 40
0.75
 49
0.5
 74
     0
 49
-0.25
 74
     0
  0
LTYPE
  5
2A
100
AcDbSymbolTableRecord
100
AcDbLinetypeTableRecord
  2
DASHED2
 70
     0
  3
_ _ _ _ _ _ _ _ _ _ _ _ _ _ _ _ _ _ _ _ _ _ _ _
 72
    65
 73
     2
 40
0.375
 49
0.25
 74
     0
 49
-0.125
 74
     0
  0
LTYPE
  5
2B
100
AcDbSymbolTableRecord
100
AcDbLinetypeTableRecord
  2
DASHEDX2
 70
     0
  3
____  ____  ____  ____  ____  ____  ____  ____ 
 72
    65
 73
     2
 40
1.5
 49
1.0
 74
     0
 49
-0.5
 74
     0
  0
LTYPE
  5
2C
100
AcDbSymbolTableRecord
100
AcDbLinetypeTableRecord
  2
DIVIDE
 70
     0
  3
____ . . ____ . . ____ . . ____ . . ____ . . __
 72
    65
 73
     6
 40
1.25
 49
0.5
 74
     0
 49
-0.25
 74
     0
 49
0.0
 74
     0
 49
-0.25
 74
     0
 49
0.0
 74
     0
 49
-0.25
 74
     0
  0
LTYPE
  5
2D
100
AcDbSymbolTableRecord
100
AcDbLinetypeTableRecord
  2
DIVIDE2
 70
     0
  3
__..__..__..__..__..__..__..__..__..__..__..__.
 72
    65
 73
     6
 40
0.625
 49
0.25
 74
     0
 49
-0.125
 74
     0
 49
0.0
 74
     0
 49
-0.125
 74
     0
 49
0.0
 74
     0
 49
-0.125
 74
     0
  0
LTYPE
  5
2E
100
AcDbSymbolTableRecord
100
AcDbLinetypeTableRecord
  2
DIVIDEX2
 70
     0
  3
________  .  .  ________  .  .  ________  .  . 
 72
    65
 73
     6
 40
2.5
 49
1.0
 74
     0
 49
-0.5
 74
     0
 49
0.0
 74
     0
 49
-0.5
 74
     0
 49
0.0
 74
     0
 49
-0.5
 74
     0
  0
LTYPE
  5
2F
100
AcDbSymbolTableRecord
100
AcDbLinetypeTableRecord
  2
DOT
 70
     0
  3
. . . . . . . . . . . . . . . . . . . . . . . .
 72
    65
 73
     2
 40
0.25
 49
0.0
 74
     0
 49
-0.25
 74
     0
  0
LTYPE
  5
30
100
AcDbSymbolTableRecord
100
AcDbLinetypeTableRecord
  2
DOT2
 70
     0
  3
...............................................
 72
    65
 73
     2
 40
0.125
 49
0.0
 74
     0
 49
-0.125
 74
     0
  0
LTYPE
  5
31
100
AcDbSymbolTableRecord
100
AcDbLinetypeTableRecord
  2
DOTX2
 70
     0
  3
.  .  .  .  .  .  .  .  .  .  .  .  .  .  .  . 
 72
    65
 73
     2
 40
0.5
 49
0.0
 74
     0
 49
-0.5
 74
     0
  0
LTYPE
  5
32
100
AcDbSymbolTableRecord
100
AcDbLinetypeTableRecord
  2
HIDDEN
 70
     0
  3
__ __ __ __ __ __ __ __ __ __ __ __ __ __ __ __
 72
    65
 73
     2
 40
0.375
 49
0.25
 74
     0
 49
-0.125
 74
     0
  0
LTYPE
  5
33
100
AcDbSymbolTableRecord
100
AcDbLinetypeTableRecord
  2
HIDDEN2
 70
     0
  3
_ _ _ _ _ _ _ _ _ _ _ _ _ _ _ _ _ _ _ _ _ _ _ _
 72
    65
 73
     2
 40
0.1875
 49
0.125
 74
     0
 49
-0.0625
 74
     0
  0
LTYPE
  5
34
100
AcDbSymbolTableRecord
100
AcDbLinetypeTableRecord
  2
HIDDENX2
 70
     0
  3
____ ____ ____ ____ ____ ____ ____ ____ ____ __
 72
    65
 73
     2
 40
0.75
 49
0.5
 74
     0
 49
-0.25
 74
     0
  0
LTYPE
  5
35
100
AcDbSymbolTableRecord
100
AcDbLinetypeTableRecord
  2
PHANTOM
 70
     0
  3
______  __  __  ______  __  __  ______  __  __ 
 72
    65
 73
     6
 40
2.5
 49
1.25
 74
     0
 49
-0.25
 74
     0
 49
0.25
 74
     0
 49
-0.25
 74
     0
 49
0.25
 74
     0
 49
-0.25
 74
     0
  0
LTYPE
  5
36
100
AcDbSymbolTableRecord
100
AcDbLinetypeTableRecord
  2
PHANTOM2
 70
     0
  3
___ _ _ ___ _ _ ___ _ _ ___ _ _ ___ _ _ ___ _ _
 72
    65
 73
     6
 40
1.25
 49
0.625
 74
     0
 49
-0.125
 74
     0
 49
0.125
 74
     0
 49
-0.125
 74
     0
 49
0.125
 74
     0
 49
-0.125
 74
     0
  0
LTYPE
  5
37
100
AcDbSymbolTableRecord
100
AcDbLinetypeTableRecord
  2
PHANTOMX2
 70
     0
  3
____________    ____    ____    ____________   
 72
    65
 73
     6
 40
5.0
 49
2.5
 74
     0
 49
-0.5
 74
     0
 49
0.5
 74
     0
 49
-0.5
 74
     0
 49
0.5
 74
     0
 49
-0.5
 74
     0
  0
ENDTAB
   0
TABLE
   2
LAYER
   5
2
 100
AcDbSymbolTable
  70
6
   0
LAYER
   5
E
 100
AcDbSymbolTableRecord
 100
AcDbLayerTableRecord
   2
0
  70
0
  62
7
   6
CONTINUOUS
   0
LAYER
   5
39
 100
AcDbSymbolTableRecord
 100
AcDbLayerTableRecord
   2
LEVEL001
  70
0
  62
7
   6
CONTINUOUS
   0
LAYER
   5
3A
 100
AcDbSymbolTableRecord
 100
AcDbLayerTableRecord
   2
LEVEL003
  70
0
  62
7
   6
CONTINUOUS
   0
LAYER
   5
3B
 100
AcDbSymbolTableRecord
 100
AcDbLayerTableRecord
   2
LEVEL020
  70
0
  62
7
   6
CONTINUOUS
   0
LAYER
   5
3C
 100
AcDbSymbolTableRecord
 100
AcDbLayerTableRecord
   2
LEVEL050
  70
0
  62
7
   6
CONTINUOUS
   0
LAYER
   5
3D
 100
AcDbSymbolTableRecord
 100
AcDbLayerTableRecord
   2
LEVEL110
  70
0
  62
7
   6
CONTINUOUS
   0
ENDTAB
  0
TABLE
  2
STYLE
  5
3
100
AcDbSymbolTable
  70
3
  0
STYLE
  5
F
100
AcDbSymbolTableRecord
100
AcDbTextStyleTableRecord
  2
STANDARD
 70
     0
 40
0.0
 41
1.0
 50
0.0
 71
     0
 42
0.2
  3
TXT
  4
BIGFONT
  0
STYLE
  5
38
100
AcDbSymbolTableRecord
100
AcDbTextStyleTableRecord
  2
STANDARD1
 70
     4
 40
0.0
 41
1.0
 50
0.0
 71
     0
 42
0.2
  3
TXT
  4
BIGFONT
   0
STYLE
   5
3E
 100
AcDbSymbolTableRecord
 100
AcDbTextStyleTableRecord
   2
GMM001
  70
0
  40
0.0
  41
 1.0000000000000
  50
0.0
  71
     0
  42
1.0
   3
txt.shx
   4
bigfont.shx
   0
ENDTAB
  0
TABLE
  2
VIEW
  5
6
100
AcDbSymbolTable
 70
     0
  0
ENDTAB
  0
TABLE
  2
UCS
  5
7
100
AcDbSymbolTable
 70
     0
  0
ENDTAB
  0
TABLE
  2
APPID
  5
9
100
AcDbSymbolTable
 70
     1
  0
APPID
  5
10
100
AcDbSymbolTableRecord
100
AcDbRegAppTableRecord
  2
ACAD
 70
     0
  0
ENDTAB
   0
TABLE
   2
DIMSTYLE
   5
A
 100
AcDbSymbolTable
  70
11
  0
DIMSTYLE
105
1D
100
AcDbSymbolTableRecord
100
AcDbDimStyleTableRecord
  2
STANDARD
 70
     0
  3

  4

  5

  6

  7

 40
1.0
 41
0.18
 42
0.0625
 43
0.38
 44
0.18
 45
0.0
 46
0.0
 47
0.0
 48
0.0
140
0.18
141
0.09
142
0.0
143
25.4
144
1.0
145
0.0
146
1.0
147
0.09
 71
     0
 72
     0
 73
     1
 74
     1
 75
     0
 76
     0
 77
     0
 78
     0
170
     0
171
     2
172
     0
173
     0
174
     0
175
     0
176
     0
177
     0
178
     0
270
     2
271
     4
272
     4
273
     2
274
     2
340
F
275
     0
280
     0
281
     0
282
     0
283
     1
284
     0
285
     0
286
     0
287
     3
288
     0
   0
DIMSTYLE
 105
3F
 100
AcDbSymbolTableRecord
 100
AcDbDimStyleTableRecord
   2
GMM001
  70
0
   3

   4

   5

   6
_OPEN
   7
_OPEN
  40
 1.0000000000000
  41
 12.000000000000
  42
 4.0000000000000
  43
 0.10000000000000E-5
  44
 8.0000000000000
  45
0.0
  46
0.0
  47
0.0
  48
0.0
 140
 16.000000000000
 141
 4.0000000000000
 142
0.0
 143
 0.39400000000000E-1
 144
 1.0000000000000
 145
0.0
 146
 0.62500000000000
 147
 3.2000121116635
  71
0
  72
0
  73
0
  74
0
  75
1
  76
1
  77
3
  78
0
 170
0
 171
2
 172
1
 173
1
 174
0
 175
0
 176
3
 177
3
 178
3
 270
2
 271
0
 272
0
 273
2
 274
2
 340
3E
 275
1
 280
0
 281
0
 282
0
 283
1
 284
0
 285
0
 286
0
 287
3
 288
1
   0
DIMSTYLE
 105
40
 100
AcDbSymbolTableRecord
 100
AcDbDimStyleTableRecord
   2
GMM002
  70
0
   3

   4

   5

   6
_OPEN
   7
_OPEN
  40
 1.0000000000000
  41
 12.000000000000
  42
 4.0000000000000
  43
 32.000000000000
  44
 8.0000000000000
  45
0.0
  46
0.0
  47
0.0
  48
0.0
 140
 16.000000000000
 141
 4.0000000000000
 142
0.0
 143
 0.39400000000000E-1
 144
 1.0000000000000
 145
0.0
 146
 0.62500000000000
 147
 3.2000000000000
  71
0
  72
0
  73
0
  74
0
  75
1
  76
1
  77
3
  78
8
 170
0
 171
2
 172
1
 173
1
 174
0
 175
0
 176
3
 177
3
 178
3
 270
2
 271
1
 272
0
 273
2
 274
2
 340
3E
 275
0
 280
0
 281
0
 282
0
 283
1
 284
0
 285
0
 286
0
 287
3
 288
0
   0
DIMSTYLE
 105
41
 100
AcDbSymbolTableRecord
 100
AcDbDimStyleTableRecord
   2
GMM003
  70
0
   3

   4

   5

   6
_OPEN
   7
_OPEN
  40
 1.0000000000000
  41
 12.000000000000
  42
 4.0000000000000
  43
 0.10000000000000E-5
  44
 8.0000000000000
  45
0.0
  46
0.0
  47
0.0
  48
0.0
 140
 16.000000000000
 141
 4.0000000000000
 142
0.0
 143
 0.39400000000000E-1
 144
 1.0000000000000
 145
0.0
 146
 0.62500000000000
 147
 3.2000121116635
  71
0
  72
0
  73
0
  74
0
  75
0
  76
0
  77
3
  78
0
 170
0
 171
2
 172
1
 173
1
 174
0
 175
0
 176
3
 177
3
 178
3
 270
2
 271
0
 272
0
 273
2
 274
2
 340
3E
 275
1
 280
0
 281
0
 282
0
 283
1
 284
0
 285
0
 286
0
 287
3
 288
1
   0
DIMSTYLE
 105
42
 100
AcDbSymbolTableRecord
 100
AcDbDimStyleTableRecord
   2
GMM004
  70
0
   3

   4

   5

   6
_OPEN
   7
_OPEN
  40
 1.0000000000000
  41
 12.000000000000
  42
 4.0000000000000
  43
 0.10000000000000E-5
  44
 8.0000000000000
  45
0.0
  46
0.0
  47
0.0
  48
0.0
 140
 16.000000000000
 141
 4.0000000000000
 142
0.0
 143
 0.39400000000000E-1
 144
 1.0000000000000
 145
0.0
 146
 0.62500000000000
 147
 3.2000121116635
  71
0
  72
0
  73
0
  74
0
  75
0
  76
1
  77
3
  78
0
 170
0
 171
2
 172
1
 173
1
 174
0
 175
0
 176
3
 177
3
 178
3
 270
2
 271
0
 272
0
 273
2
 274
2
 340
3E
 275
1
 280
0
 281
0
 282
0
 283
1
 284
0
 285
0
 286
0
 287
3
 288
1
   0
DIMSTYLE
 105
43
 100
AcDbSymbolTableRecord
 100
AcDbDimStyleTableRecord
   2
GMM005
  70
0
   3

   4

   5

   6
_OPEN
   7
_OPEN
  40
 1.0000000000000
  41
 12.000000000000
  42
 4.0000000000000
  43
 32.000000000000
  44
 8.0000000000000
  45
0.0
  46
0.0
  47
0.0
  48
0.0
 140
 16.000000000000
 141
 4.0000000000000
 142
0.0
 143
 0.39400000000000E-1
 144
 1.0000000000000
 145
0.0
 146
 0.62500000000000
 147
0.0
  71
0
  72
0
  73
0
  74
0
  75
0
  76
0
  77
1
  78
8
 170
0
 171
2
 172
1
 173
1
 174
0
 175
0
 176
3
 177
3
 178
7
 270
2
 271
1
 272
0
 273
2
 274
2
 340
F
 275
0
 280
0
 281
0
 282
0
 283
1
 284
0
 285
0
 286
0
 287
3
 288
1
   0
DIMSTYLE
 105
44
 100
AcDbSymbolTableRecord
 100
AcDbDimStyleTableRecord
   2
GMM006
  70
0
   3

   4

   5

   6
_OPEN
   7
_OPEN
  40
 1.0000000000000
  41
 12.000000000000
  42
 4.0000000000000
  43
 0.10000000000000E-5
  44
 8.0000000000000
  45
0.0
  46
0.0
  47
0.0
  48
0.0
 140
 16.000000000000
 141
 4.0000000000000
 142
0.0
 143
 0.39400000000000E-1
 144
 1.0000000000000
 145
0.0
 146
 0.62500000000000
 147
 3.1999968528748
  71
0
  72
0
  73
0
  74
0
  75
0
  76
0
  77
3
  78
0
 170
0
 171
2
 172
1
 173
1
 174
0
 175
0
 176
3
 177
3
 178
3
 270
2
 271
0
 272
0
 273
2
 274
2
 340
3E
 275
1
 280
0
 281
0
 282
0
 283
1
 284
0
 285
0
 286
0
 287
3
 288
1
   0
DIMSTYLE
 105
45
 100
AcDbSymbolTableRecord
 100
AcDbDimStyleTableRecord
   2
GMM007
  70
0
   3

   4

   5

   6
_OPEN
   7
_OPEN
  40
 1.0000000000000
  41
 12.000000000000
  42
 4.0000000000000
  43
 0.10000000000000E-5
  44
 8.0000000000000
  45
0.0
  46
0.0
  47
0.0
  48
0.0
 140
 16.000000000000
 141
 4.0000000000000
 142
0.0
 143
 0.39400000000000E-1
 144
 1.0000000000000
 145
0.0
 146
 0.62500000000000
 147
 3.1999510765090
  71
0
  72
0
  73
0
  74
0
  75
0
  76
1
  77
3
  78
0
 170
0
 171
2
 172
1
 173
1
 174
0
 175
0
 176
3
 177
3
 178
3
 270
2
 271
0
 272
0
 273
2
 274
2
 340
3E
 275
1
 280
0
 281
0
 282
0
 283
1
 284
0
 285
0
 286
0
 287
3
 288
1
   0
DIMSTYLE
 105
46
 100
AcDbSymbolTableRecord
 100
AcDbDimStyleTableRecord
   2
GMM008
  70
0
   3

   4

   5

   6
_OPEN
   7
_OPEN
  40
 1.0000000000000
  41
 12.000000000000
  42
 4.0000000000000
  43
 0.10000000000000E-5
  44
 8.0000000000000
  45
0.0
  46
0.0
  47
0.0
  48
0.0
 140
 16.000000000000
 141
 4.0000000000000
 142
0.0
 143
 0.39400000000000E-1
 144
 1.0000000000000
 145
0.0
 146
 0.62500000000000
 147
 3.1999510765090
  71
0
  72
0
  73
0
  74
0
  75
0
  76
0
  77
3
  78
0
 170
0
 171
2
 172
1
 173
1
 174
0
 175
0
 176
3
 177
3
 178
3
 270
2
 271
0
 272
0
 273
2
 274
2
 340
3E
 275
1
 280
0
 281
0
 282
0
 283
1
 284
0
 285
0
 286
0
 287
3
 288
1
   0
DIMSTYLE
 105
47
 100
AcDbSymbolTableRecord
 100
AcDbDimStyleTableRecord
   2
GMM009
  70
0
   3

   4

   5

   6
_OPEN
   7
_OPEN
  40
 1.0000000000000
  41
 12.000000000000
  42
 4.0000000000000
  43
 32.000000000000
  44
 8.0000000000000
  45
0.0
  46
0.0
  47
0.0
  48
0.0
 140
 16.000000000000
 141
 4.0000000000000
 142
0.0
 143
 0.39400000000000E-1
 144
 1.0000000000000
 145
0.0
 146
 0.62500000000000
 147
0.0
  71
0
  72
0
  73
0
  74
0
  75
0
  76
0
  77
1
  78
8
 170
0
 171
2
 172
1
 173
1
 174
0
 175
0
 176
3
 177
3
 178
7
 270
2
 271
1
 272
0
 273
2
 274
2
 340
F
 275
0
 280
0
 281
0
 282
0
 283
1
 284
0
 285
0
 286
0
 287
3
 288
1
   0
ENDTAB
  0
TABLE
  2
BLOCK_RECORD
  5
1
100
AcDbSymbolTable
 70
     0
  0
BLOCK_RECORD
  5
18
100
AcDbSymbolTableRecord
100
AcDbBlockTableRecord
  2
*MODEL_SPACE
  0
BLOCK_RECORD
  5
15
100
AcDbSymbolTableRecord
100
AcDbBlockTableRecord
  2
*PAPER_SPACE
   0
BLOCK_RECORD
   5
48
 100
AcDbSymbolTableRecord
 100
AcDbBlockTableRecord
   2
*D1
   0
BLOCK_RECORD
   5
49
 100
AcDbSymbolTableRecord
 100
AcDbBlockTableRecord
   2
*D2
   0
BLOCK_RECORD
   5
4A
 100
AcDbSymbolTableRecord
 100
AcDbBlockTableRecord
   2
*D3
   0
BLOCK_RECORD
   5
4B
 100
AcDbSymbolTableRecord
 100
AcDbBlockTableRecord
   2
*D4
   0
BLOCK_RECORD
   5
4C
 100
AcDbSymbolTableRecord
 100
AcDbBlockTableRecord
   2
*D5
   0
BLOCK_RECORD
   5
4D
 100
AcDbSymbolTableRecord
 100
AcDbBlockTableRecord
   2
*D6
   0
BLOCK_RECORD
   5
4E
 100
AcDbSymbolTableRecord
 100
AcDbBlockTableRecord
   2
*D7
   0
BLOCK_RECORD
   5
4F
 100
AcDbSymbolTableRecord
 100
AcDbBlockTableRecord
   2
*D10
   0
BLOCK_RECORD
   5
50
 100
AcDbSymbolTableRecord
 100
AcDbBlockTableRecord
   2
*D11
   0
BLOCK_RECORD
   5
51
 100
AcDbSymbolTableRecord
 100
AcDbBlockTableRecord
   2
*D12
   0
BLOCK_RECORD
   5
52
 100
AcDbSymbolTableRecord
 100
AcDbBlockTableRecord
   2
*D13
   0
BLOCK_RECORD
   5
53
 100
AcDbSymbolTableRecord
 100
AcDbBlockTableRecord
   2
_ARCHTICK
   0
BLOCK_RECORD
   5
54
 100
AcDbSymbolTableRecord
 100
AcDbBlockTableRecord
   2
_BOXBLANK
   0
BLOCK_RECORD
   5
55
 100
AcDbSymbolTableRecord
 100
AcDbBlockTableRecord
   2
_BOXFILLED
   0
BLOCK_RECORD
   5
56
 100
AcDbSymbolTableRecord
 100
AcDbBlockTableRecord
   2
_CLOSED
   0
BLOCK_RECORD
   5
57
 100
AcDbSymbolTableRecord
 100
AcDbBlockTableRecord
   2
_CLOSEDBLANK
   0
BLOCK_RECORD
   5
58
 100
AcDbSymbolTableRecord
 100
AcDbBlockTableRecord
   2
_DATUMBLANK
   0
BLOCK_RECORD
   5
59
 100
AcDbSymbolTableRecord
 100
AcDbBlockTableRecord
   2
_DATUMFILLED
   0
BLOCK_RECORD
   5
5A
 100
AcDbSymbolTableRecord
 100
AcDbBlockTableRecord
   2
_DOT
   0
BLOCK_RECORD
   5
5B
 100
AcDbSymbolTableRecord
 100
AcDbBlockTableRecord
   2
_DOTBLANK
   0
BLOCK_RECORD
   5
5C
 100
AcDbSymbolTableRecord
 100
AcDbBlockTableRecord
   2
_DOTSMALL
   0
BLOCK_RECORD
   5
5D
 100
AcDbSymbolTableRecord
 100
AcDbBlockTableRecord
   2
_INTEGRAL
   0
BLOCK_RECORD
   5
5E
 100
AcDbSymbolTableRecord
 100
AcDbBlockTableRecord
   2
_NONE
   0
BLOCK_RECORD
   5
5F
 100
AcDbSymbolTableRecord
 100
AcDbBlockTableRecord
   2
_OBLIQUE
   0
BLOCK_RECORD
   5
60
 100
AcDbSymbolTableRecord
 100
AcDbBlockTableRecord
   2
_OPEN
   0
BLOCK_RECORD
   5
61
 100
AcDbSymbolTableRecord
 100
AcDbBlockTableRecord
   2
_OPEN30
   0
BLOCK_RECORD
   5
62
 100
AcDbSymbolTableRecord
 100
AcDbBlockTableRecord
   2
_OPEN90
   0
BLOCK_RECORD
   5
63
 100
AcDbSymbolTableRecord
 100
AcDbBlockTableRecord
   2
_ORIGIN
   0
ENDTAB
   0
ENDSEC
  0
SECTION
  2
BLOCKS
  0
BLOCK
  5
19
100
AcDbEntity
  8
0
100
AcDbBlockBegin
  2
*MODEL_SPACE
 70
     0
 10
0.0
 20
0.0
 30
0.0
  3
*MODEL_SPACE
  1

  0
ENDBLK
  5
1A
100
AcDbEntity
  8
0
100
AcDbBlockEnd
  0
BLOCK
  5
16
100
AcDbEntity
 67
     1
  8
0
100
AcDbBlockBegin
  2
*PAPER_SPACE
 70
     0
 10
0.0
 20
0.0
 30
0.0
  3
*PAPER_SPACE
  1

  0
ENDBLK
  5
17
100
AcDbEntity
 67
     1
  8
0
100
AcDbBlockEnd
   0
BLOCK
   5
64
 100
AcDbEntity
   8
0
 100
AcDbBlockBegin
   2
_ARCHTICK
  70
0
  10
0.0
  20
0.0
  30
0.0
   3
_ARCHTICK
   0
POLYLINE
   5
65
 100
AcDbEntity
   8
0
   6
BYBLOCK
  62
0
 100
AcDb2dPolyline
  66
1
  10
0.0
  20
0.0
  30
0.0
  70
1
  40
 0.15000000000000
  41
 0.15000000000000
   0
VERTEX
   5
66
 100
AcDbEntity
   8
0
   6
BYBLOCK
  62
0
 100
AcDbVertex
 100
AcDb2dVertex
  10
-0.50000000000000
  20
-0.50000000000000
  30
0.0
  40
 0.15000000000000
  41
 0.15000000000000
   0
VERTEX
   5
67
 100
AcDbEntity
   8
0
   6
BYBLOCK
  62
0
 100
AcDbVertex
 100
AcDb2dVertex
  10
 0.50000000000000
  20
 0.50000000000000
  30
0.0
  40
 0.15000000000000
  41
 0.15000000000000
   0
SEQEND
   5
68
 100
AcDbEntity
   8
0
   6
BYBLOCK
  62
0
   0
ENDBLK
   5
69
 100
AcDbEntity
   8
0
 100
AcDbBlockEnd
   0
BLOCK
   5
6A
 100
AcDbEntity
   8
0
 100
AcDbBlockBegin
   2
_OBLIQUE
  70
0
  10
0.0
  20
0.0
  30
0.0
   3
_OBLIQUE
   0
LINE
   5
6B
 100
AcDbEntity
   8
0
 100
AcDbLine
   6
BYBLOCK
  62
0
  10
-0.50000000000000
  20
-0.50000000000000
  30
0.0
  11
 0.50000000000000
  21
 0.50000000000000
  31
0.0
   0
ENDBLK
   5
6C
 100
AcDbEntity
   8
0
 100
AcDbBlockEnd
   0
BLOCK
   5
6D
 100
AcDbEntity
   8
0
 100
AcDbBlockBegin
   2
_BOXBLANK
  70
0
  10
0.0
  20
0.0
  30
0.0
   3
_BOXBLANK
   0
LINE
   5
6E
 100
AcDbEntity
   8
0
 100
AcDbLine
   6
BYBLOCK
  62
0
  10
-0.50000000000000
  20
-0.50000000000000
  30
0.0
  11
 0.50000000000000
  21
-0.50000000000000
  31
0.0
   0
LINE
   5
6F
 100
AcDbEntity
   8
0
 100
AcDbLine
   6
BYBLOCK
  62
0
  10
 0.50000000000000
  20
-0.50000000000000
  30
0.0
  11
 0.50000000000000
  21
 0.50000000000000
  31
0.0
   0
LINE
   5
70
 100
AcDbEntity
   8
0
 100
AcDbLine
   6
BYBLOCK
  62
0
  10
 0.50000000000000
  20
 0.50000000000000
  30
0.0
  11
-0.50000000000000
  21
 0.50000000000000
  31
0.0
   0
LINE
   5
71
 100
AcDbEntity
   8
0
 100
AcDbLine
   6
BYBLOCK
  62
0
  10
-0.50000000000000
  20
 0.50000000000000
  30
0.0
  11
-0.50000000000000
  21
-0.50000000000000
  31
0.0
   0
LINE
   5
72
 100
AcDbEntity
   8
0
 100
AcDbLine
   6
BYBLOCK
  62
0
  10
-0.50000000000000
  20
0.0
  30
0.0
  11
-1.0000000000000
  21
0.0
  31
0.0
   0
ENDBLK
   5
73
 100
AcDbEntity
   8
0
 100
AcDbBlockEnd
   0
BLOCK
   5
74
 100
AcDbEntity
   8
0
 100
AcDbBlockBegin
   2
_BOXFILLED
  70
0
  10
0.0
  20
0.0
  30
0.0
   3
_BOXFILLED
   0
SOLID
   5
75
 100
AcDbEntity
   8
0
 100
AcDbTrace
   6
BYBLOCK
  62
0
  10
-0.50000000000000
  20
 0.50000000000000
  30
0.0
  11
 0.50000000000000
  21
 0.50000000000000
  31
0.0
  12
-0.50000000000000
  22
-0.50000000000000
  32
0.0
  13
 0.50000000000000
  23
-0.50000000000000
  33
0.0
   0
LINE
   5
76
 100
AcDbEntity
   8
0
 100
AcDbLine
   6
BYBLOCK
  62
0
  10
-0.50000000000000
  20
0.0
  30
0.0
  11
-1.0000000000000
  21
0.0
  31
0.0
   0
ENDBLK
   5
77
 100
AcDbEntity
   8
0
 100
AcDbBlockEnd
   0
BLOCK
   5
78
 100
AcDbEntity
   8
0
 100
AcDbBlockBegin
   2
_CLOSED
  70
0
  10
0.0
  20
0.0
  30
0.0
   3
_CLOSED
   0
LINE
   5
79
 100
AcDbEntity
   8
0
 100
AcDbLine
   6
BYBLOCK
  62
0
  10
-1.0000000000000
  20
 0.16666666666667
  30
0.0
  11
0.0
  21
0.0
  31
0.0
   0
LINE
   5
7A
 100
AcDbEntity
   8
0
 100
AcDbLine
   6
BYBLOCK
  62
0
  10
0.0
  20
0.0
  30
0.0
  11
-1.0000000000000
  21
-0.16666666666667
  31
0.0
   0
LINE
   5
7B
 100
AcDbEntity
   8
0
 100
AcDbLine
   6
BYBLOCK
  62
0
  10
-1.0000000000000
  20
 0.16666666666667
  30
0.0
  11
-1.0000000000000
  21
-0.16666666666667
  31
0.0
   0
LINE
   5
7C
 100
AcDbEntity
   8
0
 100
AcDbLine
   6
BYBLOCK
  62
0
  10
0.0
  20
0.0
  30
0.0
  11
-1.0000000000000
  21
0.0
  31
0.0
   0
ENDBLK
   5
7D
 100
AcDbEntity
   8
0
 100
AcDbBlockEnd
   0
BLOCK
   5
7E
 100
AcDbEntity
   8
0
 100
AcDbBlockBegin
   2
_OPEN
  70
0
  10
0.0
  20
0.0
  30
0.0
   3
_OPEN
   0
LINE
   5
7F
 100
AcDbEntity
   8
0
 100
AcDbLine
   6
BYBLOCK
  62
0
  10
-1.0000000000000
  20
 0.16666666666667
  30
0.0
  11
0.0
  21
0.0
  31
0.0
   0
LINE
   5
80
 100
AcDbEntity
   8
0
 100
AcDbLine
   6
BYBLOCK
  62
0
  10
0.0
  20
0.0
  30
0.0
  11
-1.0000000000000
  21
-0.16666666666667
  31
0.0
   0
LINE
   5
81
 100
AcDbEntity
   8
0
 100
AcDbLine
   6
BYBLOCK
  62
0
  10
0.0
  20
0.0
  30
0.0
  11
-1.0000000000000
  21
0.0
  31
0.0
   0
ENDBLK
   5
82
 100
AcDbEntity
   8
0
 100
AcDbBlockEnd
   0
BLOCK
   5
83
 100
AcDbEntity
   8
0
 100
AcDbBlockBegin
   2
_OPEN30
  70
0
  10
0.0
  20
0.0
  30
0.0
   3
_OPEN30
   0
LINE
   5
84
 100
AcDbEntity
   8
0
 100
AcDbLine
   6
BYBLOCK
  62
0
  10
-1.0000000000000
  20
 0.26794919243110
  30
0.0
  11
0.0
  21
0.0
  31
0.0
   0
LINE
   5
85
 100
AcDbEntity
   8
0
 100
AcDbLine
   6
BYBLOCK
  62
0
  10
0.0
  20
0.0
  30
0.0
  11
-1.0000000000000
  21
-0.26794919243110
  31
0.0
   0
LINE
   5
86
 100
AcDbEntity
   8
0
 100
AcDbLine
   6
BYBLOCK
  62
0
  10
0.0
  20
0.0
  30
0.0
  11
-1.0000000000000
  21
0.0
  31
0.0
   0
ENDBLK
   5
87
 100
AcDbEntity
   8
0
 100
AcDbBlockEnd
   0
BLOCK
   5
88
 100
AcDbEntity
   8
0
 100
AcDbBlockBegin
   2
_OPEN90
  70
0
  10
0.0
  20
0.0
  30
0.0
   3
_OPEN90
   0
LINE
   5
89
 100
AcDbEntity
   8
0
 100
AcDbLine
   6
BYBLOCK
  62
0
  10
-0.50000000000000
  20
 0.50000000000000
  30
0.0
  11
0.0
  21
0.0
  31
0.0
   0
LINE
   5
8A
 100
AcDbEntity
   8
0
 100
AcDbLine
   6
BYBLOCK
  62
0
  10
0.0
  20
0.0
  30
0.0
  11
-0.50000000000000
  21
-0.50000000000000
  31
0.0
   0
LINE
   5
8B
 100
AcDbEntity
   8
0
 100
AcDbLine
   6
BYBLOCK
  62
0
  10
0.0
  20
0.0
  30
0.0
  11
-1.0000000000000
  21
0.0
  31
0.0
   0
ENDBLK
   5
8C
 100
AcDbEntity
   8
0
 100
AcDbBlockEnd
   0
BLOCK
   5
8D
 100
AcDbEntity
   8
0
 100
AcDbBlockBegin
   2
_CLOSEDBLANK
  70
0
  10
0.0
  20
0.0
  30
0.0
   3
_CLOSEDBLANK
   0
LINE
   5
8E
 100
AcDbEntity
   8
0
 100
AcDbLine
   6
BYBLOCK
  62
0
  10
-1.0000000000000
  20
 0.16666666666667
  30
0.0
  11
0.0
  21
0.0
  31
0.0
   0
LINE
   5
8F
 100
AcDbEntity
   8
0
 100
AcDbLine
   6
BYBLOCK
  62
0
  10
0.0
  20
0.0
  30
0.0
  11
-1.0000000000000
  21
-0.16666666666667
  31
0.0
   0
LINE
   5
90
 100
AcDbEntity
   8
0
 100
AcDbLine
   6
BYBLOCK
  62
0
  10
-1.0000000000000
  20
 0.16666666666667
  30
0.0
  11
-1.0000000000000
  21
-0.16666666666667
  31
0.0
   0
ENDBLK
   5
91
 100
AcDbEntity
   8
0
 100
AcDbBlockEnd
   0
BLOCK
   5
92
 100
AcDbEntity
   8
0
 100
AcDbBlockBegin
   2
_DOT
  70
0
  10
0.0
  20
0.0
  30
0.0
   3
_DOT
   0
POLYLINE
   5
93
 100
AcDbEntity
   8
0
   6
BYBLOCK
  62
0
 100
AcDb2dPolyline
  66
1
  10
0.0
  20
0.0
  30
0.0
  70
1
  40
 0.50000000000000
  41
 0.50000000000000
   0
VERTEX
   5
94
 100
AcDbEntity
   8
0
   6
BYBLOCK
  62
0
 100
AcDbVertex
 100
AcDb2dVertex
  10
-0.25000000000000
  20
0.0
  30
0.0
  42
 1.0000000000000
  40
 0.50000000000000
  41
 0.50000000000000
   0
VERTEX
   5
95
 100
AcDbEntity
   8
0
   6
BYBLOCK
  62
0
 100
AcDbVertex
 100
AcDb2dVertex
  10
 0.25000000000000
  20
0.0
  30
0.0
  42
 1.0000000000000
  40
 0.50000000000000
  41
 0.50000000000000
   0
SEQEND
   5
96
 100
AcDbEntity
   8
0
   6
BYBLOCK
  62
0
   0
LINE
   5
97
 100
AcDbEntity
   8
0
 100
AcDbLine
   6
BYBLOCK
  62
0
  10
-0.50000000000000
  20
0.0
  30
0.0
  11
-1.0000000000000
  21
0.0
  31
0.0
   0
ENDBLK
   5
98
 100
AcDbEntity
   8
0
 100
AcDbBlockEnd
   0
BLOCK
   5
99
 100
AcDbEntity
   8
0
 100
AcDbBlockBegin
   2
_DOTSMALL
  70
0
  10
0.0
  20
0.0
  30
0.0
   3
_DOTSMALL
   0
POLYLINE
   5
9A
 100
AcDbEntity
   8
0
   6
BYBLOCK
  62
0
 100
AcDb2dPolyline
  66
1
  10
0.0
  20
0.0
  30
0.0
  70
1
  40
 0.50000000000000
  41
 0.50000000000000
   0
VERTEX
   5
9B
 100
AcDbEntity
   8
0
   6
BYBLOCK
  62
0
 100
AcDbVertex
 100
AcDb2dVertex
  10
-0.62500000000000E-1
  20
0.0
  30
0.0
  42
 1.0000000000000
  40
 0.50000000000000
  41
 0.50000000000000
   0
VERTEX
   5
9C
 100
AcDbEntity
   8
0
   6
BYBLOCK
  62
0
 100
AcDbVertex
 100
AcDb2dVertex
  10
 0.62500000000000E-1
  20
0.0
  30
0.0
  42
 1.0000000000000
  40
 0.50000000000000
  41
 0.50000000000000
   0
SEQEND
   5
9D
 100
AcDbEntity
   8
0
   6
BYBLOCK
  62
0
   0
ENDBLK
   5
9E
 100
AcDbEntity
   8
0
 100
AcDbBlockEnd
   0
BLOCK
   5
9F
 100
AcDbEntity
   8
0
 100
AcDbBlockBegin
   2
_DATUMBLANK
  70
0
  10
0.0
  20
0.0
  30
0.0
   3
_DATUMBLANK
   0
LINE
   5
A0
 100
AcDbEntity
   8
0
 100
AcDbLine
   6
BYBLOCK
  62
0
  10
0.0
  20
 0.57735027000000
  30
0.0
  11
-1.0000000000000
  21
0.0
  31
0.0
   0
LINE
   5
A1
 100
AcDbEntity
   8
0
 100
AcDbLine
   6
BYBLOCK
  62
0
  10
-1.0000000000000
  20
0.0
  30
0.0
  11
0.0
  21
-0.57735027000000
  31
0.0
   0
LINE
   5
A2
 100
AcDbEntity
   8
0
 100
AcDbLine
   6
BYBLOCK
  62
0
  10
0.0
  20
-0.57735027000000
  30
0.0
  11
0.0
  21
 0.57735027000000
  31
0.0
   0
ENDBLK
   5
A3
 100
AcDbEntity
   8
0
 100
AcDbBlockEnd
   0
BLOCK
   5
A4
 100
AcDbEntity
   8
0
 100
AcDbBlockBegin
   2
_DATUMFILLED
  70
0
  10
0.0
  20
0.0
  30
0.0
   3
_DATUMFILLED
   0
SOLID
   5
A5
 100
AcDbEntity
   8
0
 100
AcDbTrace
   6
BYBLOCK
  62
0
  10
0.0
  20
 0.57735027000000
  30
0.0
  11
-1.0000000000000
  21
0.0
  31
0.0
  12
0.0
  22
-0.57735027000000
  32
0.0
  13
0.0
  23
-0.57735027000000
  33
0.0
   0
ENDBLK
   5
A6
 100
AcDbEntity
   8
0
 100
AcDbBlockEnd
   0
BLOCK
   5
A7
 100
AcDbEntity
   8
0
 100
AcDbBlockBegin
   2
_ORIGIN
  70
0
  10
0.0
  20
0.0
  30
0.0
   3
_ORIGIN
   0
CIRCLE
   5
A8
 100
AcDbEntity
   8
0
 100
AcDbCircle
   6
BYBLOCK
  62
0
  10
0.0
  20
0.0
  30
0.0
  40
 0.50000000000000
   0
LINE
   5
A9
 100
AcDbEntity
   8
0
 100
AcDbLine
   6
BYBLOCK
  62
0
  10
0.0
  20
0.0
  30
0.0
  11
-1.0000000000000
  21
0.0
  31
0.0
   0
ENDBLK
   5
AA
 100
AcDbEntity
   8
0
 100
AcDbBlockEnd
   0
BLOCK
   5
AB
 100
AcDbEntity
   8
0
 100
AcDbBlockBegin
   2
_NONE
  70
0
  10
0.0
  20
0.0
  30
0.0
   3
_NONE
   0
CIRCLE
   5
AC
 100
AcDbEntity
   8
0
 100
AcDbCircle
   6
BYBLOCK
  62
0
  10
0.0
  20
0.0
  30
0.0
  40
 0.25000000000000
   0
ENDBLK
   5
AD
 100
AcDbEntity
   8
0
 100
AcDbBlockEnd
   0
BLOCK
   5
AE
 100
AcDbEntity
   8
0
 100
AcDbBlockBegin
   2
_DOTBLANK
  70
0
  10
0.0
  20
0.0
  30
0.0
   3
_DOTBLANK
   0
CIRCLE
   5
AF
 100
AcDbEntity
   8
0
 100
AcDbCircle
   6
BYBLOCK
  62
0
  10
0.0
  20
0.0
  30
0.0
  40
 0.50000000000000
   0
LINE
   5
B0
 100
AcDbEntity
   8
0
 100
AcDbLine
   6
BYBLOCK
  62
0
  10
-0.50000000000000
  20
0.0
  30
0.0
  11
-1.0000000000000
  21
0.0
  31
0.0
   0
ENDBLK
   5
B1
 100
AcDbEntity
   8
0
 100
AcDbBlockEnd
   0
BLOCK
   5
B2
 100
AcDbEntity
   8
0
 100
AcDbBlockBegin
   2
_INTEGRAL
  70
0
  10
0.0
  20
0.0
  30
0.0
   3
_INTEGRAL
   0
ARC
   5
B3
 100
AcDbEntity
   8
0
   6
BYBLOCK
  62
0
 100
AcDbCircle
  10
 0.44488800000000
  20
-0.91335000000000E-1
  30
0.0
  40
 0.45416700000000
 100
AcDbArc
  50
 102.00000000000
  51
 168.00000000000
   0
ARC
   5
B4
 100
AcDbEntity
   8
0
   6
BYBLOCK
  62
0
 100
AcDbCircle
  10
-0.44488800000000
  20
 0.91335000000000E-1
  30
0.0
  40
 0.45416700000000
 100
AcDbArc
  50
 282.00000000000
  51
 348.00000000000
   0
ENDBLK
   5
B5
 100
AcDbEntity
   8
0
 100
AcDbBlockEnd
   0
BLOCK
   5
B6
 100
AcDbEntity
   8
0
 100
AcDbBlockBegin
   2
*D1
  70
65
  10
0.0
  20
0.0
  30
0.0
   3
*D1
   0
LINE
   5
B7
 100
AcDbEntity
   8
LEVEL003
 100
AcDbLine
   6
CONTINUOUS
  62
3
  10
 1060.0000098348
  20
 622.50002597272
  30
0.0
  11
 1060.0000098348
  21
 747.27502597272
  31
0.0
   0
LINE
   5
B8
 100
AcDbEntity
   8
LEVEL003
 100
AcDbLine
   6
CONTINUOUS
  62
3
  10
 1060.0000098348
  20
 937.50002597272
  30
0.0
  11
 1060.0000098348
  21
 812.72502597272
  31
0.0
   0
INSERT
   5
B9
 100
AcDbEntity
   8
LEVEL003
   6
CONTINUOUS
  62
3
 100
AcDbBlockReference
   2
_OPEN
  10
 1060.0000098348
  20
 622.50002597272
  30
0.0
  41
 12.000000000000
  42
 12.000000000000
  43
 12.000000000000
  50
 270.00000000000
   0
INSERT
   5
BA
 100
AcDbEntity
   8
LEVEL003
   6
CONTINUOUS
  62
3
 100
AcDbBlockReference
   2
_OPEN
  10
 1060.0000098348
  20
 937.50002597272
  30
0.0
  41
 12.000000000000
  42
 12.000000000000
  43
 12.000000000000
  50
 90.000000000000
   0
MTEXT
   5
BB
 100
AcDbEntity
   8
LEVEL003
  62
3
 100
AcDbMText
  10
 1056.7999977231
  20
 780.00002597272
  30
0.0
  40
 16.000000000000
  41
0.0
  71
8
  72
1
   1
\A1;%%c315
   7
GMM001
  11
0.0
  21
 1.0000000000000
  31
0.0
   0
ENDBLK
   5
BC
 100
AcDbEntity
   8
0
 100
AcDbBlockEnd
   0
BLOCK
   5
BD
 100
AcDbEntity
   8
0
 100
AcDbBlockBegin
   2
*D2
  70
65
  10
0.0
  20
0.0
  30
0.0
   3
*D2
   0
LINE
   5
BE
 100
AcDbEntity
   8
LEVEL003
 100
AcDbLine
   6
CONTINUOUS
  62
3
  10
 1000.0000295043
  20
 695.00004908442
  30
0.0
  11
 1000.0000295043
  21
 748.67501564622
  31
0.0
   0
LINE
   5
BF
 100
AcDbEntity
   8
LEVEL003
 100
AcDbLine
   6
CONTINUOUS
  62
3
  10
 1000.0000295043
  20
 864.99998220801
  30
0.0
  11
 1000.0000295043
  21
 811.32501564622
  31
0.0
   0
INSERT
   5
C0
 100
AcDbEntity
   8
LEVEL003
   6
CONTINUOUS
  62
3
 100
AcDbBlockReference
   2
_OPEN
  10
 1000.0000295043
  20
 695.00004908442
  30
0.0
  41
 12.000000000000
  42
 12.000000000000
  43
 12.000000000000
  50
 270.00000000000
   0
INSERT
   5
C1
 100
AcDbEntity
   8
LEVEL003
   6
CONTINUOUS
  62
3
 100
AcDbBlockReference
   2
_OPEN
  10
 1000.0000295043
  20
 864.99998220801
  30
0.0
  41
 12.000000000000
  42
 12.000000000000
  43
 12.000000000000
  50
 90.000000000000
   0
MTEXT
   5
C2
 100
AcDbEntity
   8
LEVEL003
  62
3
 100
AcDbMText
  10
 996.80002950430
  20
 780.00001564622
  30
0.0
  40
 16.000000000000
  41
0.0
  71
8
  72
1
   1
\A1;%%c170
   7
GMM001
  11
0.0
  21
 1.0000000000000
  31
0.0
   0
ENDBLK
   5
C3
 100
AcDbEntity
   8
0
 100
AcDbBlockEnd
   0
BLOCK
   5
C4
 100
AcDbEntity
   8
0
 100
AcDbBlockBegin
   2
*D3
  70
65
  10
0.0
  20
0.0
  30
0.0
   3
*D3
   0
LINE
   5
C5
 100
AcDbEntity
   8
LEVEL003
 100
AcDbLine
   6
CONTINUOUS
  62
3
  10
 1030.0000295043
  20
 897.50001175702
  30
0.0
  11
 1030.0000295043
  21
 815.35001564622
  31
0.0
   0
LINE
   5
C6
 100
AcDbEntity
   8
LEVEL003
 100
AcDbLine
   6
CONTINUOUS
  62
3
  10
 1030.0000295043
  20
 662.50001953542
  30
0.0
  11
 1030.0000295043
  21
 744.65001564622
  31
0.0
   0
INSERT
   5
C7
 100
AcDbEntity
   8
LEVEL003
   6
CONTINUOUS
  62
3
 100
AcDbBlockReference
   2
_OPEN
  10
 1030.0000295043
  20
 897.50001175702
  30
0.0
  41
 12.000000000000
  42
 12.000000000000
  43
 12.000000000000
  50
 90.000000000000
   0
INSERT
   5
C8
 100
AcDbEntity
   8
LEVEL003
   6
CONTINUOUS
  62
3
 100
AcDbBlockReference
   2
_OPEN
  10
 1030.0000295043
  20
 662.50001953542
  30
0.0
  41
 12.000000000000
  42
 12.000000000000
  43
 12.000000000000
  50
 270.00000000000
   0
MTEXT
   5
C9
 100
AcDbEntity
   8
LEVEL003
  62
3
 100
AcDbMText
  10
 1026.8000295043
  20
 780.00001564622
  30
0.0
  40
 16.000000000000
  41
0.0
  71
8
  72
1
   1
\A1;%%c235
   7
GMM001
  11
0.0
  21
 1.0000000000000
  31
0.0
   0
ENDBLK
   5
CA
 100
AcDbEntity
   8
0
 100
AcDbBlockEnd
   0
BLOCK
   5
CB
 100
AcDbEntity
   8
0
 100
AcDbBlockBegin
   2
*D4
  70
65
  10
0.0
  20
0.0
  30
0.0
   3
*D4
   0
LINE
   5
CC
 100
AcDbEntity
   8
LEVEL003
 100
AcDbLine
   6
CONTINUOUS
  62
3
  10
 595.00002369285
  20
 622.00004112720
  30
0.0
  11
 595.00002369285
  21
 572.00002086163
  31
0.0
   0
LINE
   5
CD
 100
AcDbEntity
   8
LEVEL003
 100
AcDbLine
   6
CONTINUOUS
  62
3
  10
 700.00002056360
  20
 618.00000531971
  30
0.0
  11
 700.00002056360
  21
 572.00002086163
  31
0.0
   0
LINE
   5
CE
 100
AcDbEntity
   8
LEVEL003
 100
AcDbLine
   6
CONTINUOUS
  62
3
  10
 595.00002369285
  20
 580.00002086163
  30
0.0
  11
 627.37502212822
  21
 580.00002086163
  31
0.0
   0
LINE
   5
CF
 100
AcDbEntity
   8
LEVEL003
 100
AcDbLine
   6
CONTINUOUS
  62
3
  10
 700.00002056360
  20
 580.00002086163
  30
0.0
  11
 667.62502212822
  21
 580.00002086163
  31
0.0
   0
INSERT
   5
D0
 100
AcDbEntity
   8
LEVEL003
   6
CONTINUOUS
  62
3
 100
AcDbBlockReference
   2
_OPEN
  10
 595.00002369285
  20
 580.00002086163
  30
0.0
  41
 12.000000000000
  42
 12.000000000000
  43
 12.000000000000
  50
 180.00000000000
   0
INSERT
   5
D1
 100
AcDbEntity
   8
LEVEL003
   6
CONTINUOUS
  62
3
 100
AcDbBlockReference
   2
_OPEN
  10
 700.00002056360
  20
 580.00002086163
  30
0.0
  41
 12.000000000000
  42
 12.000000000000
  43
 12.000000000000
  50
0.0
   0
MTEXT
   5
D2
 100
AcDbEntity
   8
LEVEL003
  62
3
 100
AcDbMText
  10
 647.50002212822
  20
 583.20003297329
  30
0.0
  40
 16.000000000000
  41
0.0
  71
8
  72
1
   1
\A1;105
   7
GMM001
   0
ENDBLK
   5
D3
 100
AcDbEntity
   8
0
 100
AcDbBlockEnd
   0
BLOCK
   5
D4
 100
AcDbEntity
   8
0
 100
AcDbBlockBegin
   2
*D5
  70
65
  10
0.0
  20
0.0
  30
0.0
   3
*D5
   0
LINE
   5
D5
 100
AcDbEntity
   8
LEVEL003
 100
AcDbLine
   6
CONTINUOUS
  62
3
  10
 480.00004237890
  20
 685.50003321469
  30
0.0
  11
 480.00004237890
  21
 572.00002086163
  31
0.0
   0
LINE
   5
D6
 100
AcDbEntity
   8
LEVEL003
 100
AcDbLine
   6
CONTINUOUS
  62
3
  10
 480.00004237890
  20
 580.00002086163
  30
0.0
  11
 480.30004193187
  21
 580.00002086163
  31
0.0
   0
LINE
   5
D7
 100
AcDbEntity
   8
LEVEL003
 100
AcDbLine
   6
CONTINUOUS
  62
3
  10
 510.00004148483
  20
 580.00002086163
  30
0.0
  11
 509.70004193187
  21
 580.00002086163
  31
0.0
   0
INSERT
   5
D8
 100
AcDbEntity
   8
LEVEL003
   6
CONTINUOUS
  62
3
 100
AcDbBlockReference
   2
_OPEN
  10
 480.00004237890
  20
 580.00002086163
  30
0.0
  41
 12.000000000000
  42
 12.000000000000
  43
 12.000000000000
  50
 180.00000000000
   0
INSERT
   5
D9
 100
AcDbEntity
   8
LEVEL003
   6
CONTINUOUS
  62
3
 100
AcDbBlockReference
   2
_OPEN
  10
 510.00004148483
  20
 580.00002086163
  30
0.0
  41
 12.000000000000
  42
 12.000000000000
  43
 12.000000000000
  50
0.0
   0
MTEXT
   5
DA
 100
AcDbEntity
   8
LEVEL003
  62
3
 100
AcDbMText
  10
 495.00004193187
  20
 583.20003297329
  30
0.0
  40
 16.000000000000
  41
0.0
  71
8
  72
1
   1
\A1;30
   7
GMM001
   0
ENDBLK
   5
DB
 100
AcDbEntity
   8
0
 100
AcDbBlockEnd
   0
BLOCK
   5
DC
 100
AcDbEntity
   8
0
 100
AcDbBlockBegin
   2
*D6
  70
65
  10
0.0
  20
0.0
  30
0.0
   3
*D6
   0
LINE
   5
DD
 100
AcDbEntity
   8
LEVEL003
 100
AcDbLine
   6
CONTINUOUS
  62
3
  10
 510.00004148483
  20
 703.00004872680
  30
0.0
  11
 510.00004148483
  21
 572.00002086163
  31
0.0
   0
LINE
   5
DE
 100
AcDbEntity
   8
LEVEL003
 100
AcDbLine
   6
CONTINUOUS
  62
3
  10
 590.00005435943
  20
 692.50001774728
  30
0.0
  11
 590.00005435943
  21
 572.00002086163
  31
0.0
   0
LINE
   5
DF
 100
AcDbEntity
   8
LEVEL003
 100
AcDbLine
   6
CONTINUOUS
  62
3
  10
 510.00004148483
  20
 580.00002086163
  30
0.0
  11
 535.30004792213
  21
 580.00002086163
  31
0.0
   0
LINE
   5
E0
 100
AcDbEntity
   8
LEVEL003
 100
AcDbLine
   6
CONTINUOUS
  62
3
  10
 590.00005435943
  20
 580.00002086163
  30
0.0
  11
 564.70004792213
  21
 580.00002086163
  31
0.0
   0
INSERT
   5
E1
 100
AcDbEntity
   8
LEVEL003
   6
CONTINUOUS
  62
3
 100
AcDbBlockReference
   2
_OPEN
  10
 510.00004148483
  20
 580.00002086163
  30
0.0
  41
 12.000000000000
  42
 12.000000000000
  43
 12.000000000000
  50
 180.00000000000
   0
INSERT
   5
E2
 100
AcDbEntity
   8
LEVEL003
   6
CONTINUOUS
  62
3
 100
AcDbBlockReference
   2
_OPEN
  10
 590.00005435943
  20
 580.00002086163
  30
0.0
  41
 12.000000000000
  42
 12.000000000000
  43
 12.000000000000
  50
0.0
   0
MTEXT
   5
E3
 100
AcDbEntity
   8
LEVEL003
  62
3
 100
AcDbMText
  10
 550.00004792213
  20
 583.20003297329
  30
0.0
  40
 16.000000000000
  41
0.0
  71
8
  72
1
   1
\A1;80
   7
GMM001
   0
ENDBLK
   5
E4
 100
AcDbEntity
   8
0
 100
AcDbBlockEnd
   0
BLOCK
   5
E5
 100
AcDbEntity
   8
0
 100
AcDbBlockBegin
   2
*D7
  70
65
  10
0.0
  20
0.0
  30
0.0
   3
*D7
   0
LINE
   5
E6
 100
AcDbEntity
   8
LEVEL003
 100
AcDbLine
   6
CONTINUOUS
  62
3
  10
 480.00004237890
  20
 685.50003321469
  30
0.0
  11
 480.00004237890
  21
 532.00002086163
  31
0.0
   0
LINE
   5
E7
 100
AcDbEntity
   8
LEVEL003
 100
AcDbLine
   6
CONTINUOUS
  62
3
  10
 700.00002056360
  20
 618.00000531971
  30
0.0
  11
 700.00002056360
  21
 532.00002086163
  31
0.0
   0
LINE
   5
E8
 100
AcDbEntity
   8
LEVEL003
 100
AcDbLine
   6
CONTINUOUS
  62
3
  10
 480.00004237890
  20
 540.00002086163
  30
0.0
  11
 567.25003147125
  21
 540.00002086163
  31
0.0
   0
LINE
   5
E9
 100
AcDbEntity
   8
LEVEL003
 100
AcDbLine
   6
CONTINUOUS
  62
3
  10
 700.00002056360
  20
 540.00002086163
  30
0.0
  11
 612.75003147125
  21
 540.00002086163
  31
0.0
   0
INSERT
   5
EA
 100
AcDbEntity
   8
LEVEL003
   6
CONTINUOUS
  62
3
 100
AcDbBlockReference
   2
_OPEN
  10
 480.00004237890
  20
 540.00002086163
  30
0.0
  41
 12.000000000000
  42
 12.000000000000
  43
 12.000000000000
  50
 180.00000000000
   0
INSERT
   5
EB
 100
AcDbEntity
   8
LEVEL003
   6
CONTINUOUS
  62
3
 100
AcDbBlockReference
   2
_OPEN
  10
 700.00002056360
  20
 540.00002086163
  30
0.0
  41
 12.000000000000
  42
 12.000000000000
  43
 12.000000000000
  50
0.0
   0
MTEXT
   5
EC
 100
AcDbEntity
   8
LEVEL003
  62
3
 100
AcDbMText
  10
 590.00003147125
  20
 543.20003297329
  30
0.0
  40
 16.000000000000
  41
0.0
  71
8
  72
1
   1
\A1;220
   7
GMM001
   0
ENDBLK
   5
ED
 100
AcDbEntity
   8
0
 100
AcDbBlockEnd
   0
BLOCK
   5
EE
 100
AcDbEntity
   8
0
 100
AcDbBlockBegin
   2
*D10
  70
65
  10
0.0
  20
0.0
  30
0.0
   3
*D10
   0
LINE
   5
EF
 100
AcDbEntity
   8
LEVEL003
 100
AcDbLine
   6
CONTINUOUS
  62
3
  10
 478.00005757809
  20
 872.49998198450
  30
0.0
  11
 412.00000000000
  21
 872.49998198450
  31
0.0
   0
LINE
   5
F0
 100
AcDbEntity
   8
LEVEL003
 100
AcDbLine
   6
CONTINUOUS
  62
3
  10
 478.00005757809
  20
 687.50001801550
  30
0.0
  11
 412.00000000000
  21
 687.50001801550
  31
0.0
   0
LINE
   5
F1
 100
AcDbEntity
   8
LEVEL003
 100
AcDbLine
   6
CONTINUOUS
  62
3
  10
 420.00000000000
  20
 872.49998198450
  30
0.0
  11
 420.00000000000
  21
 812.72500000000
  31
0.0
   0
LINE
   5
F2
 100
AcDbEntity
   8
LEVEL003
 100
AcDbLine
   6
CONTINUOUS
  62
3
  10
 420.00000000000
  20
 687.50001801550
  30
0.0
  11
 420.00000000000
  21
 747.27500000000
  31
0.0
   0
INSERT
   5
F3
 100
AcDbEntity
   8
LEVEL003
   6
CONTINUOUS
  62
3
 100
AcDbBlockReference
   2
_OPEN
  10
 420.00000000000
  20
 872.49998198450
  30
0.0
  41
 12.000000000000
  42
 12.000000000000
  43
 12.000000000000
  50
 90.000000000000
   0
INSERT
   5
F4
 100
AcDbEntity
   8
LEVEL003
   6
CONTINUOUS
  62
3
 100
AcDbBlockReference
   2
_OPEN
  10
 420.00000000000
  20
 687.50001801550
  30
0.0
  41
 12.000000000000
  42
 12.000000000000
  43
 12.000000000000
  50
 270.00000000000
   0
MTEXT
   5
F5
 100
AcDbEntity
   8
LEVEL003
  62
3
 100
AcDbMText
  10
 416.80000314713
  20
 780.00000000000
  30
0.0
  40
 16.000000000000
  41
0.0
  71
8
  72
1
   1
\A1;%%c185
   7
GMM001
  11
0.0
  21
 1.0000000000000
  31
0.0
   0
ENDBLK
   5
F6
 100
AcDbEntity
   8
0
 100
AcDbBlockEnd
   0
BLOCK
   5
F7
 100
AcDbEntity
   8
0
 100
AcDbBlockBegin
   2
*D11
  70
65
  10
0.0
  20
0.0
  30
0.0
   3
*D11
   0
LINE
   5
F8
 100
AcDbEntity
   8
LEVEL003
 100
AcDbLine
   6
CONTINUOUS
  62
3
  10
 1500.0000000000
  20
 936.50001103779
  30
0.0
  11
 1500.0000000000
  21
 1048.0000704011
  31
0.0
   0
LINE
   5
F9
 100
AcDbEntity
   8
LEVEL003
 100
AcDbLine
   6
CONTINUOUS
  62
3
  10
 1500.0000000000
  20
 1040.0000704011
  30
0.0
  11
 1461.4000059622
  21
 1040.0000704011
  31
0.0
   0
LINE
   5
FA
 100
AcDbEntity
   8
LEVEL003
 100
AcDbLine
   6
CONTINUOUS
  62
3
  10
 1385.0000000000
  20
 1040.0000704011
  30
0.0
  11
 1423.6000059622
  21
 1040.0000704011
  31
0.0
   0
INSERT
   5
FB
 100
AcDbEntity
   8
LEVEL003
   6
CONTINUOUS
  62
3
 100
AcDbBlockReference
   2
_OPEN
  10
 1500.0000000000
  20
 1040.0000704011
  30
0.0
  41
 12.000000000000
  42
 12.000000000000
  43
 12.000000000000
  50
0.0
   0
INSERT
   5
FC
 100
AcDbEntity
   8
LEVEL003
   6
CONTINUOUS
  62
3
 100
AcDbBlockReference
   2
_OPEN
  10
 1385.0000000000
  20
 1040.0000704011
  30
0.0
  41
 12.000000000000
  42
 12.000000000000
  43
 12.000000000000
  50
 180.00000000000
   0
MTEXT
   5
FD
 100
AcDbEntity
   8
LEVEL003
  62
3
 100
AcDbMText
  10
 1442.5000059622
  20
 1043.2000214776
  30
0.0
  40
 16.000000000000
  41
0.0
  71
8
  72
1
   1
\A1;115
   7
GMM001
   0
ENDBLK
   5
FE
 100
AcDbEntity
   8
0
 100
AcDbBlockEnd
   0
BLOCK
   5
FF
 100
AcDbEntity
   8
0
 100
AcDbBlockBegin
   2
*D12
  70
65
  10
0.0
  20
0.0
  30
0.0
   3
*D12
   0
LINE
   5
100
 100
AcDbEntity
   8
LEVEL003
 100
AcDbLine
   6
CONTINUOUS
  62
3
  10
 1385.0000000000
  20
 1021.4999930710
  30
0.0
  11
 1385.0000000000
  21
 1048.0000603475
  31
0.0
   0
LINE
   5
101
 100
AcDbEntity
   8
LEVEL003
 100
AcDbLine
   6
CONTINUOUS
  62
3
  10
 755.00000366569
  20
 1021.4999930710
  30
0.0
  11
 755.00000366569
  21
 1048.0000603475
  31
0.0
   0
LINE
   5
102
 100
AcDbEntity
   8
LEVEL003
 100
AcDbLine
   6
CONTINUOUS
  62
3
  10
 1385.0000000000
  20
 1040.0000603475
  30
0.0
  11
 1092.7499813717
  21
 1040.0000603475
  31
0.0
   0
LINE
   5
103
 100
AcDbEntity
   8
LEVEL003
 100
AcDbLine
   6
CONTINUOUS
  62
3
  10
 755.00000366569
  20
 1040.0000603475
  30
0.0
  11
 1047.2499813717
  21
 1040.0000603475
  31
0.0
   0
INSERT
   5
104
 100
AcDbEntity
   8
LEVEL003
   6
CONTINUOUS
  62
3
 100
AcDbBlockReference
   2
_OPEN
  10
 1385.0000000000
  20
 1040.0000603475
  30
0.0
  41
 12.000000000000
  42
 12.000000000000
  43
 12.000000000000
  50
0.0
   0
INSERT
   5
105
 100
AcDbEntity
   8
LEVEL003
   6
CONTINUOUS
  62
3
 100
AcDbBlockReference
   2
_OPEN
  10
 755.00000366569
  20
 1040.0000603475
  30
0.0
  41
 12.000000000000
  42
 12.000000000000
  43
 12.000000000000
  50
 180.00000000000
   0
MTEXT
   5
106
 100
AcDbEntity
   8
LEVEL003
  62
3
 100
AcDbMText
  10
 1069.9999813717
  20
 1043.2000114240
  30
0.0
  40
 16.000000000000
  41
0.0
  71
8
  72
1
   1
\A1;630
   7
GMM001
   0
ENDBLK
   5
107
 100
AcDbEntity
   8
0
 100
AcDbBlockEnd
   0
BLOCK
   5
108
 100
AcDbEntity
   8
0
 100
AcDbBlockBegin
   2
*D13
  70
65
  10
0.0
  20
0.0
  30
0.0
   3
*D13
   0
LINE
   5
109
 100
AcDbEntity
   8
LEVEL003
 100
AcDbLine
   6
CONTINUOUS
  62
3
  10
 480.00004237890
  20
 685.50003321469
  30
0.0
  11
 480.00004237890
  21
 512.00002086163
  31
0.0
   0
LINE
   5
10A
 100
AcDbEntity
   8
LEVEL003
 100
AcDbLine
   6
CONTINUOUS
  62
3
  10
 1500.0000000000
  20
 623.50004125734
  30
0.0
  11
 1500.0000000000
  21
 512.00002086163
  31
0.0
   0
LINE
   5
10B
 100
AcDbEntity
   8
LEVEL003
 100
AcDbLine
   6
CONTINUOUS
  62
3
  10
 480.00004237890
  20
 520.00002086163
  30
0.0
  11
 963.22504525744
  21
 520.00002086163
  31
0.0
   0
LINE
   5
10C
 100
AcDbEntity
   8
LEVEL003
 100
AcDbLine
   6
CONTINUOUS
  62
3
  10
 1500.0000000000
  20
 520.00002086163
  30
0.0
  11
 1016.7750452574
  21
 520.00002086163
  31
0.0
   0
INSERT
   5
10D
 100
AcDbEntity
   8
LEVEL003
   6
CONTINUOUS
  62
3
 100
AcDbBlockReference
   2
_OPEN
  10
 480.00004237890
  20
 520.00002086163
  30
0.0
  41
 12.000000000000
  42
 12.000000000000
  43
 12.000000000000
  50
 180.00000000000
   0
INSERT
   5
10E
 100
AcDbEntity
   8
LEVEL003
   6
CONTINUOUS
  62
3
 100
AcDbBlockReference
   2
_OPEN
  10
 1500.0000000000
  20
 520.00002086163
  30
0.0
  41
 12.000000000000
  42
 12.000000000000
  43
 12.000000000000
  50
0.0
   0
MTEXT
   5
10F
 100
AcDbEntity
   8
LEVEL003
  62
3
 100
AcDbMText
  10
 990.00004525744
  20
 523.20003297329
  30
0.0
  40
 16.000000000000
  41
0.0
  71
8
  72
1
   1
\A1;1020
   7
GMM001
   0
ENDBLK
   5
110
 100
AcDbEntity
   8
0
 100
AcDbBlockEnd
   0
ENDSEC
   0
SECTION
   2
ENTITIES
   0
LINE
   5
111
 100
AcDbEntity
   8
LEVEL001
 100
AcDbLine
   6
CONTINUOUS
  62
7
  10
 590.00005435943
  20
 863.49998225272
  30
0.0
  11
 595.00002369285
  21
 864.99998220801
  31
0.0
   0
ARC
   5
112
 100
AcDbEntity
   8
LEVEL001
   6
CONTINUOUS
  62
7
 100
AcDbCircle
  10
 586.00005453815
  20
 854.99998256541
  30
0.0
  40
 2.0000000000000
 100
AcDbArc
  50
 179.99956456876
  51
 269.99912403107
   0
ARC
   5
113
 100
AcDbEntity
   8
LEVEL001
   6
CONTINUOUS
  62
7
 100
AcDbCircle
  10
 588.00005435949
  20
 854.99998256561
  30
0.0
  40
 2.0000000000000
 100
AcDbArc
  50
 269.99956457380
  51
 0.43542542592471E-3
   0
LINE
   5
114
 100
AcDbEntity
   8
LEVEL001
 100
AcDbLine
   6
CONTINUOUS
  62
7
  10
 586.00002396107
  20
 852.99998256564
  30
0.0
  11
 588.00003916025
  21
 852.99998256564
  31
0.0
   0
LINE
   5
115
 100
AcDbEntity
   8
LEVEL001
 100
AcDbLine
   6
CONTINUOUS
  62
7
  10
 582.00008511543
  20
 872.49998198450
  30
0.0
  11
 584.00005453825
  21
 870.49996678531
  31
0.0
   0
LINE
   5
116
 100
AcDbEntity
   8
LEVEL001
 100
AcDbLine
   6
CONTINUOUS
  62
7
  10
 480.00004237890
  20
 870.49996678531
  30
0.0
  11
 482.00005757809
  21
 872.49998198450
  31
0.0
   0
LINE
   5
117
 100
AcDbEntity
   8
LEVEL001
 100
AcDbLine
   6
CONTINUOUS
  62
7
  10
 482.00005757809
  20
 872.49998198450
  30
0.0
  11
 582.00008511543
  21
 872.49998198450
  31
0.0
   0
LINE
   5
118
 100
AcDbEntity
   8
LEVEL001
 100
AcDbLine
   6
CONTINUOUS
  62
7
  10
 480.00004237890
  20
 689.50003321469
  30
0.0
  11
 482.00005757809
  21
 687.50001801550
  31
0.0
   0
LINE
   5
119
 100
AcDbEntity
   8
LEVEL001
 100
AcDbLine
   6
CONTINUOUS
  62
7
  10
 582.00008511543
  20
 687.50001801550
  30
0.0
  11
 584.00005453825
  21
 689.50003321469
  31
0.0
   0
LINE
   5
11A
 100
AcDbEntity
   8
LEVEL001
 100
AcDbLine
   6
CONTINUOUS
  62
7
  10
 482.00005757809
  20
 687.50001801550
  30
0.0
  11
 582.00008511543
  21
 687.50001801550
  31
0.0
   0
LINE
   5
11B
 100
AcDbEntity
   8
LEVEL001
 100
AcDbLine
   6
CONTINUOUS
  62
7
  10
 480.00004237890
  20
 689.50003321469
  30
0.0
  11
 480.00004237890
  21
 870.49996678531
  31
0.0
   0
LINE
   5
11C
 100
AcDbEntity
   8
LEVEL001
 100
AcDbLine
   6
DOT
  62
3
  10
 863.00004622340
  20
 770.00001555681
  30
0.0
  11
 864.00003093481
  21
 768.99998506904
  31
0.0
   0
LINE
   5
11D
 100
AcDbEntity
   8
LEVEL001
 100
AcDbLine
   6
DOT
  62
3
  10
 827.00004729628
  20
 790.00001573563
  30
0.0
  11
 826.00006258488
  21
 791.00004622340
  31
0.0
   0
CIRCLE
   5
11E
 100
AcDbEntity
   8
LEVEL001
 100
AcDbCircle
   6
DASHDOT
  62
1
  10
 889.00006070733
  20
 780.00000000000
  30
0.0
  40
 44.000013947486
   0
LINE
   5
11F
 100
AcDbEntity
   8
LEVEL001
 100
AcDbLine
   6
CONTINUOUS
  62
3
  10
 764.47456698195
  20
 942.59072406320
  30
0.0
  11
 745.52539457305
  21
 942.59090716866
  31
0.0
   0
LINE
   5
120
 100
AcDbEntity
   8
LEVEL001
 100
AcDbLine
   6
CONTINUOUS
  62
3
  10
 744.21001070112
  20
 947.50001041591
  30
0.0
  11
 745.52539457305
  21
 942.59090716866
  31
0.0
   0
LINE
   5
121
 100
AcDbEntity
   8
LEVEL001
 100
AcDbLine
   6
CONTINUOUS
  62
3
  10
 765.79004240662
  20
 947.50001041591
  30
0.0
  11
 764.47456698195
  21
 942.59072406320
  31
0.0
   0
LINE
   5
122
 100
AcDbEntity
   8
LEVEL001
 100
AcDbLine
   6
CONTINUOUS
  62
7
  10
 748.46167378242
  20
 951.71001700431
  30
0.0
  11
 748.46167378242
  21
 962.70998615891
  31
0.0
   0
LINE
   5
123
 100
AcDbEntity
   8
LEVEL001
 100
AcDbLine
   6
CONTINUOUS
  62
7
  10
 748.46167378242
  20
 962.70998615891
  30
0.0
  11
 761.53833354895
  21
 962.70998615891
  31
0.0
   0
LINE
   5
124
 100
AcDbEntity
   8
LEVEL001
 100
AcDbLine
   6
CONTINUOUS
  62
7
  10
 761.53833354895
  20
 962.70998615891
  30
0.0
  11
 761.53833354895
  21
 951.71001700431
  31
0.0
   0
LINE
   5
125
 100
AcDbEntity
   8
LEVEL001
 100
AcDbLine
   6
CONTINUOUS
  62
7
  10
 770.00000321865
  20
 951.71001700431
  30
0.0
  11
 761.53833354895
  21
 951.71001700431
  31
0.0
   0
LINE
   5
126
 100
AcDbEntity
   8
LEVEL001
 100
AcDbLine
   6
CONTINUOUS
  62
7
  10
 748.46167378242
  20
 951.71001700431
  30
0.0
  11
 740.00000411272
  21
 951.71001700431
  31
0.0
   0
LINE
   5
127
 100
AcDbEntity
   8
LEVEL001
 100
AcDbLine
   6
CONTINUOUS
  62
7
  10
 761.53833354895
  20
 951.71001700431
  30
0.0
  11
 748.46167378242
  21
 962.70998615891
  31
0.0
   0
LINE
   5
128
 100
AcDbEntity
   8
LEVEL001
 100
AcDbLine
   6
CONTINUOUS
  62
7
  10
 748.46167378242
  20
 951.71001700431
  30
0.0
  11
 761.53833354895
  21
 962.70998615891
  31
0.0
   0
ARC
   5
129
 100
AcDbEntity
   8
LEVEL001
   6
CONTINUOUS
  62
7
 100
AcDbCircle
  10
 755.00000366569
  20
 965.21000799905
  30
0.0
  40
 14.999983817339
 100
AcDbArc
  50
 244.15811595180
  51
 295.84188404818
   0
LINE
   5
12A
 100
AcDbEntity
   8
LEVEL001
 100
AcDbLine
   6
CONTINUOUS
  62
7
  10
 740.00000411272
  20
 967.50002507865
  30
0.0
  11
 740.00000411272
  21
 951.71001700431
  31
0.0
   0
LINE
   5
12B
 100
AcDbEntity
   8
LEVEL001
 100
AcDbLine
   6
CONTINUOUS
  62
7
  10
 740.00000411272
  20
 951.71001700431
  30
0.0
  11
 744.21001070112
  21
 947.50001041591
  31
0.0
   0
LINE
   5
12C
 100
AcDbEntity
   8
LEVEL001
 100
AcDbLine
   6
CONTINUOUS
  62
7
  10
 744.21001070112
  20
 947.50001041591
  30
0.0
  11
 765.78999663025
  21
 947.50001041591
  31
0.0
   0
LINE
   5
12D
 100
AcDbEntity
   8
LEVEL001
 100
AcDbLine
   6
CONTINUOUS
  62
7
  10
 765.78999663025
  20
 947.50001041591
  30
0.0
  11
 770.00000321865
  21
 951.71001700431
  31
0.0
   0
LINE
   5
12E
 100
AcDbEntity
   8
LEVEL001
 100
AcDbLine
   6
CONTINUOUS
  62
7
  10
 770.00000321865
  20
 951.71001700431
  30
0.0
  11
 770.00000321865
  21
 967.50002507865
  31
0.0
   0
LINE
   5
12F
 100
AcDbEntity
   8
LEVEL001
 100
AcDbLine
   6
CONTINUOUS
  62
7
  10
 733.00001958013
  20
 969.49999450147
  30
0.0
  11
 776.99998775125
  21
 969.49999450147
  31
0.0
   0
LINE
   5
130
 100
AcDbEntity
   8
LEVEL001
 100
AcDbLine
   6
CONTINUOUS
  62
7
  10
 776.99998775125
  20
 992.50005485117
  30
0.0
  11
 733.00001958013
  21
 992.50005485117
  31
0.0
   0
LINE
   5
131
 100
AcDbEntity
   8
LEVEL001
 100
AcDbLine
   6
CONTINUOUS
  62
3
  10
 774.50000308454
  20
 969.49999450147
  30
0.0
  11
 774.50000308454
  21
 992.50005485117
  31
0.0
   0
LINE
   5
132
 100
AcDbEntity
   8
LEVEL001
 100
AcDbLine
   6
CONTINUOUS
  62
3
  10
 771.50000317395
  20
 969.49999450147
  30
0.0
  11
 771.50000317395
  21
 992.50005485117
  31
0.0
   0
LINE
   5
133
 100
AcDbEntity
   8
LEVEL001
 100
AcDbLine
   6
CONTINUOUS
  62
3
  10
 768.50000326335
  20
 969.49999450147
  30
0.0
  11
 768.50000326335
  21
 992.50005485117
  31
0.0
   0
LINE
   5
134
 100
AcDbEntity
   8
LEVEL001
 100
AcDbLine
   6
CONTINUOUS
  62
3
  10
 765.50000335276
  20
 969.49999450147
  30
0.0
  11
 765.50000335276
  21
 992.50005485117
  31
0.0
   0
LINE
   5
135
 100
AcDbEntity
   8
LEVEL001
 100
AcDbLine
   6
CONTINUOUS
  62
3
  10
 762.50000344217
  20
 969.49999450147
  30
0.0
  11
 762.50000344217
  21
 992.50005485117
  31
0.0
   0
LINE
   5
136
 100
AcDbEntity
   8
LEVEL001
 100
AcDbLine
   6
CONTINUOUS
  62
3
  10
 759.50000353158
  20
 969.49999450147
  30
0.0
  11
 759.50000353158
  21
 992.50005485117
  31
0.0
   0
LINE
   5
137
 100
AcDbEntity
   8
LEVEL001
 100
AcDbLine
   6
CONTINUOUS
  62
3
  10
 756.50000362098
  20
 969.49999450147
  30
0.0
  11
 756.50000362098
  21
 992.50005485117
  31
0.0
   0
LINE
   5
138
 100
AcDbEntity
   8
LEVEL001
 100
AcDbLine
   6
CONTINUOUS
  62
3
  10
 753.50000371039
  20
 969.49999450147
  30
0.0
  11
 753.50000371039
  21
 992.50005485117
  31
0.0
   0
LINE
   5
139
 100
AcDbEntity
   8
LEVEL001
 100
AcDbLine
   6
CONTINUOUS
  62
3
  10
 750.50000379980
  20
 969.49999450147
  30
0.0
  11
 750.50000379980
  21
 992.50005485117
  31
0.0
   0
LINE
   5
13A
 100
AcDbEntity
   8
LEVEL001
 100
AcDbLine
   6
CONTINUOUS
  62
3
  10
 747.50000388920
  20
 969.49999450147
  30
0.0
  11
 747.50000388920
  21
 992.50005485117
  31
0.0
   0
LINE
   5
13B
 100
AcDbEntity
   8
LEVEL001
 100
AcDbLine
   6
CONTINUOUS
  62
3
  10
 744.50000397861
  20
 969.49999450147
  30
0.0
  11
 744.50000397861
  21
 992.50005485117
  31
0.0
   0
LINE
   5
13C
 100
AcDbEntity
   8
LEVEL001
 100
AcDbLine
   6
CONTINUOUS
  62
3
  10
 741.50000406802
  20
 969.49999450147
  30
0.0
  11
 741.50000406802
  21
 992.50005485117
  31
0.0
   0
LINE
   5
13D
 100
AcDbEntity
   8
LEVEL001
 100
AcDbLine
   6
CONTINUOUS
  62
3
  10
 738.50000415742
  20
 969.49999450147
  30
0.0
  11
 738.50000415742
  21
 992.50005485117
  31
0.0
   0
LINE
   5
13E
 100
AcDbEntity
   8
LEVEL001
 100
AcDbLine
   6
CONTINUOUS
  62
3
  10
 735.50000424683
  20
 969.49999450147
  30
0.0
  11
 735.50000424683
  21
 992.50005485117
  31
0.0
   0
LINE
   5
13F
 100
AcDbEntity
   8
LEVEL001
 100
AcDbLine
   6
DASHDOT
  62
1
  10
 734.99998900294
  20
 1008.4999933392
  30
0.0
  11
 737.00000420213
  21
 1010.5000543147
  31
0.0
   0
LINE
   5
140
 100
AcDbEntity
   8
LEVEL001
 100
AcDbLine
   6
DASHDOT
  62
1
  10
 736.00001949072
  20
 994.50002427399
  30
0.0
  11
 734.99998900294
  21
 995.50005476177
  31
0.0
   0
LINE
   5
141
 100
AcDbEntity
   8
LEVEL001
 100
AcDbLine
   6
DASHDOT
  62
1
  10
 734.99998900294
  20
 995.50005476177
  30
0.0
  11
 734.99998900294
  21
 1008.4999933392
  31
0.0
   0
LINE
   5
142
 100
AcDbEntity
   8
LEVEL001
 100
AcDbLine
   6
DASHDOT
  62
1
  10
 775.00001832843
  20
 1008.4999933392
  30
0.0
  11
 773.00000312924
  21
 1010.5000543147
  31
0.0
   0
LINE
   5
143
 100
AcDbEntity
   8
LEVEL001
 100
AcDbLine
   6
DASHDOT
  62
1
  10
 773.99998784065
  20
 994.50002427399
  30
0.0
  11
 775.00001832843
  21
 995.50005476177
  31
0.0
   0
LINE
   5
144
 100
AcDbEntity
   8
LEVEL001
 100
AcDbLine
   6
DASHDOT
  62
1
  10
 775.00001832843
  20
 995.50005476177
  30
0.0
  11
 775.00001832843
  21
 1008.4999933392
  31
0.0
   0
LINE
   5
145
 100
AcDbEntity
   8
LEVEL001
 100
AcDbLine
   6
DASHDOT
  62
1
  10
 737.00000420213
  20
 1010.5000543147
  30
0.0
  11
 773.00000312924
  21
 1010.5000543147
  31
0.0
   0
LINE
   5
146
 100
AcDbEntity
   8
LEVEL001
 100
AcDbLine
   6
CONTINUOUS
  62
7
  10
 733.00001958013
  20
 969.49999450147
  30
0.0
  11
 733.00001958013
  21
 992.50005485117
  31
0.0
   0
LINE
   5
147
 100
AcDbEntity
   8
LEVEL001
 100
AcDbLine
   6
CONTINUOUS
  62
7
  10
 733.00001958013
  20
 992.50005485117
  30
0.0
  11
 734.99998900294
  21
 994.50002427399
  31
0.0
   0
LINE
   5
148
 100
AcDbEntity
   8
LEVEL001
 100
AcDbLine
   6
CONTINUOUS
  62
7
  10
 734.99998900294
  20
 994.50002427399
  30
0.0
  11
 775.00001832843
  21
 994.50002427399
  31
0.0
   0
LINE
   5
149
 100
AcDbEntity
   8
LEVEL001
 100
AcDbLine
   6
CONTINUOUS
  62
7
  10
 775.00001832843
  20
 994.50002427399
  30
0.0
  11
 776.99998775125
  21
 992.50005485117
  31
0.0
   0
LINE
   5
14A
 100
AcDbEntity
   8
LEVEL001
 100
AcDbLine
   6
CONTINUOUS
  62
7
  10
 776.99998775125
  20
 992.50005485117
  30
0.0
  11
 776.99998775125
  21
 969.49999450147
  31
0.0
   0
LINE
   5
14B
 100
AcDbEntity
   8
LEVEL001
 100
AcDbLine
   6
CONTINUOUS
  62
7
  10
 776.99998775125
  20
 969.49999450147
  30
0.0
  11
 775.00001832843
  21
 967.50002507865
  31
0.0
   0
LINE
   5
14C
 100
AcDbEntity
   8
LEVEL001
 100
AcDbLine
   6
CONTINUOUS
  62
7
  10
 775.00001832843
  20
 967.50002507865
  30
0.0
  11
 734.99998900294
  21
 967.50002507865
  31
0.0
   0
LINE
   5
14D
 100
AcDbEntity
   8
LEVEL001
 100
AcDbLine
   6
CONTINUOUS
  62
7
  10
 734.99998900294
  20
 967.50002507865
  30
0.0
  11
 733.00001958013
  21
 969.49999450147
  31
0.0
   0
LINE
   5
14E
 100
AcDbEntity
   8
LEVEL001
 100
AcDbLine
   6
DOT
  62
3
  10
 754.25000368804
  20
 623.25002595037
  30
0.0
  11
 745.75006497651
  21
 623.25002595037
  31
0.0
   0
LINE
   5
14F
 100
AcDbEntity
   8
LEVEL001
 100
AcDbLine
   6
DOT
  62
3
  10
 755.00000366569
  20
 622.50002597272
  30
0.0
  11
 754.25000368804
  21
 623.25002595037
  31
0.0
   0
LINE
   5
150
 100
AcDbEntity
   8
LEVEL001
 100
AcDbLine
   6
DOT
  62
3
  10
 754.25000368804
  20
 623.25002595037
  30
0.0
  11
 754.25000368804
  21
 637.29906727972
  31
0.0
   0
LINE
   5
151
 100
AcDbEntity
   8
LEVEL001
 100
AcDbLine
   6
DOT
  62
3
  10
 754.25000368804
  20
 637.29906727972
  30
0.0
  11
 752.00009530782
  21
 638.59806321269
  31
0.0
   0
LINE
   5
152
 100
AcDbEntity
   8
LEVEL001
 100
AcDbLine
   6
DOT
  62
3
  10
 747.99997335673
  20
 638.59806321269
  30
0.0
  11
 745.75006497651
  21
 637.29906727972
  31
0.0
   0
LINE
   5
153
 100
AcDbEntity
   8
LEVEL001
 100
AcDbLine
   6
DOT
  62
3
  10
 745.75006497651
  20
 637.29906727972
  30
0.0
  11
 745.75006497651
  21
 623.25002595037
  31
0.0
   0
LINE
   5
154
 100
AcDbEntity
   8
LEVEL001
 100
AcDbLine
   6
DOT
  62
3
  10
 745.75006497651
  20
 623.25002595037
  30
0.0
  11
 745.00006499886
  21
 622.50002597272
  31
0.0
   0
CIRCLE
   5
155
 100
AcDbEntity
   8
LEVEL001
 100
AcDbCircle
   6
DOT
  62
3
  10
 750.00003433227
  20
 636.36207084769
  30
0.0
  40
 3.0000009834766
   0
LINE
   5
156
 100
AcDbEntity
   8
LEVEL001
 100
AcDbLine
   6
DOT
  62
3
  10
 754.25000368804
  20
 633.36207093709
  30
0.0
  11
 755.00000366569
  21
 632.61207095945
  31
0.0
   0
LINE
   5
157
 100
AcDbEntity
   8
LEVEL001
 100
AcDbLine
   6
DOT
  62
3
  10
 755.00000366569
  20
 632.61207095945
  30
0.0
  11
 755.00000366569
  21
 624.11208647156
  31
0.0
   0
LINE
   5
158
 100
AcDbEntity
   8
LEVEL001
 100
AcDbLine
   6
DOT
  62
3
  10
 755.00000366569
  20
 624.11208647156
  30
0.0
  11
 754.25000368804
  21
 623.36208649391
  31
0.0
   0
LINE
   5
159
 100
AcDbEntity
   8
LEVEL001
 100
AcDbLine
   6
DOT
  62
3
  10
 754.25000368804
  20
 623.36208649391
  30
0.0
  11
 745.75006497651
  21
 623.36208649391
  31
0.0
   0
LINE
   5
15A
 100
AcDbEntity
   8
LEVEL001
 100
AcDbLine
   6
DOT
  62
3
  10
 745.75006497651
  20
 623.36208649391
  30
0.0
  11
 745.00006499886
  21
 624.11208647156
  31
0.0
   0
LINE
   5
15B
 100
AcDbEntity
   8
LEVEL001
 100
AcDbLine
   6
DOT
  62
3
  10
 745.00006499886
  20
 624.11208647156
  30
0.0
  11
 745.00006499886
  21
 632.61207095945
  31
0.0
   0
LINE
   5
15C
 100
AcDbEntity
   8
LEVEL001
 100
AcDbLine
   6
DOT
  62
3
  10
 745.00006499886
  20
 632.61207095945
  30
0.0
  11
 745.75006497651
  21
 633.36207093709
  31
0.0
   0
LINE
   5
15D
 100
AcDbEntity
   8
LEVEL001
 100
AcDbLine
   6
DOT
  62
3
  10
 745.75006497651
  20
 633.36207093709
  30
0.0
  11
 754.25000368804
  21
 633.36207093709
  31
0.0
   0
LINE
   5
15E
 100
AcDbEntity
   8
LEVEL001
 100
AcDbLine
   6
DOT
  62
3
  10
 755.00000366569
  20
 632.61207095945
  30
0.0
  11
 745.00006499886
  21
 632.61207095945
  31
0.0
   0
LINE
   5
15F
 100
AcDbEntity
   8
LEVEL001
 100
AcDbLine
   6
DOT
  62
3
  10
 745.00006499886
  20
 624.11208647156
  30
0.0
  11
 755.00000366569
  21
 624.11208647156
  31
0.0
   0
LINE
   5
160
 100
AcDbEntity
   8
LEVEL001
 100
AcDbLine
   6
DOT
  62
3
  10
 755.00000366569
  20
 622.50002597272
  30
0.0
  11
 755.00000366569
  21
 624.11208647156
  31
0.0
   0
LINE
   5
161
 100
AcDbEntity
   8
LEVEL001
 100
AcDbLine
   6
DOT
  62
3
  10
 755.00000366569
  20
 632.61207095945
  30
0.0
  11
 755.00000366569
  21
 634.50002561510
  31
0.0
   0
LINE
   5
162
 100
AcDbEntity
   8
LEVEL001
 100
AcDbLine
   6
DOT
  62
3
  10
 755.00000366569
  20
 634.50002561510
  30
0.0
  11
 754.25000368804
  21
 637.29906727972
  31
0.0
   0
LINE
   5
163
 100
AcDbEntity
   8
LEVEL001
 100
AcDbLine
   6
DOT
  62
3
  10
 745.75006497651
  20
 637.29906727972
  30
0.0
  11
 745.00006499886
  21
 634.50002561510
  31
0.0
   0
LINE
   5
164
 100
AcDbEntity
   8
LEVEL001
 100
AcDbLine
   6
DOT
  62
3
  10
 745.00006499886
  20
 634.50002561510
  30
0.0
  11
 745.00006499886
  21
 632.61207095945
  31
0.0
   0
LINE
   5
165
 100
AcDbEntity
   8
LEVEL001
 100
AcDbLine
   6
DOT
  62
3
  10
 745.00006499886
  20
 624.11208647156
  30
0.0
  11
 745.00006499886
  21
 622.50002597272
  31
0.0
   0
LINE
   5
166
 100
AcDbEntity
   8
LEVEL001
 100
AcDbLine
   6
DOT
  62
3
  10
 755.00000366569
  20
 634.50002561510
  30
0.0
  11
 752.35220711374
  21
 634.50002561510
  31
0.0
   0
LINE
   5
167
 100
AcDbEntity
   8
LEVEL001
 100
AcDbLine
   6
DOT
  62
3
  10
 747.64786155081
  20
 634.50002561510
  30
0.0
  11
 745.00006499886
  21
 634.50002561510
  31
0.0
   0
LINE
   5
168
 100
AcDbEntity
   8
LEVEL001
 100
AcDbLine
   6
DOT
  62
3
  10
 754.25000368804
  20
 637.29906727972
  30
0.0
  11
 752.84997931570
  21
 637.29906727972
  31
0.0
   0
LINE
   5
169
 100
AcDbEntity
   8
LEVEL001
 100
AcDbLine
   6
DOT
  62
3
  10
 747.15008934885
  20
 637.29906727972
  30
0.0
  11
 745.75006497651
  21
 637.29906727972
  31
0.0
   0
ARC
   5
16A
 100
AcDbEntity
   8
LEVEL001
   6
CONTINUOUS
  62
7
 100
AcDbCircle
  10
 586.00005453819
  20
 705.00004872702
  30
0.0
  40
 2.0000000000000
 100
AcDbArc
  50
 90.000875969931
  51
 180.00043543087
   0
ARC
   5
16B
 100
AcDbEntity
   8
LEVEL001
   6
CONTINUOUS
  62
7
 100
AcDbCircle
  10
 588.00005435947
  20
 705.00004872685
  30
0.0
  40
 2.0000000000000
 100
AcDbArc
  50
0.0
  51
 90.000435425758
   0
LINE
   5
16C
 100
AcDbEntity
   8
LEVEL001
 100
AcDbLine
   6
CONTINUOUS
  62
7
  10
 586.00002396107
  20
 707.00004872680
  30
0.0
  11
 588.00003916025
  21
 707.00004872680
  31
0.0
   0
LINE
   5
16D
 100
AcDbEntity
   8
LEVEL001
 100
AcDbLine
   6
CONTINUOUS
  62
7
  10
 590.00005435943
  20
 696.50004903972
  30
0.0
  11
 595.00002369285
  21
 695.00004908442
  31
0.0
   0
LINE
   5
16E
 100
AcDbEntity
   8
LEVEL001
 100
AcDbLine
   6
CONTINUOUS
  62
7
  10
 596.00005418062
  20
 932.49999552965
  30
0.0
  11
 599.99999302626
  21
 932.49999552965
  31
0.0
   0
LINE
   5
16F
 100
AcDbEntity
   8
LEVEL001
 100
AcDbLine
   6
DASHDOT
  62
1
  10
 602.00000822544
  20
 935.00002597272
  30
0.0
  11
 600.00002056360
  21
 935.00002597272
  31
0.0
   0
LINE
   5
170
 100
AcDbEntity
   8
LEVEL001
 100
AcDbLine
   6
DASHDOT
  62
1
  10
 600.00002056360
  20
 935.00002597272
  30
0.0
  11
 600.00002056360
  21
 938.00002597272
  31
0.0
   0
LINE
   5
171
 100
AcDbEntity
   8
LEVEL001
 100
AcDbLine
   6
DASHDOT
  62
1
  10
 600.00002056360
  20
 938.00002597272
  30
0.0
  11
 700.00002056360
  21
 938.00002597272
  31
0.0
   0
LINE
   5
172
 100
AcDbEntity
   8
LEVEL001
 100
AcDbLine
   6
DASHDOT
  62
1
  10
 700.00002056360
  20
 938.00002597272
  30
0.0
  11
 700.00002056360
  21
 935.00002597272
  31
0.0
   0
LINE
   5
173
 100
AcDbEntity
   8
LEVEL001
 100
AcDbLine
   6
CONTINUOUS
  62
7
  10
 596.00005418062
  20
 932.49999552965
  30
0.0
  11
 595.00002369285
  21
 931.50001081824
  31
0.0
   0
LINE
   5
174
 100
AcDbEntity
   8
LEVEL001
 100
AcDbLine
   6
CONTINUOUS
  62
3
  10
 700.00002056360
  20
 933.00001077354
  30
0.0
  11
 707.46413166928
  21
 935.00002597272
  31
0.0
   0
LINE
   5
175
 100
AcDbEntity
   8
LEVEL001
 100
AcDbLine
   6
CONTINUOUS
  62
7
  10
 599.99999302626
  20
 933.00001077354
  30
0.0
  11
 602.00000822544
  21
 935.00002597272
  31
0.0
   0
LINE
   5
176
 100
AcDbEntity
   8
LEVEL001
 100
AcDbLine
   6
CONTINUOUS
  62
7
  10
 602.00000822544
  20
 935.00002597272
  30
0.0
  11
 709.00002056360
  21
 935.00002597272
  31
0.0
   0
ARC
   5
177
 100
AcDbEntity
   8
LEVEL001
   6
CONTINUOUS
  62
7
 100
AcDbCircle
  10
 709.00002056360
  20
 936.00002597273
  30
0.0
  40
 1.0000000000000
 100
AcDbArc
  50
 270.00000000000
  51
0.0
   0
LINE
   5
178
 100
AcDbEntity
   8
LEVEL001
 100
AcDbLine
   6
CONTINUOUS
  62
7
  10
 710.00002056360
  20
 936.50002597272
  30
0.0
  11
 711.00002056360
  21
 937.50002597272
  31
0.0
   0
LINE
   5
179
 100
AcDbEntity
   8
LEVEL001
 100
AcDbLine
   6
CONTINUOUS
  62
7
  10
 596.00005418062
  20
 627.50003576279
  30
0.0
  11
 599.99999302626
  21
 627.50003576279
  31
0.0
   0
LINE
   5
17A
 100
AcDbEntity
   8
LEVEL001
 100
AcDbLine
   6
DASHDOT
  62
1
  10
 602.00000822544
  20
 625.00000531971
  30
0.0
  11
 600.00002056360
  21
 625.00000531971
  31
0.0
   0
LINE
   5
17B
 100
AcDbEntity
   8
LEVEL001
 100
AcDbLine
   6
DASHDOT
  62
1
  10
 600.00002056360
  20
 625.00000531971
  30
0.0
  11
 600.00002056360
  21
 622.00000531971
  31
0.0
   0
LINE
   5
17C
 100
AcDbEntity
   8
LEVEL001
 100
AcDbLine
   6
DASHDOT
  62
1
  10
 600.00002056360
  20
 622.00000531971
  30
0.0
  11
 700.00002056360
  21
 622.00000531971
  31
0.0
   0
LINE
   5
17D
 100
AcDbEntity
   8
LEVEL001
 100
AcDbLine
   6
DASHDOT
  62
1
  10
 700.00002056360
  20
 622.00000531971
  30
0.0
  11
 700.00002056360
  21
 625.00000531971
  31
0.0
   0
LINE
   5
17E
 100
AcDbEntity
   8
LEVEL001
 100
AcDbLine
   6
CONTINUOUS
  62
7
  10
 596.00005418062
  20
 627.50003576279
  30
0.0
  11
 595.00002369285
  21
 628.50002047419
  31
0.0
   0
LINE
   5
17F
 100
AcDbEntity
   8
LEVEL001
 100
AcDbLine
   6
CONTINUOUS
  62
7
  10
 599.99999302626
  20
 627.00002051890
  30
0.0
  11
 602.00000822544
  21
 625.00000531971
  31
0.0
   0
LINE
   5
180
 100
AcDbEntity
   8
LEVEL001
 100
AcDbLine
   6
CONTINUOUS
  62
7
  10
 602.00000822544
  20
 625.00000531971
  30
0.0
  11
 709.00002056360
  21
 625.00000531971
  31
0.0
   0
LINE
   5
181
 100
AcDbEntity
   8
LEVEL001
 100
AcDbLine
   6
CONTINUOUS
  62
3
  10
 700.00002056360
  20
 627.00002051890
  30
0.0
  11
 707.46413166928
  21
 625.00000531971
  31
0.0
   0
ARC
   5
182
 100
AcDbEntity
   8
LEVEL001
   6
CONTINUOUS
  62
7
 100
AcDbCircle
  10
 709.00002056360
  20
 624.00000531971
  30
0.0
  40
 1.0000000000000
 100
AcDbArc
  50
0.0
  51
 89.999999999883
   0
LINE
   5
183
 100
AcDbEntity
   8
LEVEL001
 100
AcDbLine
   6
CONTINUOUS
  62
7
  10
 710.00002056360
  20
 623.50000531971
  30
0.0
  11
 711.00002056360
  21
 622.50000531971
  31
0.0
   0
LINE
   5
184
 100
AcDbEntity
   8
LEVEL001
 100
AcDbLine
   6
DASHDOT
  62
1
  10
 755.00000366569
  20
 897.50001175702
  30
0.0
  11
 755.00000366569
  21
 1017.4999930710
  31
0.0
   0
LINE
   5
185
 100
AcDbEntity
   8
LEVEL001
 100
AcDbLine
   6
DASHDOT
  62
1
  10
 470.00005793571
  20
 780.00000000000
  30
0.0
  11
 1513.0000441669
  21
 780.00000000000
  31
0.0
   0
LINE
   5
186
 100
AcDbEntity
   8
LEVEL001
 100
AcDbLine
   6
DASHDOT
  62
1
  10
 750.00003433227
  20
 619.50002606213
  30
0.0
  11
 750.00003433227
  21
 662.49998824298
  31
0.0
   0
LINE
   5
187
 100
AcDbEntity
   8
LEVEL001
 100
AcDbLine
   6
DOT
  62
3
  10
 752.00000375509
  20
 638.59806321269
  30
0.0
  11
 752.00036996602
  21
 662.49998824298
  31
0.0
   0
LINE
   5
188
 100
AcDbEntity
   8
LEVEL001
 100
AcDbLine
   6
DOT
  62
3
  10
 748.00006490946
  20
 662.49998824298
  30
0.0
  11
 748.00006490946
  21
 638.59810898906
  31
0.0
   0
DIMENSION
   5
189
 100
AcDbEntity
   8
LEVEL003
   6
CONTINUOUS
  62
3
 100
AcDbDimension
   2
*D1
  10
 1060.0000098348
  20
 937.50002597272
  30
0.0
  11
 1060.0000098348
  21
 780.00002597272
  31
0.0
  70
128
   1
\A1;%%c315
   3
GMM001
 100
AcDbAlignedDimension
  13
 1060.0000098348
  23
 622.50002597272
  33
0.0
  14
 1060.0000098348
  24
 937.50002597272
  34
0.0
  50
 90.000000000000
 100
AcDbRotatedDimension
   0
DIMENSION
   5
18B
 100
AcDbEntity
   8
LEVEL003
   6
CONTINUOUS
  62
3
 100
AcDbDimension
   2
*D2
  10
 1000.0000295043
  20
 864.99998220801
  30
0.0
  11
 1000.0000295043
  21
 780.00001564622
  31
0.0
  70
0
   1
\A1;%%c170
   3
GMM002
 100
AcDbAlignedDimension
  13
 1000.0000295043
  23
 695.00004908442
  33
0.0
  14
 1000.0000116229
  24
 864.99998220801
  34
0.0
  50
 90.000000000000
 100
AcDbRotatedDimension
   0
DIMENSION
   5
18D
 100
AcDbEntity
   8
LEVEL003
   6
CONTINUOUS
  62
3
 100
AcDbDimension
   2
*D3
  10
 1030.0000295043
  20
 662.50001953542
  30
0.0
  11
 1030.0000295043
  21
 780.00001564622
  31
0.0
  70
0
   1
\A1;%%c235
   3
GMM002
 100
AcDbAlignedDimension
  13
 1030.0000295043
  23
 897.50001175702
  33
0.0
  14
 1030.0000295043
  24
 662.50001953542
  34
0.0
  50
 270.00000000000
 100
AcDbRotatedDimension
   0
LINE
   5
18F
 100
AcDbEntity
   8
LEVEL001
 100
AcDbLine
   6
DASHDOT
  62
1
  10
 1388.0000305772
  20
 619.50002606213
  30
0.0
  11
 1388.0000305772
  21
 660.00000357628
  31
0.0
   0
LINE
   5
190
 100
AcDbEntity
   8
LEVEL001
 100
AcDbLine
   6
DOT
  62
3
  10
 1392.2499999329
  20
 623.25002595037
  30
0.0
  11
 1383.7500612214
  21
 623.25002595037
  31
0.0
   0
LINE
   5
191
 100
AcDbEntity
   8
LEVEL001
 100
AcDbLine
   6
DOT
  62
3
  10
 1392.9999999106
  20
 622.50002597272
  30
0.0
  11
 1392.2499999329
  21
 623.25002595037
  31
0.0
   0
LINE
   5
192
 100
AcDbEntity
   8
LEVEL001
 100
AcDbLine
   6
DOT
  62
3
  10
 1392.2499999329
  20
 623.25002595037
  30
0.0
  11
 1392.2499999329
  21
 637.29906727972
  31
0.0
   0
LINE
   5
193
 100
AcDbEntity
   8
LEVEL001
 100
AcDbLine
   6
DOT
  62
3
  10
 1392.2499999329
  20
 637.29906727972
  30
0.0
  11
 1390.0000915527
  21
 638.59806321269
  31
0.0
   0
LINE
   5
194
 100
AcDbEntity
   8
LEVEL001
 100
AcDbLine
   6
DOT
  62
3
  10
 1385.9999696016
  20
 638.59806321269
  30
0.0
  11
 1383.7500612214
  21
 637.29906727972
  31
0.0
   0
LINE
   5
195
 100
AcDbEntity
   8
LEVEL001
 100
AcDbLine
   6
DOT
  62
3
  10
 1383.7500612214
  20
 637.29906727972
  30
0.0
  11
 1383.7500612214
  21
 623.25002595037
  31
0.0
   0
LINE
   5
196
 100
AcDbEntity
   8
LEVEL001
 100
AcDbLine
   6
DOT
  62
3
  10
 1383.7500612214
  20
 623.25002595037
  30
0.0
  11
 1383.0000612438
  21
 622.50002597272
  31
0.0
   0
CIRCLE
   5
197
 100
AcDbEntity
   8
LEVEL001
 100
AcDbCircle
   6
DOT
  62
3
  10
 1388.0000305772
  20
 636.36207084769
  30
0.0
  40
 3.0000009834766
   0
LINE
   5
198
 100
AcDbEntity
   8
LEVEL001
 100
AcDbLine
   6
DOT
  62
3
  10
 1392.2499999329
  20
 633.36207093709
  30
0.0
  11
 1392.9999999106
  21
 632.61207095945
  31
0.0
   0
LINE
   5
199
 100
AcDbEntity
   8
LEVEL001
 100
AcDbLine
   6
DOT
  62
3
  10
 1392.9999999106
  20
 632.61207095945
  30
0.0
  11
 1392.9999999106
  21
 624.11208647156
  31
0.0
   0
LINE
   5
19A
 100
AcDbEntity
   8
LEVEL001
 100
AcDbLine
   6
DOT
  62
3
  10
 1392.9999999106
  20
 624.11208647156
  30
0.0
  11
 1392.2499999329
  21
 623.36208649391
  31
0.0
   0
LINE
   5
19B
 100
AcDbEntity
   8
LEVEL001
 100
AcDbLine
   6
DOT
  62
3
  10
 1392.2499999329
  20
 623.36208649391
  30
0.0
  11
 1383.7500612214
  21
 623.36208649391
  31
0.0
   0
LINE
   5
19C
 100
AcDbEntity
   8
LEVEL001
 100
AcDbLine
   6
DOT
  62
3
  10
 1383.7500612214
  20
 623.36208649391
  30
0.0
  11
 1383.0000612438
  21
 624.11208647156
  31
0.0
   0
LINE
   5
19D
 100
AcDbEntity
   8
LEVEL001
 100
AcDbLine
   6
DOT
  62
3
  10
 1383.0000612438
  20
 624.11208647156
  30
0.0
  11
 1383.0000612438
  21
 632.61207095945
  31
0.0
   0
LINE
   5
19E
 100
AcDbEntity
   8
LEVEL001
 100
AcDbLine
   6
DOT
  62
3
  10
 1383.0000612438
  20
 632.61207095945
  30
0.0
  11
 1383.7500612214
  21
 633.36207093709
  31
0.0
   0
LINE
   5
19F
 100
AcDbEntity
   8
LEVEL001
 100
AcDbLine
   6
DOT
  62
3
  10
 1383.7500612214
  20
 633.36207093709
  30
0.0
  11
 1392.2499999329
  21
 633.36207093709
  31
0.0
   0
LINE
   5
1A0
 100
AcDbEntity
   8
LEVEL001
 100
AcDbLine
   6
DOT
  62
3
  10
 1392.9999999106
  20
 632.61207095945
  30
0.0
  11
 1383.0000612438
  21
 632.61207095945
  31
0.0
   0
LINE
   5
1A1
 100
AcDbEntity
   8
LEVEL001
 100
AcDbLine
   6
DOT
  62
3
  10
 1383.0000612438
  20
 624.11208647156
  30
0.0
  11
 1392.9999999106
  21
 624.11208647156
  31
0.0
   0
LINE
   5
1A2
 100
AcDbEntity
   8
LEVEL001
 100
AcDbLine
   6
DOT
  62
3
  10
 1392.9999999106
  20
 622.50002597272
  30
0.0
  11
 1392.9999999106
  21
 624.11208647156
  31
0.0
   0
LINE
   5
1A3
 100
AcDbEntity
   8
LEVEL001
 100
AcDbLine
   6
DOT
  62
3
  10
 1392.9999999106
  20
 632.61207095945
  30
0.0
  11
 1392.9999999106
  21
 634.50002561510
  31
0.0
   0
LINE
   5
1A4
 100
AcDbEntity
   8
LEVEL001
 100
AcDbLine
   6
DOT
  62
3
  10
 1392.9999999106
  20
 634.50002561510
  30
0.0
  11
 1392.2499999329
  21
 637.29906727972
  31
0.0
   0
LINE
   5
1A5
 100
AcDbEntity
   8
LEVEL001
 100
AcDbLine
   6
DOT
  62
3
  10
 1383.7500612214
  20
 637.29906727972
  30
0.0
  11
 1383.0000612438
  21
 634.50002561510
  31
0.0
   0
LINE
   5
1A6
 100
AcDbEntity
   8
LEVEL001
 100
AcDbLine
   6
DOT
  62
3
  10
 1383.0000612438
  20
 634.50002561510
  30
0.0
  11
 1383.0000612438
  21
 632.61207095945
  31
0.0
   0
LINE
   5
1A7
 100
AcDbEntity
   8
LEVEL001
 100
AcDbLine
   6
DOT
  62
3
  10
 1383.0000612438
  20
 624.11208647156
  30
0.0
  11
 1383.0000612438
  21
 622.50002597272
  31
0.0
   0
LINE
   5
1A8
 100
AcDbEntity
   8
LEVEL001
 100
AcDbLine
   6
DOT
  62
3
  10
 1392.9999999106
  20
 634.50002561510
  30
0.0
  11
 1390.3522033586
  21
 634.50002561510
  31
0.0
   0
LINE
   5
1A9
 100
AcDbEntity
   8
LEVEL001
 100
AcDbLine
   6
DOT
  62
3
  10
 1385.6478577957
  20
 634.50002561510
  30
0.0
  11
 1383.0000612438
  21
 634.50002561510
  31
0.0
   0
LINE
   5
1AA
 100
AcDbEntity
   8
LEVEL001
 100
AcDbLine
   6
DOT
  62
3
  10
 1392.2499999329
  20
 637.29906727972
  30
0.0
  11
 1390.8499755606
  21
 637.29906727972
  31
0.0
   0
LINE
   5
1AB
 100
AcDbEntity
   8
LEVEL001
 100
AcDbLine
   6
DOT
  62
3
  10
 1385.1500855938
  20
 637.29906727972
  30
0.0
  11
 1383.7500612214
  21
 637.29906727972
  31
0.0
   0
LINE
   5
1AC
 100
AcDbEntity
   8
LEVEL001
 100
AcDbLine
   6
DOT
  62
3
  10
 1386.0000611544
  20
 660.00000357628
  30
0.0
  11
 1386.0000611544
  21
 638.59810898906
  31
0.0
   0
LINE
   5
1AD
 100
AcDbEntity
   8
LEVEL001
 100
AcDbLine
   6
DOT
  62
3
  10
 1390.0000000000
  20
 638.59806321269
  30
0.0
  11
 1390.0003662109
  21
 660.00000357628
  31
0.0
   0
LINE
   5
1AE
 100
AcDbEntity
   8
LEVEL001
 100
AcDbLine
   6
CONTINUOUS
  62
3
  10
 1394.4746090926
  20
 942.59072406320
  30
0.0
  11
 1375.5253909074
  21
 942.59090716866
  31
0.0
   0
LINE
   5
1AF
 100
AcDbEntity
   8
LEVEL001
 100
AcDbLine
   6
CONTINUOUS
  62
3
  10
 1374.2099612591
  20
 947.50001041591
  30
0.0
  11
 1375.5253909074
  21
 942.59090716866
  31
0.0
   0
LINE
   5
1B0
 100
AcDbEntity
   8
LEVEL001
 100
AcDbLine
   6
CONTINUOUS
  62
3
  10
 1395.7900387409
  20
 947.50001041591
  30
0.0
  11
 1394.4746090926
  21
 942.59072406320
  31
0.0
   0
LINE
   5
1B1
 100
AcDbEntity
   8
LEVEL001
 100
AcDbLine
   6
CONTINUOUS
  62
7
  10
 1378.4616701167
  20
 951.71001700431
  30
0.0
  11
 1378.4616701167
  21
 962.70998615891
  31
0.0
   0
LINE
   5
1B2
 100
AcDbEntity
   8
LEVEL001
 100
AcDbLine
   6
CONTINUOUS
  62
7
  10
 1378.4616701167
  20
 962.70998615891
  30
0.0
  11
 1391.5383298833
  21
 962.70998615891
  31
0.0
   0
LINE
   5
1B3
 100
AcDbEntity
   8
LEVEL001
 100
AcDbLine
   6
CONTINUOUS
  62
7
  10
 1391.5383298833
  20
 962.70998615891
  30
0.0
  11
 1391.5383298833
  21
 951.71001700431
  31
0.0
   0
LINE
   5
1B4
 100
AcDbEntity
   8
LEVEL001
 100
AcDbLine
   6
CONTINUOUS
  62
7
  10
 1399.9999995530
  20
 951.71001700431
  30
0.0
  11
 1391.5383298833
  21
 951.71001700431
  31
0.0
   0
LINE
   5
1B5
 100
AcDbEntity
   8
LEVEL001
 100
AcDbLine
   6
CONTINUOUS
  62
7
  10
 1378.4616701167
  20
 951.71001700431
  30
0.0
  11
 1370.0000004470
  21
 951.71001700431
  31
0.0
   0
LINE
   5
1B6
 100
AcDbEntity
   8
LEVEL001
 100
AcDbLine
   6
CONTINUOUS
  62
7
  10
 1391.5383298833
  20
 951.71001700431
  30
0.0
  11
 1378.4616701167
  21
 962.70998615891
  31
0.0
   0
LINE
   5
1B7
 100
AcDbEntity
   8
LEVEL001
 100
AcDbLine
   6
CONTINUOUS
  62
7
  10
 1378.4616701167
  20
 951.71001700431
  30
0.0
  11
 1391.5383298833
  21
 962.70998615891
  31
0.0
   0
ARC
   5
1B8
 100
AcDbEntity
   8
LEVEL001
   6
CONTINUOUS
  62
7
 100
AcDbCircle
  10
 1385.0000000000
  20
 965.21000799905
  30
0.0
  40
 14.999983817339
 100
AcDbArc
  50
 244.15811595178
  51
 295.84188404815
   0
LINE
   5
1B9
 100
AcDbEntity
   8
LEVEL001
 100
AcDbLine
   6
CONTINUOUS
  62
7
  10
 1370.0000004470
  20
 967.50002507865
  30
0.0
  11
 1370.0000004470
  21
 951.71001700431
  31
0.0
   0
LINE
   5
1BA
 100
AcDbEntity
   8
LEVEL001
 100
AcDbLine
   6
CONTINUOUS
  62
7
  10
 1370.0000004470
  20
 951.71001700431
  30
0.0
  11
 1374.2099612591
  21
 947.50001041591
  31
0.0
   0
LINE
   5
1BB
 100
AcDbEntity
   8
LEVEL001
 100
AcDbLine
   6
CONTINUOUS
  62
7
  10
 1374.2099612591
  20
 947.50001041591
  30
0.0
  11
 1395.7900387409
  21
 947.50001041591
  31
0.0
   0
LINE
   5
1BC
 100
AcDbEntity
   8
LEVEL001
 100
AcDbLine
   6
CONTINUOUS
  62
7
  10
 1395.7900387409
  20
 947.50001041591
  30
0.0
  11
 1399.9999995530
  21
 951.71001700431
  31
0.0
   0
LINE
   5
1BD
 100
AcDbEntity
   8
LEVEL001
 100
AcDbLine
   6
CONTINUOUS
  62
7
  10
 1399.9999995530
  20
 951.71001700431
  30
0.0
  11
 1399.9999995530
  21
 967.50002507865
  31
0.0
   0
LINE
   5
1BE
 100
AcDbEntity
   8
LEVEL001
 100
AcDbLine
   6
CONTINUOUS
  62
7
  10
 1362.9999701381
  20
 969.49999450147
  30
0.0
  11
 1407.0000298619
  21
 969.49999450147
  31
0.0
   0
LINE
   5
1BF
 100
AcDbEntity
   8
LEVEL001
 100
AcDbLine
   6
CONTINUOUS
  62
7
  10
 1407.0000298619
  20
 992.50005485117
  30
0.0
  11
 1362.9999701381
  21
 992.50005485117
  31
0.0
   0
LINE
   5
1C0
 100
AcDbEntity
   8
LEVEL001
 100
AcDbLine
   6
CONTINUOUS
  62
3
  10
 1404.4999994189
  20
 969.49999450147
  30
0.0
  11
 1404.4999994189
  21
 992.50005485117
  31
0.0
   0
LINE
   5
1C1
 100
AcDbEntity
   8
LEVEL001
 100
AcDbLine
   6
CONTINUOUS
  62
3
  10
 1401.4999995083
  20
 969.49999450147
  30
0.0
  11
 1401.4999995083
  21
 992.50005485117
  31
0.0
   0
LINE
   5
1C2
 100
AcDbEntity
   8
LEVEL001
 100
AcDbLine
   6
CONTINUOUS
  62
3
  10
 1398.4999995977
  20
 969.49999450147
  30
0.0
  11
 1398.4999995977
  21
 992.50005485117
  31
0.0
   0
LINE
   5
1C3
 100
AcDbEntity
   8
LEVEL001
 100
AcDbLine
   6
CONTINUOUS
  62
3
  10
 1395.4999996871
  20
 969.49999450147
  30
0.0
  11
 1395.4999996871
  21
 992.50005485117
  31
0.0
   0
LINE
   5
1C4
 100
AcDbEntity
   8
LEVEL001
 100
AcDbLine
   6
CONTINUOUS
  62
3
  10
 1392.4999997765
  20
 969.49999450147
  30
0.0
  11
 1392.4999997765
  21
 992.50005485117
  31
0.0
   0
LINE
   5
1C5
 100
AcDbEntity
   8
LEVEL001
 100
AcDbLine
   6
CONTINUOUS
  62
3
  10
 1389.4999998659
  20
 969.49999450147
  30
0.0
  11
 1389.4999998659
  21
 992.50005485117
  31
0.0
   0
LINE
   5
1C6
 100
AcDbEntity
   8
LEVEL001
 100
AcDbLine
   6
CONTINUOUS
  62
3
  10
 1386.4999999553
  20
 969.49999450147
  30
0.0
  11
 1386.4999999553
  21
 992.50005485117
  31
0.0
   0
LINE
   5
1C7
 100
AcDbEntity
   8
LEVEL001
 100
AcDbLine
   6
CONTINUOUS
  62
3
  10
 1383.5000000447
  20
 969.49999450147
  30
0.0
  11
 1383.5000000447
  21
 992.50005485117
  31
0.0
   0
LINE
   5
1C8
 100
AcDbEntity
   8
LEVEL001
 100
AcDbLine
   6
CONTINUOUS
  62
3
  10
 1380.5000001341
  20
 969.49999450147
  30
0.0
  11
 1380.5000001341
  21
 992.50005485117
  31
0.0
   0
LINE
   5
1C9
 100
AcDbEntity
   8
LEVEL001
 100
AcDbLine
   6
CONTINUOUS
  62
3
  10
 1377.5000002235
  20
 969.49999450147
  30
0.0
  11
 1377.5000002235
  21
 992.50005485117
  31
0.0
   0
LINE
   5
1CA
 100
AcDbEntity
   8
LEVEL001
 100
AcDbLine
   6
CONTINUOUS
  62
3
  10
 1374.5000003129
  20
 969.49999450147
  30
0.0
  11
 1374.5000003129
  21
 992.50005485117
  31
0.0
   0
LINE
   5
1CB
 100
AcDbEntity
   8
LEVEL001
 100
AcDbLine
   6
CONTINUOUS
  62
3
  10
 1371.5000004023
  20
 969.49999450147
  30
0.0
  11
 1371.5000004023
  21
 992.50005485117
  31
0.0
   0
LINE
   5
1CC
 100
AcDbEntity
   8
LEVEL001
 100
AcDbLine
   6
CONTINUOUS
  62
3
  10
 1368.5000004917
  20
 969.49999450147
  30
0.0
  11
 1368.5000004917
  21
 992.50005485117
  31
0.0
   0
LINE
   5
1CD
 100
AcDbEntity
   8
LEVEL001
 100
AcDbLine
   6
CONTINUOUS
  62
3
  10
 1365.5000005811
  20
 969.49999450147
  30
0.0
  11
 1365.5000005811
  21
 992.50005485117
  31
0.0
   0
LINE
   5
1CE
 100
AcDbEntity
   8
LEVEL001
 100
AcDbLine
   6
DASHDOT
  62
1
  10
 1365.0000311136
  20
 1008.4999933392
  30
0.0
  11
 1367.0000005364
  21
 1010.5000543147
  31
0.0
   0
LINE
   5
1CF
 100
AcDbEntity
   8
LEVEL001
 100
AcDbLine
   6
DASHDOT
  62
1
  10
 1365.9999700487
  20
 994.50002427399
  30
0.0
  11
 1365.0000311136
  21
 995.50005476177
  31
0.0
   0
LINE
   5
1D0
 100
AcDbEntity
   8
LEVEL001
 100
AcDbLine
   6
DASHDOT
  62
1
  10
 1365.0000311136
  20
 995.50005476177
  30
0.0
  11
 1365.0000311136
  21
 1008.4999933392
  31
0.0
   0
LINE
   5
1D1
 100
AcDbEntity
   8
LEVEL001
 100
AcDbLine
   6
DASHDOT
  62
1
  10
 1404.9999688864
  20
 1008.4999933392
  30
0.0
  11
 1402.9999994636
  21
 1010.5000543147
  31
0.0
   0
LINE
   5
1D2
 100
AcDbEntity
   8
LEVEL001
 100
AcDbLine
   6
DASHDOT
  62
1
  10
 1404.0000299513
  20
 994.50002427399
  30
0.0
  11
 1404.9999688864
  21
 995.50005476177
  31
0.0
   0
LINE
   5
1D3
 100
AcDbEntity
   8
LEVEL001
 100
AcDbLine
   6
DASHDOT
  62
1
  10
 1404.9999688864
  20
 995.50005476177
  30
0.0
  11
 1404.9999688864
  21
 1008.4999933392
  31
0.0
   0
LINE
   5
1D4
 100
AcDbEntity
   8
LEVEL001
 100
AcDbLine
   6
DASHDOT
  62
1
  10
 1367.0000005364
  20
 1010.5000543147
  30
0.0
  11
 1402.9999994636
  21
 1010.5000543147
  31
0.0
   0
LINE
   5
1D5
 100
AcDbEntity
   8
LEVEL001
 100
AcDbLine
   6
CONTINUOUS
  62
7
  10
 1404.9999688864
  20
 967.50002507865
  30
0.0
  11
 1365.0000311136
  21
 967.50002507865
  31
0.0
   0
LINE
   5
1D6
 100
AcDbEntity
   8
LEVEL001
 100
AcDbLine
   6
CONTINUOUS
  62
7
  10
 1365.0000311136
  20
 967.50002507865
  30
0.0
  11
 1362.9999701381
  21
 969.49999450147
  31
0.0
   0
LINE
   5
1D7
 100
AcDbEntity
   8
LEVEL001
 100
AcDbLine
   6
CONTINUOUS
  62
7
  10
 1362.9999701381
  20
 969.49999450147
  30
0.0
  11
 1362.9999701381
  21
 992.50005485117
  31
0.0
   0
LINE
   5
1D8
 100
AcDbEntity
   8
LEVEL001
 100
AcDbLine
   6
CONTINUOUS
  62
7
  10
 1362.9999701381
  20
 992.50005485117
  30
0.0
  11
 1365.0000311136
  21
 994.50002427399
  31
0.0
   0
LINE
   5
1D9
 100
AcDbEntity
   8
LEVEL001
 100
AcDbLine
   6
CONTINUOUS
  62
7
  10
 1365.0000311136
  20
 994.50002427399
  30
0.0
  11
 1404.9999688864
  21
 994.50002427399
  31
0.0
   0
LINE
   5
1DA
 100
AcDbEntity
   8
LEVEL001
 100
AcDbLine
   6
CONTINUOUS
  62
7
  10
 1404.9999688864
  20
 994.50002427399
  30
0.0
  11
 1407.0000298619
  21
 992.50005485117
  31
0.0
   0
LINE
   5
1DB
 100
AcDbEntity
   8
LEVEL001
 100
AcDbLine
   6
CONTINUOUS
  62
7
  10
 1407.0000298619
  20
 992.50005485117
  30
0.0
  11
 1407.0000298619
  21
 969.49999450147
  31
0.0
   0
LINE
   5
1DC
 100
AcDbEntity
   8
LEVEL001
 100
AcDbLine
   6
CONTINUOUS
  62
7
  10
 1407.0000298619
  20
 969.49999450147
  30
0.0
  11
 1404.9999688864
  21
 967.50002507865
  31
0.0
   0
LINE
   5
1DD
 100
AcDbEntity
   8
LEVEL001
 100
AcDbLine
   6
CONTINUOUS
  62
7
  10
 1495.0000306666
  20
 937.50002614757
  30
0.0
  11
 1500.0000000000
  21
 932.50001103779
  31
0.0
   0
LINE
   5
1DE
 100
AcDbEntity
   8
LEVEL001
 100
AcDbLine
   6
CONTINUOUS
  62
7
  10
 1495.0000306666
  20
 622.50002614757
  30
0.0
  11
 1500.0000000000
  21
 627.50004125734
  31
0.0
   0
LINE
   5
1DF
 100
AcDbEntity
   8
LEVEL001
 100
AcDbLine
   6
CONTINUOUS
  62
7
  10
 1500.0000000000
  20
 932.50001103779
  30
0.0
  11
 1500.0000000000
  21
 627.50004125734
  31
0.0
   0
DIMENSION
   5
1E0
 100
AcDbEntity
   8
LEVEL003
   6
CONTINUOUS
  62
3
 100
AcDbDimension
   2
*D4
  10
 700.00002056360
  20
 580.00002086163
  30
0.0
  11
 647.50002212822
  21
 580.00002086163
  31
0.0
  70
128
   1
\A1;105
   3
GMM003
 100
AcDbAlignedDimension
  13
 595.00002369285
  23
 626.00004112720
  33
0.0
  14
 700.00002056360
  24
 622.00000531971
  34
0.0
 100
AcDbRotatedDimension
   0
DIMENSION
   5
1E2
 100
AcDbEntity
   8
LEVEL003
   6
CONTINUOUS
  62
3
 100
AcDbDimension
   2
*D5
  10
 510.00004148483
  20
 580.00002086163
  30
0.0
  11
 495.00004193187
  21
 580.00002086163
  31
0.0
  70
128
   1
\A1;30
   3
GMM004
 100
AcDbAlignedDimension
  13
 480.00004237890
  23
 689.50003321469
  33
0.0
  14
 510.00004148483
  24
 707.00004872680
  34
0.0
 100
AcDbRotatedDimension
   0
DIMENSION
   5
1E4
 100
AcDbEntity
   8
LEVEL003
   6
CONTINUOUS
  62
3
 100
AcDbDimension
   2
*D6
  10
 590.00005435943
  20
 580.00002086163
  30
0.0
  11
 550.00004792213
  21
 580.00002086163
  31
0.0
  70
128
   1
\A1;80
   3
GMM003
 100
AcDbAlignedDimension
  13
 510.00004148483
  23
 707.00004872680
  33
0.0
  14
 590.00005435943
  24
 696.50001774728
  34
0.0
 100
AcDbRotatedDimension
   0
DIMENSION
   5
1E6
 100
AcDbEntity
   8
LEVEL003
   6
CONTINUOUS
  62
3
 100
AcDbDimension
   2
*D7
  10
 700.00002056360
  20
 540.00002086163
  30
0.0
  11
 590.00003147125
  21
 540.00002086163
  31
0.0
  70
128
   1
\A1;220
   3
GMM003
 100
AcDbAlignedDimension
  13
 480.00004237890
  23
 689.50003321469
  33
0.0
  14
 700.00002056360
  24
 622.00000531971
  34
0.0
 100
AcDbRotatedDimension
   0
LEADER
   5
1E8
 100
AcDbEntity
   8
LEVEL003
   6
CONTINUOUS
  62
3
 100
AcDbLeader
   3
GMM005
  73
0
  74
1
  75
0
  40
 16.000000000000
  41
0.0
  76
3
  10
 682.40516713772
  20
 935.00002597272
  30
0.0
  10
 653.33337267240
  20
 1040.0000208616
  30
0.0
  10
 553.33337267240
  20
 1040.0000208616
  30
0.0
  77
3
   0
TEXT
   5
1E9
 100
AcDbEntity
   8
LEVEL003
  62
3
 100
AcDbText
  10
 553.33337267240
  20
 1040.0000208616
  30
0.0
  40
 16.000000000000
   1
Ｍ３１０×４
  41
 0.78750000000000
   7
STANDARD
 100
AcDbText
   0
TEXT
   5
1EA
 100
AcDbEntity
   8
LEVEL003
  62
3
 100
AcDbText
  10
 433.33337267240
  20
 920.00002086163
  30
0.0
  40
 16.000000000000
   1
Ｍ１５０×４
  41
 0.78750000000000
   7
STANDARD
 100
AcDbText
   0
LEADER
   5
1EB
 100
AcDbEntity
   8
LEVEL003
   6
CONTINUOUS
  62
3
 100
AcDbLeader
   3
GMM005
  73
0
  74
1
  75
0
  40
 16.000000000000
  41
0.0
  76
3
  10
 535.00002548099
  20
 854.99999776483
  30
0.0
  10
 513.33337267240
  20
 920.00002086163
  30
0.0
  10
 433.33337267240
  20
 920.00002086163
  30
0.0
  77
3
   0
DIMENSION
   5
1EC
 100
AcDbEntity
   8
LEVEL003
   6
CONTINUOUS
  62
3
 100
AcDbDimension
   2
*D10
  10
 420.00000000000
  20
 687.50001801550
  30
0.0
  11
 420.00000000000
  21
 780.00000000000
  31
0.0
  70
128
   1
\A1;%%c185
   3
GMM006
 100
AcDbAlignedDimension
  13
 482.00005757809
  23
 872.49998198450
  33
0.0
  14
 482.00005757809
  24
 687.50001801550
  34
0.0
  50
 270.00000000000
 100
AcDbRotatedDimension
   0
LINE
   5
1EE
 100
AcDbEntity
   8
LEVEL001
 100
AcDbLine
   6
CONTINUOUS
  62
7
  10
 711.00002056360
  20
 622.50002589688
  30
0.0
  11
 1495.0000306666
  21
 622.50002614757
  31
0.0
   0
DIMENSION
   5
1EF
 100
AcDbEntity
   8
LEVEL003
   6
CONTINUOUS
  62
3
 100
AcDbDimension
   2
*D11
  10
 1385.0000000000
  20
 1040.0000704011
  30
0.0
  11
 1442.5000059622
  21
 1040.0000704011
  31
0.0
  70
128
   1
\A1;115
   3
GMM007
 100
AcDbAlignedDimension
  13
 1500.0000000000
  23
 932.50001103779
  33
0.0
  14
 1385.0000000000
  24
 1017.4999930710
  34
0.0
  50
 180.00000000000
 100
AcDbRotatedDimension
   0
DIMENSION
   5
1F1
 100
AcDbEntity
   8
LEVEL003
   6
CONTINUOUS
  62
3
 100
AcDbDimension
   2
*D12
  10
 755.00000366569
  20
 1040.0000603475
  30
0.0
  11
 1069.9999813717
  21
 1040.0000603475
  31
0.0
  70
128
   1
\A1;630
   3
GMM008
 100
AcDbAlignedDimension
  13
 1385.0000000000
  23
 1017.4999930710
  33
0.0
  14
 755.00000366569
  24
 1017.4999930710
  34
0.0
  50
 180.00000000000
 100
AcDbRotatedDimension
   0
DIMENSION
   5
1F3
 100
AcDbEntity
   8
LEVEL003
   6
CONTINUOUS
  62
3
 100
AcDbDimension
   2
*D13
  10
 1500.0000000000
  20
 520.00002086163
  30
0.0
  11
 990.00004525744
  21
 520.00002086163
  31
0.0
  70
128
   1
\A1;1020
   3
GMM003
 100
AcDbAlignedDimension
  13
 480.00004237890
  23
 689.50003321469
  33
0.0
  14
 1500.0000000000
  24
 627.50004125734
  34
0.0
 100
AcDbRotatedDimension
   0
LINE
   5
1F5
 100
AcDbEntity
   8
LEVEL001
 100
AcDbLine
   6
CONTINUOUS
  62
7
  10
 711.00002056360
  20
 937.50002597272
  30
0.0
  11
 1495.0000306666
  21
 937.50002597272
  31
0.0
   0
LINE
   5
1F6
 100
AcDbEntity
   8
LEVEL001
 100
AcDbLine
   6
DASHDOT
  62
1
  10
 1385.0000000000
  20
 897.50001175702
  30
0.0
  11
 1385.0000000000
  21
 1017.4999930710
  31
0.0
   0
LINE
   5
1F7
 100
AcDbEntity
   8
LEVEL001
 100
AcDbLine
   6
DOT
  62
3
  10
 675.00003656745
  20
 897.50001175702
  30
0.0
  11
 1417.9999999999
  21
 897.50001175702
  31
0.0
   0
LINE
   5
1F8
 100
AcDbEntity
   8
LEVEL001
 100
AcDbLine
   6
DOT
  62
3
  10
 1297.0000346899
  20
 864.99998220801
  30
0.0
  11
 595.00002369285
  21
 864.99998220801
  31
0.0
   0
LINE
   5
1F9
 100
AcDbEntity
   8
LEVEL001
 100
AcDbLine
   6
DOT
  62
3
  10
 1297.0000346899
  20
 695.00004908442
  30
0.0
  11
 595.00002369285
  21
 695.00004908442
  31
0.0
   0
LINE
   5
1FA
 100
AcDbEntity
   8
LEVEL001
 100
AcDbLine
   6
DOT
  62
3
  10
 675.00003656745
  20
 662.50001953542
  30
0.0
  11
 1417.9999999999
  21
 662.50001953542
  31
0.0
   0
LINE
   5
1FB
 100
AcDbEntity
   8
LEVEL001
 100
AcDbLine
   6
CONTINUOUS
  62
3
  10
 745.52539457305
  20
 942.59090716866
  30
0.0
  11
 745.68451355378
  21
 937.50002597272
  31
0.0
   0
LINE
   5
1FC
 100
AcDbEntity
   8
LEVEL001
 100
AcDbLine
   6
CONTINUOUS
  62
7
  10
 744.21001070112
  20
 947.50001041591
  30
0.0
  11
 744.52252238917
  21
 937.50002597272
  31
0.0
   0
LINE
   5
1FD
 100
AcDbEntity
   8
LEVEL001
 100
AcDbLine
   6
CONTINUOUS
  62
3
  10
 764.47456698195
  20
 942.59072406320
  30
0.0
  11
 764.31548613981
  21
 937.50002597272
  31
0.0
   0
LINE
   5
1FE
 100
AcDbEntity
   8
LEVEL001
 100
AcDbLine
   6
CONTINUOUS
  62
7
  10
 765.79004240662
  20
 947.50001041591
  30
0.0
  11
 765.47750560919
  21
 937.50002597272
  31
0.0
   0
LINE
   5
1FF
 100
AcDbEntity
   8
LEVEL001
 100
AcDbLine
   6
CONTINUOUS
  62
7
  10
 1374.2100070354
  20
 947.50001041591
  30
0.0
  11
 1374.5225187235
  21
 937.50002597272
  31
0.0
   0
LINE
   5
200
 100
AcDbEntity
   8
LEVEL001
 100
AcDbLine
   6
CONTINUOUS
  62
3
  10
 1375.5253909074
  20
 942.59090716866
  30
0.0
  11
 1375.6845098881
  21
 937.50002597272
  31
0.0
   0
LINE
   5
201
 100
AcDbEntity
   8
LEVEL001
 100
AcDbLine
   6
CONTINUOUS
  62
3
  10
 1394.4745633163
  20
 942.59072406320
  30
0.0
  11
 1394.3154824741
  21
 937.50002597272
  31
0.0
   0
LINE
   5
202
 100
AcDbEntity
   8
LEVEL001
 100
AcDbLine
   6
CONTINUOUS
  62
7
  10
 1395.7900387409
  20
 947.50001041591
  30
0.0
  11
 1395.4775019435
  21
 937.50002597272
  31
0.0
   0
LEADER
   5
203
 100
AcDbEntity
   8
LEVEL003
   6
CONTINUOUS
  62
3
 100
AcDbLeader
   3
GMM009
  73
0
  74
1
  75
0
  40
 16.000000000000
  41
0.0
  76
3
  10
 1395.4775019435
  20
 937.50002597272
  30
0.0
  10
 1413.3333726724
  20
 960.00002086163
  30
0.0
  10
 1493.3333726724
  20
 960.00002086163
  30
0.0
  77
3
   0
TEXT
   5
204
 100
AcDbEntity
   8
LEVEL003
  62
3
 100
AcDbText
  10
 1420.0000295043
  20
 959.99999463558
  30
0.0
  40
 11.999999642372
   1
Ｒ１／２
   7
STANDARD
 100
AcDbText
   0
LINE
   5
205
 100
AcDbEntity
   8
LEVEL001
 100
AcDbLine
   6
CONTINUOUS
  62
7
  10
 1495.0000306666
  20
 937.50002597272
  30
0.0
  11
 1495.0000306666
  21
 780.00000000000
  31
0.0
   0
LINE
   5
206
 100
AcDbEntity
   8
LEVEL001
 100
AcDbLine
   6
CONTINUOUS
  62
7
  10
 1495.0000306666
  20
 622.50002614757
  30
0.0
  11
 1495.0000306666
  21
 780.00000000000
  31
0.0
   0
LINE
   5
207
 100
AcDbEntity
   8
LEVEL001
 100
AcDbLine
   6
CONTINUOUS
  62
7
  10
 590.00005435943
  20
 863.49998225272
  30
0.0
  11
 590.00005435943
  21
 780.00000000000
  31
0.0
   0
LINE
   5
208
 100
AcDbEntity
   8
LEVEL001
 100
AcDbLine
   6
CONTINUOUS
  62
7
  10
 584.00005453825
  20
 780.00000000000
  30
0.0
  11
 584.00005453825
  21
 870.49996678531
  31
0.0
   0
LINE
   5
209
 100
AcDbEntity
   8
LEVEL001
 100
AcDbLine
   6
CONTINUOUS
  62
7
  10
 590.00005435943
  20
 696.50004903972
  30
0.0
  11
 590.00005435943
  21
 780.00000000000
  31
0.0
   0
LINE
   5
20A
 100
AcDbEntity
   8
LEVEL001
 100
AcDbLine
   6
CONTINUOUS
  62
7
  10
 584.00005453825
  20
 780.00000000000
  30
0.0
  11
 584.00005453825
  21
 689.50006450712
  31
0.0
   0
LINE
   5
20B
 100
AcDbEntity
   8
LEVEL001
 100
AcDbLine
   6
CONTINUOUS
  62
7
  10
 599.99999302626
  20
 780.00000000000
  30
0.0
  11
 599.99999302626
  21
 933.00001077354
  31
0.0
   0
LINE
   5
20C
 100
AcDbEntity
   8
LEVEL001
 100
AcDbLine
   6
CONTINUOUS
  62
3
  10
 599.99999302626
  20
 933.00001077354
  30
0.0
  11
 700.00002056360
  21
 933.00001077354
  31
0.0
   0
LINE
   5
20D
 100
AcDbEntity
   8
LEVEL001
 100
AcDbLine
   6
CONTINUOUS
  62
3
  10
 700.00002056360
  20
 780.00000000000
  30
0.0
  11
 700.00002056360
  21
 935.00002597272
  31
0.0
   0
LINE
   5
20E
 100
AcDbEntity
   8
LEVEL001
 100
AcDbLine
   6
CONTINUOUS
  62
7
  10
 595.00002369285
  20
 780.00000000000
  30
0.0
  11
 595.00002369285
  21
 931.50001081824
  31
0.0
   0
LINE
   5
20F
 100
AcDbEntity
   8
LEVEL001
 100
AcDbLine
   6
CONTINUOUS
  62
7
  10
 710.00002056360
  20
 780.00000000000
  30
0.0
  11
 710.00002056360
  21
 936.50002597272
  31
0.0
   0
LINE
   5
210
 100
AcDbEntity
   8
LEVEL001
 100
AcDbLine
   6
CONTINUOUS
  62
7
  10
 599.99999302626
  20
 780.00000000000
  30
0.0
  11
 599.99999302626
  21
 627.00002051890
  31
0.0
   0
LINE
   5
211
 100
AcDbEntity
   8
LEVEL001
 100
AcDbLine
   6
CONTINUOUS
  62
3
  10
 599.99999302626
  20
 627.00002051890
  30
0.0
  11
 700.00002056360
  21
 627.00002051890
  31
0.0
   0
LINE
   5
212
 100
AcDbEntity
   8
LEVEL001
 100
AcDbLine
   6
CONTINUOUS
  62
3
  10
 700.00002056360
  20
 780.00000000000
  30
0.0
  11
 700.00002056360
  21
 625.00000531971
  31
0.0
   0
LINE
   5
213
 100
AcDbEntity
   8
LEVEL001
 100
AcDbLine
   6
CONTINUOUS
  62
7
  10
 595.00002369285
  20
 780.00000000000
  30
0.0
  11
 595.00002369285
  21
 628.50002047419
  31
0.0
   0
LINE
   5
214
 100
AcDbEntity
   8
LEVEL001
 100
AcDbLine
   6
CONTINUOUS
  62
7
  10
 710.00002056360
  20
 780.00000000000
  30
0.0
  11
 710.00002056360
  21
 623.50000531971
  31
0.0
   0
LINE
   5
215
 100
AcDbEntity
   8
LEVEL001
 100
AcDbLine
   6
DOT
  62
3
  10
 510.00004148483
  20
 852.99998256564
  30
0.0
  11
 512.00005668402
  21
 854.99999776483
  31
0.0
   0
LINE
   5
216
 100
AcDbEntity
   8
LEVEL001
 100
AcDbLine
   6
DOT
  62
3
  10
 512.00005668402
  20
 854.99999776483
  30
0.0
  11
 584.00005453825
  21
 854.99999776483
  31
0.0
   0
ARC
   5
217
 100
AcDbEntity
   8
LEVEL001
   6
DOT
  62
3
 100
AcDbCircle
  10
 512.00004148477
  20
 852.99999776492
  30
0.0
  40
 2.0000000000000
 100
AcDbArc
  50
 89.999564573799
  51
 180.00043542721
   0
LINE
   5
218
 100
AcDbEntity
   8
LEVEL001
 100
AcDbLine
   6
DOT
  62
3
  10
 582.00003933906
  20
 852.99998256564
  30
0.0
  11
 586.00002396107
  21
 852.99998256564
  31
0.0
   0
LINE
   5
219
 100
AcDbEntity
   8
LEVEL001
 100
AcDbLine
   6
DOT
  62
3
  10
 510.00004148483
  20
 707.00004872680
  30
0.0
  11
 512.00005668402
  21
 705.00003352761
  31
0.0
   0
LINE
   5
21A
 100
AcDbEntity
   8
LEVEL001
 100
AcDbLine
   6
DOT
  62
3
  10
 512.00005668402
  20
 705.00003352761
  30
0.0
  11
 584.00005453825
  21
 705.00003352761
  31
0.0
   0
ARC
   5
21B
 100
AcDbEntity
   8
LEVEL001
   6
DOT
  62
3
 100
AcDbCircle
  10
 512.00004148477
  20
 707.00003352756
  30
0.0
  40
 2.0000000000000
 100
AcDbArc
  50
 179.99956457389
  51
 270.00043542613
   0
LINE
   5
21C
 100
AcDbEntity
   8
LEVEL001
 100
AcDbLine
   6
DOT
  62
3
  10
 582.00003933906
  20
 707.00004872680
  30
0.0
  11
 586.00002396107
  21
 707.00004872680
  31
0.0
   0
LINE
   5
21D
 100
AcDbEntity
   8
LEVEL001
 100
AcDbLine
   6
DOT
  62
3
  10
 510.00004148483
  20
 852.99998256564
  30
0.0
  11
 510.00004148483
  21
 707.00004872680
  31
0.0
   0
LINE
   5
21E
 100
AcDbEntity
   8
LEVEL001
 100
AcDbLine
   6
DOT
  62
3
  10
 584.00005453825
  20
 854.99999776483
  30
0.0
  11
 582.00003933906
  21
 852.99998256564
  31
0.0
   0
LINE
   5
21F
 100
AcDbEntity
   8
LEVEL001
 100
AcDbLine
   6
DOT
  62
3
  10
 582.00003933906
  20
 852.99998256564
  30
0.0
  11
 510.00004148483
  21
 852.99998256564
  31
0.0
   0
LINE
   5
220
 100
AcDbEntity
   8
LEVEL001
 100
AcDbLine
   6
DOT
  62
3
  10
 584.00005453825
  20
 705.00003352761
  30
0.0
  11
 582.00003933906
  21
 707.00004872680
  31
0.0
   0
LINE
   5
221
 100
AcDbEntity
   8
LEVEL001
 100
AcDbLine
   6
DOT
  62
3
  10
 582.00003933906
  20
 707.00004872680
  30
0.0
  11
 510.00004148483
  21
 707.00004872680
  31
0.0
   0
ARC
   5
222
 100
AcDbEntity
   8
LEVEL001
   6
CONTINUOUS
  62
7
 100
AcDbCircle
  10
 889.00006356848
  20
 779.99990278898
  30
0.0
  40
 37.499996021390
 100
AcDbArc
  50
 197.05749398617
  51
 162.94214527873
   0
LINE
   5
223
 100
AcDbEntity
   8
LEVEL001
 100
AcDbLine
   6
CONTINUOUS
  62
7
  10
 827.00004729628
  20
 780.00003129244
  30
0.0
  11
 827.00004729628
  21
 790.00001573563
  31
0.0
   0
LINE
   5
224
 100
AcDbEntity
   8
LEVEL001
 100
AcDbLine
   6
CONTINUOUS
  62
7
  10
 827.00004729628
  20
 790.00001573563
  30
0.0
  11
 863.00004622340
  21
 790.00001573563
  31
0.0
   0
LINE
   5
225
 100
AcDbEntity
   8
LEVEL001
 100
AcDbLine
   6
CONTINUOUS
  62
7
  10
 863.00004622340
  20
 790.00001573563
  30
0.0
  11
 863.00004622340
  21
 780.00003129244
  31
0.0
   0
LINE
   5
226
 100
AcDbEntity
   8
LEVEL001
 100
AcDbLine
   6
CONTINUOUS
  62
7
  10
 826.00006258488
  20
 780.00003129244
  30
0.0
  11
 826.00006258488
  21
 791.00004622340
  31
0.0
   0
LINE
   5
227
 100
AcDbEntity
   8
LEVEL001
 100
AcDbLine
   6
CONTINUOUS
  62
7
  10
 826.00006258488
  20
 791.00004622340
  30
0.0
  11
 864.00003093481
  21
 791.00004622340
  31
0.0
   0
LINE
   5
228
 100
AcDbEntity
   8
LEVEL001
 100
AcDbLine
   6
CONTINUOUS
  62
7
  10
 864.00003093481
  20
 791.00004622340
  30
0.0
  11
 864.00003093481
  21
 780.00003129244
  31
0.0
   0
LINE
   5
229
 100
AcDbEntity
   8
LEVEL001
 100
AcDbLine
   6
CONTINUOUS
  62
7
  10
 863.00004622340
  20
 790.00001573563
  30
0.0
  11
 864.00003093481
  21
 791.00004622340
  31
0.0
   0
ARC
   5
22A
 100
AcDbEntity
   8
LEVEL001
   6
CONTINUOUS
  62
7
 100
AcDbCircle
  10
 889.00004926327
  20
 780.00005336425
  30
0.0
  40
 50.499994680286
 100
AcDbArc
  50
 192.58120865943
  51
 167.41887903370
   0
LINE
   5
22B
 100
AcDbEntity
   8
LEVEL001
 100
AcDbLine
   6
CONTINUOUS
  62
7
  10
 827.00004729628
  20
 770.00001555681
  30
0.0
  11
 826.00006258488
  21
 768.99998506904
  31
0.0
   0
LINE
   5
22C
 100
AcDbEntity
   8
LEVEL001
 100
AcDbLine
   6
CONTINUOUS
  62
7
  10
 827.00004729628
  20
 780.00000000000
  30
0.0
  11
 827.00004729628
  21
 770.00001555681
  31
0.0
   0
LINE
   5
22D
 100
AcDbEntity
   8
LEVEL001
 100
AcDbLine
   6
CONTINUOUS
  62
7
  10
 827.00004729628
  20
 770.00001555681
  30
0.0
  11
 863.00004622340
  21
 770.00001555681
  31
0.0
   0
LINE
   5
22E
 100
AcDbEntity
   8
LEVEL001
 100
AcDbLine
   6
CONTINUOUS
  62
7
  10
 863.00004622340
  20
 770.00001555681
  30
0.0
  11
 863.00004622340
  21
 780.00000000000
  31
0.0
   0
LINE
   5
22F
 100
AcDbEntity
   8
LEVEL001
 100
AcDbLine
   6
CONTINUOUS
  62
7
  10
 826.00006258488
  20
 780.00000000000
  30
0.0
  11
 826.00006258488
  21
 768.99998506904
  31
0.0
   0
LINE
   5
230
 100
AcDbEntity
   8
LEVEL001
 100
AcDbLine
   6
CONTINUOUS
  62
7
  10
 826.00006258488
  20
 768.99998506904
  30
0.0
  11
 864.00003093481
  21
 768.99998506904
  31
0.0
   0
LINE
   5
231
 100
AcDbEntity
   8
LEVEL001
 100
AcDbLine
   6
CONTINUOUS
  62
7
  10
 864.00003093481
  20
 768.99998506904
  30
0.0
  11
 864.00003093481
  21
 780.00000000000
  31
0.0
   0
LINE
   5
232
 100
AcDbEntity
   8
LEVEL001
 100
AcDbLine
   6
CONTINUOUS
  62
7
  10
 582.00008511543
  20
 872.49998198450
  30
0.0
  11
 582.00008511543
  21
 780.00000000000
  31
0.0
   0
LINE
   5
233
 100
AcDbEntity
   8
LEVEL001
 100
AcDbLine
   6
CONTINUOUS
  62
7
  10
 482.00005757809
  20
 872.49998198450
  30
0.0
  11
 482.00005757809
  21
 780.00000000000
  31
0.0
   0
LINE
   5
234
 100
AcDbEntity
   8
LEVEL001
 100
AcDbLine
   6
CONTINUOUS
  62
7
  10
 482.00005757809
  20
 687.50001801550
  30
0.0
  11
 482.00005757809
  21
 780.00000000000
  31
0.0
   0
LINE
   5
235
 100
AcDbEntity
   8
LEVEL001
 100
AcDbLine
   6
CONTINUOUS
  62
7
  10
 582.00008511543
  20
 687.50001801550
  30
0.0
  11
 582.00008511543
  21
 780.00000000000
  31
0.0
   0
TEXT
   5
236
 100
AcDbEntity
   8
LEVEL003
  62
7
 100
AcDbText
  10
 1414.1938389855
  20
 292.34040517674
  30
0.0
  40
 20.000000000000
   1
ＯＳＡＫＡ ＪＡＣＫ
   7
STANDARD
 100
AcDbText
   0
CIRCLE
   5
237
 100
AcDbEntity
   8
LEVEL003
 100
AcDbCircle
   6
CONTINUOUS
  62
7
  10
 1373.3010112848
  20
 305.76834885181
  30
0.0
  40
 6.0000000000000
   0
LINE
   5
238
 100
AcDbEntity
   8
LEVEL003
 100
AcDbLine
   6
CONTINUOUS
  62
7
  10
 1385.0770112848
  20
 311.76834885181
  30
0.0
  11
 1377.4590112848
  21
 298.56834885181
  31
0.0
   0
LINE
   5
239
 100
AcDbEntity
   8
LEVEL003
 100
AcDbLine
   6
CONTINUOUS
  62
7
  10
 1377.4590112848
  20
 298.56834885181
  30
0.0
  11
 1362.2170112848
  21
 298.56834885181
  31
0.0
   0
LINE
   5
23A
 100
AcDbEntity
   8
LEVEL003
 100
AcDbLine
   6
CONTINUOUS
  62
7
  10
 1360.4830112848
  20
 295.56834885181
  30
0.0
  11
 1387.7250112848
  21
 295.56834885181
  31
0.0
   0
LINE
   5
23B
 100
AcDbEntity
   8
LEVEL003
 100
AcDbLine
   6
CONTINUOUS
  62
7
  10
 1387.7250112848
  20
 295.56834885181
  30
0.0
  11
 1397.0770112848
  21
 311.76834885181
  31
0.0
   0
LINE
   5
23C
 100
AcDbEntity
   8
LEVEL003
 100
AcDbLine
   6
CONTINUOUS
  62
7
  10
 1397.0770112848
  20
 311.76834885181
  30
0.0
  11
 1385.0770112848
  21
 311.76834885181
  31
0.0
   0
LINE
   5
23D
 100
AcDbEntity
   8
LEVEL003
 100
AcDbLine
   6
CONTINUOUS
  62
7
  10
 1362.2170112848
  20
 298.56834885181
  30
0.0
  11
 1360.4830112848
  21
 295.56834885181
  31
0.0
   0
TEXT
   5
23E
 100
AcDbEntity
   8
LEVEL003
  62
7
 100
AcDbText
  10
 1420.0158389855
  20
 326.12720517674
  30
0.0
  40
 12.000000000000
   1
Model : ＥＴ３００Ｈ５０
   7
STANDARD
 100
AcDbText
   0
ENDSEC
  0
SECTION
  2
OBJECTS
  0
DICTIONARY
  5
C
100
AcDbDictionary
  3
ACAD_GROUP
350
D
  3
ACAD_MLINESTYLE
350
1B
  0
DICTIONARY
  5
D
102
{ACAD_REACTORS
330
C
102
}
100
AcDbDictionary
  0
DICTIONARY
  5
1B
102
{ACAD_REACTORS
330
C
102
}
100
AcDbDictionary
  3
STANDARD
350
1C
  0
MLINESTYLE
  5
1C
102
{ACAD_REACTORS
330
1B
102
}
100
AcDbMlineStyle
  2
STANDARD
 70
     0
  3

 62
   256
 51
90.0
 52
90.0
 71
     2
 49
0.5
 62
   256
  6
BYLAYER
 49
-0.5
 62
   256
  6
BYLAYER
  0
ENDSEC
   0
EOF
