   0
SECTION
   2
HEADER
   9
$ACADVER
   1
AC1014
   9
$LIMMIN
  10
0.0
  20
0.0
   9
$LIMMAX
  10
 2100.0000000000
  20
 1485.0000000000
   9
$EXTMIN
  10
0.0
  20
0.0
  30
0.0
   9
$EXTMAX
  10
 2100.0000000000
  20
 1485.0000000000
  30
0.0
   9
$LTSCALE
  40
 42.000000000000
   9
$HANDSEED
   5
248
   0
ENDSEC
   0
SECTION
   2
TABLES
  0
TABLE
  2
VPORT
  5
8
100
AcDbSymbolTable
 70
     1
  0
VPORT
  5
247
100
AcDbSymbolTableRecord
100
AcDbViewportTableRecord
  2
*ACTIVE
 70
     0
 10
0.0
 20
0.0
 11
1.0
 21
1.0
  12
 1050.0000000000
  22
 742.50000000000
 13
0.0
 23
0.0
 14
1.0
 24
1.0
 15
0.0
 25
0.0
 16
0.0
 26
0.0
 36
1.0
 17
0.0
 27
0.0
 37
0.0
  40
 2100.0000000000
  41
 1.4787878787879
 42
50.0
 43
0.0
 44
0.0
 50
0.0
 51
0.0
 71
     0
 72
   100
 73
     1
 74
     1
 75
     0
 76
     0
 77
     0
 78
     0
  0
ENDTAB
  0
TABLE
  2
LTYPE
  5
5
100
AcDbSymbolTable
 70
    25
  0
LTYPE
  5
12
100
AcDbSymbolTableRecord
100
AcDbLinetypeTableRecord
  2
BYBLOCK
 70
     0
  3

 72
    65
 73
     0
 40
0.0
  0
LTYPE
  5
13
100
AcDbSymbolTableRecord
100
AcDbLinetypeTableRecord
  2
BYLAYER
 70
     0
  3

 72
    65
 73
     0
 40
0.0
  0
LTYPE
  5
14
100
AcDbSymbolTableRecord
100
AcDbLinetypeTableRecord
  2
CONTINUOUS
 70
     0
  3
Solid line
 72
    65
 73
     0
 40
0.0
  0
LTYPE
  5
20
100
AcDbSymbolTableRecord
100
AcDbLinetypeTableRecord
  2
BORDER
 70
     0
  3
__ __ . __ __ . __ __ . __ __ . __ __ . __ __ .
 72
    65
 73
     6
 40
1.75
 49
0.5
 74
     0
 49
-0.25
 74
     0
 49
0.5
 74
     0
 49
-0.25
 74
     0
 49
0.0
 74
     0
 49
-0.25
 74
     0
  0
LTYPE
  5
21
100
AcDbSymbolTableRecord
100
AcDbLinetypeTableRecord
  2
BORDER2
 70
     0
  3
__.__.__.__.__.__.__.__.__.__.__.__.__.__.__.__
 72
    65
 73
     6
 40
0.875
 49
0.25
 74
     0
 49
-0.125
 74
     0
 49
0.25
 74
     0
 49
-0.125
 74
     0
 49
0.0
 74
     0
 49
-0.125
 74
     0
  0
LTYPE
  5
22
100
AcDbSymbolTableRecord
100
AcDbLinetypeTableRecord
  2
BORDERX2
 70
     0
  3
____  ____  .  ____  ____  .  ____  ____  .  __
 72
    65
 73
     6
 40
3.5
 49
1.0
 74
     0
 49
-0.5
 74
     0
 49
1.0
 74
     0
 49
-0.5
 74
     0
 49
0.0
 74
     0
 49
-0.5
 74
     0
  0
LTYPE
  5
23
100
AcDbSymbolTableRecord
100
AcDbLinetypeTableRecord
  2
CENTER
 70
     0
  3
____ _ ____ _ ____ _ ____ _ ____ _ ____ _ ____ 
 72
    65
 73
     4
 40
2.0
 49
1.25
 74
     0
 49
-0.25
 74
     0
 49
0.25
 74
     0
 49
-0.25
 74
     0
  0
LTYPE
  5
24
100
AcDbSymbolTableRecord
100
AcDbLinetypeTableRecord
  2
CENTER2
 70
     0
  3
___ _ ___ _ ___ _ ___ _ ___ _ ___ _ ___ _ ___ _
 72
    65
 73
     4
 40
1.125
 49
0.75
 74
     0
 49
-0.125
 74
     0
 49
0.125
 74
     0
 49
-0.125
 74
     0
  0
LTYPE
  5
25
100
AcDbSymbolTableRecord
100
AcDbLinetypeTableRecord
  2
CENTERX2
 70
     0
  3
________  __  ________  __  ________  __  _____
 72
    65
 73
     4
 40
4.0
 49
2.5
 74
     0
 49
-0.5
 74
     0
 49
0.5
 74
     0
 49
-0.5
 74
     0
  0
LTYPE
  5
26
100
AcDbSymbolTableRecord
100
AcDbLinetypeTableRecord
  2
DASHDOT
 70
     0
  3
__ . __ . __ . __ . __ . __ . __ . __ . __ . __
 72
    65
 73
     4
 40
1.0
 49
0.5
 74
     0
 49
-0.25
 74
     0
 49
0.0
 74
     0
 49
-0.25
 74
     0
  0
LTYPE
  5
27
100
AcDbSymbolTableRecord
100
AcDbLinetypeTableRecord
  2
DASHDOT2
 70
     0
  3
_._._._._._._._._._._._._._._._._._._._._._._._
 72
    65
 73
     4
 40
0.5
 49
0.25
 74
     0
 49
-0.125
 74
     0
 49
0.0
 74
     0
 49
-0.125
 74
     0
  0
LTYPE
  5
28
100
AcDbSymbolTableRecord
100
AcDbLinetypeTableRecord
  2
DASHDOTX2
 70
     0
  3
____  .  ____  .  ____  .  ____  .  ____  .  __
 72
    65
 73
     4
 40
2.0
 49
1.0
 74
     0
 49
-0.5
 74
     0
 49
0.0
 74
     0
 49
-0.5
 74
     0
  0
LTYPE
  5
29
100
AcDbSymbolTableRecord
100
AcDbLinetypeTableRecord
  2
DASHED
 70
     0
  3
__ __ __ __ __ __ __ __ __ __ __ __ __ __ __ __
 72
    65
 73
     2
 40
0.75
 49
0.5
 74
     0
 49
-0.25
 74
     0
  0
LTYPE
  5
2A
100
AcDbSymbolTableRecord
100
AcDbLinetypeTableRecord
  2
DASHED2
 70
     0
  3
_ _ _ _ _ _ _ _ _ _ _ _ _ _ _ _ _ _ _ _ _ _ _ _
 72
    65
 73
     2
 40
0.375
 49
0.25
 74
     0
 49
-0.125
 74
     0
  0
LTYPE
  5
2B
100
AcDbSymbolTableRecord
100
AcDbLinetypeTableRecord
  2
DASHEDX2
 70
     0
  3
____  ____  ____  ____  ____  ____  ____  ____ 
 72
    65
 73
     2
 40
1.5
 49
1.0
 74
     0
 49
-0.5
 74
     0
  0
LTYPE
  5
2C
100
AcDbSymbolTableRecord
100
AcDbLinetypeTableRecord
  2
DIVIDE
 70
     0
  3
____ . . ____ . . ____ . . ____ . . ____ . . __
 72
    65
 73
     6
 40
1.25
 49
0.5
 74
     0
 49
-0.25
 74
     0
 49
0.0
 74
     0
 49
-0.25
 74
     0
 49
0.0
 74
     0
 49
-0.25
 74
     0
  0
LTYPE
  5
2D
100
AcDbSymbolTableRecord
100
AcDbLinetypeTableRecord
  2
DIVIDE2
 70
     0
  3
__..__..__..__..__..__..__..__..__..__..__..__.
 72
    65
 73
     6
 40
0.625
 49
0.25
 74
     0
 49
-0.125
 74
     0
 49
0.0
 74
     0
 49
-0.125
 74
     0
 49
0.0
 74
     0
 49
-0.125
 74
     0
  0
LTYPE
  5
2E
100
AcDbSymbolTableRecord
100
AcDbLinetypeTableRecord
  2
DIVIDEX2
 70
     0
  3
________  .  .  ________  .  .  ________  .  . 
 72
    65
 73
     6
 40
2.5
 49
1.0
 74
     0
 49
-0.5
 74
     0
 49
0.0
 74
     0
 49
-0.5
 74
     0
 49
0.0
 74
     0
 49
-0.5
 74
     0
  0
LTYPE
  5
2F
100
AcDbSymbolTableRecord
100
AcDbLinetypeTableRecord
  2
DOT
 70
     0
  3
. . . . . . . . . . . . . . . . . . . . . . . .
 72
    65
 73
     2
 40
0.25
 49
0.0
 74
     0
 49
-0.25
 74
     0
  0
LTYPE
  5
30
100
AcDbSymbolTableRecord
100
AcDbLinetypeTableRecord
  2
DOT2
 70
     0
  3
...............................................
 72
    65
 73
     2
 40
0.125
 49
0.0
 74
     0
 49
-0.125
 74
     0
  0
LTYPE
  5
31
100
AcDbSymbolTableRecord
100
AcDbLinetypeTableRecord
  2
DOTX2
 70
     0
  3
.  .  .  .  .  .  .  .  .  .  .  .  .  .  .  . 
 72
    65
 73
     2
 40
0.5
 49
0.0
 74
     0
 49
-0.5
 74
     0
  0
LTYPE
  5
32
100
AcDbSymbolTableRecord
100
AcDbLinetypeTableRecord
  2
HIDDEN
 70
     0
  3
__ __ __ __ __ __ __ __ __ __ __ __ __ __ __ __
 72
    65
 73
     2
 40
0.375
 49
0.25
 74
     0
 49
-0.125
 74
     0
  0
LTYPE
  5
33
100
AcDbSymbolTableRecord
100
AcDbLinetypeTableRecord
  2
HIDDEN2
 70
     0
  3
_ _ _ _ _ _ _ _ _ _ _ _ _ _ _ _ _ _ _ _ _ _ _ _
 72
    65
 73
     2
 40
0.1875
 49
0.125
 74
     0
 49
-0.0625
 74
     0
  0
LTYPE
  5
34
100
AcDbSymbolTableRecord
100
AcDbLinetypeTableRecord
  2
HIDDENX2
 70
     0
  3
____ ____ ____ ____ ____ ____ ____ ____ ____ __
 72
    65
 73
     2
 40
0.75
 49
0.5
 74
     0
 49
-0.25
 74
     0
  0
LTYPE
  5
35
100
AcDbSymbolTableRecord
100
AcDbLinetypeTableRecord
  2
PHANTOM
 70
     0
  3
______  __  __  ______  __  __  ______  __  __ 
 72
    65
 73
     6
 40
2.5
 49
1.25
 74
     0
 49
-0.25
 74
     0
 49
0.25
 74
     0
 49
-0.25
 74
     0
 49
0.25
 74
     0
 49
-0.25
 74
     0
  0
LTYPE
  5
36
100
AcDbSymbolTableRecord
100
AcDbLinetypeTableRecord
  2
PHANTOM2
 70
     0
  3
___ _ _ ___ _ _ ___ _ _ ___ _ _ ___ _ _ ___ _ _
 72
    65
 73
     6
 40
1.25
 49
0.625
 74
     0
 49
-0.125
 74
     0
 49
0.125
 74
     0
 49
-0.125
 74
     0
 49
0.125
 74
     0
 49
-0.125
 74
     0
  0
LTYPE
  5
37
100
AcDbSymbolTableRecord
100
AcDbLinetypeTableRecord
  2
PHANTOMX2
 70
     0
  3
____________    ____    ____    ____________   
 72
    65
 73
     6
 40
5.0
 49
2.5
 74
     0
 49
-0.5
 74
     0
 49
0.5
 74
     0
 49
-0.5
 74
     0
 49
0.5
 74
     0
 49
-0.5
 74
     0
  0
ENDTAB
   0
TABLE
   2
LAYER
   5
2
 100
AcDbSymbolTable
  70
6
   0
LAYER
   5
E
 100
AcDbSymbolTableRecord
 100
AcDbLayerTableRecord
   2
0
  70
0
  62
7
   6
CONTINUOUS
   0
LAYER
   5
39
 100
AcDbSymbolTableRecord
 100
AcDbLayerTableRecord
   2
LEVEL001
  70
0
  62
7
   6
CONTINUOUS
   0
LAYER
   5
3A
 100
AcDbSymbolTableRecord
 100
AcDbLayerTableRecord
   2
LEVEL003
  70
0
  62
7
   6
CONTINUOUS
   0
LAYER
   5
3B
 100
AcDbSymbolTableRecord
 100
AcDbLayerTableRecord
   2
LEVEL020
  70
0
  62
7
   6
CONTINUOUS
   0
LAYER
   5
3C
 100
AcDbSymbolTableRecord
 100
AcDbLayerTableRecord
   2
LEVEL050
  70
0
  62
7
   6
CONTINUOUS
   0
LAYER
   5
3D
 100
AcDbSymbolTableRecord
 100
AcDbLayerTableRecord
   2
LEVEL110
  70
0
  62
7
   6
CONTINUOUS
   0
ENDTAB
  0
TABLE
  2
STYLE
  5
3
100
AcDbSymbolTable
  70
3
  0
STYLE
  5
F
100
AcDbSymbolTableRecord
100
AcDbTextStyleTableRecord
  2
STANDARD
 70
     0
 40
0.0
 41
1.0
 50
0.0
 71
     0
 42
0.2
  3
TXT
  4
BIGFONT
  0
STYLE
  5
38
100
AcDbSymbolTableRecord
100
AcDbTextStyleTableRecord
  2
STANDARD1
 70
     4
 40
0.0
 41
1.0
 50
0.0
 71
     0
 42
0.2
  3
TXT
  4
BIGFONT
   0
STYLE
   5
3E
 100
AcDbSymbolTableRecord
 100
AcDbTextStyleTableRecord
   2
GMM001
  70
0
  40
0.0
  41
 1.0000000000000
  50
0.0
  71
     0
  42
1.0
   3
txt.shx
   4
bigfont.shx
   0
ENDTAB
  0
TABLE
  2
VIEW
  5
6
100
AcDbSymbolTable
 70
     0
  0
ENDTAB
  0
TABLE
  2
UCS
  5
7
100
AcDbSymbolTable
 70
     0
  0
ENDTAB
  0
TABLE
  2
APPID
  5
9
100
AcDbSymbolTable
 70
     1
  0
APPID
  5
10
100
AcDbSymbolTableRecord
100
AcDbRegAppTableRecord
  2
ACAD
 70
     0
  0
ENDTAB
   0
TABLE
   2
DIMSTYLE
   5
A
 100
AcDbSymbolTable
  70
12
  0
DIMSTYLE
105
1D
100
AcDbSymbolTableRecord
100
AcDbDimStyleTableRecord
  2
STANDARD
 70
     0
  3

  4

  5

  6

  7

 40
1.0
 41
0.18
 42
0.0625
 43
0.38
 44
0.18
 45
0.0
 46
0.0
 47
0.0
 48
0.0
140
0.18
141
0.09
142
0.0
143
25.4
144
1.0
145
0.0
146
1.0
147
0.09
 71
     0
 72
     0
 73
     1
 74
     1
 75
     0
 76
     0
 77
     0
 78
     0
170
     0
171
     2
172
     0
173
     0
174
     0
175
     0
176
     0
177
     0
178
     0
270
     2
271
     4
272
     4
273
     2
274
     2
340
F
275
     0
280
     0
281
     0
282
     0
283
     1
284
     0
285
     0
286
     0
287
     3
288
     0
   0
DIMSTYLE
 105
3F
 100
AcDbSymbolTableRecord
 100
AcDbDimStyleTableRecord
   2
GMM001
  70
0
   3

   4

   5

   6
_OPEN
   7
_OPEN
  40
 1.0000000000000
  41
 15.000000000000
  42
 5.0000000000000
  43
 0.10000000000000E-5
  44
 10.000000000000
  45
0.0
  46
0.0
  47
0.0
  48
0.0
 140
 20.000000000000
 141
 5.0000000000000
 142
0.0
 143
 0.39400000000000E-1
 144
 1.0000000000000
 145
0.0
 146
 0.62500000000000
 147
 4.0000152587891
  71
0
  72
0
  73
0
  74
0
  75
1
  76
1
  77
3
  78
0
 170
0
 171
2
 172
1
 173
1
 174
0
 175
0
 176
3
 177
3
 178
3
 270
2
 271
0
 272
0
 273
2
 274
2
 340
3E
 275
1
 280
0
 281
0
 282
0
 283
1
 284
0
 285
0
 286
0
 287
3
 288
1
   0
DIMSTYLE
 105
40
 100
AcDbSymbolTableRecord
 100
AcDbDimStyleTableRecord
   2
GMM002
  70
0
   3

   4

   5

   6
_OPEN
   7
_OPEN
  40
 1.0000000000000
  41
 15.000000000000
  42
 5.0000000000000
  43
 40.000000000000
  44
 10.000000000000
  45
0.0
  46
0.0
  47
0.0
  48
0.0
 140
 20.000000000000
 141
 5.0000000000000
 142
0.0
 143
 0.39400000000000E-1
 144
 1.0000000000000
 145
0.0
 146
 0.62500000000000
 147
 4.0000000000000
  71
0
  72
0
  73
0
  74
0
  75
1
  76
1
  77
3
  78
8
 170
0
 171
2
 172
1
 173
1
 174
0
 175
0
 176
3
 177
3
 178
3
 270
2
 271
2
 272
0
 273
2
 274
2
 340
3E
 275
0
 280
0
 281
0
 282
0
 283
1
 284
0
 285
0
 286
0
 287
3
 288
0
   0
DIMSTYLE
 105
41
 100
AcDbSymbolTableRecord
 100
AcDbDimStyleTableRecord
   2
GMM003
  70
0
   3

   4

   5

   6
_OPEN
   7
_OPEN
  40
 1.0000000000000
  41
 15.000000000000
  42
 5.0000000000000
  43
 40.000000000000
  44
 10.000000000000
  45
0.0
  46
0.0
  47
0.0
  48
0.0
 140
 20.000000000000
 141
 5.0000000000000
 142
0.0
 143
 0.39400000000000E-1
 144
 1.0000000000000
 145
0.0
 146
 0.62500000000000
 147
0.0
  71
0
  72
0
  73
0
  74
0
  75
0
  76
0
  77
1
  78
8
 170
0
 171
2
 172
1
 173
1
 174
0
 175
0
 176
3
 177
3
 178
7
 270
2
 271
2
 272
0
 273
2
 274
2
 340
F
 275
0
 280
0
 281
0
 282
0
 283
1
 284
0
 285
0
 286
0
 287
3
 288
1
   0
DIMSTYLE
 105
42
 100
AcDbSymbolTableRecord
 100
AcDbDimStyleTableRecord
   2
GMM004
  70
0
   3

   4

   5

   6
_OPEN
   7
_OPEN
  40
 1.0000000000000
  41
 15.000000000000
  42
 5.0000000000000
  43
 0.10000000000000E-5
  44
 10.000000000000
  45
0.0
  46
0.0
  47
0.0
  48
0.0
 140
 20.000000000000
 141
 5.0000000000000
 142
0.0
 143
 0.39400000000000E-1
 144
 1.0000000000000
 145
0.0
 146
 0.62500000000000
 147
 4.0000152587891
  71
0
  72
0
  73
0
  74
0
  75
0
  76
0
  77
3
  78
0
 170
0
 171
2
 172
1
 173
1
 174
0
 175
0
 176
3
 177
3
 178
3
 270
2
 271
0
 272
0
 273
2
 274
2
 340
3E
 275
1
 280
0
 281
0
 282
0
 283
1
 284
0
 285
0
 286
0
 287
3
 288
1
   0
DIMSTYLE
 105
43
 100
AcDbSymbolTableRecord
 100
AcDbDimStyleTableRecord
   2
GMM005
  70
0
   3

   4

   5

   6
_OPEN
   7
_OPEN
  40
 1.0000000000000
  41
 15.000000000000
  42
 5.0000000000000
  43
 0.10000000000000E-5
  44
 10.000000000000
  45
0.0
  46
0.0
  47
0.0
  48
0.0
 140
 20.000000000000
 141
 5.0000000000000
 142
0.0
 143
 0.39400000000000E-1
 144
 1.0000000000000
 145
0.0
 146
 0.62500000000000
 147
 3.9999389648438
  71
0
  72
0
  73
0
  74
0
  75
0
  76
1
  77
3
  78
0
 170
0
 171
2
 172
1
 173
1
 174
0
 175
0
 176
3
 177
3
 178
3
 270
2
 271
0
 272
0
 273
2
 274
2
 340
3E
 275
1
 280
0
 281
0
 282
0
 283
1
 284
0
 285
0
 286
0
 287
3
 288
1
   0
DIMSTYLE
 105
44
 100
AcDbSymbolTableRecord
 100
AcDbDimStyleTableRecord
   2
GMM006
  70
0
   3

   4

   5

   6
_OPEN
   7
_OPEN
  40
 1.0000000000000
  41
 15.000000000000
  42
 5.0000000000000
  43
 0.10000000000000E-5
  44
 10.000000000000
  45
0.0
  46
0.0
  47
0.0
  48
0.0
 140
 20.000000000000
 141
 5.0000000000000
 142
0.0
 143
 0.39400000000000E-1
 144
 1.0000000000000
 145
0.0
 146
 0.62500000000000
 147
 3.9999389648438
  71
0
  72
0
  73
0
  74
0
  75
0
  76
0
  77
3
  78
0
 170
0
 171
2
 172
1
 173
1
 174
0
 175
0
 176
3
 177
3
 178
3
 270
2
 271
0
 272
0
 273
2
 274
2
 340
3E
 275
1
 280
0
 281
0
 282
0
 283
1
 284
0
 285
0
 286
0
 287
3
 288
1
   0
DIMSTYLE
 105
45
 100
AcDbSymbolTableRecord
 100
AcDbDimStyleTableRecord
   2
GMM007
  70
0
   3

   4

   5

   6
_OPEN
   7
_OPEN
  40
 1.0000000000000
  41
 15.000000000000
  42
 5.0000000000000
  43
 0.10000000000000E-5
  44
 10.000000000000
  45
0.0
  46
0.0
  47
0.0
  48
0.0
 140
 20.000000000000
 141
 5.0000000000000
 142
0.0
 143
 0.39400000000000E-1
 144
 1.0000000000000
 145
0.0
 146
 0.62500000000000
 147
 4.0000152587891
  71
0
  72
0
  73
0
  74
0
  75
0
  76
0
  77
3
  78
0
 170
0
 171
2
 172
1
 173
1
 174
0
 175
0
 176
3
 177
3
 178
3
 270
2
 271
0
 272
0
 273
2
 274
2
 340
3E
 275
1
 280
0
 281
0
 282
0
 283
1
 284
0
 285
0
 286
0
 287
3
 288
1
   0
DIMSTYLE
 105
46
 100
AcDbSymbolTableRecord
 100
AcDbDimStyleTableRecord
   2
GMM008
  70
0
   3

   4

   5

   6
_OPEN
   7
_OPEN
  40
 1.0000000000000
  41
 15.000000000000
  42
 5.0000000000000
  43
 40.000000000000
  44
 10.000000000000
  45
0.0
  46
0.0
  47
0.0
  48
0.0
 140
 20.000000000000
 141
 5.0000000000000
 142
0.0
 143
 0.39400000000000E-1
 144
 1.0000000000000
 145
0.0
 146
 0.62500000000000
 147
0.0
  71
0
  72
0
  73
0
  74
0
  75
0
  76
0
  77
1
  78
8
 170
0
 171
2
 172
1
 173
1
 174
0
 175
0
 176
3
 177
3
 178
7
 270
2
 271
2
 272
0
 273
2
 274
2
 340
F
 275
0
 280
0
 281
0
 282
0
 283
1
 284
0
 285
0
 286
0
 287
3
 288
1
   0
DIMSTYLE
 105
47
 100
AcDbSymbolTableRecord
 100
AcDbDimStyleTableRecord
   2
GMM009
  70
0
   3

   4

   5

   6
_OPEN
   7
_OPEN
  40
 1.0000000000000
  41
 15.000000000000
  42
 5.0000000000000
  43
 0.10000000000000E-5
  44
 10.000000000000
  45
0.0
  46
0.0
  47
0.0
  48
0.0
 140
 20.000000000000
 141
 5.0000000000000
 142
0.0
 143
 0.39400000000000E-1
 144
 1.0000000000000
 145
0.0
 146
 0.62500000000000
 147
 4.0000152587891
  71
0
  72
0
  73
0
  74
0
  75
0
  76
1
  77
3
  78
0
 170
0
 171
2
 172
1
 173
1
 174
0
 175
0
 176
3
 177
3
 178
3
 270
2
 271
0
 272
0
 273
2
 274
2
 340
3E
 275
1
 280
0
 281
0
 282
0
 283
1
 284
0
 285
0
 286
0
 287
3
 288
1
   0
DIMSTYLE
 105
48
 100
AcDbSymbolTableRecord
 100
AcDbDimStyleTableRecord
   2
GMM010
  70
0
   3

   4

   5

   6
_OPEN
   7
_OPEN
  40
 1.0000000000000
  41
 15.000000000000
  42
 5.0000000000000
  43
 40.000000000000
  44
 10.000000000000
  45
0.0
  46
0.0
  47
0.0
  48
0.0
 140
 20.000000000000
 141
 5.0000000000000
 142
0.0
 143
 0.39400000000000E-1
 144
 1.0000000000000
 145
0.0
 146
 0.62500000000000
 147
0.0
  71
0
  72
0
  73
0
  74
0
  75
0
  76
0
  77
1
  78
8
 170
0
 171
2
 172
1
 173
1
 174
0
 175
0
 176
3
 177
3
 178
7
 270
2
 271
2
 272
0
 273
2
 274
2
 340
F
 275
0
 280
0
 281
0
 282
0
 283
1
 284
0
 285
0
 286
0
 287
3
 288
1
   0
ENDTAB
  0
TABLE
  2
BLOCK_RECORD
  5
1
100
AcDbSymbolTable
 70
     0
  0
BLOCK_RECORD
  5
18
100
AcDbSymbolTableRecord
100
AcDbBlockTableRecord
  2
*MODEL_SPACE
  0
BLOCK_RECORD
  5
15
100
AcDbSymbolTableRecord
100
AcDbBlockTableRecord
  2
*PAPER_SPACE
   0
BLOCK_RECORD
   5
49
 100
AcDbSymbolTableRecord
 100
AcDbBlockTableRecord
   2
*D1
   0
BLOCK_RECORD
   5
4A
 100
AcDbSymbolTableRecord
 100
AcDbBlockTableRecord
   2
*D2
   0
BLOCK_RECORD
   5
4B
 100
AcDbSymbolTableRecord
 100
AcDbBlockTableRecord
   2
*D3
   0
BLOCK_RECORD
   5
4C
 100
AcDbSymbolTableRecord
 100
AcDbBlockTableRecord
   2
*D5
   0
BLOCK_RECORD
   5
4D
 100
AcDbSymbolTableRecord
 100
AcDbBlockTableRecord
   2
*D6
   0
BLOCK_RECORD
   5
4E
 100
AcDbSymbolTableRecord
 100
AcDbBlockTableRecord
   2
*D7
   0
BLOCK_RECORD
   5
4F
 100
AcDbSymbolTableRecord
 100
AcDbBlockTableRecord
   2
*D8
   0
BLOCK_RECORD
   5
50
 100
AcDbSymbolTableRecord
 100
AcDbBlockTableRecord
   2
*D9
   0
BLOCK_RECORD
   5
51
 100
AcDbSymbolTableRecord
 100
AcDbBlockTableRecord
   2
*D10
   0
BLOCK_RECORD
   5
52
 100
AcDbSymbolTableRecord
 100
AcDbBlockTableRecord
   2
*D12
   0
BLOCK_RECORD
   5
53
 100
AcDbSymbolTableRecord
 100
AcDbBlockTableRecord
   2
*D13
   0
BLOCK_RECORD
   5
54
 100
AcDbSymbolTableRecord
 100
AcDbBlockTableRecord
   2
_ARCHTICK
   0
BLOCK_RECORD
   5
55
 100
AcDbSymbolTableRecord
 100
AcDbBlockTableRecord
   2
_BOXBLANK
   0
BLOCK_RECORD
   5
56
 100
AcDbSymbolTableRecord
 100
AcDbBlockTableRecord
   2
_BOXFILLED
   0
BLOCK_RECORD
   5
57
 100
AcDbSymbolTableRecord
 100
AcDbBlockTableRecord
   2
_CLOSED
   0
BLOCK_RECORD
   5
58
 100
AcDbSymbolTableRecord
 100
AcDbBlockTableRecord
   2
_CLOSEDBLANK
   0
BLOCK_RECORD
   5
59
 100
AcDbSymbolTableRecord
 100
AcDbBlockTableRecord
   2
_DATUMBLANK
   0
BLOCK_RECORD
   5
5A
 100
AcDbSymbolTableRecord
 100
AcDbBlockTableRecord
   2
_DATUMFILLED
   0
BLOCK_RECORD
   5
5B
 100
AcDbSymbolTableRecord
 100
AcDbBlockTableRecord
   2
_DOT
   0
BLOCK_RECORD
   5
5C
 100
AcDbSymbolTableRecord
 100
AcDbBlockTableRecord
   2
_DOTBLANK
   0
BLOCK_RECORD
   5
5D
 100
AcDbSymbolTableRecord
 100
AcDbBlockTableRecord
   2
_DOTSMALL
   0
BLOCK_RECORD
   5
5E
 100
AcDbSymbolTableRecord
 100
AcDbBlockTableRecord
   2
_INTEGRAL
   0
BLOCK_RECORD
   5
5F
 100
AcDbSymbolTableRecord
 100
AcDbBlockTableRecord
   2
_NONE
   0
BLOCK_RECORD
   5
60
 100
AcDbSymbolTableRecord
 100
AcDbBlockTableRecord
   2
_OBLIQUE
   0
BLOCK_RECORD
   5
61
 100
AcDbSymbolTableRecord
 100
AcDbBlockTableRecord
   2
_OPEN
   0
BLOCK_RECORD
   5
62
 100
AcDbSymbolTableRecord
 100
AcDbBlockTableRecord
   2
_OPEN30
   0
BLOCK_RECORD
   5
63
 100
AcDbSymbolTableRecord
 100
AcDbBlockTableRecord
   2
_OPEN90
   0
BLOCK_RECORD
   5
64
 100
AcDbSymbolTableRecord
 100
AcDbBlockTableRecord
   2
_ORIGIN
   0
ENDTAB
   0
ENDSEC
  0
SECTION
  2
BLOCKS
  0
BLOCK
  5
19
100
AcDbEntity
  8
0
100
AcDbBlockBegin
  2
*MODEL_SPACE
 70
     0
 10
0.0
 20
0.0
 30
0.0
  3
*MODEL_SPACE
  1

  0
ENDBLK
  5
1A
100
AcDbEntity
  8
0
100
AcDbBlockEnd
  0
BLOCK
  5
16
100
AcDbEntity
 67
     1
  8
0
100
AcDbBlockBegin
  2
*PAPER_SPACE
 70
     0
 10
0.0
 20
0.0
 30
0.0
  3
*PAPER_SPACE
  1

  0
ENDBLK
  5
17
100
AcDbEntity
 67
     1
  8
0
100
AcDbBlockEnd
   0
BLOCK
   5
65
 100
AcDbEntity
   8
0
 100
AcDbBlockBegin
   2
_ARCHTICK
  70
0
  10
0.0
  20
0.0
  30
0.0
   3
_ARCHTICK
   0
POLYLINE
   5
66
 100
AcDbEntity
   8
0
   6
BYBLOCK
  62
0
 100
AcDb2dPolyline
  66
1
  10
0.0
  20
0.0
  30
0.0
  70
1
  40
 0.15000000000000
  41
 0.15000000000000
   0
VERTEX
   5
67
 100
AcDbEntity
   8
0
   6
BYBLOCK
  62
0
 100
AcDbVertex
 100
AcDb2dVertex
  10
-0.50000000000000
  20
-0.50000000000000
  30
0.0
  40
 0.15000000000000
  41
 0.15000000000000
   0
VERTEX
   5
68
 100
AcDbEntity
   8
0
   6
BYBLOCK
  62
0
 100
AcDbVertex
 100
AcDb2dVertex
  10
 0.50000000000000
  20
 0.50000000000000
  30
0.0
  40
 0.15000000000000
  41
 0.15000000000000
   0
SEQEND
   5
69
 100
AcDbEntity
   8
0
   6
BYBLOCK
  62
0
   0
ENDBLK
   5
6A
 100
AcDbEntity
   8
0
 100
AcDbBlockEnd
   0
BLOCK
   5
6B
 100
AcDbEntity
   8
0
 100
AcDbBlockBegin
   2
_OBLIQUE
  70
0
  10
0.0
  20
0.0
  30
0.0
   3
_OBLIQUE
   0
LINE
   5
6C
 100
AcDbEntity
   8
0
 100
AcDbLine
   6
BYBLOCK
  62
0
  10
-0.50000000000000
  20
-0.50000000000000
  30
0.0
  11
 0.50000000000000
  21
 0.50000000000000
  31
0.0
   0
ENDBLK
   5
6D
 100
AcDbEntity
   8
0
 100
AcDbBlockEnd
   0
BLOCK
   5
6E
 100
AcDbEntity
   8
0
 100
AcDbBlockBegin
   2
_BOXBLANK
  70
0
  10
0.0
  20
0.0
  30
0.0
   3
_BOXBLANK
   0
LINE
   5
6F
 100
AcDbEntity
   8
0
 100
AcDbLine
   6
BYBLOCK
  62
0
  10
-0.50000000000000
  20
-0.50000000000000
  30
0.0
  11
 0.50000000000000
  21
-0.50000000000000
  31
0.0
   0
LINE
   5
70
 100
AcDbEntity
   8
0
 100
AcDbLine
   6
BYBLOCK
  62
0
  10
 0.50000000000000
  20
-0.50000000000000
  30
0.0
  11
 0.50000000000000
  21
 0.50000000000000
  31
0.0
   0
LINE
   5
71
 100
AcDbEntity
   8
0
 100
AcDbLine
   6
BYBLOCK
  62
0
  10
 0.50000000000000
  20
 0.50000000000000
  30
0.0
  11
-0.50000000000000
  21
 0.50000000000000
  31
0.0
   0
LINE
   5
72
 100
AcDbEntity
   8
0
 100
AcDbLine
   6
BYBLOCK
  62
0
  10
-0.50000000000000
  20
 0.50000000000000
  30
0.0
  11
-0.50000000000000
  21
-0.50000000000000
  31
0.0
   0
LINE
   5
73
 100
AcDbEntity
   8
0
 100
AcDbLine
   6
BYBLOCK
  62
0
  10
-0.50000000000000
  20
0.0
  30
0.0
  11
-1.0000000000000
  21
0.0
  31
0.0
   0
ENDBLK
   5
74
 100
AcDbEntity
   8
0
 100
AcDbBlockEnd
   0
BLOCK
   5
75
 100
AcDbEntity
   8
0
 100
AcDbBlockBegin
   2
_BOXFILLED
  70
0
  10
0.0
  20
0.0
  30
0.0
   3
_BOXFILLED
   0
SOLID
   5
76
 100
AcDbEntity
   8
0
 100
AcDbTrace
   6
BYBLOCK
  62
0
  10
-0.50000000000000
  20
 0.50000000000000
  30
0.0
  11
 0.50000000000000
  21
 0.50000000000000
  31
0.0
  12
-0.50000000000000
  22
-0.50000000000000
  32
0.0
  13
 0.50000000000000
  23
-0.50000000000000
  33
0.0
   0
LINE
   5
77
 100
AcDbEntity
   8
0
 100
AcDbLine
   6
BYBLOCK
  62
0
  10
-0.50000000000000
  20
0.0
  30
0.0
  11
-1.0000000000000
  21
0.0
  31
0.0
   0
ENDBLK
   5
78
 100
AcDbEntity
   8
0
 100
AcDbBlockEnd
   0
BLOCK
   5
79
 100
AcDbEntity
   8
0
 100
AcDbBlockBegin
   2
_CLOSED
  70
0
  10
0.0
  20
0.0
  30
0.0
   3
_CLOSED
   0
LINE
   5
7A
 100
AcDbEntity
   8
0
 100
AcDbLine
   6
BYBLOCK
  62
0
  10
-1.0000000000000
  20
 0.16666666666667
  30
0.0
  11
0.0
  21
0.0
  31
0.0
   0
LINE
   5
7B
 100
AcDbEntity
   8
0
 100
AcDbLine
   6
BYBLOCK
  62
0
  10
0.0
  20
0.0
  30
0.0
  11
-1.0000000000000
  21
-0.16666666666667
  31
0.0
   0
LINE
   5
7C
 100
AcDbEntity
   8
0
 100
AcDbLine
   6
BYBLOCK
  62
0
  10
-1.0000000000000
  20
 0.16666666666667
  30
0.0
  11
-1.0000000000000
  21
-0.16666666666667
  31
0.0
   0
LINE
   5
7D
 100
AcDbEntity
   8
0
 100
AcDbLine
   6
BYBLOCK
  62
0
  10
0.0
  20
0.0
  30
0.0
  11
-1.0000000000000
  21
0.0
  31
0.0
   0
ENDBLK
   5
7E
 100
AcDbEntity
   8
0
 100
AcDbBlockEnd
   0
BLOCK
   5
7F
 100
AcDbEntity
   8
0
 100
AcDbBlockBegin
   2
_OPEN
  70
0
  10
0.0
  20
0.0
  30
0.0
   3
_OPEN
   0
LINE
   5
80
 100
AcDbEntity
   8
0
 100
AcDbLine
   6
BYBLOCK
  62
0
  10
-1.0000000000000
  20
 0.16666666666667
  30
0.0
  11
0.0
  21
0.0
  31
0.0
   0
LINE
   5
81
 100
AcDbEntity
   8
0
 100
AcDbLine
   6
BYBLOCK
  62
0
  10
0.0
  20
0.0
  30
0.0
  11
-1.0000000000000
  21
-0.16666666666667
  31
0.0
   0
LINE
   5
82
 100
AcDbEntity
   8
0
 100
AcDbLine
   6
BYBLOCK
  62
0
  10
0.0
  20
0.0
  30
0.0
  11
-1.0000000000000
  21
0.0
  31
0.0
   0
ENDBLK
   5
83
 100
AcDbEntity
   8
0
 100
AcDbBlockEnd
   0
BLOCK
   5
84
 100
AcDbEntity
   8
0
 100
AcDbBlockBegin
   2
_OPEN30
  70
0
  10
0.0
  20
0.0
  30
0.0
   3
_OPEN30
   0
LINE
   5
85
 100
AcDbEntity
   8
0
 100
AcDbLine
   6
BYBLOCK
  62
0
  10
-1.0000000000000
  20
 0.26794919243110
  30
0.0
  11
0.0
  21
0.0
  31
0.0
   0
LINE
   5
86
 100
AcDbEntity
   8
0
 100
AcDbLine
   6
BYBLOCK
  62
0
  10
0.0
  20
0.0
  30
0.0
  11
-1.0000000000000
  21
-0.26794919243110
  31
0.0
   0
LINE
   5
87
 100
AcDbEntity
   8
0
 100
AcDbLine
   6
BYBLOCK
  62
0
  10
0.0
  20
0.0
  30
0.0
  11
-1.0000000000000
  21
0.0
  31
0.0
   0
ENDBLK
   5
88
 100
AcDbEntity
   8
0
 100
AcDbBlockEnd
   0
BLOCK
   5
89
 100
AcDbEntity
   8
0
 100
AcDbBlockBegin
   2
_OPEN90
  70
0
  10
0.0
  20
0.0
  30
0.0
   3
_OPEN90
   0
LINE
   5
8A
 100
AcDbEntity
   8
0
 100
AcDbLine
   6
BYBLOCK
  62
0
  10
-0.50000000000000
  20
 0.50000000000000
  30
0.0
  11
0.0
  21
0.0
  31
0.0
   0
LINE
   5
8B
 100
AcDbEntity
   8
0
 100
AcDbLine
   6
BYBLOCK
  62
0
  10
0.0
  20
0.0
  30
0.0
  11
-0.50000000000000
  21
-0.50000000000000
  31
0.0
   0
LINE
   5
8C
 100
AcDbEntity
   8
0
 100
AcDbLine
   6
BYBLOCK
  62
0
  10
0.0
  20
0.0
  30
0.0
  11
-1.0000000000000
  21
0.0
  31
0.0
   0
ENDBLK
   5
8D
 100
AcDbEntity
   8
0
 100
AcDbBlockEnd
   0
BLOCK
   5
8E
 100
AcDbEntity
   8
0
 100
AcDbBlockBegin
   2
_CLOSEDBLANK
  70
0
  10
0.0
  20
0.0
  30
0.0
   3
_CLOSEDBLANK
   0
LINE
   5
8F
 100
AcDbEntity
   8
0
 100
AcDbLine
   6
BYBLOCK
  62
0
  10
-1.0000000000000
  20
 0.16666666666667
  30
0.0
  11
0.0
  21
0.0
  31
0.0
   0
LINE
   5
90
 100
AcDbEntity
   8
0
 100
AcDbLine
   6
BYBLOCK
  62
0
  10
0.0
  20
0.0
  30
0.0
  11
-1.0000000000000
  21
-0.16666666666667
  31
0.0
   0
LINE
   5
91
 100
AcDbEntity
   8
0
 100
AcDbLine
   6
BYBLOCK
  62
0
  10
-1.0000000000000
  20
 0.16666666666667
  30
0.0
  11
-1.0000000000000
  21
-0.16666666666667
  31
0.0
   0
ENDBLK
   5
92
 100
AcDbEntity
   8
0
 100
AcDbBlockEnd
   0
BLOCK
   5
93
 100
AcDbEntity
   8
0
 100
AcDbBlockBegin
   2
_DOT
  70
0
  10
0.0
  20
0.0
  30
0.0
   3
_DOT
   0
POLYLINE
   5
94
 100
AcDbEntity
   8
0
   6
BYBLOCK
  62
0
 100
AcDb2dPolyline
  66
1
  10
0.0
  20
0.0
  30
0.0
  70
1
  40
 0.50000000000000
  41
 0.50000000000000
   0
VERTEX
   5
95
 100
AcDbEntity
   8
0
   6
BYBLOCK
  62
0
 100
AcDbVertex
 100
AcDb2dVertex
  10
-0.25000000000000
  20
0.0
  30
0.0
  42
 1.0000000000000
  40
 0.50000000000000
  41
 0.50000000000000
   0
VERTEX
   5
96
 100
AcDbEntity
   8
0
   6
BYBLOCK
  62
0
 100
AcDbVertex
 100
AcDb2dVertex
  10
 0.25000000000000
  20
0.0
  30
0.0
  42
 1.0000000000000
  40
 0.50000000000000
  41
 0.50000000000000
   0
SEQEND
   5
97
 100
AcDbEntity
   8
0
   6
BYBLOCK
  62
0
   0
LINE
   5
98
 100
AcDbEntity
   8
0
 100
AcDbLine
   6
BYBLOCK
  62
0
  10
-0.50000000000000
  20
0.0
  30
0.0
  11
-1.0000000000000
  21
0.0
  31
0.0
   0
ENDBLK
   5
99
 100
AcDbEntity
   8
0
 100
AcDbBlockEnd
   0
BLOCK
   5
9A
 100
AcDbEntity
   8
0
 100
AcDbBlockBegin
   2
_DOTSMALL
  70
0
  10
0.0
  20
0.0
  30
0.0
   3
_DOTSMALL
   0
POLYLINE
   5
9B
 100
AcDbEntity
   8
0
   6
BYBLOCK
  62
0
 100
AcDb2dPolyline
  66
1
  10
0.0
  20
0.0
  30
0.0
  70
1
  40
 0.50000000000000
  41
 0.50000000000000
   0
VERTEX
   5
9C
 100
AcDbEntity
   8
0
   6
BYBLOCK
  62
0
 100
AcDbVertex
 100
AcDb2dVertex
  10
-0.62500000000000E-1
  20
0.0
  30
0.0
  42
 1.0000000000000
  40
 0.50000000000000
  41
 0.50000000000000
   0
VERTEX
   5
9D
 100
AcDbEntity
   8
0
   6
BYBLOCK
  62
0
 100
AcDbVertex
 100
AcDb2dVertex
  10
 0.62500000000000E-1
  20
0.0
  30
0.0
  42
 1.0000000000000
  40
 0.50000000000000
  41
 0.50000000000000
   0
SEQEND
   5
9E
 100
AcDbEntity
   8
0
   6
BYBLOCK
  62
0
   0
ENDBLK
   5
9F
 100
AcDbEntity
   8
0
 100
AcDbBlockEnd
   0
BLOCK
   5
A0
 100
AcDbEntity
   8
0
 100
AcDbBlockBegin
   2
_DATUMBLANK
  70
0
  10
0.0
  20
0.0
  30
0.0
   3
_DATUMBLANK
   0
LINE
   5
A1
 100
AcDbEntity
   8
0
 100
AcDbLine
   6
BYBLOCK
  62
0
  10
0.0
  20
 0.57735027000000
  30
0.0
  11
-1.0000000000000
  21
0.0
  31
0.0
   0
LINE
   5
A2
 100
AcDbEntity
   8
0
 100
AcDbLine
   6
BYBLOCK
  62
0
  10
-1.0000000000000
  20
0.0
  30
0.0
  11
0.0
  21
-0.57735027000000
  31
0.0
   0
LINE
   5
A3
 100
AcDbEntity
   8
0
 100
AcDbLine
   6
BYBLOCK
  62
0
  10
0.0
  20
-0.57735027000000
  30
0.0
  11
0.0
  21
 0.57735027000000
  31
0.0
   0
ENDBLK
   5
A4
 100
AcDbEntity
   8
0
 100
AcDbBlockEnd
   0
BLOCK
   5
A5
 100
AcDbEntity
   8
0
 100
AcDbBlockBegin
   2
_DATUMFILLED
  70
0
  10
0.0
  20
0.0
  30
0.0
   3
_DATUMFILLED
   0
SOLID
   5
A6
 100
AcDbEntity
   8
0
 100
AcDbTrace
   6
BYBLOCK
  62
0
  10
0.0
  20
 0.57735027000000
  30
0.0
  11
-1.0000000000000
  21
0.0
  31
0.0
  12
0.0
  22
-0.57735027000000
  32
0.0
  13
0.0
  23
-0.57735027000000
  33
0.0
   0
ENDBLK
   5
A7
 100
AcDbEntity
   8
0
 100
AcDbBlockEnd
   0
BLOCK
   5
A8
 100
AcDbEntity
   8
0
 100
AcDbBlockBegin
   2
_ORIGIN
  70
0
  10
0.0
  20
0.0
  30
0.0
   3
_ORIGIN
   0
CIRCLE
   5
A9
 100
AcDbEntity
   8
0
 100
AcDbCircle
   6
BYBLOCK
  62
0
  10
0.0
  20
0.0
  30
0.0
  40
 0.50000000000000
   0
LINE
   5
AA
 100
AcDbEntity
   8
0
 100
AcDbLine
   6
BYBLOCK
  62
0
  10
0.0
  20
0.0
  30
0.0
  11
-1.0000000000000
  21
0.0
  31
0.0
   0
ENDBLK
   5
AB
 100
AcDbEntity
   8
0
 100
AcDbBlockEnd
   0
BLOCK
   5
AC
 100
AcDbEntity
   8
0
 100
AcDbBlockBegin
   2
_NONE
  70
0
  10
0.0
  20
0.0
  30
0.0
   3
_NONE
   0
CIRCLE
   5
AD
 100
AcDbEntity
   8
0
 100
AcDbCircle
   6
BYBLOCK
  62
0
  10
0.0
  20
0.0
  30
0.0
  40
 0.25000000000000
   0
ENDBLK
   5
AE
 100
AcDbEntity
   8
0
 100
AcDbBlockEnd
   0
BLOCK
   5
AF
 100
AcDbEntity
   8
0
 100
AcDbBlockBegin
   2
_DOTBLANK
  70
0
  10
0.0
  20
0.0
  30
0.0
   3
_DOTBLANK
   0
CIRCLE
   5
B0
 100
AcDbEntity
   8
0
 100
AcDbCircle
   6
BYBLOCK
  62
0
  10
0.0
  20
0.0
  30
0.0
  40
 0.50000000000000
   0
LINE
   5
B1
 100
AcDbEntity
   8
0
 100
AcDbLine
   6
BYBLOCK
  62
0
  10
-0.50000000000000
  20
0.0
  30
0.0
  11
-1.0000000000000
  21
0.0
  31
0.0
   0
ENDBLK
   5
B2
 100
AcDbEntity
   8
0
 100
AcDbBlockEnd
   0
BLOCK
   5
B3
 100
AcDbEntity
   8
0
 100
AcDbBlockBegin
   2
_INTEGRAL
  70
0
  10
0.0
  20
0.0
  30
0.0
   3
_INTEGRAL
   0
ARC
   5
B4
 100
AcDbEntity
   8
0
   6
BYBLOCK
  62
0
 100
AcDbCircle
  10
 0.44488800000000
  20
-0.91335000000000E-1
  30
0.0
  40
 0.45416700000000
 100
AcDbArc
  50
 102.00000000000
  51
 168.00000000000
   0
ARC
   5
B5
 100
AcDbEntity
   8
0
   6
BYBLOCK
  62
0
 100
AcDbCircle
  10
-0.44488800000000
  20
 0.91335000000000E-1
  30
0.0
  40
 0.45416700000000
 100
AcDbArc
  50
 282.00000000000
  51
 348.00000000000
   0
ENDBLK
   5
B6
 100
AcDbEntity
   8
0
 100
AcDbBlockEnd
   0
BLOCK
   5
B7
 100
AcDbEntity
   8
0
 100
AcDbBlockBegin
   2
*D1
  70
65
  10
0.0
  20
0.0
  30
0.0
   3
*D1
   0
LINE
   5
B8
 100
AcDbEntity
   8
LEVEL003
 100
AcDbLine
   6
CONTINUOUS
  62
3
  10
 1380.0000000000
  20
 797.47471427780
  30
0.0
  11
 1380.0000000000
  21
 957.53721427780
  31
0.0
   0
LINE
   5
B9
 100
AcDbEntity
   8
LEVEL003
 100
AcDbLine
   6
CONTINUOUS
  62
3
  10
 1380.0000000000
  20
 1202.4747142778
  30
0.0
  11
 1380.0000000000
  21
 1042.4122142778
  31
0.0
   0
INSERT
   5
BA
 100
AcDbEntity
   8
LEVEL003
   6
CONTINUOUS
  62
3
 100
AcDbBlockReference
   2
_OPEN
  10
 1380.0000000000
  20
 797.47471427780
  30
0.0
  41
 15.000000000000
  42
 15.000000000000
  43
 15.000000000000
  50
 270.00000000000
   0
INSERT
   5
BB
 100
AcDbEntity
   8
LEVEL003
   6
CONTINUOUS
  62
3
 100
AcDbBlockReference
   2
_OPEN
  10
 1380.0000000000
  20
 1202.4747142778
  30
0.0
  41
 15.000000000000
  42
 15.000000000000
  43
 15.000000000000
  50
 90.000000000000
   0
MTEXT
   5
BC
 100
AcDbEntity
   8
LEVEL003
  62
3
 100
AcDbMText
  10
 1375.9999847412
  20
 999.97471427780
  30
0.0
  40
 20.000000000000
  41
0.0
  71
8
  72
1
   1
\A1;%%c405
   7
GMM001
  11
0.0
  21
 1.0000000000000
  31
0.0
   0
ENDBLK
   5
BD
 100
AcDbEntity
   8
0
 100
AcDbBlockEnd
   0
BLOCK
   5
BE
 100
AcDbEntity
   8
0
 100
AcDbBlockBegin
   2
*D2
  70
65
  10
0.0
  20
0.0
  30
0.0
   3
*D2
   0
LINE
   5
BF
 100
AcDbEntity
   8
LEVEL003
 100
AcDbLine
   6
CONTINUOUS
  62
3
  10
 1300.0000000000
  20
 1110.0000000000
  30
0.0
  11
 1300.0000000000
  21
 1042.4375000000
  31
0.0
   0
LINE
   5
C0
 100
AcDbEntity
   8
LEVEL003
 100
AcDbLine
   6
CONTINUOUS
  62
3
  10
 1300.0000000000
  20
 890.00000000000
  30
0.0
  11
 1300.0000000000
  21
 957.56250000000
  31
0.0
   0
INSERT
   5
C1
 100
AcDbEntity
   8
LEVEL003
   6
CONTINUOUS
  62
3
 100
AcDbBlockReference
   2
_OPEN
  10
 1300.0000000000
  20
 1110.0000000000
  30
0.0
  41
 15.000000000000
  42
 15.000000000000
  43
 15.000000000000
  50
 90.000000000000
   0
INSERT
   5
C2
 100
AcDbEntity
   8
LEVEL003
   6
CONTINUOUS
  62
3
 100
AcDbBlockReference
   2
_OPEN
  10
 1300.0000000000
  20
 890.00000000000
  30
0.0
  41
 15.000000000000
  42
 15.000000000000
  43
 15.000000000000
  50
 270.00000000000
   0
MTEXT
   5
C3
 100
AcDbEntity
   8
LEVEL003
  62
3
 100
AcDbMText
  10
 1296.0000000000
  20
 1000.0000000000
  30
0.0
  40
 20.000000000000
  41
0.0
  71
8
  72
1
   1
\A1;%%c220
   7
GMM001
  11
0.0
  21
 1.0000000000000
  31
0.0
   0
ENDBLK
   5
C4
 100
AcDbEntity
   8
0
 100
AcDbBlockEnd
   0
BLOCK
   5
C5
 100
AcDbEntity
   8
0
 100
AcDbBlockBegin
   2
*D3
  70
65
  10
0.0
  20
0.0
  30
0.0
   3
*D3
   0
LINE
   5
C6
 100
AcDbEntity
   8
LEVEL003
 100
AcDbLine
   6
CONTINUOUS
  62
3
  10
 1340.0000000000
  20
 1150.0000000000
  30
0.0
  11
 1340.0000000000
  21
 1040.6875000000
  31
0.0
   0
LINE
   5
C7
 100
AcDbEntity
   8
LEVEL003
 100
AcDbLine
   6
CONTINUOUS
  62
3
  10
 1340.0000000000
  20
 850.00000000000
  30
0.0
  11
 1340.0000000000
  21
 959.31250000000
  31
0.0
   0
INSERT
   5
C8
 100
AcDbEntity
   8
LEVEL003
   6
CONTINUOUS
  62
3
 100
AcDbBlockReference
   2
_OPEN
  10
 1340.0000000000
  20
 1150.0000000000
  30
0.0
  41
 15.000000000000
  42
 15.000000000000
  43
 15.000000000000
  50
 90.000000000000
   0
INSERT
   5
C9
 100
AcDbEntity
   8
LEVEL003
   6
CONTINUOUS
  62
3
 100
AcDbBlockReference
   2
_OPEN
  10
 1340.0000000000
  20
 850.00000000000
  30
0.0
  41
 15.000000000000
  42
 15.000000000000
  43
 15.000000000000
  50
 270.00000000000
   0
MTEXT
   5
CA
 100
AcDbEntity
   8
LEVEL003
  62
3
 100
AcDbMText
  10
 1336.0000000000
  20
 1000.0000000000
  30
0.0
  40
 20.000000000000
  41
0.0
  71
8
  72
1
   1
\A1;%%c300
   7
GMM001
  11
0.0
  21
 1.0000000000000
  31
0.0
   0
ENDBLK
   5
CB
 100
AcDbEntity
   8
0
 100
AcDbBlockEnd
   0
BLOCK
   5
CC
 100
AcDbEntity
   8
0
 100
AcDbBlockBegin
   2
*D5
  70
65
  10
0.0
  20
0.0
  30
0.0
   3
*D5
   0
LINE
   5
CD
 100
AcDbEntity
   8
LEVEL003
 100
AcDbLine
   6
CONTINUOUS
  62
3
  10
 420.00000000000
  20
 795.97471427780
  30
0.0
  11
 420.00000000000
  21
 740.00000000000
  31
0.0
   0
LINE
   5
CE
 100
AcDbEntity
   8
LEVEL003
 100
AcDbLine
   6
CONTINUOUS
  62
3
  10
 520.00000000000
  20
 792.47471427780
  30
0.0
  11
 520.00000000000
  21
 740.00000000000
  31
0.0
   0
LINE
   5
CF
 100
AcDbEntity
   8
LEVEL003
 100
AcDbLine
   6
CONTINUOUS
  62
3
  10
 420.00000000000
  20
 750.00000000000
  30
0.0
  11
 446.59375000000
  21
 750.00000000000
  31
0.0
   0
LINE
   5
D0
 100
AcDbEntity
   8
LEVEL003
 100
AcDbLine
   6
CONTINUOUS
  62
3
  10
 520.00000000000
  20
 750.00000000000
  30
0.0
  11
 493.40625000000
  21
 750.00000000000
  31
0.0
   0
INSERT
   5
D1
 100
AcDbEntity
   8
LEVEL003
   6
CONTINUOUS
  62
3
 100
AcDbBlockReference
   2
_OPEN
  10
 420.00000000000
  20
 750.00000000000
  30
0.0
  41
 15.000000000000
  42
 15.000000000000
  43
 15.000000000000
  50
 180.00000000000
   0
INSERT
   5
D2
 100
AcDbEntity
   8
LEVEL003
   6
CONTINUOUS
  62
3
 100
AcDbBlockReference
   2
_OPEN
  10
 520.00000000000
  20
 750.00000000000
  30
0.0
  41
 15.000000000000
  42
 15.000000000000
  43
 15.000000000000
  50
0.0
   0
MTEXT
   5
D3
 100
AcDbEntity
   8
LEVEL003
  62
3
 100
AcDbMText
  10
 470.00000000000
  20
 754.00001525879
  30
0.0
  40
 20.000000000000
  41
0.0
  71
8
  72
1
   1
\A1;100
   7
GMM001
   0
ENDBLK
   5
D4
 100
AcDbEntity
   8
0
 100
AcDbBlockEnd
   0
BLOCK
   5
D5
 100
AcDbEntity
   8
0
 100
AcDbBlockBegin
   2
*D6
  70
65
  10
0.0
  20
0.0
  30
0.0
   3
*D6
   0
LINE
   5
D6
 100
AcDbEntity
   8
LEVEL003
 100
AcDbLine
   6
CONTINUOUS
  62
3
  10
 305.00000000000
  20
 882.00000000000
  30
0.0
  11
 305.00000000000
  21
 690.00000000000
  31
0.0
   0
LINE
   5
D7
 100
AcDbEntity
   8
LEVEL003
 100
AcDbLine
   6
CONTINUOUS
  62
3
  10
 520.00000000000
  20
 792.47471427780
  30
0.0
  11
 520.00000000000
  21
 690.00000000000
  31
0.0
   0
LINE
   5
D8
 100
AcDbEntity
   8
LEVEL003
 100
AcDbLine
   6
CONTINUOUS
  62
3
  10
 305.00000000000
  20
 700.00000000000
  30
0.0
  11
 385.59375000000
  21
 700.00000000000
  31
0.0
   0
LINE
   5
D9
 100
AcDbEntity
   8
LEVEL003
 100
AcDbLine
   6
CONTINUOUS
  62
3
  10
 520.00000000000
  20
 700.00000000000
  30
0.0
  11
 439.40625000000
  21
 700.00000000000
  31
0.0
   0
INSERT
   5
DA
 100
AcDbEntity
   8
LEVEL003
   6
CONTINUOUS
  62
3
 100
AcDbBlockReference
   2
_OPEN
  10
 305.00000000000
  20
 700.00000000000
  30
0.0
  41
 15.000000000000
  42
 15.000000000000
  43
 15.000000000000
  50
 180.00000000000
   0
INSERT
   5
DB
 100
AcDbEntity
   8
LEVEL003
   6
CONTINUOUS
  62
3
 100
AcDbBlockReference
   2
_OPEN
  10
 520.00000000000
  20
 700.00000000000
  30
0.0
  41
 15.000000000000
  42
 15.000000000000
  43
 15.000000000000
  50
0.0
   0
MTEXT
   5
DC
 100
AcDbEntity
   8
LEVEL003
  62
3
 100
AcDbMText
  10
 412.50000000000
  20
 704.00001525879
  30
0.0
  40
 20.000000000000
  41
0.0
  71
8
  72
1
   1
\A1;215
   7
GMM001
   0
ENDBLK
   5
DD
 100
AcDbEntity
   8
0
 100
AcDbBlockEnd
   0
BLOCK
   5
DE
 100
AcDbEntity
   8
0
 100
AcDbBlockBegin
   2
*D7
  70
65
  10
0.0
  20
0.0
  30
0.0
   3
*D7
   0
LINE
   5
DF
 100
AcDbEntity
   8
LEVEL003
 100
AcDbLine
   6
CONTINUOUS
  62
3
  10
 305.00000000000
  20
 882.00000000000
  30
0.0
  11
 305.00000000000
  21
 640.00000000000
  31
0.0
   0
LINE
   5
E0
 100
AcDbEntity
   8
LEVEL003
 100
AcDbLine
   6
CONTINUOUS
  62
3
  10
 1925.0000000000
  20
 797.47471427780
  30
0.0
  11
 1925.0000000000
  21
 640.00000000000
  31
0.0
   0
LINE
   5
E1
 100
AcDbEntity
   8
LEVEL003
 100
AcDbLine
   6
CONTINUOUS
  62
3
  10
 305.00000000000
  20
 650.00000000000
  30
0.0
  11
 1079.7812500000
  21
 650.00000000000
  31
0.0
   0
LINE
   5
E2
 100
AcDbEntity
   8
LEVEL003
 100
AcDbLine
   6
CONTINUOUS
  62
3
  10
 1925.0000000000
  20
 650.00000000000
  30
0.0
  11
 1150.2187500000
  21
 650.00000000000
  31
0.0
   0
INSERT
   5
E3
 100
AcDbEntity
   8
LEVEL003
   6
CONTINUOUS
  62
3
 100
AcDbBlockReference
   2
_OPEN
  10
 305.00000000000
  20
 650.00000000000
  30
0.0
  41
 15.000000000000
  42
 15.000000000000
  43
 15.000000000000
  50
 180.00000000000
   0
INSERT
   5
E4
 100
AcDbEntity
   8
LEVEL003
   6
CONTINUOUS
  62
3
 100
AcDbBlockReference
   2
_OPEN
  10
 1925.0000000000
  20
 650.00000000000
  30
0.0
  41
 15.000000000000
  42
 15.000000000000
  43
 15.000000000000
  50
0.0
   0
MTEXT
   5
E5
 100
AcDbEntity
   8
LEVEL003
  62
3
 100
AcDbMText
  10
 1115.0000000000
  20
 654.00001525879
  30
0.0
  40
 20.000000000000
  41
0.0
  71
8
  72
1
   1
\A1;1620
   7
GMM001
   0
ENDBLK
   5
E6
 100
AcDbEntity
   8
0
 100
AcDbBlockEnd
   0
BLOCK
   5
E7
 100
AcDbEntity
   8
0
 100
AcDbBlockBegin
   2
*D8
  70
65
  10
0.0
  20
0.0
  30
0.0
   3
*D8
   0
LINE
   5
E8
 100
AcDbEntity
   8
LEVEL003
 100
AcDbLine
   6
CONTINUOUS
  62
3
  10
 610.00000000000
  20
 1282.4747142778
  30
0.0
  11
 610.00000000000
  21
 1335.0000000000
  31
0.0
   0
LINE
   5
E9
 100
AcDbEntity
   8
LEVEL003
 100
AcDbLine
   6
CONTINUOUS
  62
3
  10
 610.00000000000
  20
 1325.0000000000
  30
0.0
  11
 1158.0625000000
  21
 1325.0000000000
  31
0.0
   0
LINE
   5
EA
 100
AcDbEntity
   8
LEVEL003
 100
AcDbLine
   6
CONTINUOUS
  62
3
  10
 1770.0000000000
  20
 1325.0000000000
  30
0.0
  11
 1221.9375000000
  21
 1325.0000000000
  31
0.0
   0
INSERT
   5
EB
 100
AcDbEntity
   8
LEVEL003
   6
CONTINUOUS
  62
3
 100
AcDbBlockReference
   2
_OPEN
  10
 610.00000000000
  20
 1325.0000000000
  30
0.0
  41
 15.000000000000
  42
 15.000000000000
  43
 15.000000000000
  50
 180.00000000000
   0
INSERT
   5
EC
 100
AcDbEntity
   8
LEVEL003
   6
CONTINUOUS
  62
3
 100
AcDbBlockReference
   2
_OPEN
  10
 1770.0000000000
  20
 1325.0000000000
  30
0.0
  41
 15.000000000000
  42
 15.000000000000
  43
 15.000000000000
  50
0.0
   0
MTEXT
   5
ED
 100
AcDbEntity
   8
LEVEL003
  62
3
 100
AcDbMText
  10
 1190.0000000000
  20
 1328.9999389648
  30
0.0
  40
 20.000000000000
  41
0.0
  71
8
  72
1
   1
\A1;1160
   7
GMM001
   0
ENDBLK
   5
EE
 100
AcDbEntity
   8
0
 100
AcDbBlockEnd
   0
BLOCK
   5
EF
 100
AcDbEntity
   8
0
 100
AcDbBlockBegin
   2
*D9
  70
65
  10
0.0
  20
0.0
  30
0.0
   3
*D9
   0
LINE
   5
F0
 100
AcDbEntity
   8
LEVEL003
 100
AcDbLine
   6
CONTINUOUS
  62
3
  10
 1770.0000000000
  20
 1282.4747142778
  30
0.0
  11
 1770.0000000000
  21
 1335.0000000000
  31
0.0
   0
LINE
   5
F1
 100
AcDbEntity
   8
LEVEL003
 100
AcDbLine
   6
CONTINUOUS
  62
3
  10
 1925.0000000000
  20
 1202.4747142778
  30
0.0
  11
 1925.0000000000
  21
 1335.0000000000
  31
0.0
   0
LINE
   5
F2
 100
AcDbEntity
   8
LEVEL003
 100
AcDbLine
   6
CONTINUOUS
  62
3
  10
 1770.0000000000
  20
 1325.0000000000
  30
0.0
  11
 1820.5937500000
  21
 1325.0000000000
  31
0.0
   0
LINE
   5
F3
 100
AcDbEntity
   8
LEVEL003
 100
AcDbLine
   6
CONTINUOUS
  62
3
  10
 1925.0000000000
  20
 1325.0000000000
  30
0.0
  11
 1874.4062500000
  21
 1325.0000000000
  31
0.0
   0
INSERT
   5
F4
 100
AcDbEntity
   8
LEVEL003
   6
CONTINUOUS
  62
3
 100
AcDbBlockReference
   2
_OPEN
  10
 1770.0000000000
  20
 1325.0000000000
  30
0.0
  41
 15.000000000000
  42
 15.000000000000
  43
 15.000000000000
  50
 180.00000000000
   0
INSERT
   5
F5
 100
AcDbEntity
   8
LEVEL003
   6
CONTINUOUS
  62
3
 100
AcDbBlockReference
   2
_OPEN
  10
 1925.0000000000
  20
 1325.0000000000
  30
0.0
  41
 15.000000000000
  42
 15.000000000000
  43
 15.000000000000
  50
0.0
   0
MTEXT
   5
F6
 100
AcDbEntity
   8
LEVEL003
  62
3
 100
AcDbMText
  10
 1847.5000000000
  20
 1328.9999389648
  30
0.0
  40
 20.000000000000
  41
0.0
  71
8
  72
1
   1
\A1;155
   7
GMM001
   0
ENDBLK
   5
F7
 100
AcDbEntity
   8
0
 100
AcDbBlockEnd
   0
BLOCK
   5
F8
 100
AcDbEntity
   8
0
 100
AcDbBlockBegin
   2
*D10
  70
65
  10
0.0
  20
0.0
  30
0.0
   3
*D10
   0
LINE
   5
F9
 100
AcDbEntity
   8
LEVEL003
 100
AcDbLine
   6
CONTINUOUS
  62
3
  10
 302.00000000000
  20
 1115.0000000000
  30
0.0
  11
 240.00000000000
  21
 1115.0000000000
  31
0.0
   0
LINE
   5
FA
 100
AcDbEntity
   8
LEVEL003
 100
AcDbLine
   6
CONTINUOUS
  62
3
  10
 302.00000000000
  20
 885.00000000000
  30
0.0
  11
 240.00000000000
  21
 885.00000000000
  31
0.0
   0
LINE
   5
FB
 100
AcDbEntity
   8
LEVEL003
 100
AcDbLine
   6
CONTINUOUS
  62
3
  10
 250.00000000000
  20
 1115.0000000000
  30
0.0
  11
 250.00000000000
  21
 1042.4375000000
  31
0.0
   0
LINE
   5
FC
 100
AcDbEntity
   8
LEVEL003
 100
AcDbLine
   6
CONTINUOUS
  62
3
  10
 250.00000000000
  20
 885.00000000000
  30
0.0
  11
 250.00000000000
  21
 957.56250000000
  31
0.0
   0
INSERT
   5
FD
 100
AcDbEntity
   8
LEVEL003
   6
CONTINUOUS
  62
3
 100
AcDbBlockReference
   2
_OPEN
  10
 250.00000000000
  20
 1115.0000000000
  30
0.0
  41
 15.000000000000
  42
 15.000000000000
  43
 15.000000000000
  50
 90.000000000000
   0
INSERT
   5
FE
 100
AcDbEntity
   8
LEVEL003
   6
CONTINUOUS
  62
3
 100
AcDbBlockReference
   2
_OPEN
  10
 250.00000000000
  20
 885.00000000000
  30
0.0
  41
 15.000000000000
  42
 15.000000000000
  43
 15.000000000000
  50
 270.00000000000
   0
MTEXT
   5
FF
 100
AcDbEntity
   8
LEVEL003
  62
3
 100
AcDbMText
  10
 245.99998474121
  20
 1000.0000000000
  30
0.0
  40
 20.000000000000
  41
0.0
  71
8
  72
1
   1
\A1;%%c230
   7
GMM001
  11
0.0
  21
 1.0000000000000
  31
0.0
   0
ENDBLK
   5
100
 100
AcDbEntity
   8
0
 100
AcDbBlockEnd
   0
BLOCK
   5
101
 100
AcDbEntity
   8
0
 100
AcDbBlockBegin
   2
*D12
  70
65
  10
0.0
  20
0.0
  30
0.0
   3
*D12
   0
LINE
   5
102
 100
AcDbEntity
   8
LEVEL003
 100
AcDbLine
   6
CONTINUOUS
  62
3
  10
 305.00000000000
  20
 882.00000000000
  30
0.0
  11
 305.00000000000
  21
 740.00000000000
  31
0.0
   0
LINE
   5
103
 100
AcDbEntity
   8
LEVEL003
 100
AcDbLine
   6
CONTINUOUS
  62
3
  10
 305.00000000000
  20
 750.00000000000
  30
0.0
  11
 322.50000000000
  21
 750.00000000000
  31
0.0
   0
LINE
   5
104
 100
AcDbEntity
   8
LEVEL003
 100
AcDbLine
   6
CONTINUOUS
  62
3
  10
 340.00000000000
  20
 750.00000000000
  30
0.0
  11
 322.50000000000
  21
 750.00000000000
  31
0.0
   0
INSERT
   5
105
 100
AcDbEntity
   8
LEVEL003
   6
CONTINUOUS
  62
3
 100
AcDbBlockReference
   2
_OPEN
  10
 305.00000000000
  20
 750.00000000000
  30
0.0
  41
 15.000000000000
  42
 15.000000000000
  43
 15.000000000000
  50
 180.00000000000
   0
INSERT
   5
106
 100
AcDbEntity
   8
LEVEL003
   6
CONTINUOUS
  62
3
 100
AcDbBlockReference
   2
_OPEN
  10
 340.00000000000
  20
 750.00000000000
  30
0.0
  41
 15.000000000000
  42
 15.000000000000
  43
 15.000000000000
  50
0.0
   0
MTEXT
   5
107
 100
AcDbEntity
   8
LEVEL003
  62
3
 100
AcDbMText
  10
 322.50000000000
  20
 754.00001525879
  30
0.0
  40
 20.000000000000
  41
0.0
  71
8
  72
1
   1
\A1;35
   7
GMM001
   0
ENDBLK
   5
108
 100
AcDbEntity
   8
0
 100
AcDbBlockEnd
   0
BLOCK
   5
109
 100
AcDbEntity
   8
0
 100
AcDbBlockBegin
   2
*D13
  70
65
  10
0.0
  20
0.0
  30
0.0
   3
*D13
   0
LINE
   5
10A
 100
AcDbEntity
   8
LEVEL003
 100
AcDbLine
   6
CONTINUOUS
  62
3
  10
 340.00000000000
  20
 907.00000000000
  30
0.0
  11
 340.00000000000
  21
 740.00000000000
  31
0.0
   0
LINE
   5
10B
 100
AcDbEntity
   8
LEVEL003
 100
AcDbLine
   6
CONTINUOUS
  62
3
  10
 415.00000000000
  20
 886.50000000000
  30
0.0
  11
 415.00000000000
  21
 740.00000000000
  31
0.0
   0
LINE
   5
10C
 100
AcDbEntity
   8
LEVEL003
 100
AcDbLine
   6
CONTINUOUS
  62
3
  10
 340.00000000000
  20
 750.00000000000
  30
0.0
  11
 357.37500000000
  21
 750.00000000000
  31
0.0
   0
LINE
   5
10D
 100
AcDbEntity
   8
LEVEL003
 100
AcDbLine
   6
CONTINUOUS
  62
3
  10
 415.00000000000
  20
 750.00000000000
  30
0.0
  11
 397.62500000000
  21
 750.00000000000
  31
0.0
   0
INSERT
   5
10E
 100
AcDbEntity
   8
LEVEL003
   6
CONTINUOUS
  62
3
 100
AcDbBlockReference
   2
_OPEN
  10
 340.00000000000
  20
 750.00000000000
  30
0.0
  41
 15.000000000000
  42
 15.000000000000
  43
 15.000000000000
  50
 180.00000000000
   0
INSERT
   5
10F
 100
AcDbEntity
   8
LEVEL003
   6
CONTINUOUS
  62
3
 100
AcDbBlockReference
   2
_OPEN
  10
 415.00000000000
  20
 750.00000000000
  30
0.0
  41
 15.000000000000
  42
 15.000000000000
  43
 15.000000000000
  50
0.0
   0
MTEXT
   5
110
 100
AcDbEntity
   8
LEVEL003
  62
3
 100
AcDbMText
  10
 377.50000000000
  20
 754.00001525879
  30
0.0
  40
 20.000000000000
  41
0.0
  71
8
  72
1
   1
\A1;75
   7
GMM001
   0
ENDBLK
   5
111
 100
AcDbEntity
   8
0
 100
AcDbBlockEnd
   0
ENDSEC
   0
SECTION
   2
ENTITIES
   0
DIMENSION
   5
112
 100
AcDbEntity
   8
LEVEL003
   6
CONTINUOUS
  62
3
 100
AcDbDimension
   2
*D1
  10
 1380.0000000000
  20
 1202.4747142778
  30
0.0
  11
 1380.0000000000
  21
 999.97471427780
  31
0.0
  70
128
   1
\A1;%%c405
   3
GMM001
 100
AcDbAlignedDimension
  13
 1380.0000000000
  23
 797.47471427780
  33
0.0
  14
 1380.0000000000
  24
 1202.4747142778
  34
0.0
  50
 90.000000000000
 100
AcDbRotatedDimension
   0
DIMENSION
   5
114
 100
AcDbEntity
   8
LEVEL003
   6
CONTINUOUS
  62
3
 100
AcDbDimension
   2
*D2
  10
 1300.0000000000
  20
 890.00000000000
  30
0.0
  11
 1300.0000000000
  21
 1000.0000000000
  31
0.0
  70
0
   1
\A1;%%c220
   3
GMM002
 100
AcDbAlignedDimension
  13
 1300.0000000000
  23
 1110.0000000000
  33
0.0
  14
 1300.0000000000
  24
 890.00000000000
  34
0.0
  50
 270.00000000000
 100
AcDbRotatedDimension
   0
DIMENSION
   5
116
 100
AcDbEntity
   8
LEVEL003
   6
CONTINUOUS
  62
3
 100
AcDbDimension
   2
*D3
  10
 1340.0000000000
  20
 850.00000000000
  30
0.0
  11
 1340.0000000000
  21
 1000.0000000000
  31
0.0
  70
0
   1
\A1;%%c300
   3
GMM002
 100
AcDbAlignedDimension
  13
 1340.0000000000
  23
 1150.0000000000
  33
0.0
  14
 1340.0000000000
  24
 850.00000000000
  34
0.0
  50
 270.00000000000
 100
AcDbRotatedDimension
   0
LINE
   5
118
 100
AcDbEntity
   8
LEVEL001
 100
AcDbLine
   6
DASHDOT
  62
1
  10
 1767.0000000000
  20
 794.47471427780
  30
0.0
  11
 1767.0000000000
  21
 840.00000000000
  31
0.0
   0
LINE
   5
119
 100
AcDbEntity
   8
LEVEL001
 100
AcDbLine
   6
DOT
  62
3
  10
 1771.2500000000
  20
 798.22471427780
  30
0.0
  11
 1762.7500000000
  21
 798.22471427780
  31
0.0
   0
LINE
   5
11A
 100
AcDbEntity
   8
LEVEL001
 100
AcDbLine
   6
DOT
  62
3
  10
 1772.0000000000
  20
 797.47471427780
  30
0.0
  11
 1771.2500000000
  21
 798.22471427780
  31
0.0
   0
LINE
   5
11B
 100
AcDbEntity
   8
LEVEL001
 100
AcDbLine
   6
DOT
  62
3
  10
 1771.2500000000
  20
 798.22471427780
  30
0.0
  11
 1771.2500000000
  21
 812.27378654342
  31
0.0
   0
LINE
   5
11C
 100
AcDbEntity
   8
LEVEL001
 100
AcDbLine
   6
DOT
  62
3
  10
 1771.2500000000
  20
 812.27378654342
  30
0.0
  11
 1769.0000000000
  21
 813.57273673873
  31
0.0
   0
LINE
   5
11D
 100
AcDbEntity
   8
LEVEL001
 100
AcDbLine
   6
DOT
  62
3
  10
 1765.0000000000
  20
 813.57273673873
  30
0.0
  11
 1762.7500000000
  21
 812.27378654342
  31
0.0
   0
LINE
   5
11E
 100
AcDbEntity
   8
LEVEL001
 100
AcDbLine
   6
DOT
  62
3
  10
 1762.7500000000
  20
 812.27378654342
  30
0.0
  11
 1762.7500000000
  21
 798.22471427780
  31
0.0
   0
LINE
   5
11F
 100
AcDbEntity
   8
LEVEL001
 100
AcDbLine
   6
DOT
  62
3
  10
 1762.7500000000
  20
 798.22471427780
  30
0.0
  11
 1762.0000000000
  21
 797.47471427780
  31
0.0
   0
CIRCLE
   5
120
 100
AcDbEntity
   8
LEVEL001
 100
AcDbCircle
   6
DOT
  62
3
  10
 1767.0000000000
  20
 811.33677482467
  30
0.0
  40
 3.0000014305115
   0
LINE
   5
121
 100
AcDbEntity
   8
LEVEL001
 100
AcDbLine
   6
DOT
  62
3
  10
 1771.2500000000
  20
 808.33677482467
  30
0.0
  11
 1772.0000000000
  21
 807.58677482467
  31
0.0
   0
LINE
   5
122
 100
AcDbEntity
   8
LEVEL001
 100
AcDbLine
   6
DOT
  62
3
  10
 1772.0000000000
  20
 807.58677482467
  30
0.0
  11
 1772.0000000000
  21
 799.08677482467
  31
0.0
   0
LINE
   5
123
 100
AcDbEntity
   8
LEVEL001
 100
AcDbLine
   6
DOT
  62
3
  10
 1772.0000000000
  20
 799.08677482467
  30
0.0
  11
 1771.2500000000
  21
 798.33677482467
  31
0.0
   0
LINE
   5
124
 100
AcDbEntity
   8
LEVEL001
 100
AcDbLine
   6
DOT
  62
3
  10
 1771.2500000000
  20
 798.33677482467
  30
0.0
  11
 1762.7500000000
  21
 798.33677482467
  31
0.0
   0
LINE
   5
125
 100
AcDbEntity
   8
LEVEL001
 100
AcDbLine
   6
DOT
  62
3
  10
 1762.7500000000
  20
 798.33677482467
  30
0.0
  11
 1762.0000000000
  21
 799.08677482467
  31
0.0
   0
LINE
   5
126
 100
AcDbEntity
   8
LEVEL001
 100
AcDbLine
   6
DOT
  62
3
  10
 1762.0000000000
  20
 799.08677482467
  30
0.0
  11
 1762.0000000000
  21
 807.58677482467
  31
0.0
   0
LINE
   5
127
 100
AcDbEntity
   8
LEVEL001
 100
AcDbLine
   6
DOT
  62
3
  10
 1762.0000000000
  20
 807.58677482467
  30
0.0
  11
 1762.7500000000
  21
 808.33677482467
  31
0.0
   0
LINE
   5
128
 100
AcDbEntity
   8
LEVEL001
 100
AcDbLine
   6
DOT
  62
3
  10
 1762.7500000000
  20
 808.33677482467
  30
0.0
  11
 1771.2500000000
  21
 808.33677482467
  31
0.0
   0
LINE
   5
129
 100
AcDbEntity
   8
LEVEL001
 100
AcDbLine
   6
DOT
  62
3
  10
 1772.0000000000
  20
 807.58677482467
  30
0.0
  11
 1762.0000000000
  21
 807.58677482467
  31
0.0
   0
LINE
   5
12A
 100
AcDbEntity
   8
LEVEL001
 100
AcDbLine
   6
DOT
  62
3
  10
 1762.0000000000
  20
 799.08677482467
  30
0.0
  11
 1772.0000000000
  21
 799.08677482467
  31
0.0
   0
LINE
   5
12B
 100
AcDbEntity
   8
LEVEL001
 100
AcDbLine
   6
DOT
  62
3
  10
 1772.0000000000
  20
 797.47471427780
  30
0.0
  11
 1772.0000000000
  21
 799.08677482467
  31
0.0
   0
LINE
   5
12C
 100
AcDbEntity
   8
LEVEL001
 100
AcDbLine
   6
DOT
  62
3
  10
 1772.0000000000
  20
 807.58677482467
  30
0.0
  11
 1772.0000000000
  21
 809.47471427780
  31
0.0
   0
LINE
   5
12D
 100
AcDbEntity
   8
LEVEL001
 100
AcDbLine
   6
DOT
  62
3
  10
 1772.0000000000
  20
 809.47471427780
  30
0.0
  11
 1771.2500000000
  21
 812.27378654342
  31
0.0
   0
LINE
   5
12E
 100
AcDbEntity
   8
LEVEL001
 100
AcDbLine
   6
DOT
  62
3
  10
 1762.7500000000
  20
 812.27378654342
  30
0.0
  11
 1762.0000000000
  21
 809.47471427780
  31
0.0
   0
LINE
   5
12F
 100
AcDbEntity
   8
LEVEL001
 100
AcDbLine
   6
DOT
  62
3
  10
 1762.0000000000
  20
 809.47471427780
  30
0.0
  11
 1762.0000000000
  21
 807.58677482467
  31
0.0
   0
LINE
   5
130
 100
AcDbEntity
   8
LEVEL001
 100
AcDbLine
   6
DOT
  62
3
  10
 1762.0000000000
  20
 799.08677482467
  30
0.0
  11
 1762.0000000000
  21
 797.47471427780
  31
0.0
   0
LINE
   5
131
 100
AcDbEntity
   8
LEVEL001
 100
AcDbLine
   6
DOT
  62
3
  10
 1772.0000000000
  20
 809.47471427780
  30
0.0
  11
 1769.3521728516
  21
 809.47471427780
  31
0.0
   0
LINE
   5
132
 100
AcDbEntity
   8
LEVEL001
 100
AcDbLine
   6
DOT
  62
3
  10
 1764.6478271484
  20
 809.47471427780
  30
0.0
  11
 1762.0000000000
  21
 809.47471427780
  31
0.0
   0
LINE
   5
133
 100
AcDbEntity
   8
LEVEL001
 100
AcDbLine
   6
DOT
  62
3
  10
 1771.2500000000
  20
 812.27378654342
  30
0.0
  11
 1769.8498535156
  21
 812.27378654342
  31
0.0
   0
LINE
   5
134
 100
AcDbEntity
   8
LEVEL001
 100
AcDbLine
   6
DOT
  62
3
  10
 1764.1501464844
  20
 812.27378654342
  30
0.0
  11
 1762.7500000000
  21
 812.27378654342
  31
0.0
   0
LINE
   5
135
 100
AcDbEntity
   8
LEVEL001
 100
AcDbLine
   6
DOT
  62
3
  10
 1769.0000000000
  20
 813.57273673873
  30
0.0
  11
 1769.0000000000
  21
 840.00000000000
  31
0.0
   0
LINE
   5
136
 100
AcDbEntity
   8
LEVEL001
 100
AcDbLine
   6
DOT
  62
3
  10
 1765.0000000000
  20
 840.00000000000
  30
0.0
  11
 1765.0000000000
  21
 813.57279777389
  31
0.0
   0
LINE
   5
137
 100
AcDbEntity
   8
LEVEL001
 100
AcDbLine
   6
CONTINUOUS
  62
7
  10
 1925.0000000000
  20
 802.47471427780
  30
0.0
  11
 1925.0000000000
  21
 1197.4747142778
  31
0.0
   0
LINE
   5
138
 100
AcDbEntity
   8
LEVEL001
 100
AcDbLine
   6
CONTINUOUS
  62
7
  10
 1920.0000000000
  20
 797.47471427780
  30
0.0
  11
 1925.0000000000
  21
 802.47471427780
  31
0.0
   0
LINE
   5
139
 100
AcDbEntity
   8
LEVEL001
 100
AcDbLine
   6
CONTINUOUS
  62
7
  10
 1920.0000000000
  20
 1202.4747142778
  30
0.0
  11
 1925.0000000000
  21
 1197.4747142778
  31
0.0
   0
LINE
   5
13A
 100
AcDbEntity
   8
LEVEL001
 100
AcDbLine
   6
CONTINUOUS
  62
3
  10
 1782.2799987793
  20
 1209.5654125200
  30
0.0
  11
 1757.7199401855
  21
 1209.5654735551
  31
0.0
   0
LINE
   5
13B
 100
AcDbEntity
   8
LEVEL001
 100
AcDbLine
   6
CONTINUOUS
  62
3
  10
 1756.4045104980
  20
 1214.4747142778
  30
0.0
  11
 1757.7199401855
  21
 1209.5654735551
  31
0.0
   0
LINE
   5
13C
 100
AcDbEntity
   8
LEVEL001
 100
AcDbLine
   6
CONTINUOUS
  62
3
  10
 1783.5954284668
  20
 1214.4747142778
  30
0.0
  11
 1782.2799987793
  21
 1209.5654125200
  31
0.0
   0
LINE
   5
13D
 100
AcDbEntity
   8
LEVEL001
 100
AcDbLine
   6
CONTINUOUS
  62
7
  10
 1777.4833679199
  20
 1218.4747142778
  30
0.0
  11
 1762.5165710449
  21
 1228.4747142778
  31
0.0
   0
LINE
   5
13E
 100
AcDbEntity
   8
LEVEL001
 100
AcDbLine
   6
CONTINUOUS
  62
7
  10
 1777.4833679199
  20
 1228.4747142778
  30
0.0
  11
 1762.5165710449
  21
 1218.4747142778
  31
0.0
   0
LINE
   5
13F
 100
AcDbEntity
   8
LEVEL001
 100
AcDbLine
   6
CONTINUOUS
  62
7
  10
 1784.9999694824
  20
 1218.4747142778
  30
0.0
  11
 1777.4833679199
  21
 1218.4747142778
  31
0.0
   0
LINE
   5
140
 100
AcDbEntity
   8
LEVEL001
 100
AcDbLine
   6
CONTINUOUS
  62
7
  10
 1762.5165710449
  20
 1218.4747142778
  30
0.0
  11
 1754.9999694824
  21
 1218.4747142778
  31
0.0
   0
LINE
   5
141
 100
AcDbEntity
   8
LEVEL001
 100
AcDbLine
   6
CONTINUOUS
  62
7
  10
 1792.4999694824
  20
 1237.4747142778
  30
0.0
  11
 1747.4999694824
  21
 1237.4747142778
  31
0.0
   0
LINE
   5
142
 100
AcDbEntity
   8
LEVEL001
 100
AcDbLine
   6
CONTINUOUS
  62
7
  10
 1747.4999694824
  20
 1237.4747142778
  30
0.0
  11
 1747.4999694824
  21
 1254.4747142778
  31
0.0
   0
LINE
   5
143
 100
AcDbEntity
   8
LEVEL001
 100
AcDbLine
   6
CONTINUOUS
  62
7
  10
 1747.4999694824
  20
 1254.4747142778
  30
0.0
  11
 1792.4999694824
  21
 1254.4747142778
  31
0.0
   0
LINE
   5
144
 100
AcDbEntity
   8
LEVEL001
 100
AcDbLine
   6
CONTINUOUS
  62
7
  10
 1792.4999694824
  20
 1254.4747142778
  30
0.0
  11
 1792.4999694824
  21
 1237.4747142778
  31
0.0
   0
ARC
   5
145
 100
AcDbEntity
   8
LEVEL001
   6
CONTINUOUS
  62
7
 100
AcDbCircle
  10
 1749.9999694823
  20
 1232.4747142778
  30
0.0
  40
 2.0000000000000
 100
AcDbArc
  50
 180.00000000000
  51
 270.00000000129
   0
LINE
   5
146
 100
AcDbEntity
   8
LEVEL001
 100
AcDbLine
   6
CONTINUOUS
  62
7
  10
 1747.9999694824
  20
 1232.4747142778
  30
0.0
  11
 1747.9999694824
  21
 1237.4747142778
  31
0.0
   0
ARC
   5
147
 100
AcDbEntity
   8
LEVEL001
   6
CONTINUOUS
  62
7
 100
AcDbCircle
  10
 1789.9999694824
  20
 1232.4747142778
  30
0.0
  40
 2.0000000000000
 100
AcDbArc
  50
 270.00000000000
  51
 0.13027551975275E-9
   0
LINE
   5
148
 100
AcDbEntity
   8
LEVEL001
 100
AcDbLine
   6
CONTINUOUS
  62
7
  10
 1789.9999694824
  20
 1230.4747142778
  30
0.0
  11
 1749.9999694824
  21
 1230.4747142778
  31
0.0
   0
LINE
   5
149
 100
AcDbEntity
   8
LEVEL001
 100
AcDbLine
   6
CONTINUOUS
  62
7
  10
 1791.9999694824
  20
 1232.4747142778
  30
0.0
  11
 1791.9999694824
  21
 1237.4747142778
  31
0.0
   0
ARC
   5
14A
 100
AcDbEntity
   8
LEVEL001
   6
CONTINUOUS
  62
7
 100
AcDbCircle
  10
 1790.9999694826
  20
 1260.4747142778
  30
0.0
  40
 1.0000000000000
 100
AcDbArc
  50
0.0
  51
 90.000000011178
   0
LINE
   5
14B
 100
AcDbEntity
   8
LEVEL001
 100
AcDbLine
   6
CONTINUOUS
  62
7
  10
 1791.9999694824
  20
 1260.4747142778
  30
0.0
  11
 1791.9999694824
  21
 1254.4747142778
  31
0.0
   0
ARC
   5
14C
 100
AcDbEntity
   8
LEVEL001
   6
CONTINUOUS
  62
7
 100
AcDbCircle
  10
 1748.9999694824
  20
 1260.4747142777
  30
0.0
  40
 1.0000000000000
 100
AcDbArc
  50
 89.999999998984
  51
 179.99999999700
   0
LINE
   5
14D
 100
AcDbEntity
   8
LEVEL001
 100
AcDbLine
   6
CONTINUOUS
  62
7
  10
 1747.9999694824
  20
 1260.4747142778
  30
0.0
  11
 1747.9999694824
  21
 1254.4747142778
  31
0.0
   0
LINE
   5
14E
 100
AcDbEntity
   8
LEVEL001
 100
AcDbLine
   6
CONTINUOUS
  62
7
  10
 1790.9999694824
  20
 1261.4747142778
  30
0.0
  11
 1748.9999694824
  21
 1261.4747142778
  31
0.0
   0
LINE
   5
14F
 100
AcDbEntity
   8
LEVEL001
 100
AcDbLine
   6
CONTINUOUS
  62
3
  10
 1789.4999694824
  20
 1237.4747142778
  30
0.0
  11
 1789.4999694824
  21
 1254.4747142778
  31
0.0
   0
LINE
   5
150
 100
AcDbEntity
   8
LEVEL001
 100
AcDbLine
   6
CONTINUOUS
  62
3
  10
 1786.4999694824
  20
 1237.4747142778
  30
0.0
  11
 1786.4999694824
  21
 1254.4747142778
  31
0.0
   0
LINE
   5
151
 100
AcDbEntity
   8
LEVEL001
 100
AcDbLine
   6
CONTINUOUS
  62
3
  10
 1783.4999694824
  20
 1237.4747142778
  30
0.0
  11
 1783.4999694824
  21
 1254.4747142778
  31
0.0
   0
LINE
   5
152
 100
AcDbEntity
   8
LEVEL001
 100
AcDbLine
   6
CONTINUOUS
  62
3
  10
 1780.4999694824
  20
 1237.4747142778
  30
0.0
  11
 1780.4999694824
  21
 1254.4747142778
  31
0.0
   0
LINE
   5
153
 100
AcDbEntity
   8
LEVEL001
 100
AcDbLine
   6
CONTINUOUS
  62
3
  10
 1777.4999694824
  20
 1237.4747142778
  30
0.0
  11
 1777.4999694824
  21
 1254.4747142778
  31
0.0
   0
LINE
   5
154
 100
AcDbEntity
   8
LEVEL001
 100
AcDbLine
   6
CONTINUOUS
  62
3
  10
 1774.4999694824
  20
 1237.4747142778
  30
0.0
  11
 1774.4999694824
  21
 1254.4747142778
  31
0.0
   0
LINE
   5
155
 100
AcDbEntity
   8
LEVEL001
 100
AcDbLine
   6
CONTINUOUS
  62
3
  10
 1771.4999694824
  20
 1237.4747142778
  30
0.0
  11
 1771.4999694824
  21
 1254.4747142778
  31
0.0
   0
LINE
   5
156
 100
AcDbEntity
   8
LEVEL001
 100
AcDbLine
   6
CONTINUOUS
  62
3
  10
 1768.4999694824
  20
 1237.4747142778
  30
0.0
  11
 1768.4999694824
  21
 1254.4747142778
  31
0.0
   0
LINE
   5
157
 100
AcDbEntity
   8
LEVEL001
 100
AcDbLine
   6
CONTINUOUS
  62
3
  10
 1765.4999694824
  20
 1237.4747142778
  30
0.0
  11
 1765.4999694824
  21
 1254.4747142778
  31
0.0
   0
LINE
   5
158
 100
AcDbEntity
   8
LEVEL001
 100
AcDbLine
   6
CONTINUOUS
  62
3
  10
 1762.4999694824
  20
 1237.4747142778
  30
0.0
  11
 1762.4999694824
  21
 1254.4747142778
  31
0.0
   0
LINE
   5
159
 100
AcDbEntity
   8
LEVEL001
 100
AcDbLine
   6
CONTINUOUS
  62
3
  10
 1759.4999694824
  20
 1237.4747142778
  30
0.0
  11
 1759.4999694824
  21
 1254.4747142778
  31
0.0
   0
LINE
   5
15A
 100
AcDbEntity
   8
LEVEL001
 100
AcDbLine
   6
CONTINUOUS
  62
3
  10
 1756.4999694824
  20
 1237.4747142778
  30
0.0
  11
 1756.4999694824
  21
 1254.4747142778
  31
0.0
   0
LINE
   5
15B
 100
AcDbEntity
   8
LEVEL001
 100
AcDbLine
   6
CONTINUOUS
  62
3
  10
 1753.4999694824
  20
 1237.4747142778
  30
0.0
  11
 1753.4999694824
  21
 1254.4747142778
  31
0.0
   0
LINE
   5
15C
 100
AcDbEntity
   8
LEVEL001
 100
AcDbLine
   6
CONTINUOUS
  62
3
  10
 1750.4999694824
  20
 1237.4747142778
  30
0.0
  11
 1750.4999694824
  21
 1254.4747142778
  31
0.0
   0
LINE
   5
15D
 100
AcDbEntity
   8
LEVEL001
 100
AcDbLine
   6
DASHDOT
  62
1
  10
 1747.4999694824
  20
 1268.9747142778
  30
0.0
  11
 1747.9999694824
  21
 1269.4747142778
  31
0.0
   0
LINE
   5
15E
 100
AcDbEntity
   8
LEVEL001
 100
AcDbLine
   6
DASHDOT
  62
1
  10
 1747.9999694824
  20
 1261.4747142778
  30
0.0
  11
 1747.4999694824
  21
 1261.9747142778
  31
0.0
   0
LINE
   5
15F
 100
AcDbEntity
   8
LEVEL001
 100
AcDbLine
   6
DASHDOT
  62
1
  10
 1748.9999694824
  20
 1261.4747142778
  30
0.0
  11
 1747.9999694824
  21
 1261.4747142778
  31
0.0
   0
LINE
   5
160
 100
AcDbEntity
   8
LEVEL001
 100
AcDbLine
   6
DASHDOT
  62
1
  10
 1747.4999694824
  20
 1261.9747142778
  30
0.0
  11
 1747.4999694824
  21
 1268.9747142778
  31
0.0
   0
LINE
   5
161
 100
AcDbEntity
   8
LEVEL001
 100
AcDbLine
   6
DASHDOT
  62
1
  10
 1791.9999694824
  20
 1261.4747142778
  30
0.0
  11
 1792.4999694824
  21
 1261.9747142778
  31
0.0
   0
LINE
   5
162
 100
AcDbEntity
   8
LEVEL001
 100
AcDbLine
   6
DASHDOT
  62
1
  10
 1792.4999694824
  20
 1268.9747142778
  30
0.0
  11
 1791.9999694824
  21
 1269.4747142778
  31
0.0
   0
LINE
   5
163
 100
AcDbEntity
   8
LEVEL001
 100
AcDbLine
   6
DASHDOT
  62
1
  10
 1791.9999694824
  20
 1269.4747142778
  30
0.0
  11
 1747.9999694824
  21
 1269.4747142778
  31
0.0
   0
LINE
   5
164
 100
AcDbEntity
   8
LEVEL001
 100
AcDbLine
   6
DASHDOT
  62
1
  10
 1792.4999694824
  20
 1261.9747142778
  30
0.0
  11
 1792.4999694824
  21
 1268.9747142778
  31
0.0
   0
LINE
   5
165
 100
AcDbEntity
   8
LEVEL001
 100
AcDbLine
   6
DASHDOT
  62
1
  10
 1790.9999694824
  20
 1261.4747142778
  30
0.0
  11
 1791.9999694824
  21
 1261.4747142778
  31
0.0
   0
LINE
   5
166
 100
AcDbEntity
   8
LEVEL001
 100
AcDbLine
   6
CONTINUOUS
  62
7
  10
 1766.0202331543
  20
 1214.4747142778
  30
0.0
  11
 1762.5165710449
  21
 1218.4747142778
  31
0.0
   0
LINE
   5
167
 100
AcDbEntity
   8
LEVEL001
 100
AcDbLine
   6
CONTINUOUS
  62
7
  10
 1762.5165710449
  20
 1218.4747142778
  30
0.0
  11
 1762.5165710449
  21
 1228.4747142778
  31
0.0
   0
LINE
   5
168
 100
AcDbEntity
   8
LEVEL001
 100
AcDbLine
   6
CONTINUOUS
  62
7
  10
 1762.5165710449
  20
 1228.4747142778
  30
0.0
  11
 1777.4833679199
  21
 1228.4747142778
  31
0.0
   0
LINE
   5
169
 100
AcDbEntity
   8
LEVEL001
 100
AcDbLine
   6
CONTINUOUS
  62
7
  10
 1777.4833679199
  20
 1228.4747142778
  30
0.0
  11
 1777.4833679199
  21
 1218.4747142778
  31
0.0
   0
LINE
   5
16A
 100
AcDbEntity
   8
LEVEL001
 100
AcDbLine
   6
CONTINUOUS
  62
7
  10
 1777.4833679199
  20
 1218.4747142778
  30
0.0
  11
 1773.9797058105
  21
 1214.4747142778
  31
0.0
   0
LINE
   5
16B
 100
AcDbEntity
   8
LEVEL001
 100
AcDbLine
   6
CONTINUOUS
  62
7
  10
 1754.9999694824
  20
 1230.4747142778
  30
0.0
  11
 1754.9999694824
  21
 1218.4747142778
  31
0.0
   0
LINE
   5
16C
 100
AcDbEntity
   8
LEVEL001
 100
AcDbLine
   6
CONTINUOUS
  62
7
  10
 1754.9999694824
  20
 1218.4747142778
  30
0.0
  11
 1756.4045104980
  21
 1214.4747142778
  31
0.0
   0
LINE
   5
16D
 100
AcDbEntity
   8
LEVEL001
 100
AcDbLine
   6
CONTINUOUS
  62
7
  10
 1756.4045104980
  20
 1214.4747142778
  30
0.0
  11
 1783.5954284668
  21
 1214.4747142778
  31
0.0
   0
LINE
   5
16E
 100
AcDbEntity
   8
LEVEL001
 100
AcDbLine
   6
CONTINUOUS
  62
7
  10
 1783.5954284668
  20
 1214.4747142778
  30
0.0
  11
 1784.9999694824
  21
 1218.4747142778
  31
0.0
   0
LINE
   5
16F
 100
AcDbEntity
   8
LEVEL001
 100
AcDbLine
   6
CONTINUOUS
  62
7
  10
 1784.9999694824
  20
 1218.4747142778
  30
0.0
  11
 1784.9999694824
  21
 1230.4747142778
  31
0.0
   0
LINE
   5
170
 100
AcDbEntity
   8
LEVEL001
 100
AcDbLine
   6
DASHDOT
  62
1
  10
 1769.9999703037
  20
 1149.9999981363
  30
0.0
  11
 1770.0000000000
  21
 1277.4747142778
  31
0.0
   0
LEADER
   5
171
 100
AcDbEntity
   8
LEVEL003
   6
CONTINUOUS
  62
3
 100
AcDbLeader
   3
GMM003
  73
0
  74
1
  75
0
  40
 20.000000000000
  41
0.0
  76
3
  10
 1783.2204886974
  20
 1202.4747142778
  30
0.0
  10
 1825.0000000000
  20
 1250.0000000000
  30
0.0
  10
 1900.0000000000
  20
 1250.0000000000
  30
0.0
  77
3
   0
TEXT
   5
172
 100
AcDbEntity
   8
LEVEL003
  62
3
 100
AcDbText
  10
 1825.0000000000
  20
 1250.0000000000
  30
0.0
  40
 16.000000000000
   1
Ｒ３／４
   7
STANDARD
 100
AcDbText
   0
LINE
   5
173
 100
AcDbEntity
   8
LEVEL001
 100
AcDbLine
   6
CONTINUOUS
  62
3
  10
 1782.0584438241
  20
 1202.4747142778
  30
0.0
  11
 1782.2799987793
  21
 1209.5654125200
  31
0.0
   0
LINE
   5
174
 100
AcDbEntity
   8
LEVEL001
 100
AcDbLine
   6
CONTINUOUS
  62
7
  10
 1783.2204886974
  20
 1202.4747142778
  30
0.0
  11
 1783.5954284668
  21
 1214.4747142778
  31
0.0
   0
LINE
   5
175
 100
AcDbEntity
   8
LEVEL001
 100
AcDbLine
   6
CONTINUOUS
  62
3
  10
 1757.7198181152
  20
 1209.5654735551
  30
0.0
  11
 1757.9414777550
  21
 1202.4747142778
  31
0.0
   0
LINE
   5
176
 100
AcDbEntity
   8
LEVEL001
 100
AcDbLine
   6
CONTINUOUS
  62
7
  10
 1756.7794502674
  20
 1202.4747142778
  30
0.0
  11
 1756.4045104980
  21
 1214.4747142778
  31
0.0
   0
LINE
   5
177
 100
AcDbEntity
   8
LEVEL001
 100
AcDbLine
   6
CONTINUOUS
  62
7
  10
 1920.0000000000
  20
 1202.4747142778
  30
0.0
  11
 1920.0000000000
  21
 1000.0000000000
  31
0.0
   0
LINE
   5
178
 100
AcDbEntity
   8
LEVEL001
 100
AcDbLine
   6
CONTINUOUS
  62
7
  10
 1920.0000000000
  20
 797.47471427780
  30
0.0
  11
 1920.0000000000
  21
 1000.0000000000
  31
0.0
   0
LINE
   5
179
 100
AcDbEntity
   8
LEVEL001
 100
AcDbLine
   6
CONTINUOUS
  62
7
  10
 415.00000000000
  20
 1108.5000000000
  30
0.0
  11
 420.00000000000
  21
 1110.0000000000
  31
0.0
   0
ARC
   5
17A
 100
AcDbEntity
   8
LEVEL001
   6
CONTINUOUS
  62
7
 100
AcDbCircle
  10
 411.00000000000
  20
 1090.0000000000
  30
0.0
  40
 2.0000000000000
 100
AcDbArc
  50
 180.00000000000
  51
 270.00000000000
   0
ARC
   5
17B
 100
AcDbEntity
   8
LEVEL001
   6
CONTINUOUS
  62
7
 100
AcDbCircle
  10
 413.00000000000
  20
 1090.0000000000
  30
0.0
  40
 2.0000000000000
 100
AcDbArc
  50
 270.00000000000
  51
 0.44293676715934E-9
   0
LINE
   5
17C
 100
AcDbEntity
   8
LEVEL001
 100
AcDbLine
   6
CONTINUOUS
  62
7
  10
 411.00000000000
  20
 1088.0000000000
  30
0.0
  11
 413.00000000000
  21
 1088.0000000000
  31
0.0
   0
LINE
   5
17D
 100
AcDbEntity
   8
LEVEL001
 100
AcDbLine
   6
CONTINUOUS
  62
7
  10
 407.00000000000
  20
 1115.0000000000
  30
0.0
  11
 409.00000000000
  21
 1113.0000000000
  31
0.0
   0
LINE
   5
17E
 100
AcDbEntity
   8
LEVEL001
 100
AcDbLine
   6
CONTINUOUS
  62
7
  10
 305.00000000000
  20
 1113.0000000000
  30
0.0
  11
 307.00000000000
  21
 1115.0000000000
  31
0.0
   0
LINE
   5
17F
 100
AcDbEntity
   8
LEVEL001
 100
AcDbLine
   6
CONTINUOUS
  62
7
  10
 307.00000000000
  20
 1115.0000000000
  30
0.0
  11
 407.00000000000
  21
 1115.0000000000
  31
0.0
   0
LINE
   5
180
 100
AcDbEntity
   8
LEVEL001
 100
AcDbLine
   6
CONTINUOUS
  62
7
  10
 407.00000000000
  20
 885.00000000000
  30
0.0
  11
 409.00000000000
  21
 887.00000000000
  31
0.0
   0
LINE
   5
181
 100
AcDbEntity
   8
LEVEL001
 100
AcDbLine
   6
CONTINUOUS
  62
7
  10
 307.00000000000
  20
 885.00000000000
  30
0.0
  11
 407.00000000000
  21
 885.00000000000
  31
0.0
   0
LINE
   5
182
 100
AcDbEntity
   8
LEVEL001
 100
AcDbLine
   6
CONTINUOUS
  62
7
  10
 305.00000000000
  20
 887.00000000000
  30
0.0
  11
 307.00000000000
  21
 885.00000000000
  31
0.0
   0
LINE
   5
183
 100
AcDbEntity
   8
LEVEL001
 100
AcDbLine
   6
CONTINUOUS
  62
7
  10
 305.00000000000
  20
 887.00000000000
  30
0.0
  11
 305.00000000000
  21
 1113.0000000000
  31
0.0
   0
LINE
   5
184
 100
AcDbEntity
   8
LEVEL001
 100
AcDbLine
   6
DOT
  62
3
  10
 592.00000000000
  20
 990.00000000000
  30
0.0
  11
 591.00000000000
  21
 989.00000000000
  31
0.0
   0
LINE
   5
185
 100
AcDbEntity
   8
LEVEL001
 100
AcDbLine
   6
DOT
  62
3
  10
 628.00000000000
  20
 1010.0000000000
  30
0.0
  11
 629.00000000000
  21
 1011.0000000000
  31
0.0
   0
CIRCLE
   5
186
 100
AcDbEntity
   8
LEVEL001
 100
AcDbCircle
   6
DASHDOT
  62
1
  10
 654.00000000000
  20
 1000.0000000000
  30
0.0
  40
 44.000000000000
   0
LINE
   5
187
 100
AcDbEntity
   8
LEVEL001
 100
AcDbLine
   6
CONTINUOUS
  62
7
  10
 420.00000000000
  20
 1196.5000000000
  30
0.0
  11
 425.00000000000
  21
 1196.5000000000
  31
0.0
   0
LINE
   5
188
 100
AcDbEntity
   8
LEVEL001
 100
AcDbLine
   6
CONTINUOUS
  62
3
  10
 520.00000000000
  20
 1197.5000000000
  30
0.0
  11
 529.33013916016
  21
 1200.0000000000
  31
0.0
   0
LINE
   5
189
 100
AcDbEntity
   8
LEVEL001
 100
AcDbLine
   6
DASHDOT
  62
1
  10
 520.00000000000
  20
 1203.0000000000
  30
0.0
  11
 520.00000000000
  21
 1200.0000000000
  31
0.0
   0
LINE
   5
18A
 100
AcDbEntity
   8
LEVEL001
 100
AcDbLine
   6
DASHDOT
  62
1
  10
 425.00000000000
  20
 1200.0000000000
  30
0.0
  11
 427.50000000000
  21
 1200.0000000000
  31
0.0
   0
LINE
   5
18B
 100
AcDbEntity
   8
LEVEL001
 100
AcDbLine
   6
DASHDOT
  62
1
  10
 425.00000000000
  20
 1200.0000000000
  30
0.0
  11
 425.00000000000
  21
 1203.0000000000
  31
0.0
   0
LINE
   5
18C
 100
AcDbEntity
   8
LEVEL001
 100
AcDbLine
   6
DASHDOT
  62
1
  10
 425.00000000000
  20
 1203.0000000000
  30
0.0
  11
 520.00000000000
  21
 1203.0000000000
  31
0.0
   0
LINE
   5
18D
 100
AcDbEntity
   8
LEVEL001
 100
AcDbLine
   6
CONTINUOUS
  62
3
  10
 622.28009033203
  20
 1209.5654125200
  30
0.0
  11
 597.71990966797
  21
 1209.5654735551
  31
0.0
   0
LINE
   5
18E
 100
AcDbEntity
   8
LEVEL001
 100
AcDbLine
   6
CONTINUOUS
  62
3
  10
 596.40447998047
  20
 1214.4747142778
  30
0.0
  11
 597.71990966797
  21
 1209.5654735551
  31
0.0
   0
LINE
   5
18F
 100
AcDbEntity
   8
LEVEL001
 100
AcDbLine
   6
CONTINUOUS
  62
3
  10
 623.59552001953
  20
 1214.4747142778
  30
0.0
  11
 622.28009033203
  21
 1209.5654125200
  31
0.0
   0
LINE
   5
190
 100
AcDbEntity
   8
LEVEL001
 100
AcDbLine
   6
CONTINUOUS
  62
7
  10
 617.48333740234
  20
 1218.4747142778
  30
0.0
  11
 602.51666259766
  21
 1228.4747142778
  31
0.0
   0
LINE
   5
191
 100
AcDbEntity
   8
LEVEL001
 100
AcDbLine
   6
CONTINUOUS
  62
7
  10
 617.48333740234
  20
 1228.4747142778
  30
0.0
  11
 602.51666259766
  21
 1218.4747142778
  31
0.0
   0
LINE
   5
192
 100
AcDbEntity
   8
LEVEL001
 100
AcDbLine
   6
CONTINUOUS
  62
7
  10
 625.00000000000
  20
 1218.4747142778
  30
0.0
  11
 617.48333740234
  21
 1218.4747142778
  31
0.0
   0
LINE
   5
193
 100
AcDbEntity
   8
LEVEL001
 100
AcDbLine
   6
CONTINUOUS
  62
7
  10
 602.51666259766
  20
 1218.4747142778
  30
0.0
  11
 595.00000000000
  21
 1218.4747142778
  31
0.0
   0
LINE
   5
194
 100
AcDbEntity
   8
LEVEL001
 100
AcDbLine
   6
CONTINUOUS
  62
7
  10
 613.97973632813
  20
 1214.4747142778
  30
0.0
  11
 617.48333740234
  21
 1218.4747142778
  31
0.0
   0
LINE
   5
195
 100
AcDbEntity
   8
LEVEL001
 100
AcDbLine
   6
CONTINUOUS
  62
7
  10
 617.48333740234
  20
 1218.4747142778
  30
0.0
  11
 617.48333740234
  21
 1228.4747142778
  31
0.0
   0
LINE
   5
196
 100
AcDbEntity
   8
LEVEL001
 100
AcDbLine
   6
CONTINUOUS
  62
7
  10
 617.48333740234
  20
 1228.4747142778
  30
0.0
  11
 602.51666259766
  21
 1228.4747142778
  31
0.0
   0
LINE
   5
197
 100
AcDbEntity
   8
LEVEL001
 100
AcDbLine
   6
CONTINUOUS
  62
7
  10
 602.51666259766
  20
 1228.4747142778
  30
0.0
  11
 602.51666259766
  21
 1218.4747142778
  31
0.0
   0
LINE
   5
198
 100
AcDbEntity
   8
LEVEL001
 100
AcDbLine
   6
CONTINUOUS
  62
7
  10
 602.51666259766
  20
 1218.4747142778
  30
0.0
  11
 606.02020263672
  21
 1214.4747142778
  31
0.0
   0
LINE
   5
199
 100
AcDbEntity
   8
LEVEL001
 100
AcDbLine
   6
CONTINUOUS
  62
7
  10
 595.00000000000
  20
 1230.4747142778
  30
0.0
  11
 595.00000000000
  21
 1218.4747142778
  31
0.0
   0
LINE
   5
19A
 100
AcDbEntity
   8
LEVEL001
 100
AcDbLine
   6
CONTINUOUS
  62
7
  10
 595.00000000000
  20
 1218.4747142778
  30
0.0
  11
 596.40447998047
  21
 1214.4747142778
  31
0.0
   0
LINE
   5
19B
 100
AcDbEntity
   8
LEVEL001
 100
AcDbLine
   6
CONTINUOUS
  62
7
  10
 596.40447998047
  20
 1214.4747142778
  30
0.0
  11
 623.59552001953
  21
 1214.4747142778
  31
0.0
   0
LINE
   5
19C
 100
AcDbEntity
   8
LEVEL001
 100
AcDbLine
   6
CONTINUOUS
  62
7
  10
 623.59552001953
  20
 1214.4747142778
  30
0.0
  11
 625.00000000000
  21
 1218.4747142778
  31
0.0
   0
LINE
   5
19D
 100
AcDbEntity
   8
LEVEL001
 100
AcDbLine
   6
CONTINUOUS
  62
7
  10
 625.00000000000
  20
 1218.4747142778
  30
0.0
  11
 625.00000000000
  21
 1230.4747142778
  31
0.0
   0
LINE
   5
19E
 100
AcDbEntity
   8
LEVEL001
 100
AcDbLine
   6
CONTINUOUS
  62
7
  10
 632.50000000000
  20
 1237.4747142778
  30
0.0
  11
 587.50000000000
  21
 1237.4747142778
  31
0.0
   0
LINE
   5
19F
 100
AcDbEntity
   8
LEVEL001
 100
AcDbLine
   6
CONTINUOUS
  62
7
  10
 587.50000000000
  20
 1237.4747142778
  30
0.0
  11
 587.50000000000
  21
 1254.4747142778
  31
0.0
   0
LINE
   5
1A0
 100
AcDbEntity
   8
LEVEL001
 100
AcDbLine
   6
CONTINUOUS
  62
7
  10
 587.50000000000
  20
 1254.4747142778
  30
0.0
  11
 632.50000000000
  21
 1254.4747142778
  31
0.0
   0
LINE
   5
1A1
 100
AcDbEntity
   8
LEVEL001
 100
AcDbLine
   6
CONTINUOUS
  62
7
  10
 632.50000000000
  20
 1254.4747142778
  30
0.0
  11
 632.50000000000
  21
 1237.4747142778
  31
0.0
   0
ARC
   5
1A2
 100
AcDbEntity
   8
LEVEL001
   6
CONTINUOUS
  62
7
 100
AcDbCircle
  10
 630.00000000000
  20
 1232.4747142778
  30
0.0
  40
 2.0000000000000
 100
AcDbArc
  50
 270.00000000000
  51
0.0
   0
LINE
   5
1A3
 100
AcDbEntity
   8
LEVEL001
 100
AcDbLine
   6
CONTINUOUS
  62
7
  10
 630.00000000000
  20
 1230.4747142778
  30
0.0
  11
 590.00000000000
  21
 1230.4747142778
  31
0.0
   0
LINE
   5
1A4
 100
AcDbEntity
   8
LEVEL001
 100
AcDbLine
   6
CONTINUOUS
  62
7
  10
 632.00000000000
  20
 1232.4747142778
  30
0.0
  11
 632.00000000000
  21
 1237.4747142778
  31
0.0
   0
ARC
   5
1A5
 100
AcDbEntity
   8
LEVEL001
   6
CONTINUOUS
  62
7
 100
AcDbCircle
  10
 631.00000000003
  20
 1260.4747142778
  30
0.0
  40
 1.0000000000000
 100
AcDbArc
  50
0.0
  51
 90.000000001798
   0
LINE
   5
1A6
 100
AcDbEntity
   8
LEVEL001
 100
AcDbLine
   6
CONTINUOUS
  62
7
  10
 632.00000000000
  20
 1260.4747142778
  30
0.0
  11
 632.00000000000
  21
 1254.4747142778
  31
0.0
   0
LINE
   5
1A7
 100
AcDbEntity
   8
LEVEL001
 100
AcDbLine
   6
CONTINUOUS
  62
7
  10
 631.00000000000
  20
 1261.4747142778
  30
0.0
  11
 589.00000000000
  21
 1261.4747142778
  31
0.0
   0
LINE
   5
1A8
 100
AcDbEntity
   8
LEVEL001
 100
AcDbLine
   6
CONTINUOUS
  62
3
  10
 629.50000000000
  20
 1237.4747142778
  30
0.0
  11
 629.50000000000
  21
 1254.4747142778
  31
0.0
   0
LINE
   5
1A9
 100
AcDbEntity
   8
LEVEL001
 100
AcDbLine
   6
CONTINUOUS
  62
3
  10
 626.50000000000
  20
 1237.4747142778
  30
0.0
  11
 626.50000000000
  21
 1254.4747142778
  31
0.0
   0
LINE
   5
1AA
 100
AcDbEntity
   8
LEVEL001
 100
AcDbLine
   6
CONTINUOUS
  62
3
  10
 623.50000000000
  20
 1237.4747142778
  30
0.0
  11
 623.50000000000
  21
 1254.4747142778
  31
0.0
   0
LINE
   5
1AB
 100
AcDbEntity
   8
LEVEL001
 100
AcDbLine
   6
CONTINUOUS
  62
3
  10
 620.50000000000
  20
 1237.4747142778
  30
0.0
  11
 620.50000000000
  21
 1254.4747142778
  31
0.0
   0
LINE
   5
1AC
 100
AcDbEntity
   8
LEVEL001
 100
AcDbLine
   6
CONTINUOUS
  62
3
  10
 617.50000000000
  20
 1237.4747142778
  30
0.0
  11
 617.50000000000
  21
 1254.4747142778
  31
0.0
   0
LINE
   5
1AD
 100
AcDbEntity
   8
LEVEL001
 100
AcDbLine
   6
CONTINUOUS
  62
3
  10
 614.50000000000
  20
 1237.4747142778
  30
0.0
  11
 614.50000000000
  21
 1254.4747142778
  31
0.0
   0
LINE
   5
1AE
 100
AcDbEntity
   8
LEVEL001
 100
AcDbLine
   6
CONTINUOUS
  62
3
  10
 611.50000000000
  20
 1237.4747142778
  30
0.0
  11
 611.50000000000
  21
 1254.4747142778
  31
0.0
   0
LINE
   5
1AF
 100
AcDbEntity
   8
LEVEL001
 100
AcDbLine
   6
CONTINUOUS
  62
3
  10
 608.50000000000
  20
 1237.4747142778
  30
0.0
  11
 608.50000000000
  21
 1254.4747142778
  31
0.0
   0
LINE
   5
1B0
 100
AcDbEntity
   8
LEVEL001
 100
AcDbLine
   6
CONTINUOUS
  62
3
  10
 605.50000000000
  20
 1237.4747142778
  30
0.0
  11
 605.50000000000
  21
 1254.4747142778
  31
0.0
   0
LINE
   5
1B1
 100
AcDbEntity
   8
LEVEL001
 100
AcDbLine
   6
CONTINUOUS
  62
3
  10
 602.50000000000
  20
 1237.4747142778
  30
0.0
  11
 602.50000000000
  21
 1254.4747142778
  31
0.0
   0
LINE
   5
1B2
 100
AcDbEntity
   8
LEVEL001
 100
AcDbLine
   6
CONTINUOUS
  62
3
  10
 599.50000000000
  20
 1237.4747142778
  30
0.0
  11
 599.50000000000
  21
 1254.4747142778
  31
0.0
   0
LINE
   5
1B3
 100
AcDbEntity
   8
LEVEL001
 100
AcDbLine
   6
CONTINUOUS
  62
3
  10
 596.50000000000
  20
 1237.4747142778
  30
0.0
  11
 596.50000000000
  21
 1254.4747142778
  31
0.0
   0
LINE
   5
1B4
 100
AcDbEntity
   8
LEVEL001
 100
AcDbLine
   6
CONTINUOUS
  62
3
  10
 593.50000000000
  20
 1237.4747142778
  30
0.0
  11
 593.50000000000
  21
 1254.4747142778
  31
0.0
   0
LINE
   5
1B5
 100
AcDbEntity
   8
LEVEL001
 100
AcDbLine
   6
DASHDOT
  62
1
  10
 632.00000000000
  20
 1261.4747142778
  30
0.0
  11
 632.50000000000
  21
 1261.9747142778
  31
0.0
   0
LINE
   5
1B6
 100
AcDbEntity
   8
LEVEL001
 100
AcDbLine
   6
DASHDOT
  62
1
  10
 632.50000000000
  20
 1268.9747142778
  30
0.0
  11
 632.00000000000
  21
 1269.4747142778
  31
0.0
   0
LINE
   5
1B7
 100
AcDbEntity
   8
LEVEL001
 100
AcDbLine
   6
DASHDOT
  62
1
  10
 632.00000000000
  20
 1269.4747142778
  30
0.0
  11
 588.00000000000
  21
 1269.4747142778
  31
0.0
   0
LINE
   5
1B8
 100
AcDbEntity
   8
LEVEL001
 100
AcDbLine
   6
DASHDOT
  62
1
  10
 632.50000000000
  20
 1261.9747142778
  30
0.0
  11
 632.50000000000
  21
 1268.9747142778
  31
0.0
   0
LINE
   5
1B9
 100
AcDbEntity
   8
LEVEL001
 100
AcDbLine
   6
DASHDOT
  62
1
  10
 631.00000000000
  20
 1261.4747142778
  30
0.0
  11
 632.00000000000
  21
 1261.4747142778
  31
0.0
   0
ARC
   5
1BA
 100
AcDbEntity
   8
LEVEL001
   6
CONTINUOUS
  62
7
 100
AcDbCircle
  10
 590.00000000001
  20
 1232.4747142778
  30
0.0
  40
 2.0000000000000
 100
AcDbArc
  50
 180.00000000000
  51
 269.99999999990
   0
LINE
   5
1BB
 100
AcDbEntity
   8
LEVEL001
 100
AcDbLine
   6
CONTINUOUS
  62
7
  10
 588.00000000000
  20
 1232.4747142778
  30
0.0
  11
 588.00000000000
  21
 1237.4747142778
  31
0.0
   0
ARC
   5
1BC
 100
AcDbEntity
   8
LEVEL001
   6
CONTINUOUS
  62
7
 100
AcDbCircle
  10
 588.99999999998
  20
 1260.4747142777
  30
0.0
  40
 1.0000000000000
 100
AcDbArc
  50
 89.999999999010
  51
 179.99999999703
   0
LINE
   5
1BD
 100
AcDbEntity
   8
LEVEL001
 100
AcDbLine
   6
CONTINUOUS
  62
7
  10
 588.00000000000
  20
 1260.4747142778
  30
0.0
  11
 588.00000000000
  21
 1254.4747142778
  31
0.0
   0
LINE
   5
1BE
 100
AcDbEntity
   8
LEVEL001
 100
AcDbLine
   6
CONTINUOUS
  62
3
  10
 590.50000000000
  20
 1237.4747142778
  30
0.0
  11
 590.50000000000
  21
 1254.4747142778
  31
0.0
   0
LINE
   5
1BF
 100
AcDbEntity
   8
LEVEL001
 100
AcDbLine
   6
DASHDOT
  62
1
  10
 587.50000000000
  20
 1268.9747142778
  30
0.0
  11
 588.00000000000
  21
 1269.4747142778
  31
0.0
   0
LINE
   5
1C0
 100
AcDbEntity
   8
LEVEL001
 100
AcDbLine
   6
DASHDOT
  62
1
  10
 588.00000000000
  20
 1261.4747142778
  30
0.0
  11
 587.50000000000
  21
 1261.9747142778
  31
0.0
   0
LINE
   5
1C1
 100
AcDbEntity
   8
LEVEL001
 100
AcDbLine
   6
DASHDOT
  62
1
  10
 589.00000000000
  20
 1261.4747142778
  30
0.0
  11
 588.00000000000
  21
 1261.4747142778
  31
0.0
   0
LINE
   5
1C2
 100
AcDbEntity
   8
LEVEL001
 100
AcDbLine
   6
DASHDOT
  62
1
  10
 587.50000000000
  20
 1261.9747142778
  30
0.0
  11
 587.50000000000
  21
 1268.9747142778
  31
0.0
   0
LINE
   5
1C3
 100
AcDbEntity
   8
LEVEL001
 100
AcDbLine
   6
CONTINUOUS
  62
7
  10
 425.00000000000
  20
 1197.5000000000
  30
0.0
  11
 427.50000000000
  21
 1200.0000000000
  31
0.0
   0
LINE
   5
1C4
 100
AcDbEntity
   8
LEVEL001
 100
AcDbLine
   6
CONTINUOUS
  62
7
  10
 427.50000000000
  20
 1200.0000000000
  30
0.0
  11
 534.00000000000
  21
 1200.0000000000
  31
0.0
   0
ARC
   5
1C5
 100
AcDbEntity
   8
LEVEL001
   6
CONTINUOUS
  62
7
 100
AcDbCircle
  10
 534.00000000000
  20
 1201.0000000000
  30
0.0
  40
 1.0000000000000
 100
AcDbArc
  50
 270.00000000000
  51
0.0
   0
LINE
   5
1C6
 100
AcDbEntity
   8
LEVEL001
 100
AcDbLine
   6
CONTINUOUS
  62
7
  10
 535.00000000000
  20
 1201.4747142778
  30
0.0
  11
 536.00000000000
  21
 1202.4747142778
  31
0.0
   0
LINE
   5
1C7
 100
AcDbEntity
   8
LEVEL001
 100
AcDbLine
   6
DASHDOT
  62
1
  10
 610.00000000000
  20
 1150.0000000000
  30
0.0
  11
 610.00000000000
  21
 1277.4747142778
  31
0.0
   0
LINE
   5
1C8
 100
AcDbEntity
   8
LEVEL001
 100
AcDbLine
   6
DASHDOT
  62
1
  10
 615.00000000000
  20
 794.47471427780
  30
0.0
  11
 615.00000000000
  21
 840.00000000000
  31
0.0
   0
LINE
   5
1C9
 100
AcDbEntity
   8
LEVEL001
 100
AcDbLine
   6
DOT
  62
3
  10
 619.25000000000
  20
 798.22471427780
  30
0.0
  11
 610.75000000000
  21
 798.22471427780
  31
0.0
   0
LINE
   5
1CA
 100
AcDbEntity
   8
LEVEL001
 100
AcDbLine
   6
DOT
  62
3
  10
 620.00000000000
  20
 797.47471427780
  30
0.0
  11
 619.25000000000
  21
 798.22471427780
  31
0.0
   0
LINE
   5
1CB
 100
AcDbEntity
   8
LEVEL001
 100
AcDbLine
   6
DOT
  62
3
  10
 619.25000000000
  20
 798.22471427780
  30
0.0
  11
 619.25000000000
  21
 812.27378654342
  31
0.0
   0
LINE
   5
1CC
 100
AcDbEntity
   8
LEVEL001
 100
AcDbLine
   6
DOT
  62
3
  10
 619.25000000000
  20
 812.27378654342
  30
0.0
  11
 617.00000000000
  21
 813.57273673873
  31
0.0
   0
LINE
   5
1CD
 100
AcDbEntity
   8
LEVEL001
 100
AcDbLine
   6
DOT
  62
3
  10
 613.00000000000
  20
 813.57273673873
  30
0.0
  11
 610.75000000000
  21
 812.27378654342
  31
0.0
   0
LINE
   5
1CE
 100
AcDbEntity
   8
LEVEL001
 100
AcDbLine
   6
DOT
  62
3
  10
 610.75000000000
  20
 812.27378654342
  30
0.0
  11
 610.75000000000
  21
 798.22471427780
  31
0.0
   0
LINE
   5
1CF
 100
AcDbEntity
   8
LEVEL001
 100
AcDbLine
   6
DOT
  62
3
  10
 610.75000000000
  20
 798.22471427780
  30
0.0
  11
 610.00000000000
  21
 797.47471427780
  31
0.0
   0
CIRCLE
   5
1D0
 100
AcDbEntity
   8
LEVEL001
 100
AcDbCircle
   6
DOT
  62
3
  10
 615.00000000000
  20
 811.33677482467
  30
0.0
  40
 3.0000014305115
   0
LINE
   5
1D1
 100
AcDbEntity
   8
LEVEL001
 100
AcDbLine
   6
DOT
  62
3
  10
 619.25000000000
  20
 808.33677482467
  30
0.0
  11
 620.00000000000
  21
 807.58677482467
  31
0.0
   0
LINE
   5
1D2
 100
AcDbEntity
   8
LEVEL001
 100
AcDbLine
   6
DOT
  62
3
  10
 620.00000000000
  20
 807.58677482467
  30
0.0
  11
 620.00000000000
  21
 799.08677482467
  31
0.0
   0
LINE
   5
1D3
 100
AcDbEntity
   8
LEVEL001
 100
AcDbLine
   6
DOT
  62
3
  10
 620.00000000000
  20
 799.08677482467
  30
0.0
  11
 619.25000000000
  21
 798.33677482467
  31
0.0
   0
LINE
   5
1D4
 100
AcDbEntity
   8
LEVEL001
 100
AcDbLine
   6
DOT
  62
3
  10
 619.25000000000
  20
 798.33677482467
  30
0.0
  11
 610.75000000000
  21
 798.33677482467
  31
0.0
   0
LINE
   5
1D5
 100
AcDbEntity
   8
LEVEL001
 100
AcDbLine
   6
DOT
  62
3
  10
 610.75000000000
  20
 798.33677482467
  30
0.0
  11
 610.00000000000
  21
 799.08677482467
  31
0.0
   0
LINE
   5
1D6
 100
AcDbEntity
   8
LEVEL001
 100
AcDbLine
   6
DOT
  62
3
  10
 610.00000000000
  20
 799.08677482467
  30
0.0
  11
 610.00000000000
  21
 807.58677482467
  31
0.0
   0
LINE
   5
1D7
 100
AcDbEntity
   8
LEVEL001
 100
AcDbLine
   6
DOT
  62
3
  10
 610.00000000000
  20
 807.58677482467
  30
0.0
  11
 610.75000000000
  21
 808.33677482467
  31
0.0
   0
LINE
   5
1D8
 100
AcDbEntity
   8
LEVEL001
 100
AcDbLine
   6
DOT
  62
3
  10
 610.75000000000
  20
 808.33677482467
  30
0.0
  11
 619.25000000000
  21
 808.33677482467
  31
0.0
   0
LINE
   5
1D9
 100
AcDbEntity
   8
LEVEL001
 100
AcDbLine
   6
DOT
  62
3
  10
 620.00000000000
  20
 807.58677482467
  30
0.0
  11
 610.00000000000
  21
 807.58677482467
  31
0.0
   0
LINE
   5
1DA
 100
AcDbEntity
   8
LEVEL001
 100
AcDbLine
   6
DOT
  62
3
  10
 610.00000000000
  20
 799.08677482467
  30
0.0
  11
 620.00000000000
  21
 799.08677482467
  31
0.0
   0
LINE
   5
1DB
 100
AcDbEntity
   8
LEVEL001
 100
AcDbLine
   6
DOT
  62
3
  10
 620.00000000000
  20
 797.47471427780
  30
0.0
  11
 620.00000000000
  21
 799.08677482467
  31
0.0
   0
LINE
   5
1DC
 100
AcDbEntity
   8
LEVEL001
 100
AcDbLine
   6
DOT
  62
3
  10
 620.00000000000
  20
 807.58677482467
  30
0.0
  11
 620.00000000000
  21
 809.47471427780
  31
0.0
   0
LINE
   5
1DD
 100
AcDbEntity
   8
LEVEL001
 100
AcDbLine
   6
DOT
  62
3
  10
 620.00000000000
  20
 809.47471427780
  30
0.0
  11
 619.25000000000
  21
 812.27378654342
  31
0.0
   0
LINE
   5
1DE
 100
AcDbEntity
   8
LEVEL001
 100
AcDbLine
   6
DOT
  62
3
  10
 610.75000000000
  20
 812.27378654342
  30
0.0
  11
 610.00000000000
  21
 809.47471427780
  31
0.0
   0
LINE
   5
1DF
 100
AcDbEntity
   8
LEVEL001
 100
AcDbLine
   6
DOT
  62
3
  10
 610.00000000000
  20
 809.47471427780
  30
0.0
  11
 610.00000000000
  21
 807.58677482467
  31
0.0
   0
LINE
   5
1E0
 100
AcDbEntity
   8
LEVEL001
 100
AcDbLine
   6
DOT
  62
3
  10
 610.00000000000
  20
 799.08677482467
  30
0.0
  11
 610.00000000000
  21
 797.47471427780
  31
0.0
   0
LINE
   5
1E1
 100
AcDbEntity
   8
LEVEL001
 100
AcDbLine
   6
DOT
  62
3
  10
 620.00000000000
  20
 809.47471427780
  30
0.0
  11
 617.35217285156
  21
 809.47471427780
  31
0.0
   0
LINE
   5
1E2
 100
AcDbEntity
   8
LEVEL001
 100
AcDbLine
   6
DOT
  62
3
  10
 612.64782714844
  20
 809.47471427780
  30
0.0
  11
 610.00000000000
  21
 809.47471427780
  31
0.0
   0
LINE
   5
1E3
 100
AcDbEntity
   8
LEVEL001
 100
AcDbLine
   6
DOT
  62
3
  10
 619.25000000000
  20
 812.27378654342
  30
0.0
  11
 617.84985351563
  21
 812.27378654342
  31
0.0
   0
LINE
   5
1E4
 100
AcDbEntity
   8
LEVEL001
 100
AcDbLine
   6
DOT
  62
3
  10
 612.15014648438
  20
 812.27378654342
  30
0.0
  11
 610.75000000000
  21
 812.27378654342
  31
0.0
   0
LINE
   5
1E5
 100
AcDbEntity
   8
LEVEL001
 100
AcDbLine
   6
DOT
  62
3
  10
 617.00000000000
  20
 813.57273673873
  30
0.0
  11
 617.00000000000
  21
 840.00000000000
  31
0.0
   0
LINE
   5
1E6
 100
AcDbEntity
   8
LEVEL001
 100
AcDbLine
   6
DOT
  62
3
  10
 613.00000000000
  20
 840.00000000000
  30
0.0
  11
 613.00000000000
  21
 813.57279777389
  31
0.0
   0
LINE
   5
1E7
 100
AcDbEntity
   8
LEVEL001
 100
AcDbLine
   6
CONTINUOUS
  62
7
  10
 415.00000000000
  20
 891.50000000000
  30
0.0
  11
 420.00000000000
  21
 890.00000000000
  31
0.0
   0
LINE
   5
1E8
 100
AcDbEntity
   8
LEVEL001
 100
AcDbLine
   6
CONTINUOUS
  62
7
  10
 536.00000000000
  20
 797.47471427780
  30
0.0
  11
 1920.0000000000
  21
 797.47471427780
  31
0.0
   0
LINE
   5
1E9
 100
AcDbEntity
   8
LEVEL001
 100
AcDbLine
   6
DASHDOT
  62
1
  10
 280.00000000000
  20
 1000.0000000000
  30
0.0
  11
 1940.0000000000
  21
 1000.0000000000
  31
0.0
   0
DIMENSION
   5
1EA
 100
AcDbEntity
   8
LEVEL003
   6
CONTINUOUS
  62
3
 100
AcDbDimension
   2
*D5
  10
 520.00000000000
  20
 750.00000000000
  30
0.0
  11
 470.00000000000
  21
 750.00000000000
  31
0.0
  70
128
   1
\A1;100
   3
GMM004
 100
AcDbAlignedDimension
  13
 420.00000000000
  23
 800.97471427780
  33
0.0
  14
 520.00000000000
  24
 797.47471427780
  34
0.0
 100
AcDbRotatedDimension
   0
DIMENSION
   5
1EC
 100
AcDbEntity
   8
LEVEL003
   6
CONTINUOUS
  62
3
 100
AcDbDimension
   2
*D6
  10
 520.00000000000
  20
 700.00000000000
  30
0.0
  11
 412.50000000000
  21
 700.00000000000
  31
0.0
  70
128
   1
\A1;215
   3
GMM004
 100
AcDbAlignedDimension
  13
 305.00000000000
  23
 887.00000000000
  33
0.0
  14
 520.00000000000
  24
 797.47471427780
  34
0.0
 100
AcDbRotatedDimension
   0
DIMENSION
   5
1EE
 100
AcDbEntity
   8
LEVEL003
   6
CONTINUOUS
  62
3
 100
AcDbDimension
   2
*D7
  10
 1925.0000000000
  20
 650.00000000000
  30
0.0
  11
 1115.0000000000
  21
 650.00000000000
  31
0.0
  70
128
   1
\A1;1620
   3
GMM004
 100
AcDbAlignedDimension
  13
 305.00000000000
  23
 887.00000000000
  33
0.0
  14
 1925.0000000000
  24
 802.47471427780
  34
0.0
 100
AcDbRotatedDimension
   0
DIMENSION
   5
1F0
 100
AcDbEntity
   8
LEVEL003
   6
CONTINUOUS
  62
3
 100
AcDbDimension
   2
*D8
  10
 1770.0000000000
  20
 1325.0000000000
  30
0.0
  11
 1190.0000000000
  21
 1325.0000000000
  31
0.0
  70
128
   1
\A1;1160
   3
GMM005
 100
AcDbAlignedDimension
  13
 610.00000000000
  23
 1277.4747142778
  33
0.0
  14
 1770.0000000000
  24
 1277.4747142778
  34
0.0
 100
AcDbRotatedDimension
   0
DIMENSION
   5
1F2
 100
AcDbEntity
   8
LEVEL003
   6
CONTINUOUS
  62
3
 100
AcDbDimension
   2
*D9
  10
 1925.0000000000
  20
 1325.0000000000
  30
0.0
  11
 1847.5000000000
  21
 1325.0000000000
  31
0.0
  70
128
   1
\A1;155
   3
GMM006
 100
AcDbAlignedDimension
  13
 1770.0000000000
  23
 1277.4747142778
  33
0.0
  14
 1925.0000000000
  24
 1197.4747142778
  34
0.0
 100
AcDbRotatedDimension
   0
DIMENSION
   5
1F4
 100
AcDbEntity
   8
LEVEL003
   6
CONTINUOUS
  62
3
 100
AcDbDimension
   2
*D10
  10
 250.00000000000
  20
 885.00000000000
  30
0.0
  11
 250.00000000000
  21
 1000.0000000000
  31
0.0
  70
128
   1
\A1;%%c230
   3
GMM007
 100
AcDbAlignedDimension
  13
 307.00000000000
  23
 1115.0000000000
  33
0.0
  14
 307.00000000000
  24
 885.00000000000
  34
0.0
  50
 270.00000000000
 100
AcDbRotatedDimension
   0
LEADER
   5
1F6
 100
AcDbEntity
   8
LEVEL003
   6
CONTINUOUS
  62
3
 100
AcDbLeader
   3
GMM008
  73
0
  74
1
  75
0
  40
 20.000000000000
  41
0.0
  76
3
  10
 360.00000000000
  20
 1090.0000000000
  30
0.0
  10
 300.00000000000
  20
 1175.0000000000
  30
0.0
  10
 160.00000000000
  20
 1175.0000000000
  30
0.0
  77
3
   0
TEXT
   5
1F7
 100
AcDbEntity
   8
LEVEL003
  62
3
 100
AcDbText
  10
 175.00000000000
  20
 1175.0000000000
  30
0.0
  40
 20.000000000000
   1
Ｍ１８０×４
  41
 0.78750000000000
   7
STANDARD
 100
AcDbText
   0
DIMENSION
   5
1F8
 100
AcDbEntity
   8
LEVEL003
   6
CONTINUOUS
  62
3
 100
AcDbDimension
   2
*D12
  10
 340.00000000000
  20
 750.00000000000
  30
0.0
  11
 322.50000000000
  21
 750.00000000000
  31
0.0
  70
128
   1
\A1;35
   3
GMM009
 100
AcDbAlignedDimension
  13
 305.00000000000
  23
 887.00000000000
  33
0.0
  14
 340.00000000000
  24
 912.00000000000
  34
0.0
 100
AcDbRotatedDimension
   0
DIMENSION
   5
1FA
 100
AcDbEntity
   8
LEVEL003
   6
CONTINUOUS
  62
3
 100
AcDbDimension
   2
*D13
  10
 415.00000000000
  20
 750.00000000000
  30
0.0
  11
 377.50000000000
  21
 750.00000000000
  31
0.0
  70
128
   1
\A1;75
   3
GMM004
 100
AcDbAlignedDimension
  13
 340.00000000000
  23
 912.00000000000
  33
0.0
  14
 415.00000000000
  24
 891.50000000000
  34
0.0
 100
AcDbRotatedDimension
   0
ARC
   5
1FC
 100
AcDbEntity
   8
LEVEL001
   6
CONTINUOUS
  62
7
 100
AcDbCircle
  10
 654.00000000005
  20
 999.99993712606
  30
0.0
  40
 37.500000000000
 100
AcDbArc
  50
 197.05752313567
  51
 162.94227589513
   0
LINE
   5
1FD
 100
AcDbEntity
   8
LEVEL001
 100
AcDbLine
   6
CONTINUOUS
  62
7
  10
 628.00000000000
  20
 990.00000000000
  30
0.0
  11
 629.00000000000
  21
 989.00000000000
  31
0.0
   0
LINE
   5
1FE
 100
AcDbEntity
   8
LEVEL001
 100
AcDbLine
   6
CONTINUOUS
  62
7
  10
 592.00000000000
  20
 1000.0000000000
  30
0.0
  11
 592.00000000000
  21
 990.00000000000
  31
0.0
   0
LINE
   5
1FF
 100
AcDbEntity
   8
LEVEL001
 100
AcDbLine
   6
CONTINUOUS
  62
7
  10
 592.00000000000
  20
 990.00000000000
  30
0.0
  11
 628.00000000000
  21
 990.00000000000
  31
0.0
   0
LINE
   5
200
 100
AcDbEntity
   8
LEVEL001
 100
AcDbLine
   6
CONTINUOUS
  62
7
  10
 628.00000000000
  20
 990.00000000000
  30
0.0
  11
 628.00000000000
  21
 1000.0000000000
  31
0.0
   0
LINE
   5
201
 100
AcDbEntity
   8
LEVEL001
 100
AcDbLine
   6
CONTINUOUS
  62
7
  10
 591.00000000000
  20
 1000.0000000000
  30
0.0
  11
 591.00000000000
  21
 989.00000000000
  31
0.0
   0
LINE
   5
202
 100
AcDbEntity
   8
LEVEL001
 100
AcDbLine
   6
CONTINUOUS
  62
7
  10
 591.00000000000
  20
 989.00000000000
  30
0.0
  11
 629.00000000000
  21
 989.00000000000
  31
0.0
   0
LINE
   5
203
 100
AcDbEntity
   8
LEVEL001
 100
AcDbLine
   6
CONTINUOUS
  62
7
  10
 629.00000000000
  20
 989.00000000000
  30
0.0
  11
 629.00000000000
  21
 1000.0000000000
  31
0.0
   0
ARC
   5
204
 100
AcDbEntity
   8
LEVEL001
   6
CONTINUOUS
  62
7
 100
AcDbCircle
  10
 654.00000000001
  20
 1000.0000348590
  30
0.0
  40
 50.500000000000
 100
AcDbArc
  50
 192.58116844332
  51
 167.41891260255
   0
LINE
   5
205
 100
AcDbEntity
   8
LEVEL001
 100
AcDbLine
   6
CONTINUOUS
  62
7
  10
 592.00000000000
  20
 1010.0000000000
  30
0.0
  11
 591.00000000000
  21
 1011.0000000000
  31
0.0
   0
LINE
   5
206
 100
AcDbEntity
   8
LEVEL001
 100
AcDbLine
   6
CONTINUOUS
  62
7
  10
 592.00000000000
  20
 1000.0000000000
  30
0.0
  11
 592.00000000000
  21
 1010.0000000000
  31
0.0
   0
LINE
   5
207
 100
AcDbEntity
   8
LEVEL001
 100
AcDbLine
   6
CONTINUOUS
  62
7
  10
 592.00000000000
  20
 1010.0000000000
  30
0.0
  11
 628.00000000000
  21
 1010.0000000000
  31
0.0
   0
LINE
   5
208
 100
AcDbEntity
   8
LEVEL001
 100
AcDbLine
   6
CONTINUOUS
  62
7
  10
 628.00000000000
  20
 1010.0000000000
  30
0.0
  11
 628.00000000000
  21
 1000.0000000000
  31
0.0
   0
LINE
   5
209
 100
AcDbEntity
   8
LEVEL001
 100
AcDbLine
   6
CONTINUOUS
  62
7
  10
 591.00000000000
  20
 1000.0000000000
  30
0.0
  11
 591.00000000000
  21
 1011.0000000000
  31
0.0
   0
LINE
   5
20A
 100
AcDbEntity
   8
LEVEL001
 100
AcDbLine
   6
CONTINUOUS
  62
7
  10
 591.00000000000
  20
 1011.0000000000
  30
0.0
  11
 629.00000000000
  21
 1011.0000000000
  31
0.0
   0
LINE
   5
20B
 100
AcDbEntity
   8
LEVEL001
 100
AcDbLine
   6
CONTINUOUS
  62
7
  10
 629.00000000000
  20
 1011.0000000000
  30
0.0
  11
 629.00000000000
  21
 1000.0000000000
  31
0.0
   0
LINE
   5
20C
 100
AcDbEntity
   8
LEVEL001
 100
AcDbLine
   6
DOT
  62
3
  10
 1672.0000000000
  20
 890.00000000000
  30
0.0
  11
 420.00000000000
  21
 890.00000000000
  31
0.0
   0
LINE
   5
20D
 100
AcDbEntity
   8
LEVEL001
 100
AcDbLine
   6
DOT
  62
3
  10
 566.00000000000
  20
 850.00000000000
  30
0.0
  11
 1802.0000000000
  21
 850.00000000000
  31
0.0
   0
LINE
   5
20E
 100
AcDbEntity
   8
LEVEL001
 100
AcDbLine
   6
DOT
  62
3
  10
 566.00000000000
  20
 1150.0000000000
  30
0.0
  11
 1802.0000000000
  21
 1150.0000000000
  31
0.0
   0
LINE
   5
20F
 100
AcDbEntity
   8
LEVEL001
 100
AcDbLine
   6
DOT
  62
3
  10
 1672.0000000000
  20
 1110.0000000000
  30
0.0
  11
 420.00000000000
  21
 1110.0000000000
  31
0.0
   0
LINE
   5
210
 100
AcDbEntity
   8
LEVEL001
 100
AcDbLine
   6
DOT
  62
3
  10
 340.00000000000
  20
 1088.0000000000
  30
0.0
  11
 342.00000000000
  21
 1090.0000000000
  31
0.0
   0
LINE
   5
211
 100
AcDbEntity
   8
LEVEL001
 100
AcDbLine
   6
DOT
  62
3
  10
 342.00000000000
  20
 1090.0000000000
  30
0.0
  11
 409.00000000000
  21
 1090.0000000000
  31
0.0
   0
ARC
   5
212
 100
AcDbEntity
   8
LEVEL001
   6
DOT
  62
3
 100
AcDbCircle
  10
 342.00000000000
  20
 1088.0000000000
  30
0.0
  40
 2.0000000000000
 100
AcDbArc
  50
 90.000000000000
  51
 180.00000000000
   0
LINE
   5
213
 100
AcDbEntity
   8
LEVEL001
 100
AcDbLine
   6
DOT
  62
3
  10
 340.00000000000
  20
 1088.0000000000
  30
0.0
  11
 340.00000000000
  21
 912.00000000000
  31
0.0
   0
LINE
   5
214
 100
AcDbEntity
   8
LEVEL001
 100
AcDbLine
   6
DOT
  62
3
  10
 409.00000000000
  20
 1088.0000000000
  30
0.0
  11
 340.00000000000
  21
 1088.0000000000
  31
0.0
   0
LINE
   5
215
 100
AcDbEntity
   8
LEVEL001
 100
AcDbLine
   6
CONTINUOUS
  62
7
  10
 415.00000000000
  20
 1108.5000000000
  30
0.0
  11
 415.00000000000
  21
 1000.0000000000
  31
0.0
   0
LINE
   5
216
 100
AcDbEntity
   8
LEVEL001
 100
AcDbLine
   6
CONTINUOUS
  62
7
  10
 409.00000000000
  20
 1000.0000000000
  30
0.0
  11
 409.00000000000
  21
 1113.0000000000
  31
0.0
   0
LINE
   5
217
 100
AcDbEntity
   8
LEVEL001
 100
AcDbLine
   6
CONTINUOUS
  62
7
  10
 420.00000000000
  20
 1000.0000000000
  30
0.0
  11
 420.00000000000
  21
 1196.5000000000
  31
0.0
   0
LINE
   5
218
 100
AcDbEntity
   8
LEVEL001
 100
AcDbLine
   6
CONTINUOUS
  62
7
  10
 425.00000000000
  20
 1000.0000000000
  30
0.0
  11
 425.00000000000
  21
 1197.5000000000
  31
0.0
   0
LINE
   5
219
 100
AcDbEntity
   8
LEVEL001
 100
AcDbLine
   6
CONTINUOUS
  62
3
  10
 425.00000000000
  20
 1197.5000000000
  30
0.0
  11
 520.00000000000
  21
 1197.5000000000
  31
0.0
   0
LINE
   5
21A
 100
AcDbEntity
   8
LEVEL001
 100
AcDbLine
   6
CONTINUOUS
  62
3
  10
 520.00000000000
  20
 1000.0000000000
  30
0.0
  11
 520.00000000000
  21
 1200.0000000000
  31
0.0
   0
LINE
   5
21B
 100
AcDbEntity
   8
LEVEL001
 100
AcDbLine
   6
CONTINUOUS
  62
7
  10
 535.00000000000
  20
 1000.0000000000
  30
0.0
  11
 535.00000000000
  21
 1201.4747142778
  31
0.0
   0
LINE
   5
21C
 100
AcDbEntity
   8
LEVEL001
 100
AcDbLine
   6
CONTINUOUS
  62
7
  10
 536.00000000000
  20
 1202.4747142778
  30
0.0
  11
 1920.0000000000
  21
 1202.4747142778
  31
0.0
   0
LINE
   5
21D
 100
AcDbEntity
   8
LEVEL001
 100
AcDbLine
   6
CONTINUOUS
  62
3
  10
 597.71984863281
  20
 1209.5654735551
  30
0.0
  11
 597.94150827259
  21
 1202.4747142778
  31
0.0
   0
LINE
   5
21E
 100
AcDbEntity
   8
LEVEL001
 100
AcDbLine
   6
CONTINUOUS
  62
7
  10
 596.77948399584
  20
 1202.4747142778
  30
0.0
  11
 596.40447998047
  21
 1214.4747142778
  31
0.0
   0
LINE
   5
21F
 100
AcDbEntity
   8
LEVEL001
 100
AcDbLine
   6
CONTINUOUS
  62
3
  10
 622.05848317259
  20
 1202.4747142778
  30
0.0
  11
 622.28009033203
  21
 1209.5654125200
  31
0.0
   0
LINE
   5
220
 100
AcDbEntity
   8
LEVEL001
 100
AcDbLine
   6
CONTINUOUS
  62
7
  10
 623.22051600415
  20
 1202.4747142778
  30
0.0
  11
 623.59552001953
  21
 1214.4747142778
  31
0.0
   0
LINE
   5
221
 100
AcDbEntity
   8
LEVEL001
 100
AcDbLine
   6
CONTINUOUS
  62
3
  10
 520.00000000000
  20
 802.50000000000
  30
0.0
  11
 529.33013916016
  21
 800.00000000000
  31
0.0
   0
LINE
   5
222
 100
AcDbEntity
   8
LEVEL001
 100
AcDbLine
   6
DASHDOT
  62
1
  10
 520.00000000000
  20
 797.00000000000
  30
0.0
  11
 520.00000000000
  21
 800.00000000000
  31
0.0
   0
LINE
   5
223
 100
AcDbEntity
   8
LEVEL001
 100
AcDbLine
   6
DASHDOT
  62
1
  10
 425.00000000000
  20
 797.00000000000
  30
0.0
  11
 520.00000000000
  21
 797.00000000000
  31
0.0
   0
LINE
   5
224
 100
AcDbEntity
   8
LEVEL001
 100
AcDbLine
   6
CONTINUOUS
  62
7
  10
 425.00000000000
  20
 802.50000000000
  30
0.0
  11
 427.50000000000
  21
 800.00000000000
  31
0.0
   0
LINE
   5
225
 100
AcDbEntity
   8
LEVEL001
 100
AcDbLine
   6
CONTINUOUS
  62
7
  10
 427.50000000000
  20
 800.00000000000
  30
0.0
  11
 534.00000000000
  21
 800.00000000000
  31
0.0
   0
ARC
   5
226
 100
AcDbEntity
   8
LEVEL001
   6
CONTINUOUS
  62
7
 100
AcDbCircle
  10
 534.00000000000
  20
 799.00000000000
  30
0.0
  40
 1.0000000000000
 100
AcDbArc
  50
0.0
  51
 90.000000000000
   0
LINE
   5
227
 100
AcDbEntity
   8
LEVEL001
 100
AcDbLine
   6
CONTINUOUS
  62
7
  10
 535.00000000000
  20
 798.52528572220
  30
0.0
  11
 536.00000000000
  21
 797.52528572220
  31
0.0
   0
LINE
   5
228
 100
AcDbEntity
   8
LEVEL001
 100
AcDbLine
   6
CONTINUOUS
  62
3
  10
 425.00000000000
  20
 802.50000000000
  30
0.0
  11
 520.00000000000
  21
 802.50000000000
  31
0.0
   0
LINE
   5
229
 100
AcDbEntity
   8
LEVEL001
 100
AcDbLine
   6
CONTINUOUS
  62
3
  10
 520.00000000000
  20
 1000.0000000000
  30
0.0
  11
 520.00000000000
  21
 800.00000000000
  31
0.0
   0
LINE
   5
22A
 100
AcDbEntity
   8
LEVEL001
 100
AcDbLine
   6
CONTINUOUS
  62
7
  10
 535.00000000000
  20
 1000.0000000000
  30
0.0
  11
 535.00000000000
  21
 798.52528572220
  31
0.0
   0
LINE
   5
22B
 100
AcDbEntity
   8
LEVEL001
 100
AcDbLine
   6
CONTINUOUS
  62
7
  10
 420.00000000000
  20
 803.50000000000
  30
0.0
  11
 425.00000000000
  21
 803.50000000000
  31
0.0
   0
LINE
   5
22C
 100
AcDbEntity
   8
LEVEL001
 100
AcDbLine
   6
DASHDOT
  62
1
  10
 425.00000000000
  20
 800.00000000000
  30
0.0
  11
 427.50000000000
  21
 800.00000000000
  31
0.0
   0
LINE
   5
22D
 100
AcDbEntity
   8
LEVEL001
 100
AcDbLine
   6
DASHDOT
  62
1
  10
 425.00000000000
  20
 800.00000000000
  30
0.0
  11
 425.00000000000
  21
 797.00000000000
  31
0.0
   0
LINE
   5
22E
 100
AcDbEntity
   8
LEVEL001
 100
AcDbLine
   6
CONTINUOUS
  62
7
  10
 420.00000000000
  20
 1000.0000000000
  30
0.0
  11
 420.00000000000
  21
 803.50000000000
  31
0.0
   0
LINE
   5
22F
 100
AcDbEntity
   8
LEVEL001
 100
AcDbLine
   6
CONTINUOUS
  62
7
  10
 425.00000000000
  20
 1000.0000000000
  30
0.0
  11
 425.00000000000
  21
 802.50000000000
  31
0.0
   0
ARC
   5
230
 100
AcDbEntity
   8
LEVEL001
   6
CONTINUOUS
  62
7
 100
AcDbCircle
  10
 411.00000000000
  20
 910.00000000000
  30
0.0
  40
 2.0000000000000
 100
AcDbArc
  50
 90.000000000000
  51
 180.00000000000
   0
ARC
   5
231
 100
AcDbEntity
   8
LEVEL001
   6
CONTINUOUS
  62
7
 100
AcDbCircle
  10
 413.00000000000
  20
 910.00000000000
  30
0.0
  40
 2.0000000000000
 100
AcDbArc
  50
0.0
  51
 90.000000000000
   0
LINE
   5
232
 100
AcDbEntity
   8
LEVEL001
 100
AcDbLine
   6
CONTINUOUS
  62
7
  10
 411.00000000000
  20
 912.00000000000
  30
0.0
  11
 413.00000000000
  21
 912.00000000000
  31
0.0
   0
LINE
   5
233
 100
AcDbEntity
   8
LEVEL001
 100
AcDbLine
   6
DOT
  62
3
  10
 340.00000000000
  20
 912.00000000000
  30
0.0
  11
 342.00000000000
  21
 910.00000000000
  31
0.0
   0
LINE
   5
234
 100
AcDbEntity
   8
LEVEL001
 100
AcDbLine
   6
DOT
  62
3
  10
 342.00000000000
  20
 910.00000000000
  30
0.0
  11
 409.00000000000
  21
 910.00000000000
  31
0.0
   0
LINE
   5
235
 100
AcDbEntity
   8
LEVEL001
 100
AcDbLine
   6
DOT
  62
3
  10
 409.00000000000
  20
 912.00000000000
  30
0.0
  11
 340.00000000000
  21
 912.00000000000
  31
0.0
   0
LINE
   5
236
 100
AcDbEntity
   8
LEVEL001
 100
AcDbLine
   6
CONTINUOUS
  62
7
  10
 415.00000000000
  20
 891.50000000000
  30
0.0
  11
 415.00000000000
  21
 1000.0000000000
  31
0.0
   0
LINE
   5
237
 100
AcDbEntity
   8
LEVEL001
 100
AcDbLine
   6
CONTINUOUS
  62
7
  10
 409.00000000000
  20
 1000.0000000000
  30
0.0
  11
 409.00000000000
  21
 887.00000000000
  31
0.0
   0
LINE
   5
238
 100
AcDbEntity
   8
LEVEL001
 100
AcDbLine
   6
CONTINUOUS
  62
7
  10
 307.00000000000
  20
 1115.0000000000
  30
0.0
  11
 307.00000000000
  21
 1000.0000000000
  31
0.0
   0
LINE
   5
239
 100
AcDbEntity
   8
LEVEL001
 100
AcDbLine
   6
CONTINUOUS
  62
7
  10
 407.00000000000
  20
 1115.0000000000
  30
0.0
  11
 407.00000000000
  21
 1000.0000000000
  31
0.0
   0
LINE
   5
23A
 100
AcDbEntity
   8
LEVEL001
 100
AcDbLine
   6
CONTINUOUS
  62
7
  10
 307.00000000000
  20
 885.00000000000
  30
0.0
  11
 307.00000000000
  21
 1000.0000000000
  31
0.0
   0
LINE
   5
23B
 100
AcDbEntity
   8
LEVEL001
 100
AcDbLine
   6
CONTINUOUS
  62
7
  10
 407.00000000000
  20
 885.00000000000
  30
0.0
  11
 407.00000000000
  21
 1000.0000000000
  31
0.0
   0
LEADER
   5
23C
 100
AcDbEntity
   8
LEVEL003
   6
CONTINUOUS
  62
3
 100
AcDbLeader
   3
GMM010
  73
0
  74
1
  75
0
  40
 20.000000000000
  41
0.0
  76
3
  10
 478.59298022004
  20
 1200.0000000000
  30
0.0
  10
 450.00000000000
  20
 1275.0000000000
  30
0.0
  10
 280.35175494499
  20
 1275.0000000000
  30
0.0
  77
3
   0
TEXT
   5
23D
 100
AcDbEntity
   8
LEVEL003
  62
3
 100
AcDbText
  10
 300.00000000000
  20
 1275.0000000000
  30
0.0
  40
 20.000000000000
   1
Ｍ４００×６
  41
 0.78750000000000
   7
STANDARD
 100
AcDbText
   0
TEXT
   5
23E
 100
AcDbEntity
   8
LEVEL003
  62
7
 100
AcDbText
  10
 1739.4489541397
  20
 359.68734342802
  30
0.0
  40
 30.000000000000
   1
ＯＳＡＫＡ ＪＡＣＫ
   7
STANDARD
 100
AcDbText
   0
CIRCLE
   5
23F
 100
AcDbEntity
   8
LEVEL003
 100
AcDbCircle
   6
CONTINUOUS
  62
7
  10
 1678.1097125887
  20
 379.82925894061
  30
0.0
  40
 9.0000000000000
   0
LINE
   5
240
 100
AcDbEntity
   8
LEVEL003
 100
AcDbLine
   6
CONTINUOUS
  62
7
  10
 1695.7737125887
  20
 388.82925894061
  30
0.0
  11
 1684.3467125887
  21
 369.02925894061
  31
0.0
   0
LINE
   5
241
 100
AcDbEntity
   8
LEVEL003
 100
AcDbLine
   6
CONTINUOUS
  62
7
  10
 1684.3467125887
  20
 369.02925894061
  30
0.0
  11
 1661.4837125887
  21
 369.02925894061
  31
0.0
   0
LINE
   5
242
 100
AcDbEntity
   8
LEVEL003
 100
AcDbLine
   6
CONTINUOUS
  62
7
  10
 1658.8827125887
  20
 364.52925894061
  30
0.0
  11
 1699.7457125887
  21
 364.52925894061
  31
0.0
   0
LINE
   5
243
 100
AcDbEntity
   8
LEVEL003
 100
AcDbLine
   6
CONTINUOUS
  62
7
  10
 1699.7457125887
  20
 364.52925894061
  30
0.0
  11
 1713.7737125887
  21
 388.82925894061
  31
0.0
   0
LINE
   5
244
 100
AcDbEntity
   8
LEVEL003
 100
AcDbLine
   6
CONTINUOUS
  62
7
  10
 1713.7737125887
  20
 388.82925894061
  30
0.0
  11
 1695.7737125887
  21
 388.82925894061
  31
0.0
   0
LINE
   5
245
 100
AcDbEntity
   8
LEVEL003
 100
AcDbLine
   6
CONTINUOUS
  62
7
  10
 1661.4837125887
  20
 369.02925894061
  30
0.0
  11
 1658.8827125887
  21
 364.52925894061
  31
0.0
   0
TEXT
   5
246
 100
AcDbEntity
   8
LEVEL003
  62
7
 100
AcDbText
  10
 1748.1819541397
  20
 410.36754342802
  30
0.0
  40
 18.000000000000
   1
Model : ＥＴ５００Ｈ１００
   7
STANDARD
 100
AcDbText
   0
ENDSEC
  0
SECTION
  2
OBJECTS
  0
DICTIONARY
  5
C
100
AcDbDictionary
  3
ACAD_GROUP
350
D
  3
ACAD_MLINESTYLE
350
1B
  0
DICTIONARY
  5
D
102
{ACAD_REACTORS
330
C
102
}
100
AcDbDictionary
  0
DICTIONARY
  5
1B
102
{ACAD_REACTORS
330
C
102
}
100
AcDbDictionary
  3
STANDARD
350
1C
  0
MLINESTYLE
  5
1C
102
{ACAD_REACTORS
330
1B
102
}
100
AcDbMlineStyle
  2
STANDARD
 70
     0
  3

 62
   256
 51
90.0
 52
90.0
 71
     2
 49
0.5
 62
   256
  6
BYLAYER
 49
-0.5
 62
   256
  6
BYLAYER
  0
ENDSEC
   0
EOF
