   0
SECTION
   2
HEADER
   9
$ACADVER
   1
AC1014
   9
$LIMMIN
  10
0.0
  20
0.0
   9
$LIMMAX
  10
 1680.0000000000
  20
 1188.0000000000
   9
$EXTMIN
  10
0.0
  20
0.0
  30
0.0
   9
$EXTMAX
  10
 1680.0000000000
  20
 1188.0000000000
  30
0.0
   9
$LTSCALE
  40
 33.600000000000
   9
$HANDSEED
   5
24A
   0
ENDSEC
   0
SECTION
   2
TABLES
  0
TABLE
  2
VPORT
  5
8
100
AcDbSymbolTable
 70
     1
  0
VPORT
  5
249
100
AcDbSymbolTableRecord
100
AcDbViewportTableRecord
  2
*ACTIVE
 70
     0
 10
0.0
 20
0.0
 11
1.0
 21
1.0
  12
 840.00000000000
  22
 594.00000000000
 13
0.0
 23
0.0
 14
1.0
 24
1.0
 15
0.0
 25
0.0
 16
0.0
 26
0.0
 36
1.0
 17
0.0
 27
0.0
 37
0.0
  40
 1680.0000000000
  41
 1.4787878787879
 42
50.0
 43
0.0
 44
0.0
 50
0.0
 51
0.0
 71
     0
 72
   100
 73
     1
 74
     1
 75
     0
 76
     0
 77
     0
 78
     0
  0
ENDTAB
  0
TABLE
  2
LTYPE
  5
5
100
AcDbSymbolTable
 70
    25
  0
LTYPE
  5
12
100
AcDbSymbolTableRecord
100
AcDbLinetypeTableRecord
  2
BYBLOCK
 70
     0
  3

 72
    65
 73
     0
 40
0.0
  0
LTYPE
  5
13
100
AcDbSymbolTableRecord
100
AcDbLinetypeTableRecord
  2
BYLAYER
 70
     0
  3

 72
    65
 73
     0
 40
0.0
  0
LTYPE
  5
14
100
AcDbSymbolTableRecord
100
AcDbLinetypeTableRecord
  2
CONTINUOUS
 70
     0
  3
Solid line
 72
    65
 73
     0
 40
0.0
  0
LTYPE
  5
20
100
AcDbSymbolTableRecord
100
AcDbLinetypeTableRecord
  2
BORDER
 70
     0
  3
__ __ . __ __ . __ __ . __ __ . __ __ . __ __ .
 72
    65
 73
     6
 40
1.75
 49
0.5
 74
     0
 49
-0.25
 74
     0
 49
0.5
 74
     0
 49
-0.25
 74
     0
 49
0.0
 74
     0
 49
-0.25
 74
     0
  0
LTYPE
  5
21
100
AcDbSymbolTableRecord
100
AcDbLinetypeTableRecord
  2
BORDER2
 70
     0
  3
__.__.__.__.__.__.__.__.__.__.__.__.__.__.__.__
 72
    65
 73
     6
 40
0.875
 49
0.25
 74
     0
 49
-0.125
 74
     0
 49
0.25
 74
     0
 49
-0.125
 74
     0
 49
0.0
 74
     0
 49
-0.125
 74
     0
  0
LTYPE
  5
22
100
AcDbSymbolTableRecord
100
AcDbLinetypeTableRecord
  2
BORDERX2
 70
     0
  3
____  ____  .  ____  ____  .  ____  ____  .  __
 72
    65
 73
     6
 40
3.5
 49
1.0
 74
     0
 49
-0.5
 74
     0
 49
1.0
 74
     0
 49
-0.5
 74
     0
 49
0.0
 74
     0
 49
-0.5
 74
     0
  0
LTYPE
  5
23
100
AcDbSymbolTableRecord
100
AcDbLinetypeTableRecord
  2
CENTER
 70
     0
  3
____ _ ____ _ ____ _ ____ _ ____ _ ____ _ ____ 
 72
    65
 73
     4
 40
2.0
 49
1.25
 74
     0
 49
-0.25
 74
     0
 49
0.25
 74
     0
 49
-0.25
 74
     0
  0
LTYPE
  5
24
100
AcDbSymbolTableRecord
100
AcDbLinetypeTableRecord
  2
CENTER2
 70
     0
  3
___ _ ___ _ ___ _ ___ _ ___ _ ___ _ ___ _ ___ _
 72
    65
 73
     4
 40
1.125
 49
0.75
 74
     0
 49
-0.125
 74
     0
 49
0.125
 74
     0
 49
-0.125
 74
     0
  0
LTYPE
  5
25
100
AcDbSymbolTableRecord
100
AcDbLinetypeTableRecord
  2
CENTERX2
 70
     0
  3
________  __  ________  __  ________  __  _____
 72
    65
 73
     4
 40
4.0
 49
2.5
 74
     0
 49
-0.5
 74
     0
 49
0.5
 74
     0
 49
-0.5
 74
     0
  0
LTYPE
  5
26
100
AcDbSymbolTableRecord
100
AcDbLinetypeTableRecord
  2
DASHDOT
 70
     0
  3
__ . __ . __ . __ . __ . __ . __ . __ . __ . __
 72
    65
 73
     4
 40
1.0
 49
0.5
 74
     0
 49
-0.25
 74
     0
 49
0.0
 74
     0
 49
-0.25
 74
     0
  0
LTYPE
  5
27
100
AcDbSymbolTableRecord
100
AcDbLinetypeTableRecord
  2
DASHDOT2
 70
     0
  3
_._._._._._._._._._._._._._._._._._._._._._._._
 72
    65
 73
     4
 40
0.5
 49
0.25
 74
     0
 49
-0.125
 74
     0
 49
0.0
 74
     0
 49
-0.125
 74
     0
  0
LTYPE
  5
28
100
AcDbSymbolTableRecord
100
AcDbLinetypeTableRecord
  2
DASHDOTX2
 70
     0
  3
____  .  ____  .  ____  .  ____  .  ____  .  __
 72
    65
 73
     4
 40
2.0
 49
1.0
 74
     0
 49
-0.5
 74
     0
 49
0.0
 74
     0
 49
-0.5
 74
     0
  0
LTYPE
  5
29
100
AcDbSymbolTableRecord
100
AcDbLinetypeTableRecord
  2
DASHED
 70
     0
  3
__ __ __ __ __ __ __ __ __ __ __ __ __ __ __ __
 72
    65
 73
     2
 40
0.75
 49
0.5
 74
     0
 49
-0.25
 74
     0
  0
LTYPE
  5
2A
100
AcDbSymbolTableRecord
100
AcDbLinetypeTableRecord
  2
DASHED2
 70
     0
  3
_ _ _ _ _ _ _ _ _ _ _ _ _ _ _ _ _ _ _ _ _ _ _ _
 72
    65
 73
     2
 40
0.375
 49
0.25
 74
     0
 49
-0.125
 74
     0
  0
LTYPE
  5
2B
100
AcDbSymbolTableRecord
100
AcDbLinetypeTableRecord
  2
DASHEDX2
 70
     0
  3
____  ____  ____  ____  ____  ____  ____  ____ 
 72
    65
 73
     2
 40
1.5
 49
1.0
 74
     0
 49
-0.5
 74
     0
  0
LTYPE
  5
2C
100
AcDbSymbolTableRecord
100
AcDbLinetypeTableRecord
  2
DIVIDE
 70
     0
  3
____ . . ____ . . ____ . . ____ . . ____ . . __
 72
    65
 73
     6
 40
1.25
 49
0.5
 74
     0
 49
-0.25
 74
     0
 49
0.0
 74
     0
 49
-0.25
 74
     0
 49
0.0
 74
     0
 49
-0.25
 74
     0
  0
LTYPE
  5
2D
100
AcDbSymbolTableRecord
100
AcDbLinetypeTableRecord
  2
DIVIDE2
 70
     0
  3
__..__..__..__..__..__..__..__..__..__..__..__.
 72
    65
 73
     6
 40
0.625
 49
0.25
 74
     0
 49
-0.125
 74
     0
 49
0.0
 74
     0
 49
-0.125
 74
     0
 49
0.0
 74
     0
 49
-0.125
 74
     0
  0
LTYPE
  5
2E
100
AcDbSymbolTableRecord
100
AcDbLinetypeTableRecord
  2
DIVIDEX2
 70
     0
  3
________  .  .  ________  .  .  ________  .  . 
 72
    65
 73
     6
 40
2.5
 49
1.0
 74
     0
 49
-0.5
 74
     0
 49
0.0
 74
     0
 49
-0.5
 74
     0
 49
0.0
 74
     0
 49
-0.5
 74
     0
  0
LTYPE
  5
2F
100
AcDbSymbolTableRecord
100
AcDbLinetypeTableRecord
  2
DOT
 70
     0
  3
. . . . . . . . . . . . . . . . . . . . . . . .
 72
    65
 73
     2
 40
0.25
 49
0.0
 74
     0
 49
-0.25
 74
     0
  0
LTYPE
  5
30
100
AcDbSymbolTableRecord
100
AcDbLinetypeTableRecord
  2
DOT2
 70
     0
  3
...............................................
 72
    65
 73
     2
 40
0.125
 49
0.0
 74
     0
 49
-0.125
 74
     0
  0
LTYPE
  5
31
100
AcDbSymbolTableRecord
100
AcDbLinetypeTableRecord
  2
DOTX2
 70
     0
  3
.  .  .  .  .  .  .  .  .  .  .  .  .  .  .  . 
 72
    65
 73
     2
 40
0.5
 49
0.0
 74
     0
 49
-0.5
 74
     0
  0
LTYPE
  5
32
100
AcDbSymbolTableRecord
100
AcDbLinetypeTableRecord
  2
HIDDEN
 70
     0
  3
__ __ __ __ __ __ __ __ __ __ __ __ __ __ __ __
 72
    65
 73
     2
 40
0.375
 49
0.25
 74
     0
 49
-0.125
 74
     0
  0
LTYPE
  5
33
100
AcDbSymbolTableRecord
100
AcDbLinetypeTableRecord
  2
HIDDEN2
 70
     0
  3
_ _ _ _ _ _ _ _ _ _ _ _ _ _ _ _ _ _ _ _ _ _ _ _
 72
    65
 73
     2
 40
0.1875
 49
0.125
 74
     0
 49
-0.0625
 74
     0
  0
LTYPE
  5
34
100
AcDbSymbolTableRecord
100
AcDbLinetypeTableRecord
  2
HIDDENX2
 70
     0
  3
____ ____ ____ ____ ____ ____ ____ ____ ____ __
 72
    65
 73
     2
 40
0.75
 49
0.5
 74
     0
 49
-0.25
 74
     0
  0
LTYPE
  5
35
100
AcDbSymbolTableRecord
100
AcDbLinetypeTableRecord
  2
PHANTOM
 70
     0
  3
______  __  __  ______  __  __  ______  __  __ 
 72
    65
 73
     6
 40
2.5
 49
1.25
 74
     0
 49
-0.25
 74
     0
 49
0.25
 74
     0
 49
-0.25
 74
     0
 49
0.25
 74
     0
 49
-0.25
 74
     0
  0
LTYPE
  5
36
100
AcDbSymbolTableRecord
100
AcDbLinetypeTableRecord
  2
PHANTOM2
 70
     0
  3
___ _ _ ___ _ _ ___ _ _ ___ _ _ ___ _ _ ___ _ _
 72
    65
 73
     6
 40
1.25
 49
0.625
 74
     0
 49
-0.125
 74
     0
 49
0.125
 74
     0
 49
-0.125
 74
     0
 49
0.125
 74
     0
 49
-0.125
 74
     0
  0
LTYPE
  5
37
100
AcDbSymbolTableRecord
100
AcDbLinetypeTableRecord
  2
PHANTOMX2
 70
     0
  3
____________    ____    ____    ____________   
 72
    65
 73
     6
 40
5.0
 49
2.5
 74
     0
 49
-0.5
 74
     0
 49
0.5
 74
     0
 49
-0.5
 74
     0
 49
0.5
 74
     0
 49
-0.5
 74
     0
  0
ENDTAB
   0
TABLE
   2
LAYER
   5
2
 100
AcDbSymbolTable
  70
6
   0
LAYER
   5
E
 100
AcDbSymbolTableRecord
 100
AcDbLayerTableRecord
   2
0
  70
0
  62
7
   6
CONTINUOUS
   0
LAYER
   5
39
 100
AcDbSymbolTableRecord
 100
AcDbLayerTableRecord
   2
LEVEL001
  70
0
  62
7
   6
CONTINUOUS
   0
LAYER
   5
3A
 100
AcDbSymbolTableRecord
 100
AcDbLayerTableRecord
   2
LEVEL003
  70
0
  62
7
   6
CONTINUOUS
   0
LAYER
   5
3B
 100
AcDbSymbolTableRecord
 100
AcDbLayerTableRecord
   2
LEVEL020
  70
0
  62
7
   6
CONTINUOUS
   0
LAYER
   5
3C
 100
AcDbSymbolTableRecord
 100
AcDbLayerTableRecord
   2
LEVEL050
  70
0
  62
7
   6
CONTINUOUS
   0
LAYER
   5
3D
 100
AcDbSymbolTableRecord
 100
AcDbLayerTableRecord
   2
LEVEL110
  70
0
  62
7
   6
CONTINUOUS
   0
ENDTAB
  0
TABLE
  2
STYLE
  5
3
100
AcDbSymbolTable
  70
3
  0
STYLE
  5
F
100
AcDbSymbolTableRecord
100
AcDbTextStyleTableRecord
  2
STANDARD
 70
     0
 40
0.0
 41
1.0
 50
0.0
 71
     0
 42
0.2
  3
TXT
  4
BIGFONT
  0
STYLE
  5
38
100
AcDbSymbolTableRecord
100
AcDbTextStyleTableRecord
  2
STANDARD1
 70
     4
 40
0.0
 41
1.0
 50
0.0
 71
     0
 42
0.2
  3
TXT
  4
BIGFONT
   0
STYLE
   5
3E
 100
AcDbSymbolTableRecord
 100
AcDbTextStyleTableRecord
   2
GMM001
  70
0
  40
0.0
  41
 1.0000000000000
  50
0.0
  71
     0
  42
1.0
   3
txt.shx
   4
bigfont.shx
   0
ENDTAB
  0
TABLE
  2
VIEW
  5
6
100
AcDbSymbolTable
 70
     0
  0
ENDTAB
  0
TABLE
  2
UCS
  5
7
100
AcDbSymbolTable
 70
     0
  0
ENDTAB
  0
TABLE
  2
APPID
  5
9
100
AcDbSymbolTable
 70
     1
  0
APPID
  5
10
100
AcDbSymbolTableRecord
100
AcDbRegAppTableRecord
  2
ACAD
 70
     0
  0
ENDTAB
   0
TABLE
   2
DIMSTYLE
   5
A
 100
AcDbSymbolTable
  70
10
  0
DIMSTYLE
105
1D
100
AcDbSymbolTableRecord
100
AcDbDimStyleTableRecord
  2
STANDARD
 70
     0
  3

  4

  5

  6

  7

 40
1.0
 41
0.18
 42
0.0625
 43
0.38
 44
0.18
 45
0.0
 46
0.0
 47
0.0
 48
0.0
140
0.18
141
0.09
142
0.0
143
25.4
144
1.0
145
0.0
146
1.0
147
0.09
 71
     0
 72
     0
 73
     1
 74
     1
 75
     0
 76
     0
 77
     0
 78
     0
170
     0
171
     2
172
     0
173
     0
174
     0
175
     0
176
     0
177
     0
178
     0
270
     2
271
     4
272
     4
273
     2
274
     2
340
F
275
     0
280
     0
281
     0
282
     0
283
     1
284
     0
285
     0
286
     0
287
     3
288
     0
   0
DIMSTYLE
 105
3F
 100
AcDbSymbolTableRecord
 100
AcDbDimStyleTableRecord
   2
GMM001
  70
0
   3

   4

   5

   6
_OPEN
   7
_OPEN
  40
 1.0000000000000
  41
 12.000000000000
  42
 4.0000000000000
  43
 0.10000000000000E-5
  44
 8.0000000000000
  45
0.0
  46
0.0
  47
0.0
  48
0.0
 140
 16.000000000000
 141
 4.0000000000000
 142
0.0
 143
 0.39400000000000E-1
 144
 1.0000000000000
 145
0.0
 146
 0.62500000000000
 147
 3.2000122070313
  71
0
  72
0
  73
0
  74
0
  75
0
  76
0
  77
3
  78
0
 170
0
 171
2
 172
1
 173
1
 174
0
 175
0
 176
3
 177
3
 178
3
 270
2
 271
0
 272
0
 273
2
 274
2
 340
3E
 275
1
 280
0
 281
0
 282
0
 283
1
 284
0
 285
0
 286
0
 287
3
 288
1
   0
DIMSTYLE
 105
40
 100
AcDbSymbolTableRecord
 100
AcDbDimStyleTableRecord
   2
GMM002
  70
0
   3

   4

   5

   6
_OPEN
   7
_OPEN
  40
 1.0000000000000
  41
 12.000000000000
  42
 4.0000000000000
  43
 0.10000000000000E-5
  44
 8.0000000000000
  45
0.0
  46
0.0
  47
0.0
  48
0.0
 140
 16.000000000000
 141
 4.0000000000000
 142
0.0
 143
 0.39400000000000E-1
 144
 1.0000000000000
 145
0.0
 146
 0.62500000000000
 147
 3.1999511718750
  71
0
  72
0
  73
0
  74
0
  75
0
  76
0
  77
3
  78
0
 170
0
 171
2
 172
1
 173
1
 174
0
 175
0
 176
3
 177
3
 178
3
 270
2
 271
0
 272
0
 273
2
 274
2
 340
3E
 275
1
 280
0
 281
0
 282
0
 283
1
 284
0
 285
0
 286
0
 287
3
 288
1
   0
DIMSTYLE
 105
41
 100
AcDbSymbolTableRecord
 100
AcDbDimStyleTableRecord
   2
GMM003
  70
0
   3

   4

   5

   6
_OPEN
   7
_OPEN
  40
 1.0000000000000
  41
 12.000000000000
  42
 4.0000000000000
  43
 0.10000000000000E-5
  44
 8.0000000000000
  45
0.0
  46
0.0
  47
0.0
  48
0.0
 140
 16.000000000000
 141
 4.0000000000000
 142
0.0
 143
 0.39400000000000E-1
 144
 1.0000000000000
 145
0.0
 146
 0.62500000000000
 147
0.0
  71
0
  72
0
  73
0
  74
0
  75
0
  76
0
  77
1
  78
0
 170
0
 171
2
 172
1
 173
1
 174
0
 175
0
 176
3
 177
3
 178
7
 270
2
 271
0
 272
0
 273
2
 274
2
 340
F
 275
1
 280
0
 281
0
 282
0
 283
1
 284
0
 285
0
 286
0
 287
3
 288
1
   0
DIMSTYLE
 105
42
 100
AcDbSymbolTableRecord
 100
AcDbDimStyleTableRecord
   2
GMM004
  70
0
   3

   4

   5

   6
_OPEN
   7
_OPEN
  40
 1.0000000000000
  41
 12.000000000000
  42
 4.0000000000000
  43
 32.000000000000
  44
 8.0000000000000
  45
0.0
  46
0.0
  47
0.0
  48
0.0
 140
 16.000000000000
 141
 4.0000000000000
 142
0.0
 143
 0.39400000000000E-1
 144
 1.0000000000000
 145
0.0
 146
 0.62500000000000
 147
 3.2000000000000
  71
0
  72
0
  73
0
  74
0
  75
1
  76
1
  77
3
  78
8
 170
0
 171
2
 172
1
 173
1
 174
0
 175
0
 176
3
 177
3
 178
3
 270
2
 271
2
 272
0
 273
2
 274
2
 340
3E
 275
0
 280
0
 281
0
 282
0
 283
1
 284
0
 285
0
 286
0
 287
3
 288
0
   0
DIMSTYLE
 105
43
 100
AcDbSymbolTableRecord
 100
AcDbDimStyleTableRecord
   2
GMM005
  70
0
   3

   4

   5

   6
_OPEN
   7
_OPEN
  40
 1.0000000000000
  41
 12.000000000000
  42
 4.0000000000000
  43
 0.10000000000000E-5
  44
 8.0000000000000
  45
0.0
  46
0.0
  47
0.0
  48
0.0
 140
 16.000000000000
 141
 4.0000000000000
 142
0.0
 143
 0.39400000000000E-1
 144
 1.0000000000000
 145
0.0
 146
 0.62500000000000
 147
 3.1999969482422
  71
0
  72
0
  73
0
  74
0
  75
0
  76
0
  77
3
  78
0
 170
0
 171
2
 172
1
 173
1
 174
0
 175
0
 176
3
 177
3
 178
3
 270
2
 271
0
 272
0
 273
2
 274
2
 340
3E
 275
1
 280
0
 281
0
 282
0
 283
1
 284
0
 285
0
 286
0
 287
3
 288
1
   0
DIMSTYLE
 105
44
 100
AcDbSymbolTableRecord
 100
AcDbDimStyleTableRecord
   2
GMM006
  70
0
   3

   4

   5

   6
_OPEN
   7
_OPEN
  40
 1.0000000000000
  41
 12.000000000000
  42
 4.0000000000000
  43
 0.10000000000000E-5
  44
 8.0000000000000
  45
0.0
  46
0.0
  47
0.0
  48
0.0
 140
 16.000000000000
 141
 4.0000000000000
 142
0.0
 143
 0.39400000000000E-1
 144
 1.0000000000000
 145
0.0
 146
 0.62500000000000
 147
 3.2000122070313
  71
0
  72
0
  73
0
  74
0
  75
1
  76
1
  77
3
  78
0
 170
0
 171
2
 172
1
 173
1
 174
0
 175
0
 176
3
 177
3
 178
3
 270
2
 271
0
 272
0
 273
2
 274
2
 340
3E
 275
1
 280
0
 281
0
 282
0
 283
1
 284
0
 285
0
 286
0
 287
3
 288
1
   0
DIMSTYLE
 105
45
 100
AcDbSymbolTableRecord
 100
AcDbDimStyleTableRecord
   2
GMM007
  70
0
   3

   4

   5

   6
_OPEN
   7
_OPEN
  40
 1.0000000000000
  41
 12.000000000000
  42
 4.0000000000000
  43
 0.10000000000000E-5
  44
 8.0000000000000
  45
0.0
  46
0.0
  47
0.0
  48
0.0
 140
 16.000000000000
 141
 4.0000000000000
 142
0.0
 143
 0.39400000000000E-1
 144
 1.0000000000000
 145
0.0
 146
 0.62500000000000
 147
 3.2000122070313
  71
0
  72
0
  73
0
  74
0
  75
0
  76
1
  77
3
  78
0
 170
0
 171
2
 172
1
 173
1
 174
0
 175
0
 176
3
 177
3
 178
3
 270
2
 271
0
 272
0
 273
2
 274
2
 340
3E
 275
1
 280
0
 281
0
 282
0
 283
1
 284
0
 285
0
 286
0
 287
3
 288
1
   0
DIMSTYLE
 105
46
 100
AcDbSymbolTableRecord
 100
AcDbDimStyleTableRecord
   2
GMM008
  70
0
   3

   4

   5

   6
_OPEN
   7
_OPEN
  40
 1.0000000000000
  41
 12.000000000000
  42
 4.0000000000000
  43
 32.000000000000
  44
 8.0000000000000
  45
0.0
  46
0.0
  47
0.0
  48
0.0
 140
 16.000000000000
 141
 4.0000000000000
 142
0.0
 143
 0.39400000000000E-1
 144
 1.0000000000000
 145
0.0
 146
 0.62500000000000
 147
0.0
  71
0
  72
0
  73
0
  74
0
  75
0
  76
0
  77
1
  78
8
 170
0
 171
2
 172
1
 173
1
 174
0
 175
0
 176
3
 177
3
 178
7
 270
2
 271
2
 272
0
 273
2
 274
2
 340
F
 275
0
 280
0
 281
0
 282
0
 283
1
 284
0
 285
0
 286
0
 287
3
 288
1
   0
ENDTAB
  0
TABLE
  2
BLOCK_RECORD
  5
1
100
AcDbSymbolTable
 70
     0
  0
BLOCK_RECORD
  5
18
100
AcDbSymbolTableRecord
100
AcDbBlockTableRecord
  2
*MODEL_SPACE
  0
BLOCK_RECORD
  5
15
100
AcDbSymbolTableRecord
100
AcDbBlockTableRecord
  2
*PAPER_SPACE
   0
BLOCK_RECORD
   5
47
 100
AcDbSymbolTableRecord
 100
AcDbBlockTableRecord
   2
*D1
   0
BLOCK_RECORD
   5
48
 100
AcDbSymbolTableRecord
 100
AcDbBlockTableRecord
   2
*D2
   0
BLOCK_RECORD
   5
49
 100
AcDbSymbolTableRecord
 100
AcDbBlockTableRecord
   2
*D3
   0
BLOCK_RECORD
   5
4A
 100
AcDbSymbolTableRecord
 100
AcDbBlockTableRecord
   2
*D5
   0
BLOCK_RECORD
   5
4B
 100
AcDbSymbolTableRecord
 100
AcDbBlockTableRecord
   2
*D6
   0
BLOCK_RECORD
   5
4C
 100
AcDbSymbolTableRecord
 100
AcDbBlockTableRecord
   2
*D7
   0
BLOCK_RECORD
   5
4D
 100
AcDbSymbolTableRecord
 100
AcDbBlockTableRecord
   2
*D8
   0
BLOCK_RECORD
   5
4E
 100
AcDbSymbolTableRecord
 100
AcDbBlockTableRecord
   2
*D9
   0
BLOCK_RECORD
   5
4F
 100
AcDbSymbolTableRecord
 100
AcDbBlockTableRecord
   2
*D10
   0
BLOCK_RECORD
   5
50
 100
AcDbSymbolTableRecord
 100
AcDbBlockTableRecord
   2
*D11
   0
BLOCK_RECORD
   5
51
 100
AcDbSymbolTableRecord
 100
AcDbBlockTableRecord
   2
*D12
   0
BLOCK_RECORD
   5
52
 100
AcDbSymbolTableRecord
 100
AcDbBlockTableRecord
   2
_ARCHTICK
   0
BLOCK_RECORD
   5
53
 100
AcDbSymbolTableRecord
 100
AcDbBlockTableRecord
   2
_BOXBLANK
   0
BLOCK_RECORD
   5
54
 100
AcDbSymbolTableRecord
 100
AcDbBlockTableRecord
   2
_BOXFILLED
   0
BLOCK_RECORD
   5
55
 100
AcDbSymbolTableRecord
 100
AcDbBlockTableRecord
   2
_CLOSED
   0
BLOCK_RECORD
   5
56
 100
AcDbSymbolTableRecord
 100
AcDbBlockTableRecord
   2
_CLOSEDBLANK
   0
BLOCK_RECORD
   5
57
 100
AcDbSymbolTableRecord
 100
AcDbBlockTableRecord
   2
_DATUMBLANK
   0
BLOCK_RECORD
   5
58
 100
AcDbSymbolTableRecord
 100
AcDbBlockTableRecord
   2
_DATUMFILLED
   0
BLOCK_RECORD
   5
59
 100
AcDbSymbolTableRecord
 100
AcDbBlockTableRecord
   2
_DOT
   0
BLOCK_RECORD
   5
5A
 100
AcDbSymbolTableRecord
 100
AcDbBlockTableRecord
   2
_DOTBLANK
   0
BLOCK_RECORD
   5
5B
 100
AcDbSymbolTableRecord
 100
AcDbBlockTableRecord
   2
_DOTSMALL
   0
BLOCK_RECORD
   5
5C
 100
AcDbSymbolTableRecord
 100
AcDbBlockTableRecord
   2
_INTEGRAL
   0
BLOCK_RECORD
   5
5D
 100
AcDbSymbolTableRecord
 100
AcDbBlockTableRecord
   2
_NONE
   0
BLOCK_RECORD
   5
5E
 100
AcDbSymbolTableRecord
 100
AcDbBlockTableRecord
   2
_OBLIQUE
   0
BLOCK_RECORD
   5
5F
 100
AcDbSymbolTableRecord
 100
AcDbBlockTableRecord
   2
_OPEN
   0
BLOCK_RECORD
   5
60
 100
AcDbSymbolTableRecord
 100
AcDbBlockTableRecord
   2
_OPEN30
   0
BLOCK_RECORD
   5
61
 100
AcDbSymbolTableRecord
 100
AcDbBlockTableRecord
   2
_OPEN90
   0
BLOCK_RECORD
   5
62
 100
AcDbSymbolTableRecord
 100
AcDbBlockTableRecord
   2
_ORIGIN
   0
ENDTAB
   0
ENDSEC
  0
SECTION
  2
BLOCKS
  0
BLOCK
  5
19
100
AcDbEntity
  8
0
100
AcDbBlockBegin
  2
*MODEL_SPACE
 70
     0
 10
0.0
 20
0.0
 30
0.0
  3
*MODEL_SPACE
  1

  0
ENDBLK
  5
1A
100
AcDbEntity
  8
0
100
AcDbBlockEnd
  0
BLOCK
  5
16
100
AcDbEntity
 67
     1
  8
0
100
AcDbBlockBegin
  2
*PAPER_SPACE
 70
     0
 10
0.0
 20
0.0
 30
0.0
  3
*PAPER_SPACE
  1

  0
ENDBLK
  5
17
100
AcDbEntity
 67
     1
  8
0
100
AcDbBlockEnd
   0
BLOCK
   5
63
 100
AcDbEntity
   8
0
 100
AcDbBlockBegin
   2
_ARCHTICK
  70
0
  10
0.0
  20
0.0
  30
0.0
   3
_ARCHTICK
   0
POLYLINE
   5
64
 100
AcDbEntity
   8
0
   6
BYBLOCK
  62
0
 100
AcDb2dPolyline
  66
1
  10
0.0
  20
0.0
  30
0.0
  70
1
  40
 0.15000000000000
  41
 0.15000000000000
   0
VERTEX
   5
65
 100
AcDbEntity
   8
0
   6
BYBLOCK
  62
0
 100
AcDbVertex
 100
AcDb2dVertex
  10
-0.50000000000000
  20
-0.50000000000000
  30
0.0
  40
 0.15000000000000
  41
 0.15000000000000
   0
VERTEX
   5
66
 100
AcDbEntity
   8
0
   6
BYBLOCK
  62
0
 100
AcDbVertex
 100
AcDb2dVertex
  10
 0.50000000000000
  20
 0.50000000000000
  30
0.0
  40
 0.15000000000000
  41
 0.15000000000000
   0
SEQEND
   5
67
 100
AcDbEntity
   8
0
   6
BYBLOCK
  62
0
   0
ENDBLK
   5
68
 100
AcDbEntity
   8
0
 100
AcDbBlockEnd
   0
BLOCK
   5
69
 100
AcDbEntity
   8
0
 100
AcDbBlockBegin
   2
_OBLIQUE
  70
0
  10
0.0
  20
0.0
  30
0.0
   3
_OBLIQUE
   0
LINE
   5
6A
 100
AcDbEntity
   8
0
 100
AcDbLine
   6
BYBLOCK
  62
0
  10
-0.50000000000000
  20
-0.50000000000000
  30
0.0
  11
 0.50000000000000
  21
 0.50000000000000
  31
0.0
   0
ENDBLK
   5
6B
 100
AcDbEntity
   8
0
 100
AcDbBlockEnd
   0
BLOCK
   5
6C
 100
AcDbEntity
   8
0
 100
AcDbBlockBegin
   2
_BOXBLANK
  70
0
  10
0.0
  20
0.0
  30
0.0
   3
_BOXBLANK
   0
LINE
   5
6D
 100
AcDbEntity
   8
0
 100
AcDbLine
   6
BYBLOCK
  62
0
  10
-0.50000000000000
  20
-0.50000000000000
  30
0.0
  11
 0.50000000000000
  21
-0.50000000000000
  31
0.0
   0
LINE
   5
6E
 100
AcDbEntity
   8
0
 100
AcDbLine
   6
BYBLOCK
  62
0
  10
 0.50000000000000
  20
-0.50000000000000
  30
0.0
  11
 0.50000000000000
  21
 0.50000000000000
  31
0.0
   0
LINE
   5
6F
 100
AcDbEntity
   8
0
 100
AcDbLine
   6
BYBLOCK
  62
0
  10
 0.50000000000000
  20
 0.50000000000000
  30
0.0
  11
-0.50000000000000
  21
 0.50000000000000
  31
0.0
   0
LINE
   5
70
 100
AcDbEntity
   8
0
 100
AcDbLine
   6
BYBLOCK
  62
0
  10
-0.50000000000000
  20
 0.50000000000000
  30
0.0
  11
-0.50000000000000
  21
-0.50000000000000
  31
0.0
   0
LINE
   5
71
 100
AcDbEntity
   8
0
 100
AcDbLine
   6
BYBLOCK
  62
0
  10
-0.50000000000000
  20
0.0
  30
0.0
  11
-1.0000000000000
  21
0.0
  31
0.0
   0
ENDBLK
   5
72
 100
AcDbEntity
   8
0
 100
AcDbBlockEnd
   0
BLOCK
   5
73
 100
AcDbEntity
   8
0
 100
AcDbBlockBegin
   2
_BOXFILLED
  70
0
  10
0.0
  20
0.0
  30
0.0
   3
_BOXFILLED
   0
SOLID
   5
74
 100
AcDbEntity
   8
0
 100
AcDbTrace
   6
BYBLOCK
  62
0
  10
-0.50000000000000
  20
 0.50000000000000
  30
0.0
  11
 0.50000000000000
  21
 0.50000000000000
  31
0.0
  12
-0.50000000000000
  22
-0.50000000000000
  32
0.0
  13
 0.50000000000000
  23
-0.50000000000000
  33
0.0
   0
LINE
   5
75
 100
AcDbEntity
   8
0
 100
AcDbLine
   6
BYBLOCK
  62
0
  10
-0.50000000000000
  20
0.0
  30
0.0
  11
-1.0000000000000
  21
0.0
  31
0.0
   0
ENDBLK
   5
76
 100
AcDbEntity
   8
0
 100
AcDbBlockEnd
   0
BLOCK
   5
77
 100
AcDbEntity
   8
0
 100
AcDbBlockBegin
   2
_CLOSED
  70
0
  10
0.0
  20
0.0
  30
0.0
   3
_CLOSED
   0
LINE
   5
78
 100
AcDbEntity
   8
0
 100
AcDbLine
   6
BYBLOCK
  62
0
  10
-1.0000000000000
  20
 0.16666666666667
  30
0.0
  11
0.0
  21
0.0
  31
0.0
   0
LINE
   5
79
 100
AcDbEntity
   8
0
 100
AcDbLine
   6
BYBLOCK
  62
0
  10
0.0
  20
0.0
  30
0.0
  11
-1.0000000000000
  21
-0.16666666666667
  31
0.0
   0
LINE
   5
7A
 100
AcDbEntity
   8
0
 100
AcDbLine
   6
BYBLOCK
  62
0
  10
-1.0000000000000
  20
 0.16666666666667
  30
0.0
  11
-1.0000000000000
  21
-0.16666666666667
  31
0.0
   0
LINE
   5
7B
 100
AcDbEntity
   8
0
 100
AcDbLine
   6
BYBLOCK
  62
0
  10
0.0
  20
0.0
  30
0.0
  11
-1.0000000000000
  21
0.0
  31
0.0
   0
ENDBLK
   5
7C
 100
AcDbEntity
   8
0
 100
AcDbBlockEnd
   0
BLOCK
   5
7D
 100
AcDbEntity
   8
0
 100
AcDbBlockBegin
   2
_OPEN
  70
0
  10
0.0
  20
0.0
  30
0.0
   3
_OPEN
   0
LINE
   5
7E
 100
AcDbEntity
   8
0
 100
AcDbLine
   6
BYBLOCK
  62
0
  10
-1.0000000000000
  20
 0.16666666666667
  30
0.0
  11
0.0
  21
0.0
  31
0.0
   0
LINE
   5
7F
 100
AcDbEntity
   8
0
 100
AcDbLine
   6
BYBLOCK
  62
0
  10
0.0
  20
0.0
  30
0.0
  11
-1.0000000000000
  21
-0.16666666666667
  31
0.0
   0
LINE
   5
80
 100
AcDbEntity
   8
0
 100
AcDbLine
   6
BYBLOCK
  62
0
  10
0.0
  20
0.0
  30
0.0
  11
-1.0000000000000
  21
0.0
  31
0.0
   0
ENDBLK
   5
81
 100
AcDbEntity
   8
0
 100
AcDbBlockEnd
   0
BLOCK
   5
82
 100
AcDbEntity
   8
0
 100
AcDbBlockBegin
   2
_OPEN30
  70
0
  10
0.0
  20
0.0
  30
0.0
   3
_OPEN30
   0
LINE
   5
83
 100
AcDbEntity
   8
0
 100
AcDbLine
   6
BYBLOCK
  62
0
  10
-1.0000000000000
  20
 0.26794919243110
  30
0.0
  11
0.0
  21
0.0
  31
0.0
   0
LINE
   5
84
 100
AcDbEntity
   8
0
 100
AcDbLine
   6
BYBLOCK
  62
0
  10
0.0
  20
0.0
  30
0.0
  11
-1.0000000000000
  21
-0.26794919243110
  31
0.0
   0
LINE
   5
85
 100
AcDbEntity
   8
0
 100
AcDbLine
   6
BYBLOCK
  62
0
  10
0.0
  20
0.0
  30
0.0
  11
-1.0000000000000
  21
0.0
  31
0.0
   0
ENDBLK
   5
86
 100
AcDbEntity
   8
0
 100
AcDbBlockEnd
   0
BLOCK
   5
87
 100
AcDbEntity
   8
0
 100
AcDbBlockBegin
   2
_OPEN90
  70
0
  10
0.0
  20
0.0
  30
0.0
   3
_OPEN90
   0
LINE
   5
88
 100
AcDbEntity
   8
0
 100
AcDbLine
   6
BYBLOCK
  62
0
  10
-0.50000000000000
  20
 0.50000000000000
  30
0.0
  11
0.0
  21
0.0
  31
0.0
   0
LINE
   5
89
 100
AcDbEntity
   8
0
 100
AcDbLine
   6
BYBLOCK
  62
0
  10
0.0
  20
0.0
  30
0.0
  11
-0.50000000000000
  21
-0.50000000000000
  31
0.0
   0
LINE
   5
8A
 100
AcDbEntity
   8
0
 100
AcDbLine
   6
BYBLOCK
  62
0
  10
0.0
  20
0.0
  30
0.0
  11
-1.0000000000000
  21
0.0
  31
0.0
   0
ENDBLK
   5
8B
 100
AcDbEntity
   8
0
 100
AcDbBlockEnd
   0
BLOCK
   5
8C
 100
AcDbEntity
   8
0
 100
AcDbBlockBegin
   2
_CLOSEDBLANK
  70
0
  10
0.0
  20
0.0
  30
0.0
   3
_CLOSEDBLANK
   0
LINE
   5
8D
 100
AcDbEntity
   8
0
 100
AcDbLine
   6
BYBLOCK
  62
0
  10
-1.0000000000000
  20
 0.16666666666667
  30
0.0
  11
0.0
  21
0.0
  31
0.0
   0
LINE
   5
8E
 100
AcDbEntity
   8
0
 100
AcDbLine
   6
BYBLOCK
  62
0
  10
0.0
  20
0.0
  30
0.0
  11
-1.0000000000000
  21
-0.16666666666667
  31
0.0
   0
LINE
   5
8F
 100
AcDbEntity
   8
0
 100
AcDbLine
   6
BYBLOCK
  62
0
  10
-1.0000000000000
  20
 0.16666666666667
  30
0.0
  11
-1.0000000000000
  21
-0.16666666666667
  31
0.0
   0
ENDBLK
   5
90
 100
AcDbEntity
   8
0
 100
AcDbBlockEnd
   0
BLOCK
   5
91
 100
AcDbEntity
   8
0
 100
AcDbBlockBegin
   2
_DOT
  70
0
  10
0.0
  20
0.0
  30
0.0
   3
_DOT
   0
POLYLINE
   5
92
 100
AcDbEntity
   8
0
   6
BYBLOCK
  62
0
 100
AcDb2dPolyline
  66
1
  10
0.0
  20
0.0
  30
0.0
  70
1
  40
 0.50000000000000
  41
 0.50000000000000
   0
VERTEX
   5
93
 100
AcDbEntity
   8
0
   6
BYBLOCK
  62
0
 100
AcDbVertex
 100
AcDb2dVertex
  10
-0.25000000000000
  20
0.0
  30
0.0
  42
 1.0000000000000
  40
 0.50000000000000
  41
 0.50000000000000
   0
VERTEX
   5
94
 100
AcDbEntity
   8
0
   6
BYBLOCK
  62
0
 100
AcDbVertex
 100
AcDb2dVertex
  10
 0.25000000000000
  20
0.0
  30
0.0
  42
 1.0000000000000
  40
 0.50000000000000
  41
 0.50000000000000
   0
SEQEND
   5
95
 100
AcDbEntity
   8
0
   6
BYBLOCK
  62
0
   0
LINE
   5
96
 100
AcDbEntity
   8
0
 100
AcDbLine
   6
BYBLOCK
  62
0
  10
-0.50000000000000
  20
0.0
  30
0.0
  11
-1.0000000000000
  21
0.0
  31
0.0
   0
ENDBLK
   5
97
 100
AcDbEntity
   8
0
 100
AcDbBlockEnd
   0
BLOCK
   5
98
 100
AcDbEntity
   8
0
 100
AcDbBlockBegin
   2
_DOTSMALL
  70
0
  10
0.0
  20
0.0
  30
0.0
   3
_DOTSMALL
   0
POLYLINE
   5
99
 100
AcDbEntity
   8
0
   6
BYBLOCK
  62
0
 100
AcDb2dPolyline
  66
1
  10
0.0
  20
0.0
  30
0.0
  70
1
  40
 0.50000000000000
  41
 0.50000000000000
   0
VERTEX
   5
9A
 100
AcDbEntity
   8
0
   6
BYBLOCK
  62
0
 100
AcDbVertex
 100
AcDb2dVertex
  10
-0.62500000000000E-1
  20
0.0
  30
0.0
  42
 1.0000000000000
  40
 0.50000000000000
  41
 0.50000000000000
   0
VERTEX
   5
9B
 100
AcDbEntity
   8
0
   6
BYBLOCK
  62
0
 100
AcDbVertex
 100
AcDb2dVertex
  10
 0.62500000000000E-1
  20
0.0
  30
0.0
  42
 1.0000000000000
  40
 0.50000000000000
  41
 0.50000000000000
   0
SEQEND
   5
9C
 100
AcDbEntity
   8
0
   6
BYBLOCK
  62
0
   0
ENDBLK
   5
9D
 100
AcDbEntity
   8
0
 100
AcDbBlockEnd
   0
BLOCK
   5
9E
 100
AcDbEntity
   8
0
 100
AcDbBlockBegin
   2
_DATUMBLANK
  70
0
  10
0.0
  20
0.0
  30
0.0
   3
_DATUMBLANK
   0
LINE
   5
9F
 100
AcDbEntity
   8
0
 100
AcDbLine
   6
BYBLOCK
  62
0
  10
0.0
  20
 0.57735027000000
  30
0.0
  11
-1.0000000000000
  21
0.0
  31
0.0
   0
LINE
   5
A0
 100
AcDbEntity
   8
0
 100
AcDbLine
   6
BYBLOCK
  62
0
  10
-1.0000000000000
  20
0.0
  30
0.0
  11
0.0
  21
-0.57735027000000
  31
0.0
   0
LINE
   5
A1
 100
AcDbEntity
   8
0
 100
AcDbLine
   6
BYBLOCK
  62
0
  10
0.0
  20
-0.57735027000000
  30
0.0
  11
0.0
  21
 0.57735027000000
  31
0.0
   0
ENDBLK
   5
A2
 100
AcDbEntity
   8
0
 100
AcDbBlockEnd
   0
BLOCK
   5
A3
 100
AcDbEntity
   8
0
 100
AcDbBlockBegin
   2
_DATUMFILLED
  70
0
  10
0.0
  20
0.0
  30
0.0
   3
_DATUMFILLED
   0
SOLID
   5
A4
 100
AcDbEntity
   8
0
 100
AcDbTrace
   6
BYBLOCK
  62
0
  10
0.0
  20
 0.57735027000000
  30
0.0
  11
-1.0000000000000
  21
0.0
  31
0.0
  12
0.0
  22
-0.57735027000000
  32
0.0
  13
0.0
  23
-0.57735027000000
  33
0.0
   0
ENDBLK
   5
A5
 100
AcDbEntity
   8
0
 100
AcDbBlockEnd
   0
BLOCK
   5
A6
 100
AcDbEntity
   8
0
 100
AcDbBlockBegin
   2
_ORIGIN
  70
0
  10
0.0
  20
0.0
  30
0.0
   3
_ORIGIN
   0
CIRCLE
   5
A7
 100
AcDbEntity
   8
0
 100
AcDbCircle
   6
BYBLOCK
  62
0
  10
0.0
  20
0.0
  30
0.0
  40
 0.50000000000000
   0
LINE
   5
A8
 100
AcDbEntity
   8
0
 100
AcDbLine
   6
BYBLOCK
  62
0
  10
0.0
  20
0.0
  30
0.0
  11
-1.0000000000000
  21
0.0
  31
0.0
   0
ENDBLK
   5
A9
 100
AcDbEntity
   8
0
 100
AcDbBlockEnd
   0
BLOCK
   5
AA
 100
AcDbEntity
   8
0
 100
AcDbBlockBegin
   2
_NONE
  70
0
  10
0.0
  20
0.0
  30
0.0
   3
_NONE
   0
CIRCLE
   5
AB
 100
AcDbEntity
   8
0
 100
AcDbCircle
   6
BYBLOCK
  62
0
  10
0.0
  20
0.0
  30
0.0
  40
 0.25000000000000
   0
ENDBLK
   5
AC
 100
AcDbEntity
   8
0
 100
AcDbBlockEnd
   0
BLOCK
   5
AD
 100
AcDbEntity
   8
0
 100
AcDbBlockBegin
   2
_DOTBLANK
  70
0
  10
0.0
  20
0.0
  30
0.0
   3
_DOTBLANK
   0
CIRCLE
   5
AE
 100
AcDbEntity
   8
0
 100
AcDbCircle
   6
BYBLOCK
  62
0
  10
0.0
  20
0.0
  30
0.0
  40
 0.50000000000000
   0
LINE
   5
AF
 100
AcDbEntity
   8
0
 100
AcDbLine
   6
BYBLOCK
  62
0
  10
-0.50000000000000
  20
0.0
  30
0.0
  11
-1.0000000000000
  21
0.0
  31
0.0
   0
ENDBLK
   5
B0
 100
AcDbEntity
   8
0
 100
AcDbBlockEnd
   0
BLOCK
   5
B1
 100
AcDbEntity
   8
0
 100
AcDbBlockBegin
   2
_INTEGRAL
  70
0
  10
0.0
  20
0.0
  30
0.0
   3
_INTEGRAL
   0
ARC
   5
B2
 100
AcDbEntity
   8
0
   6
BYBLOCK
  62
0
 100
AcDbCircle
  10
 0.44488800000000
  20
-0.91335000000000E-1
  30
0.0
  40
 0.45416700000000
 100
AcDbArc
  50
 102.00000000000
  51
 168.00000000000
   0
ARC
   5
B3
 100
AcDbEntity
   8
0
   6
BYBLOCK
  62
0
 100
AcDbCircle
  10
-0.44488800000000
  20
 0.91335000000000E-1
  30
0.0
  40
 0.45416700000000
 100
AcDbArc
  50
 282.00000000000
  51
 348.00000000000
   0
ENDBLK
   5
B4
 100
AcDbEntity
   8
0
 100
AcDbBlockEnd
   0
BLOCK
   5
B5
 100
AcDbEntity
   8
0
 100
AcDbBlockBegin
   2
*D1
  70
65
  10
0.0
  20
0.0
  30
0.0
   3
*D1
   0
LINE
   5
B6
 100
AcDbEntity
   8
LEVEL003
 100
AcDbLine
   6
CONTINUOUS
  62
3
  10
 403.50000000000
  20
 840.00000000000
  30
0.0
  11
 332.00000000000
  21
 840.00000000000
  31
0.0
   0
LINE
   5
B7
 100
AcDbEntity
   8
LEVEL003
 100
AcDbLine
   6
CONTINUOUS
  62
3
  10
 400.00000000000
  20
 740.00000000000
  30
0.0
  11
 332.00000000000
  21
 740.00000000000
  31
0.0
   0
LINE
   5
B8
 100
AcDbEntity
   8
LEVEL003
 100
AcDbLine
   6
CONTINUOUS
  62
3
  10
 340.00000000000
  20
 840.00000000000
  30
0.0
  11
 340.00000000000
  21
 808.72500000000
  31
0.0
   0
LINE
   5
B9
 100
AcDbEntity
   8
LEVEL003
 100
AcDbLine
   6
CONTINUOUS
  62
3
  10
 340.00000000000
  20
 740.00000000000
  30
0.0
  11
 340.00000000000
  21
 771.27500000000
  31
0.0
   0
INSERT
   5
BA
 100
AcDbEntity
   8
LEVEL003
   6
CONTINUOUS
  62
3
 100
AcDbBlockReference
   2
_OPEN
  10
 340.00000000000
  20
 840.00000000000
  30
0.0
  41
 12.000000000000
  42
 12.000000000000
  43
 12.000000000000
  50
 90.000000000000
   0
INSERT
   5
BB
 100
AcDbEntity
   8
LEVEL003
   6
CONTINUOUS
  62
3
 100
AcDbBlockReference
   2
_OPEN
  10
 340.00000000000
  20
 740.00000000000
  30
0.0
  41
 12.000000000000
  42
 12.000000000000
  43
 12.000000000000
  50
 270.00000000000
   0
MTEXT
   5
BC
 100
AcDbEntity
   8
LEVEL003
  62
3
 100
AcDbMText
  10
 336.79998779297
  20
 790.00000000000
  30
0.0
  40
 16.000000000000
  41
0.0
  71
8
  72
1
   1
\A1;100
   7
GMM001
  11
0.0
  21
 1.0000000000000
  31
0.0
   0
ENDBLK
   5
BD
 100
AcDbEntity
   8
0
 100
AcDbBlockEnd
   0
BLOCK
   5
BE
 100
AcDbEntity
   8
0
 100
AcDbBlockBegin
   2
*D2
  70
65
  10
0.0
  20
0.0
  30
0.0
   3
*D2
   0
LINE
   5
BF
 100
AcDbEntity
   8
LEVEL003
 100
AcDbLine
   6
CONTINUOUS
  62
3
  10
 483.00003051758
  20
 955.00000000000
  30
0.0
  11
 292.00000000000
  21
 955.00000000000
  31
0.0
   0
LINE
   5
C0
 100
AcDbEntity
   8
LEVEL003
 100
AcDbLine
   6
CONTINUOUS
  62
3
  10
 400.00000000000
  20
 740.00000000000
  30
0.0
  11
 292.00000000000
  21
 740.00000000000
  31
0.0
   0
LINE
   5
C1
 100
AcDbEntity
   8
LEVEL003
 100
AcDbLine
   6
CONTINUOUS
  62
3
  10
 300.00000000000
  20
 955.00000000000
  30
0.0
  11
 300.00000000000
  21
 869.02500000000
  31
0.0
   0
LINE
   5
C2
 100
AcDbEntity
   8
LEVEL003
 100
AcDbLine
   6
CONTINUOUS
  62
3
  10
 300.00000000000
  20
 740.00000000000
  30
0.0
  11
 300.00000000000
  21
 825.97500000000
  31
0.0
   0
INSERT
   5
C3
 100
AcDbEntity
   8
LEVEL003
   6
CONTINUOUS
  62
3
 100
AcDbBlockReference
   2
_OPEN
  10
 300.00000000000
  20
 955.00000000000
  30
0.0
  41
 12.000000000000
  42
 12.000000000000
  43
 12.000000000000
  50
 90.000000000000
   0
INSERT
   5
C4
 100
AcDbEntity
   8
LEVEL003
   6
CONTINUOUS
  62
3
 100
AcDbBlockReference
   2
_OPEN
  10
 300.00000000000
  20
 740.00000000000
  30
0.0
  41
 12.000000000000
  42
 12.000000000000
  43
 12.000000000000
  50
 270.00000000000
   0
MTEXT
   5
C5
 100
AcDbEntity
   8
LEVEL003
  62
3
 100
AcDbMText
  10
 296.79998779297
  20
 847.50000000000
  30
0.0
  40
 16.000000000000
  41
0.0
  71
8
  72
1
   1
\A1;215
   7
GMM001
  11
0.0
  21
 1.0000000000000
  31
0.0
   0
ENDBLK
   5
C6
 100
AcDbEntity
   8
0
 100
AcDbBlockEnd
   0
BLOCK
   5
C7
 100
AcDbEntity
   8
0
 100
AcDbBlockBegin
   2
*D3
  70
65
  10
0.0
  20
0.0
  30
0.0
   3
*D3
   0
LINE
   5
C8
 100
AcDbEntity
   8
LEVEL003
 100
AcDbLine
   6
CONTINUOUS
  62
3
  10
 485.00003051758
  20
 957.00000000000
  30
0.0
  11
 485.00003051758
  21
 1028.0000000000
  31
0.0
   0
LINE
   5
C9
 100
AcDbEntity
   8
LEVEL003
 100
AcDbLine
   6
CONTINUOUS
  62
3
  10
 715.00000000000
  20
 956.99993896484
  30
0.0
  11
 715.00000000000
  21
 1028.0000000000
  31
0.0
   0
LINE
   5
CA
 100
AcDbEntity
   8
LEVEL003
 100
AcDbLine
   6
CONTINUOUS
  62
3
  10
 485.00003051758
  20
 1020.0000000000
  30
0.0
  11
 566.05000000000
  21
 1020.0000000000
  31
0.0
   0
LINE
   5
CB
 100
AcDbEntity
   8
LEVEL003
 100
AcDbLine
   6
CONTINUOUS
  62
3
  10
 715.00000000000
  20
 1020.0000000000
  30
0.0
  11
 633.95000000000
  21
 1020.0000000000
  31
0.0
   0
INSERT
   5
CC
 100
AcDbEntity
   8
LEVEL003
   6
CONTINUOUS
  62
3
 100
AcDbBlockReference
   2
_OPEN
  10
 485.00003051758
  20
 1020.0000000000
  30
0.0
  41
 12.000000000000
  42
 12.000000000000
  43
 12.000000000000
  50
 180.00000000000
   0
INSERT
   5
CD
 100
AcDbEntity
   8
LEVEL003
   6
CONTINUOUS
  62
3
 100
AcDbBlockReference
   2
_OPEN
  10
 715.00000000000
  20
 1020.0000000000
  30
0.0
  41
 12.000000000000
  42
 12.000000000000
  43
 12.000000000000
  50
0.0
   0
MTEXT
   5
CE
 100
AcDbEntity
   8
LEVEL003
  62
3
 100
AcDbMText
  10
 600.00000000000
  20
 1023.1999511719
  30
0.0
  40
 16.000000000000
  41
0.0
  71
8
  72
1
   1
\A1;%%c230
   7
GMM001
   0
ENDBLK
   5
CF
 100
AcDbEntity
   8
0
 100
AcDbBlockEnd
   0
BLOCK
   5
D0
 100
AcDbEntity
   8
0
 100
AcDbBlockBegin
   2
*D5
  70
65
  10
0.0
  20
0.0
  30
0.0
   3
*D5
   0
LINE
   5
D1
 100
AcDbEntity
   8
LEVEL003
 100
AcDbLine
   6
CONTINUOUS
  62
3
  10
 490.00000000000
  20
 540.00000000000
  30
0.0
  11
 566.05000000000
  21
 540.00000000000
  31
0.0
   0
LINE
   5
D2
 100
AcDbEntity
   8
LEVEL003
 100
AcDbLine
   6
CONTINUOUS
  62
3
  10
 710.00000000000
  20
 540.00000000000
  30
0.0
  11
 633.95000000000
  21
 540.00000000000
  31
0.0
   0
INSERT
   5
D3
 100
AcDbEntity
   8
LEVEL003
   6
CONTINUOUS
  62
3
 100
AcDbBlockReference
   2
_OPEN
  10
 490.00000000000
  20
 540.00000000000
  30
0.0
  41
 12.000000000000
  42
 12.000000000000
  43
 12.000000000000
  50
 180.00000000000
   0
INSERT
   5
D4
 100
AcDbEntity
   8
LEVEL003
   6
CONTINUOUS
  62
3
 100
AcDbBlockReference
   2
_OPEN
  10
 710.00000000000
  20
 540.00000000000
  30
0.0
  41
 12.000000000000
  42
 12.000000000000
  43
 12.000000000000
  50
0.0
   0
MTEXT
   5
D5
 100
AcDbEntity
   8
LEVEL003
  62
3
 100
AcDbMText
  10
 600.00000000000
  20
 543.20000000000
  30
0.0
  40
 16.000000000000
  41
0.0
  71
8
  72
1
   1
\A1;%%c220
   7
GMM001
   0
ENDBLK
   5
D6
 100
AcDbEntity
   8
0
 100
AcDbBlockEnd
   0
BLOCK
   5
D7
 100
AcDbEntity
   8
0
 100
AcDbBlockBegin
   2
*D6
  70
65
  10
0.0
  20
0.0
  30
0.0
   3
*D6
   0
LINE
   5
D8
 100
AcDbEntity
   8
LEVEL003
 100
AcDbLine
   6
CONTINUOUS
  62
3
  10
 450.00000000000
  20
 500.00000000000
  30
0.0
  11
 567.45000000000
  21
 500.00000000000
  31
0.0
   0
LINE
   5
D9
 100
AcDbEntity
   8
LEVEL003
 100
AcDbLine
   6
CONTINUOUS
  62
3
  10
 750.00000000000
  20
 500.00000000000
  30
0.0
  11
 632.55000000000
  21
 500.00000000000
  31
0.0
   0
INSERT
   5
DA
 100
AcDbEntity
   8
LEVEL003
   6
CONTINUOUS
  62
3
 100
AcDbBlockReference
   2
_OPEN
  10
 450.00000000000
  20
 500.00000000000
  30
0.0
  41
 12.000000000000
  42
 12.000000000000
  43
 12.000000000000
  50
 180.00000000000
   0
INSERT
   5
DB
 100
AcDbEntity
   8
LEVEL003
   6
CONTINUOUS
  62
3
 100
AcDbBlockReference
   2
_OPEN
  10
 750.00000000000
  20
 500.00000000000
  30
0.0
  41
 12.000000000000
  42
 12.000000000000
  43
 12.000000000000
  50
0.0
   0
MTEXT
   5
DC
 100
AcDbEntity
   8
LEVEL003
  62
3
 100
AcDbMText
  10
 600.00000000000
  20
 503.20000000000
  30
0.0
  40
 16.000000000000
  41
0.0
  71
8
  72
1
   1
\A1;%%c300
   7
GMM001
   0
ENDBLK
   5
DD
 100
AcDbEntity
   8
0
 100
AcDbBlockEnd
   0
BLOCK
   5
DE
 100
AcDbEntity
   8
0
 100
AcDbBlockBegin
   2
*D7
  70
65
  10
0.0
  20
0.0
  30
0.0
   3
*D7
   0
LINE
   5
DF
 100
AcDbEntity
   8
LEVEL003
 100
AcDbLine
   6
CONTINUOUS
  62
3
  10
 483.00003051758
  20
 955.00000000000
  30
0.0
  11
 232.00000000000
  21
 955.00000000000
  31
0.0
   0
LINE
   5
E0
 100
AcDbEntity
   8
LEVEL003
 100
AcDbLine
   6
CONTINUOUS
  62
3
  10
 398.49998573866
  20
 179.99996948242
  30
0.0
  11
 232.00000000000
  21
 179.99996948242
  31
0.0
   0
LINE
   5
E1
 100
AcDbEntity
   8
LEVEL003
 100
AcDbLine
   6
CONTINUOUS
  62
3
  10
 240.00000000000
  20
 955.00000000000
  30
0.0
  11
 240.00000000000
  21
 591.65000000000
  31
0.0
   0
LINE
   5
E2
 100
AcDbEntity
   8
LEVEL003
 100
AcDbLine
   6
CONTINUOUS
  62
3
  10
 240.00000000000
  20
 179.99996948242
  30
0.0
  11
 240.00000000000
  21
 543.35000000000
  31
0.0
   0
INSERT
   5
E3
 100
AcDbEntity
   8
LEVEL003
   6
CONTINUOUS
  62
3
 100
AcDbBlockReference
   2
_OPEN
  10
 240.00000000000
  20
 955.00000000000
  30
0.0
  41
 12.000000000000
  42
 12.000000000000
  43
 12.000000000000
  50
 90.000000000000
   0
INSERT
   5
E4
 100
AcDbEntity
   8
LEVEL003
   6
CONTINUOUS
  62
3
 100
AcDbBlockReference
   2
_OPEN
  10
 240.00000000000
  20
 179.99996948242
  30
0.0
  41
 12.000000000000
  42
 12.000000000000
  43
 12.000000000000
  50
 270.00000000000
   0
MTEXT
   5
E5
 100
AcDbEntity
   8
LEVEL003
  62
3
 100
AcDbMText
  10
 236.80000305176
  20
 567.50000000000
  30
0.0
  40
 16.000000000000
  41
0.0
  71
8
  72
1
   1
\A1;775
   7
GMM001
  11
0.0
  21
 1.0000000000000
  31
0.0
   0
ENDBLK
   5
E6
 100
AcDbEntity
   8
0
 100
AcDbBlockEnd
   0
BLOCK
   5
E7
 100
AcDbEntity
   8
0
 100
AcDbBlockBegin
   2
*D8
  70
65
  10
0.0
  20
0.0
  30
0.0
   3
*D8
   0
LINE
   5
E8
 100
AcDbEntity
   8
LEVEL003
 100
AcDbLine
   6
CONTINUOUS
  62
3
  10
 397.50000000000
  20
 460.00000000000
  30
0.0
  11
 566.05000000000
  21
 460.00000000000
  31
0.0
   0
LINE
   5
E9
 100
AcDbEntity
   8
LEVEL003
 100
AcDbLine
   6
CONTINUOUS
  62
3
  10
 802.50000000000
  20
 460.00000000000
  30
0.0
  11
 633.95000000000
  21
 460.00000000000
  31
0.0
   0
INSERT
   5
EA
 100
AcDbEntity
   8
LEVEL003
   6
CONTINUOUS
  62
3
 100
AcDbBlockReference
   2
_OPEN
  10
 397.50000000000
  20
 460.00000000000
  30
0.0
  41
 12.000000000000
  42
 12.000000000000
  43
 12.000000000000
  50
 180.00000000000
   0
INSERT
   5
EB
 100
AcDbEntity
   8
LEVEL003
   6
CONTINUOUS
  62
3
 100
AcDbBlockReference
   2
_OPEN
  10
 802.50000000000
  20
 460.00000000000
  30
0.0
  41
 12.000000000000
  42
 12.000000000000
  43
 12.000000000000
  50
0.0
   0
MTEXT
   5
EC
 100
AcDbEntity
   8
LEVEL003
  62
3
 100
AcDbMText
  10
 600.00000000000
  20
 463.20001220703
  30
0.0
  40
 16.000000000000
  41
0.0
  71
8
  72
1
   1
\A1;%%c405
   7
GMM001
   0
ENDBLK
   5
ED
 100
AcDbEntity
   8
0
 100
AcDbBlockEnd
   0
BLOCK
   5
EE
 100
AcDbEntity
   8
0
 100
AcDbBlockBegin
   2
*D9
  70
65
  10
0.0
  20
0.0
  30
0.0
   3
*D9
   0
LINE
   5
EF
 100
AcDbEntity
   8
LEVEL003
 100
AcDbLine
   6
CONTINUOUS
  62
3
  10
 801.50000000000
  20
 179.99995422363
  30
0.0
  11
 928.00000000000
  21
 179.99995422363
  31
0.0
   0
LINE
   5
F0
 100
AcDbEntity
   8
LEVEL003
 100
AcDbLine
   6
CONTINUOUS
  62
3
  10
 920.00000000000
  20
 179.99995422363
  30
0.0
  11
 920.00000000000
  21
 202.39993896484
  31
0.0
   0
LINE
   5
F1
 100
AcDbEntity
   8
LEVEL003
 100
AcDbLine
   6
CONTINUOUS
  62
3
  10
 920.00000000000
  20
 256.99993896484
  30
0.0
  11
 920.00000000000
  21
 234.59993896484
  31
0.0
   0
INSERT
   5
F2
 100
AcDbEntity
   8
LEVEL003
   6
CONTINUOUS
  62
3
 100
AcDbBlockReference
   2
_OPEN
  10
 920.00000000000
  20
 179.99995422363
  30
0.0
  41
 12.000000000000
  42
 12.000000000000
  43
 12.000000000000
  50
 270.00000000000
   0
INSERT
   5
F3
 100
AcDbEntity
   8
LEVEL003
   6
CONTINUOUS
  62
3
 100
AcDbBlockReference
   2
_OPEN
  10
 920.00000000000
  20
 256.99993896484
  30
0.0
  41
 12.000000000000
  42
 12.000000000000
  43
 12.000000000000
  50
 90.000000000000
   0
MTEXT
   5
F4
 100
AcDbEntity
   8
LEVEL003
  62
3
 100
AcDbMText
  10
 916.79998779297
  20
 218.49993896484
  30
0.0
  40
 16.000000000000
  41
0.0
  71
8
  72
1
   1
\A1;77
   7
GMM001
  11
0.0
  21
 1.0000000000000
  31
0.0
   0
ENDBLK
   5
F5
 100
AcDbEntity
   8
0
 100
AcDbBlockEnd
   0
BLOCK
   5
F6
 100
AcDbEntity
   8
0
 100
AcDbBlockBegin
   2
*D10
  70
65
  10
0.0
  20
0.0
  30
0.0
   3
*D10
   0
LINE
   5
F7
 100
AcDbEntity
   8
LEVEL003
 100
AcDbLine
   6
CONTINUOUS
  62
3
  10
 881.50000000000
  20
 256.99993896484
  30
0.0
  11
 928.00000000000
  21
 256.99993896484
  31
0.0
   0
LINE
   5
F8
 100
AcDbEntity
   8
LEVEL003
 100
AcDbLine
   6
CONTINUOUS
  62
3
  10
 881.50000000000
  20
 667.99993896484
  30
0.0
  11
 928.00000000000
  21
 667.99993896484
  31
0.0
   0
LINE
   5
F9
 100
AcDbEntity
   8
LEVEL003
 100
AcDbLine
   6
CONTINUOUS
  62
3
  10
 920.00000000000
  20
 256.99993896484
  30
0.0
  11
 920.00000000000
  21
 443.59993896484
  31
0.0
   0
LINE
   5
FA
 100
AcDbEntity
   8
LEVEL003
 100
AcDbLine
   6
CONTINUOUS
  62
3
  10
 920.00000000000
  20
 667.99993896484
  30
0.0
  11
 920.00000000000
  21
 481.39993896484
  31
0.0
   0
INSERT
   5
FB
 100
AcDbEntity
   8
LEVEL003
   6
CONTINUOUS
  62
3
 100
AcDbBlockReference
   2
_OPEN
  10
 920.00000000000
  20
 256.99993896484
  30
0.0
  41
 12.000000000000
  42
 12.000000000000
  43
 12.000000000000
  50
 270.00000000000
   0
INSERT
   5
FC
 100
AcDbEntity
   8
LEVEL003
   6
CONTINUOUS
  62
3
 100
AcDbBlockReference
   2
_OPEN
  10
 920.00000000000
  20
 667.99993896484
  30
0.0
  41
 12.000000000000
  42
 12.000000000000
  43
 12.000000000000
  50
 90.000000000000
   0
MTEXT
   5
FD
 100
AcDbEntity
   8
LEVEL003
  62
3
 100
AcDbMText
  10
 916.79998779297
  20
 462.49993896484
  30
0.0
  40
 16.000000000000
  41
0.0
  71
8
  72
1
   1
\A1;411
   7
GMM001
  11
0.0
  21
 1.0000000000000
  31
0.0
   0
ENDBLK
   5
FE
 100
AcDbEntity
   8
0
 100
AcDbBlockEnd
   0
BLOCK
   5
FF
 100
AcDbEntity
   8
0
 100
AcDbBlockBegin
   2
*D11
  70
65
  10
0.0
  20
0.0
  30
0.0
   3
*D11
   0
LINE
   5
100
 100
AcDbEntity
   8
LEVEL003
 100
AcDbLine
   6
CONTINUOUS
  62
3
  10
 483.00003051758
  20
 955.00000000000
  30
0.0
  11
 332.00000000000
  21
 955.00000000000
  31
0.0
   0
LINE
   5
101
 100
AcDbEntity
   8
LEVEL003
 100
AcDbLine
   6
CONTINUOUS
  62
3
  10
 340.00000000000
  20
 955.00000000000
  30
0.0
  11
 340.00000000000
  21
 953.60000000000
  31
0.0
   0
LINE
   5
102
 100
AcDbEntity
   8
LEVEL003
 100
AcDbLine
   6
CONTINUOUS
  62
3
  10
 340.00000000000
  20
 919.99993896484
  30
0.0
  11
 340.00000000000
  21
 921.40000000000
  31
0.0
   0
INSERT
   5
103
 100
AcDbEntity
   8
LEVEL003
   6
CONTINUOUS
  62
3
 100
AcDbBlockReference
   2
_OPEN
  10
 340.00000000000
  20
 955.00000000000
  30
0.0
  41
 12.000000000000
  42
 12.000000000000
  43
 12.000000000000
  50
 90.000000000000
   0
INSERT
   5
104
 100
AcDbEntity
   8
LEVEL003
   6
CONTINUOUS
  62
3
 100
AcDbBlockReference
   2
_OPEN
  10
 340.00000000000
  20
 919.99993896484
  30
0.0
  41
 12.000000000000
  42
 12.000000000000
  43
 12.000000000000
  50
 270.00000000000
   0
MTEXT
   5
105
 100
AcDbEntity
   8
LEVEL003
  62
3
 100
AcDbMText
  10
 336.79998779297
  20
 937.50000000000
  30
0.0
  40
 16.000000000000
  41
0.0
  71
8
  72
1
   1
\A1;35
   7
GMM001
  11
0.0
  21
 1.0000000000000
  31
0.0
   0
ENDBLK
   5
106
 100
AcDbEntity
   8
0
 100
AcDbBlockEnd
   0
BLOCK
   5
107
 100
AcDbEntity
   8
0
 100
AcDbBlockBegin
   2
*D12
  70
65
  10
0.0
  20
0.0
  30
0.0
   3
*D12
   0
LINE
   5
108
 100
AcDbEntity
   8
LEVEL003
 100
AcDbLine
   6
CONTINUOUS
  62
3
  10
 508.00000000000
  20
 919.99993896484
  30
0.0
  11
 332.00000000000
  21
 919.99993896484
  31
0.0
   0
LINE
   5
109
 100
AcDbEntity
   8
LEVEL003
 100
AcDbLine
   6
CONTINUOUS
  62
3
  10
 487.50000000000
  20
 845.00000000000
  30
0.0
  11
 332.00000000000
  21
 845.00000000000
  31
0.0
   0
LINE
   5
10A
 100
AcDbEntity
   8
LEVEL003
 100
AcDbLine
   6
CONTINUOUS
  62
3
  10
 340.00000000000
  20
 919.99993896484
  30
0.0
  11
 340.00000000000
  21
 898.60000000000
  31
0.0
   0
LINE
   5
10B
 100
AcDbEntity
   8
LEVEL003
 100
AcDbLine
   6
CONTINUOUS
  62
3
  10
 340.00000000000
  20
 845.00000000000
  30
0.0
  11
 340.00000000000
  21
 866.40000000000
  31
0.0
   0
INSERT
   5
10C
 100
AcDbEntity
   8
LEVEL003
   6
CONTINUOUS
  62
3
 100
AcDbBlockReference
   2
_OPEN
  10
 340.00000000000
  20
 919.99993896484
  30
0.0
  41
 12.000000000000
  42
 12.000000000000
  43
 12.000000000000
  50
 90.000000000000
   0
INSERT
   5
10D
 100
AcDbEntity
   8
LEVEL003
   6
CONTINUOUS
  62
3
 100
AcDbBlockReference
   2
_OPEN
  10
 340.00000000000
  20
 845.00000000000
  30
0.0
  41
 12.000000000000
  42
 12.000000000000
  43
 12.000000000000
  50
 270.00000000000
   0
MTEXT
   5
10E
 100
AcDbEntity
   8
LEVEL003
  62
3
 100
AcDbMText
  10
 336.79998779297
  20
 882.50000000000
  30
0.0
  40
 16.000000000000
  41
0.0
  71
8
  72
1
   1
\A1;75
   7
GMM001
  11
0.0
  21
 1.0000000000000
  31
0.0
   0
ENDBLK
   5
10F
 100
AcDbEntity
   8
0
 100
AcDbBlockEnd
   0
ENDSEC
   0
SECTION
   2
ENTITIES
   0
LINE
   5
110
 100
AcDbEntity
   8
LEVEL001
 100
AcDbLine
   6
CONTINUOUS
  62
7
  10
 708.50000000000
  20
 844.99993896484
  30
0.0
  11
 710.00000000000
  21
 839.99993896484
  31
0.0
   0
ARC
   5
111
 100
AcDbEntity
   8
LEVEL001
   6
CONTINUOUS
  62
7
 100
AcDbCircle
  10
 690.00000000000
  20
 848.99993896484
  30
0.0
  40
 2.0000000000000
 100
AcDbArc
  50
 90.000000000000
  51
 180.00000000008
   0
ARC
   5
112
 100
AcDbEntity
   8
LEVEL001
   6
CONTINUOUS
  62
7
 100
AcDbCircle
  10
 690.00000000000
  20
 846.99993896484
  30
0.0
  40
 2.0000000000000
 100
AcDbArc
  50
 180.00000000000
  51
 270.00000000015
   0
LINE
   5
113
 100
AcDbEntity
   8
LEVEL001
 100
AcDbLine
   6
CONTINUOUS
  62
7
  10
 688.00000000000
  20
 848.99993896484
  30
0.0
  11
 688.00000000000
  21
 846.99993896484
  31
0.0
   0
LINE
   5
114
 100
AcDbEntity
   8
LEVEL001
 100
AcDbLine
   6
CONTINUOUS
  62
7
  10
 715.00000000000
  20
 852.99993896484
  30
0.0
  11
 713.00000000000
  21
 850.99993896484
  31
0.0
   0
LINE
   5
115
 100
AcDbEntity
   8
LEVEL001
 100
AcDbLine
   6
CONTINUOUS
  62
7
  10
 713.00000000000
  20
 954.99993896484
  30
0.0
  11
 715.00000000000
  21
 952.99993896484
  31
0.0
   0
LINE
   5
116
 100
AcDbEntity
   8
LEVEL001
 100
AcDbLine
   6
CONTINUOUS
  62
7
  10
 715.00000000000
  20
 952.99993896484
  30
0.0
  11
 715.00000000000
  21
 852.99993896484
  31
0.0
   0
LINE
   5
117
 100
AcDbEntity
   8
LEVEL001
 100
AcDbLine
   6
CONTINUOUS
  62
7
  10
 485.00000000000
  20
 853.00000000000
  30
0.0
  11
 487.00000000000
  21
 851.00000000000
  31
0.0
   0
LINE
   5
118
 100
AcDbEntity
   8
LEVEL001
 100
AcDbLine
   6
CONTINUOUS
  62
7
  10
 485.00003051758
  20
 953.00000000000
  30
0.0
  11
 485.00000000000
  21
 853.00000000000
  31
0.0
   0
LINE
   5
119
 100
AcDbEntity
   8
LEVEL001
 100
AcDbLine
   6
CONTINUOUS
  62
7
  10
 487.00003051758
  20
 955.00000000000
  30
0.0
  11
 485.00003051758
  21
 953.00000000000
  31
0.0
   0
LINE
   5
11A
 100
AcDbEntity
   8
LEVEL001
 100
AcDbLine
   6
CONTINUOUS
  62
7
  10
 487.00003051758
  20
 955.00000000000
  30
0.0
  11
 713.00000000000
  21
 954.99993896484
  31
0.0
   0
LINE
   5
11B
 100
AcDbEntity
   8
LEVEL001
 100
AcDbLine
   6
DASHDOT
  62
1
  10
 600.00000000000
  20
 980.00000000000
  30
0.0
  11
 600.00000000000
  21
 159.99996948242
  31
0.0
   0
DIMENSION
   5
11C
 100
AcDbEntity
   8
LEVEL003
   6
CONTINUOUS
  62
3
 100
AcDbDimension
   2
*D1
  10
 340.00000000000
  20
 740.00000000000
  30
0.0
  11
 340.00000000000
  21
 790.00000000000
  31
0.0
  70
128
   1
\A1;100
   3
GMM001
 100
AcDbAlignedDimension
  13
 407.50000000000
  23
 840.00000000000
  33
0.0
  14
 404.00000000000
  24
 740.00000000000
  34
0.0
  50
 270.00000000000
 100
AcDbRotatedDimension
   0
DIMENSION
   5
11E
 100
AcDbEntity
   8
LEVEL003
   6
CONTINUOUS
  62
3
 100
AcDbDimension
   2
*D2
  10
 300.00000000000
  20
 740.00000000000
  30
0.0
  11
 300.00000000000
  21
 847.50000000000
  31
0.0
  70
128
   1
\A1;215
   3
GMM001
 100
AcDbAlignedDimension
  13
 487.00003051758
  23
 955.00000000000
  33
0.0
  14
 404.00000000000
  24
 740.00000000000
  34
0.0
  50
 270.00000000000
 100
AcDbRotatedDimension
   0
DIMENSION
   5
120
 100
AcDbEntity
   8
LEVEL003
   6
CONTINUOUS
  62
3
 100
AcDbDimension
   2
*D3
  10
 715.00000000000
  20
 1020.0000000000
  30
0.0
  11
 600.00000000000
  21
 1020.0000000000
  31
0.0
  70
128
   1
\A1;%%c230
   3
GMM002
 100
AcDbAlignedDimension
  13
 485.00003051758
  23
 953.00000000000
  33
0.0
  14
 715.00000000000
  24
 952.99993896484
  34
0.0
 100
AcDbRotatedDimension
   0
TEXT
   5
122
 100
AcDbEntity
   8
LEVEL003
  62
3
 100
AcDbText
  10
 800.00000000000
  20
 960.00000000000
  30
0.0
  40
 16.000000000000
   1
Ｍ１８０×４
   7
STANDARD
 100
AcDbText
   0
LEADER
   5
123
 100
AcDbEntity
   8
LEVEL003
   6
CONTINUOUS
  62
3
 100
AcDbLeader
   3
GMM003
  73
0
  74
1
  75
0
  40
 16.000000000000
  41
0.0
  76
3
  10
 690.00000000000
  20
 900.00000000000
  30
0.0
  10
 800.00000000000
  20
 960.00000000000
  30
0.0
  10
 900.00000000000
  20
 960.00000000000
  30
0.0
  77
3
   0
LINE
   5
124
 100
AcDbEntity
   8
LEVEL001
 100
AcDbLine
   6
DOT
  62
3
  10
 590.00000000000
  20
 677.99993896484
  30
0.0
  11
 589.00000000000
  21
 678.99993896484
  31
0.0
   0
LINE
   5
125
 100
AcDbEntity
   8
LEVEL001
 100
AcDbLine
   6
DOT
  62
3
  10
 610.00000000000
  20
 641.99993896484
  30
0.0
  11
 611.00000000000
  21
 640.99993896484
  31
0.0
   0
CIRCLE
   5
126
 100
AcDbEntity
   8
LEVEL001
 100
AcDbCircle
   6
DASHDOT
  62
1
  10
 600.00000000000
  20
 615.99993896484
  30
0.0
  40
 44.000000000000
   0
LINE
   5
127
 100
AcDbEntity
   8
LEVEL001
 100
AcDbLine
   6
CONTINUOUS
  62
7
  10
 796.50000000000
  20
 839.99993896484
  30
0.0
  11
 796.50000000000
  21
 834.99993896484
  31
0.0
   0
LINE
   5
128
 100
AcDbEntity
   8
LEVEL001
 100
AcDbLine
   6
CONTINUOUS
  62
3
  10
 797.50000000000
  20
 739.99993896484
  30
0.0
  11
 800.00000000000
  21
 730.66979980469
  31
0.0
   0
LINE
   5
129
 100
AcDbEntity
   8
LEVEL001
 100
AcDbLine
   6
DASHDOT
  62
1
  10
 803.00000000000
  20
 739.99993896484
  30
0.0
  11
 800.00000000000
  21
 739.99993896484
  31
0.0
   0
LINE
   5
12A
 100
AcDbEntity
   8
LEVEL001
 100
AcDbLine
   6
DASHDOT
  62
1
  10
 800.00000000000
  20
 834.99993896484
  30
0.0
  11
 800.00000000000
  21
 832.49993896484
  31
0.0
   0
LINE
   5
12B
 100
AcDbEntity
   8
LEVEL001
 100
AcDbLine
   6
DASHDOT
  62
1
  10
 800.00000000000
  20
 834.99993896484
  30
0.0
  11
 803.00000000000
  21
 834.99993896484
  31
0.0
   0
LINE
   5
12C
 100
AcDbEntity
   8
LEVEL001
 100
AcDbLine
   6
DASHDOT
  62
1
  10
 803.00000000000
  20
 834.99993896484
  30
0.0
  11
 803.00000000000
  21
 739.99993896484
  31
0.0
   0
LINE
   5
12D
 100
AcDbEntity
   8
LEVEL001
 100
AcDbLine
   6
CONTINUOUS
  62
7
  10
 491.50000000000
  20
 844.99993896484
  30
0.0
  11
 490.00000000000
  21
 839.99993896484
  31
0.0
   0
DIMENSION
   5
12E
 100
AcDbEntity
   8
LEVEL003
   6
CONTINUOUS
  62
3
 100
AcDbDimension
   2
*D5
  10
 710.00000000000
  20
 540.00000000000
  30
0.0
  11
 600.00000000000
  21
 540.00000000000
  31
0.0
  70
0
   1
\A1;%%c220
   3
GMM004
 100
AcDbAlignedDimension
  13
 490.00000000000
  23
 540.00000000000
  33
0.0
  14
 710.00000000000
  24
 540.00000000000
  34
0.0
 100
AcDbRotatedDimension
   0
DIMENSION
   5
130
 100
AcDbEntity
   8
LEVEL003
   6
CONTINUOUS
  62
3
 100
AcDbDimension
   2
*D6
  10
 750.00000000000
  20
 500.00000000000
  30
0.0
  11
 600.00000000000
  21
 500.00000000000
  31
0.0
  70
0
   1
\A1;%%c300
   3
GMM004
 100
AcDbAlignedDimension
  13
 450.00000000000
  23
 500.00000000000
  33
0.0
  14
 750.00000000000
  24
 500.00000000000
  34
0.0
 100
AcDbRotatedDimension
   0
LINE
   5
132
 100
AcDbEntity
   8
LEVEL001
 100
AcDbLine
   6
CONTINUOUS
  62
3
  10
 809.59069824219
  20
 655.71984863281
  30
0.0
  11
 809.59075927734
  21
 680.28002929687
  31
0.0
   0
LINE
   5
133
 100
AcDbEntity
   8
LEVEL001
 100
AcDbLine
   6
CONTINUOUS
  62
3
  10
 814.50000000000
  20
 681.59545898437
  30
0.0
  11
 809.59075927734
  21
 680.28002929687
  31
0.0
   0
LINE
   5
134
 100
AcDbEntity
   8
LEVEL001
 100
AcDbLine
   6
CONTINUOUS
  62
3
  10
 814.50000000000
  20
 654.40441894531
  30
0.0
  11
 809.59069824219
  21
 655.71984863281
  31
0.0
   0
LINE
   5
135
 100
AcDbEntity
   8
LEVEL001
 100
AcDbLine
   6
CONTINUOUS
  62
7
  10
 818.50000000000
  20
 660.51660156250
  30
0.0
  11
 828.50000000000
  21
 675.48327636719
  31
0.0
   0
LINE
   5
136
 100
AcDbEntity
   8
LEVEL001
 100
AcDbLine
   6
CONTINUOUS
  62
7
  10
 828.50000000000
  20
 660.51660156250
  30
0.0
  11
 818.50000000000
  21
 675.48327636719
  31
0.0
   0
LINE
   5
137
 100
AcDbEntity
   8
LEVEL001
 100
AcDbLine
   6
CONTINUOUS
  62
7
  10
 818.50000000000
  20
 652.99993896484
  30
0.0
  11
 818.50000000000
  21
 660.51660156250
  31
0.0
   0
LINE
   5
138
 100
AcDbEntity
   8
LEVEL001
 100
AcDbLine
   6
CONTINUOUS
  62
7
  10
 818.50000000000
  20
 675.48327636719
  30
0.0
  11
 818.50000000000
  21
 682.99993896484
  31
0.0
   0
LINE
   5
139
 100
AcDbEntity
   8
LEVEL001
 100
AcDbLine
   6
CONTINUOUS
  62
7
  10
 837.50000000000
  20
 645.49993896484
  30
0.0
  11
 837.50000000000
  21
 690.49993896484
  31
0.0
   0
LINE
   5
13A
 100
AcDbEntity
   8
LEVEL001
 100
AcDbLine
   6
CONTINUOUS
  62
7
  10
 837.50000000000
  20
 690.49993896484
  30
0.0
  11
 854.50000000000
  21
 690.49993896484
  31
0.0
   0
LINE
   5
13B
 100
AcDbEntity
   8
LEVEL001
 100
AcDbLine
   6
CONTINUOUS
  62
7
  10
 854.50000000000
  20
 690.49993896484
  30
0.0
  11
 854.50000000000
  21
 645.49993896484
  31
0.0
   0
LINE
   5
13C
 100
AcDbEntity
   8
LEVEL001
 100
AcDbLine
   6
CONTINUOUS
  62
7
  10
 854.50000000000
  20
 645.49993896484
  30
0.0
  11
 837.50000000000
  21
 645.49993896484
  31
0.0
   0
ARC
   5
13D
 100
AcDbEntity
   8
LEVEL001
   6
CONTINUOUS
  62
7
 100
AcDbCircle
  10
 832.50000000000
  20
 687.99993896484
  30
0.0
  40
 2.0000000000000
 100
AcDbArc
  50
 90.000000000000
  51
 180.00000000012
   0
LINE
   5
13E
 100
AcDbEntity
   8
LEVEL001
 100
AcDbLine
   6
CONTINUOUS
  62
7
  10
 832.50000000000
  20
 689.99993896484
  30
0.0
  11
 837.50000000000
  21
 689.99993896484
  31
0.0
   0
ARC
   5
13F
 100
AcDbEntity
   8
LEVEL001
   6
CONTINUOUS
  62
7
 100
AcDbCircle
  10
 832.50000000000
  20
 647.99993896484
  30
0.0
  40
 2.0000000000000
 100
AcDbArc
  50
 180.00000000000
  51
 270.00000000001
   0
LINE
   5
140
 100
AcDbEntity
   8
LEVEL001
 100
AcDbLine
   6
CONTINUOUS
  62
7
  10
 830.50000000000
  20
 647.99993896484
  30
0.0
  11
 830.50000000000
  21
 687.99993896484
  31
0.0
   0
LINE
   5
141
 100
AcDbEntity
   8
LEVEL001
 100
AcDbLine
   6
CONTINUOUS
  62
7
  10
 832.50000000000
  20
 645.99993896484
  30
0.0
  11
 837.50000000000
  21
 645.99993896484
  31
0.0
   0
ARC
   5
142
 100
AcDbEntity
   8
LEVEL001
   6
CONTINUOUS
  62
7
 100
AcDbCircle
  10
 860.50000000000
  20
 646.99993896484
  30
0.0
  40
 1.0000000000000
 100
AcDbArc
  50
 270.00000000000
  51
0.0
   0
LINE
   5
143
 100
AcDbEntity
   8
LEVEL001
 100
AcDbLine
   6
CONTINUOUS
  62
7
  10
 860.50000000000
  20
 645.99993896484
  30
0.0
  11
 854.50000000000
  21
 645.99993896484
  31
0.0
   0
ARC
   5
144
 100
AcDbEntity
   8
LEVEL001
   6
CONTINUOUS
  62
7
 100
AcDbCircle
  10
 860.50000000000
  20
 688.99993896484
  30
0.0
  40
 1.0000000000000
 100
AcDbArc
  50
0.0
  51
 89.999999999792
   0
LINE
   5
145
 100
AcDbEntity
   8
LEVEL001
 100
AcDbLine
   6
CONTINUOUS
  62
7
  10
 860.50000000000
  20
 689.99993896484
  30
0.0
  11
 854.50000000000
  21
 689.99993896484
  31
0.0
   0
LINE
   5
146
 100
AcDbEntity
   8
LEVEL001
 100
AcDbLine
   6
CONTINUOUS
  62
7
  10
 861.50000000000
  20
 646.99993896484
  30
0.0
  11
 861.50000000000
  21
 688.99993896484
  31
0.0
   0
LINE
   5
147
 100
AcDbEntity
   8
LEVEL001
 100
AcDbLine
   6
CONTINUOUS
  62
3
  10
 837.50000000000
  20
 648.49993896484
  30
0.0
  11
 854.50000000000
  21
 648.49993896484
  31
0.0
   0
LINE
   5
148
 100
AcDbEntity
   8
LEVEL001
 100
AcDbLine
   6
CONTINUOUS
  62
3
  10
 837.50000000000
  20
 651.49993896484
  30
0.0
  11
 854.50000000000
  21
 651.49993896484
  31
0.0
   0
LINE
   5
149
 100
AcDbEntity
   8
LEVEL001
 100
AcDbLine
   6
CONTINUOUS
  62
3
  10
 837.50000000000
  20
 654.49993896484
  30
0.0
  11
 854.50000000000
  21
 654.49993896484
  31
0.0
   0
LINE
   5
14A
 100
AcDbEntity
   8
LEVEL001
 100
AcDbLine
   6
CONTINUOUS
  62
3
  10
 837.50000000000
  20
 657.49993896484
  30
0.0
  11
 854.50000000000
  21
 657.49993896484
  31
0.0
   0
LINE
   5
14B
 100
AcDbEntity
   8
LEVEL001
 100
AcDbLine
   6
CONTINUOUS
  62
3
  10
 837.50000000000
  20
 660.49993896484
  30
0.0
  11
 854.50000000000
  21
 660.49993896484
  31
0.0
   0
LINE
   5
14C
 100
AcDbEntity
   8
LEVEL001
 100
AcDbLine
   6
CONTINUOUS
  62
3
  10
 837.50000000000
  20
 663.49993896484
  30
0.0
  11
 854.50000000000
  21
 663.49993896484
  31
0.0
   0
LINE
   5
14D
 100
AcDbEntity
   8
LEVEL001
 100
AcDbLine
   6
CONTINUOUS
  62
3
  10
 837.50000000000
  20
 666.49993896484
  30
0.0
  11
 854.50000000000
  21
 666.49993896484
  31
0.0
   0
LINE
   5
14E
 100
AcDbEntity
   8
LEVEL001
 100
AcDbLine
   6
CONTINUOUS
  62
3
  10
 837.50000000000
  20
 669.49993896484
  30
0.0
  11
 854.50000000000
  21
 669.49993896484
  31
0.0
   0
LINE
   5
14F
 100
AcDbEntity
   8
LEVEL001
 100
AcDbLine
   6
CONTINUOUS
  62
3
  10
 837.50000000000
  20
 672.49993896484
  30
0.0
  11
 854.50000000000
  21
 672.49993896484
  31
0.0
   0
LINE
   5
150
 100
AcDbEntity
   8
LEVEL001
 100
AcDbLine
   6
CONTINUOUS
  62
3
  10
 837.50000000000
  20
 675.49993896484
  30
0.0
  11
 854.50000000000
  21
 675.49993896484
  31
0.0
   0
LINE
   5
151
 100
AcDbEntity
   8
LEVEL001
 100
AcDbLine
   6
CONTINUOUS
  62
3
  10
 837.50000000000
  20
 678.49993896484
  30
0.0
  11
 854.50000000000
  21
 678.49993896484
  31
0.0
   0
LINE
   5
152
 100
AcDbEntity
   8
LEVEL001
 100
AcDbLine
   6
CONTINUOUS
  62
3
  10
 837.50000000000
  20
 681.49993896484
  30
0.0
  11
 854.50000000000
  21
 681.49993896484
  31
0.0
   0
LINE
   5
153
 100
AcDbEntity
   8
LEVEL001
 100
AcDbLine
   6
CONTINUOUS
  62
3
  10
 837.50000000000
  20
 684.49993896484
  30
0.0
  11
 854.50000000000
  21
 684.49993896484
  31
0.0
   0
LINE
   5
154
 100
AcDbEntity
   8
LEVEL001
 100
AcDbLine
   6
CONTINUOUS
  62
3
  10
 837.50000000000
  20
 687.49993896484
  30
0.0
  11
 854.50000000000
  21
 687.49993896484
  31
0.0
   0
LINE
   5
155
 100
AcDbEntity
   8
LEVEL001
 100
AcDbLine
   6
DASHDOT
  62
1
  10
 869.00000000000
  20
 690.49993896484
  30
0.0
  11
 869.50000000000
  21
 689.99993896484
  31
0.0
   0
LINE
   5
156
 100
AcDbEntity
   8
LEVEL001
 100
AcDbLine
   6
DASHDOT
  62
1
  10
 861.50000000000
  20
 689.99993896484
  30
0.0
  11
 862.00000000000
  21
 690.49993896484
  31
0.0
   0
LINE
   5
157
 100
AcDbEntity
   8
LEVEL001
 100
AcDbLine
   6
DASHDOT
  62
1
  10
 861.50000000000
  20
 688.99993896484
  30
0.0
  11
 861.50000000000
  21
 689.99993896484
  31
0.0
   0
LINE
   5
158
 100
AcDbEntity
   8
LEVEL001
 100
AcDbLine
   6
DASHDOT
  62
1
  10
 862.00000000000
  20
 690.49993896484
  30
0.0
  11
 869.00000000000
  21
 690.49993896484
  31
0.0
   0
LINE
   5
159
 100
AcDbEntity
   8
LEVEL001
 100
AcDbLine
   6
DASHDOT
  62
1
  10
 861.50000000000
  20
 645.99993896484
  30
0.0
  11
 862.00000000000
  21
 645.49993896484
  31
0.0
   0
LINE
   5
15A
 100
AcDbEntity
   8
LEVEL001
 100
AcDbLine
   6
DASHDOT
  62
1
  10
 869.00000000000
  20
 645.49993896484
  30
0.0
  11
 869.50000000000
  21
 645.99993896484
  31
0.0
   0
LINE
   5
15B
 100
AcDbEntity
   8
LEVEL001
 100
AcDbLine
   6
DASHDOT
  62
1
  10
 869.50000000000
  20
 645.99993896484
  30
0.0
  11
 869.50000000000
  21
 689.99993896484
  31
0.0
   0
LINE
   5
15C
 100
AcDbEntity
   8
LEVEL001
 100
AcDbLine
   6
DASHDOT
  62
1
  10
 862.00000000000
  20
 645.49993896484
  30
0.0
  11
 869.00000000000
  21
 645.49993896484
  31
0.0
   0
LINE
   5
15D
 100
AcDbEntity
   8
LEVEL001
 100
AcDbLine
   6
DASHDOT
  62
1
  10
 861.50000000000
  20
 646.99993896484
  30
0.0
  11
 861.50000000000
  21
 645.99993896484
  31
0.0
   0
LINE
   5
15E
 100
AcDbEntity
   8
LEVEL001
 100
AcDbLine
   6
CONTINUOUS
  62
7
  10
 814.50000000000
  20
 664.02020263672
  30
0.0
  11
 818.50000000000
  21
 660.51660156250
  31
0.0
   0
LINE
   5
15F
 100
AcDbEntity
   8
LEVEL001
 100
AcDbLine
   6
CONTINUOUS
  62
7
  10
 818.50000000000
  20
 660.51660156250
  30
0.0
  11
 828.50000000000
  21
 660.51660156250
  31
0.0
   0
LINE
   5
160
 100
AcDbEntity
   8
LEVEL001
 100
AcDbLine
   6
CONTINUOUS
  62
7
  10
 828.50000000000
  20
 660.51660156250
  30
0.0
  11
 828.50000000000
  21
 675.48327636719
  31
0.0
   0
LINE
   5
161
 100
AcDbEntity
   8
LEVEL001
 100
AcDbLine
   6
CONTINUOUS
  62
7
  10
 828.50000000000
  20
 675.48327636719
  30
0.0
  11
 818.50000000000
  21
 675.48327636719
  31
0.0
   0
LINE
   5
162
 100
AcDbEntity
   8
LEVEL001
 100
AcDbLine
   6
CONTINUOUS
  62
7
  10
 818.50000000000
  20
 675.48327636719
  30
0.0
  11
 814.50000000000
  21
 671.97973632812
  31
0.0
   0
LINE
   5
163
 100
AcDbEntity
   8
LEVEL001
 100
AcDbLine
   6
CONTINUOUS
  62
7
  10
 830.50000000000
  20
 652.99993896484
  30
0.0
  11
 818.50000000000
  21
 652.99993896484
  31
0.0
   0
LINE
   5
164
 100
AcDbEntity
   8
LEVEL001
 100
AcDbLine
   6
CONTINUOUS
  62
7
  10
 818.50000000000
  20
 652.99993896484
  30
0.0
  11
 814.50000000000
  21
 654.40441894531
  31
0.0
   0
LINE
   5
165
 100
AcDbEntity
   8
LEVEL001
 100
AcDbLine
   6
CONTINUOUS
  62
7
  10
 814.50000000000
  20
 654.40441894531
  30
0.0
  11
 814.50000000000
  21
 681.59545898437
  31
0.0
   0
LINE
   5
166
 100
AcDbEntity
   8
LEVEL001
 100
AcDbLine
   6
CONTINUOUS
  62
7
  10
 814.50000000000
  20
 681.59545898437
  30
0.0
  11
 818.50000000000
  21
 682.99993896484
  31
0.0
   0
LINE
   5
167
 100
AcDbEntity
   8
LEVEL001
 100
AcDbLine
   6
CONTINUOUS
  62
7
  10
 818.50000000000
  20
 682.99993896484
  30
0.0
  11
 830.50000000000
  21
 682.99993896484
  31
0.0
   0
LINE
   5
168
 100
AcDbEntity
   8
LEVEL001
 100
AcDbLine
   6
CONTINUOUS
  62
3
  10
 809.59069824219
  20
 244.71987915039
  30
0.0
  11
 809.59075927734
  21
 269.28005981445
  31
0.0
   0
LINE
   5
169
 100
AcDbEntity
   8
LEVEL001
 100
AcDbLine
   6
CONTINUOUS
  62
3
  10
 814.50000000000
  20
 270.59548950195
  30
0.0
  11
 809.59075927734
  21
 269.28005981445
  31
0.0
   0
LINE
   5
16A
 100
AcDbEntity
   8
LEVEL001
 100
AcDbLine
   6
CONTINUOUS
  62
3
  10
 814.50000000000
  20
 243.40444946289
  30
0.0
  11
 809.59069824219
  21
 244.71987915039
  31
0.0
   0
LINE
   5
16B
 100
AcDbEntity
   8
LEVEL001
 100
AcDbLine
   6
CONTINUOUS
  62
7
  10
 818.50000000000
  20
 249.51663208008
  30
0.0
  11
 828.50000000000
  21
 264.48330688477
  31
0.0
   0
LINE
   5
16C
 100
AcDbEntity
   8
LEVEL001
 100
AcDbLine
   6
CONTINUOUS
  62
7
  10
 828.50000000000
  20
 249.51663208008
  30
0.0
  11
 818.50000000000
  21
 264.48330688477
  31
0.0
   0
LINE
   5
16D
 100
AcDbEntity
   8
LEVEL001
 100
AcDbLine
   6
CONTINUOUS
  62
7
  10
 818.50000000000
  20
 241.99996948242
  30
0.0
  11
 818.50000000000
  21
 249.51663208008
  31
0.0
   0
LINE
   5
16E
 100
AcDbEntity
   8
LEVEL001
 100
AcDbLine
   6
CONTINUOUS
  62
7
  10
 818.50000000000
  20
 264.48330688477
  30
0.0
  11
 818.50000000000
  21
 271.99996948242
  31
0.0
   0
LINE
   5
16F
 100
AcDbEntity
   8
LEVEL001
 100
AcDbLine
   6
CONTINUOUS
  62
7
  10
 837.50000000000
  20
 234.49996948242
  30
0.0
  11
 837.50000000000
  21
 279.49996948242
  31
0.0
   0
LINE
   5
170
 100
AcDbEntity
   8
LEVEL001
 100
AcDbLine
   6
CONTINUOUS
  62
7
  10
 837.50000000000
  20
 279.49996948242
  30
0.0
  11
 854.50000000000
  21
 279.49996948242
  31
0.0
   0
LINE
   5
171
 100
AcDbEntity
   8
LEVEL001
 100
AcDbLine
   6
CONTINUOUS
  62
7
  10
 854.50000000000
  20
 279.49996948242
  30
0.0
  11
 854.50000000000
  21
 234.49996948242
  31
0.0
   0
LINE
   5
172
 100
AcDbEntity
   8
LEVEL001
 100
AcDbLine
   6
CONTINUOUS
  62
7
  10
 854.50000000000
  20
 234.49996948242
  30
0.0
  11
 837.50000000000
  21
 234.49996948242
  31
0.0
   0
ARC
   5
173
 100
AcDbEntity
   8
LEVEL001
   6
CONTINUOUS
  62
7
 100
AcDbCircle
  10
 832.50000000000
  20
 276.99996948242
  30
0.0
  40
 2.0000000000000
 100
AcDbArc
  50
 90.000000000000
  51
 180.00000000006
   0
LINE
   5
174
 100
AcDbEntity
   8
LEVEL001
 100
AcDbLine
   6
CONTINUOUS
  62
7
  10
 832.50000000000
  20
 278.99996948242
  30
0.0
  11
 837.50000000000
  21
 278.99996948242
  31
0.0
   0
ARC
   5
175
 100
AcDbEntity
   8
LEVEL001
   6
CONTINUOUS
  62
7
 100
AcDbCircle
  10
 832.50000000000
  20
 236.99996948242
  30
0.0
  40
 2.0000000000000
 100
AcDbArc
  50
 180.00000000000
  51
 269.99999999991
   0
LINE
   5
176
 100
AcDbEntity
   8
LEVEL001
 100
AcDbLine
   6
CONTINUOUS
  62
7
  10
 830.50000000000
  20
 236.99996948242
  30
0.0
  11
 830.50000000000
  21
 276.99996948242
  31
0.0
   0
LINE
   5
177
 100
AcDbEntity
   8
LEVEL001
 100
AcDbLine
   6
CONTINUOUS
  62
7
  10
 832.50000000000
  20
 234.99996948242
  30
0.0
  11
 837.50000000000
  21
 234.99996948242
  31
0.0
   0
ARC
   5
178
 100
AcDbEntity
   8
LEVEL001
   6
CONTINUOUS
  62
7
 100
AcDbCircle
  10
 860.50000000000
  20
 235.99993896484
  30
0.0
  40
 1.0000000000000
 100
AcDbArc
  50
 270.00000000000
  51
0.0
   0
LINE
   5
179
 100
AcDbEntity
   8
LEVEL001
 100
AcDbLine
   6
CONTINUOUS
  62
7
  10
 860.50000000000
  20
 234.99993896484
  30
0.0
  11
 854.50000000000
  21
 234.99996948242
  31
0.0
   0
ARC
   5
17A
 100
AcDbEntity
   8
LEVEL001
   6
CONTINUOUS
  62
7
 100
AcDbCircle
  10
 860.50000000000
  20
 277.99993896484
  30
0.0
  40
 1.0000000000000
 100
AcDbArc
  50
0.0
  51
 89.999999999779
   0
LINE
   5
17B
 100
AcDbEntity
   8
LEVEL001
 100
AcDbLine
   6
CONTINUOUS
  62
7
  10
 860.50000000000
  20
 278.99993896484
  30
0.0
  11
 854.50000000000
  21
 278.99996948242
  31
0.0
   0
LINE
   5
17C
 100
AcDbEntity
   8
LEVEL001
 100
AcDbLine
   6
CONTINUOUS
  62
7
  10
 861.50000000000
  20
 235.99993896484
  30
0.0
  11
 861.50000000000
  21
 277.99993896484
  31
0.0
   0
LINE
   5
17D
 100
AcDbEntity
   8
LEVEL001
 100
AcDbLine
   6
CONTINUOUS
  62
3
  10
 837.50000000000
  20
 237.49996948242
  30
0.0
  11
 854.50000000000
  21
 237.49996948242
  31
0.0
   0
LINE
   5
17E
 100
AcDbEntity
   8
LEVEL001
 100
AcDbLine
   6
CONTINUOUS
  62
3
  10
 837.50000000000
  20
 240.49996948242
  30
0.0
  11
 854.50000000000
  21
 240.49996948242
  31
0.0
   0
LINE
   5
17F
 100
AcDbEntity
   8
LEVEL001
 100
AcDbLine
   6
CONTINUOUS
  62
3
  10
 837.50000000000
  20
 243.49996948242
  30
0.0
  11
 854.50000000000
  21
 243.49996948242
  31
0.0
   0
LINE
   5
180
 100
AcDbEntity
   8
LEVEL001
 100
AcDbLine
   6
CONTINUOUS
  62
3
  10
 837.50000000000
  20
 246.49996948242
  30
0.0
  11
 854.50000000000
  21
 246.49996948242
  31
0.0
   0
LINE
   5
181
 100
AcDbEntity
   8
LEVEL001
 100
AcDbLine
   6
CONTINUOUS
  62
3
  10
 837.50000000000
  20
 249.49996948242
  30
0.0
  11
 854.50000000000
  21
 249.49996948242
  31
0.0
   0
LINE
   5
182
 100
AcDbEntity
   8
LEVEL001
 100
AcDbLine
   6
CONTINUOUS
  62
3
  10
 837.50000000000
  20
 252.49996948242
  30
0.0
  11
 854.50000000000
  21
 252.49996948242
  31
0.0
   0
LINE
   5
183
 100
AcDbEntity
   8
LEVEL001
 100
AcDbLine
   6
CONTINUOUS
  62
3
  10
 837.50000000000
  20
 255.49996948242
  30
0.0
  11
 854.50000000000
  21
 255.49996948242
  31
0.0
   0
LINE
   5
184
 100
AcDbEntity
   8
LEVEL001
 100
AcDbLine
   6
CONTINUOUS
  62
3
  10
 837.50000000000
  20
 258.49996948242
  30
0.0
  11
 854.50000000000
  21
 258.49996948242
  31
0.0
   0
LINE
   5
185
 100
AcDbEntity
   8
LEVEL001
 100
AcDbLine
   6
CONTINUOUS
  62
3
  10
 837.50000000000
  20
 261.49996948242
  30
0.0
  11
 854.50000000000
  21
 261.49996948242
  31
0.0
   0
LINE
   5
186
 100
AcDbEntity
   8
LEVEL001
 100
AcDbLine
   6
CONTINUOUS
  62
3
  10
 837.50000000000
  20
 264.49996948242
  30
0.0
  11
 854.50000000000
  21
 264.49996948242
  31
0.0
   0
LINE
   5
187
 100
AcDbEntity
   8
LEVEL001
 100
AcDbLine
   6
CONTINUOUS
  62
3
  10
 837.50000000000
  20
 267.49996948242
  30
0.0
  11
 854.50000000000
  21
 267.49996948242
  31
0.0
   0
LINE
   5
188
 100
AcDbEntity
   8
LEVEL001
 100
AcDbLine
   6
CONTINUOUS
  62
3
  10
 837.50000000000
  20
 270.49996948242
  30
0.0
  11
 854.50000000000
  21
 270.49996948242
  31
0.0
   0
LINE
   5
189
 100
AcDbEntity
   8
LEVEL001
 100
AcDbLine
   6
CONTINUOUS
  62
3
  10
 837.50000000000
  20
 273.49996948242
  30
0.0
  11
 854.50000000000
  21
 273.49996948242
  31
0.0
   0
LINE
   5
18A
 100
AcDbEntity
   8
LEVEL001
 100
AcDbLine
   6
CONTINUOUS
  62
3
  10
 837.50000000000
  20
 276.49996948242
  30
0.0
  11
 854.50000000000
  21
 276.49996948242
  31
0.0
   0
LINE
   5
18B
 100
AcDbEntity
   8
LEVEL001
 100
AcDbLine
   6
DASHDOT
  62
1
  10
 869.00000000000
  20
 279.49993896484
  30
0.0
  11
 869.50000000000
  21
 278.99993896484
  31
0.0
   0
LINE
   5
18C
 100
AcDbEntity
   8
LEVEL001
 100
AcDbLine
   6
DASHDOT
  62
1
  10
 861.50000000000
  20
 278.99993896484
  30
0.0
  11
 862.00000000000
  21
 279.49993896484
  31
0.0
   0
LINE
   5
18D
 100
AcDbEntity
   8
LEVEL001
 100
AcDbLine
   6
DASHDOT
  62
1
  10
 861.50000000000
  20
 277.99993896484
  30
0.0
  11
 861.50000000000
  21
 278.99993896484
  31
0.0
   0
LINE
   5
18E
 100
AcDbEntity
   8
LEVEL001
 100
AcDbLine
   6
DASHDOT
  62
1
  10
 862.00000000000
  20
 279.49993896484
  30
0.0
  11
 869.00000000000
  21
 279.49993896484
  31
0.0
   0
LINE
   5
18F
 100
AcDbEntity
   8
LEVEL001
 100
AcDbLine
   6
DASHDOT
  62
1
  10
 861.50000000000
  20
 234.99993896484
  30
0.0
  11
 862.00000000000
  21
 234.49993896484
  31
0.0
   0
LINE
   5
190
 100
AcDbEntity
   8
LEVEL001
 100
AcDbLine
   6
DASHDOT
  62
1
  10
 869.00000000000
  20
 234.49993896484
  30
0.0
  11
 869.50000000000
  21
 234.99993896484
  31
0.0
   0
LINE
   5
191
 100
AcDbEntity
   8
LEVEL001
 100
AcDbLine
   6
DASHDOT
  62
1
  10
 869.50000000000
  20
 234.99993896484
  30
0.0
  11
 869.50000000000
  21
 278.99993896484
  31
0.0
   0
LINE
   5
192
 100
AcDbEntity
   8
LEVEL001
 100
AcDbLine
   6
DASHDOT
  62
1
  10
 862.00000000000
  20
 234.49993896484
  30
0.0
  11
 869.00000000000
  21
 234.49993896484
  31
0.0
   0
LINE
   5
193
 100
AcDbEntity
   8
LEVEL001
 100
AcDbLine
   6
DASHDOT
  62
1
  10
 861.50000000000
  20
 235.99993896484
  30
0.0
  11
 861.50000000000
  21
 234.99993896484
  31
0.0
   0
LINE
   5
194
 100
AcDbEntity
   8
LEVEL001
 100
AcDbLine
   6
CONTINUOUS
  62
7
  10
 814.50000000000
  20
 253.02023315430
  30
0.0
  11
 818.50000000000
  21
 249.51663208008
  31
0.0
   0
LINE
   5
195
 100
AcDbEntity
   8
LEVEL001
 100
AcDbLine
   6
CONTINUOUS
  62
7
  10
 818.50000000000
  20
 249.51663208008
  30
0.0
  11
 828.50000000000
  21
 249.51663208008
  31
0.0
   0
LINE
   5
196
 100
AcDbEntity
   8
LEVEL001
 100
AcDbLine
   6
CONTINUOUS
  62
7
  10
 828.50000000000
  20
 249.51663208008
  30
0.0
  11
 828.50000000000
  21
 264.48330688477
  31
0.0
   0
LINE
   5
197
 100
AcDbEntity
   8
LEVEL001
 100
AcDbLine
   6
CONTINUOUS
  62
7
  10
 828.50000000000
  20
 264.48330688477
  30
0.0
  11
 818.50000000000
  21
 264.48330688477
  31
0.0
   0
LINE
   5
198
 100
AcDbEntity
   8
LEVEL001
 100
AcDbLine
   6
CONTINUOUS
  62
7
  10
 818.50000000000
  20
 264.48330688477
  30
0.0
  11
 814.50000000000
  21
 260.97976684570
  31
0.0
   0
LINE
   5
199
 100
AcDbEntity
   8
LEVEL001
 100
AcDbLine
   6
CONTINUOUS
  62
7
  10
 830.50000000000
  20
 241.99996948242
  30
0.0
  11
 818.50000000000
  21
 241.99996948242
  31
0.0
   0
LINE
   5
19A
 100
AcDbEntity
   8
LEVEL001
 100
AcDbLine
   6
CONTINUOUS
  62
7
  10
 818.50000000000
  20
 241.99996948242
  30
0.0
  11
 814.50000000000
  21
 243.40444946289
  31
0.0
   0
LINE
   5
19B
 100
AcDbEntity
   8
LEVEL001
 100
AcDbLine
   6
CONTINUOUS
  62
7
  10
 814.50000000000
  20
 243.40444946289
  30
0.0
  11
 814.50000000000
  21
 270.59548950195
  31
0.0
   0
LINE
   5
19C
 100
AcDbEntity
   8
LEVEL001
 100
AcDbLine
   6
CONTINUOUS
  62
7
  10
 814.50000000000
  20
 270.59548950195
  30
0.0
  11
 818.50000000000
  21
 271.99996948242
  31
0.0
   0
LINE
   5
19D
 100
AcDbEntity
   8
LEVEL001
 100
AcDbLine
   6
CONTINUOUS
  62
7
  10
 818.50000000000
  20
 271.99996948242
  30
0.0
  11
 830.50000000000
  21
 271.99996948242
  31
0.0
   0
LINE
   5
19E
 100
AcDbEntity
   8
LEVEL001
 100
AcDbLine
   6
CONTINUOUS
  62
7
  10
 802.50000000000
  20
 184.99995422363
  30
0.0
  11
 797.50000000000
  21
 179.99995422363
  31
0.0
   0
LINE
   5
19F
 100
AcDbEntity
   8
LEVEL001
 100
AcDbLine
   6
DASHDOT
  62
1
  10
 750.00000000000
  20
 667.99993896484
  30
0.0
  11
 877.50000000000
  21
 667.99993896484
  31
0.0
   0
LINE
   5
1A0
 100
AcDbEntity
   8
LEVEL001
 100
AcDbLine
   6
CONTINUOUS
  62
7
  10
 797.50000000000
  20
 834.99993896484
  30
0.0
  11
 800.00000000000
  21
 832.49993896484
  31
0.0
   0
LINE
   5
1A1
 100
AcDbEntity
   8
LEVEL001
 100
AcDbLine
   6
CONTINUOUS
  62
7
  10
 800.00000000000
  20
 832.49993896484
  30
0.0
  11
 800.00000000000
  21
 725.99993896484
  31
0.0
   0
ARC
   5
1A2
 100
AcDbEntity
   8
LEVEL001
   6
CONTINUOUS
  62
7
 100
AcDbCircle
  10
 801.00000000000
  20
 725.99993896484
  30
0.0
  40
 1.0000000000000
 100
AcDbArc
  50
 180.00000000000
  51
 270.00000000021
   0
LINE
   5
1A3
 100
AcDbEntity
   8
LEVEL001
 100
AcDbLine
   6
CONTINUOUS
  62
7
  10
 801.50000000000
  20
 724.99993896484
  30
0.0
  11
 802.50000000000
  21
 723.99993896484
  31
0.0
   0
LINE
   5
1A4
 100
AcDbEntity
   8
LEVEL001
 100
AcDbLine
   6
DASHDOT
  62
1
  10
 394.50001625624
  20
 675.00000000000
  30
0.0
  11
 445.00000000000
  21
 675.00000000000
  31
0.0
   0
LINE
   5
1A5
 100
AcDbEntity
   8
LEVEL001
 100
AcDbLine
   6
DOT
  62
3
  10
 398.25001625624
  20
 670.75000000000
  30
0.0
  11
 398.25001625624
  21
 679.25000000000
  31
0.0
   0
LINE
   5
1A6
 100
AcDbEntity
   8
LEVEL001
 100
AcDbLine
   6
DOT
  62
3
  10
 397.50001625624
  20
 670.00000000000
  30
0.0
  11
 398.25001625624
  21
 670.75000000000
  31
0.0
   0
LINE
   5
1A7
 100
AcDbEntity
   8
LEVEL001
 100
AcDbLine
   6
DOT
  62
3
  10
 398.25001625624
  20
 670.75000000000
  30
0.0
  11
 412.29905800429
  21
 670.75000000000
  31
0.0
   0
LINE
   5
1A8
 100
AcDbEntity
   8
LEVEL001
 100
AcDbLine
   6
DOT
  62
3
  10
 412.29905800429
  20
 670.75000000000
  30
0.0
  11
 413.59806923475
  21
 672.99993896484
  31
0.0
   0
LINE
   5
1A9
 100
AcDbEntity
   8
LEVEL001
 100
AcDbLine
   6
DOT
  62
3
  10
 413.59806923475
  20
 677.00006103516
  30
0.0
  11
 412.29905800429
  21
 679.25000000000
  31
0.0
   0
LINE
   5
1AA
 100
AcDbEntity
   8
LEVEL001
 100
AcDbLine
   6
DOT
  62
3
  10
 412.29905800429
  20
 679.25000000000
  30
0.0
  11
 398.25001625624
  21
 679.25000000000
  31
0.0
   0
LINE
   5
1AB
 100
AcDbEntity
   8
LEVEL001
 100
AcDbLine
   6
DOT
  62
3
  10
 398.25001625624
  20
 679.25000000000
  30
0.0
  11
 397.50001625624
  21
 680.00000000000
  31
0.0
   0
CIRCLE
   5
1AC
 100
AcDbEntity
   8
LEVEL001
 100
AcDbCircle
   6
DOT
  62
3
  10
 411.36207680311
  20
 675.00000000000
  30
0.0
  40
 3.0000014305115
   0
LINE
   5
1AD
 100
AcDbEntity
   8
LEVEL001
 100
AcDbLine
   6
DOT
  62
3
  10
 408.36207680311
  20
 670.75000000000
  30
0.0
  11
 407.61207680311
  21
 670.00000000000
  31
0.0
   0
LINE
   5
1AE
 100
AcDbEntity
   8
LEVEL001
 100
AcDbLine
   6
DOT
  62
3
  10
 407.61207680311
  20
 670.00000000000
  30
0.0
  11
 399.11207680311
  21
 670.00000000000
  31
0.0
   0
LINE
   5
1AF
 100
AcDbEntity
   8
LEVEL001
 100
AcDbLine
   6
DOT
  62
3
  10
 399.11207680311
  20
 670.00000000000
  30
0.0
  11
 398.36207680311
  21
 670.75000000000
  31
0.0
   0
LINE
   5
1B0
 100
AcDbEntity
   8
LEVEL001
 100
AcDbLine
   6
DOT
  62
3
  10
 398.36207680311
  20
 670.75000000000
  30
0.0
  11
 398.36207680311
  21
 679.25000000000
  31
0.0
   0
LINE
   5
1B1
 100
AcDbEntity
   8
LEVEL001
 100
AcDbLine
   6
DOT
  62
3
  10
 398.36207680311
  20
 679.25000000000
  30
0.0
  11
 399.11207680311
  21
 680.00000000000
  31
0.0
   0
LINE
   5
1B2
 100
AcDbEntity
   8
LEVEL001
 100
AcDbLine
   6
DOT
  62
3
  10
 399.11207680311
  20
 680.00000000000
  30
0.0
  11
 407.61207680311
  21
 680.00000000000
  31
0.0
   0
LINE
   5
1B3
 100
AcDbEntity
   8
LEVEL001
 100
AcDbLine
   6
DOT
  62
3
  10
 407.61207680311
  20
 680.00000000000
  30
0.0
  11
 408.36207680311
  21
 679.25000000000
  31
0.0
   0
LINE
   5
1B4
 100
AcDbEntity
   8
LEVEL001
 100
AcDbLine
   6
DOT
  62
3
  10
 408.36207680311
  20
 679.25000000000
  30
0.0
  11
 408.36207680311
  21
 670.75000000000
  31
0.0
   0
LINE
   5
1B5
 100
AcDbEntity
   8
LEVEL001
 100
AcDbLine
   6
DOT
  62
3
  10
 407.61207680311
  20
 670.00000000000
  30
0.0
  11
 407.61207680311
  21
 680.00000000000
  31
0.0
   0
LINE
   5
1B6
 100
AcDbEntity
   8
LEVEL001
 100
AcDbLine
   6
DOT
  62
3
  10
 399.11207680311
  20
 680.00000000000
  30
0.0
  11
 399.11207680311
  21
 670.00000000000
  31
0.0
   0
LINE
   5
1B7
 100
AcDbEntity
   8
LEVEL001
 100
AcDbLine
   6
DOT
  62
3
  10
 397.50001625624
  20
 670.00000000000
  30
0.0
  11
 399.11207680311
  21
 670.00000000000
  31
0.0
   0
LINE
   5
1B8
 100
AcDbEntity
   8
LEVEL001
 100
AcDbLine
   6
DOT
  62
3
  10
 407.61207680311
  20
 670.00000000000
  30
0.0
  11
 409.50001625624
  21
 670.00000000000
  31
0.0
   0
LINE
   5
1B9
 100
AcDbEntity
   8
LEVEL001
 100
AcDbLine
   6
DOT
  62
3
  10
 409.50001625624
  20
 670.00000000000
  30
0.0
  11
 412.29905800429
  21
 670.75000000000
  31
0.0
   0
LINE
   5
1BA
 100
AcDbEntity
   8
LEVEL001
 100
AcDbLine
   6
DOT
  62
3
  10
 412.29905800429
  20
 679.25000000000
  30
0.0
  11
 409.50001625624
  21
 680.00000000000
  31
0.0
   0
LINE
   5
1BB
 100
AcDbEntity
   8
LEVEL001
 100
AcDbLine
   6
DOT
  62
3
  10
 409.50001625624
  20
 680.00000000000
  30
0.0
  11
 407.61207680311
  21
 680.00000000000
  31
0.0
   0
LINE
   5
1BC
 100
AcDbEntity
   8
LEVEL001
 100
AcDbLine
   6
DOT
  62
3
  10
 399.11207680311
  20
 680.00000000000
  30
0.0
  11
 397.50001625624
  21
 680.00000000000
  31
0.0
   0
LINE
   5
1BD
 100
AcDbEntity
   8
LEVEL001
 100
AcDbLine
   6
DOT
  62
3
  10
 409.50001625624
  20
 670.00000000000
  30
0.0
  11
 409.50001625624
  21
 672.64782714844
  31
0.0
   0
LINE
   5
1BE
 100
AcDbEntity
   8
LEVEL001
 100
AcDbLine
   6
DOT
  62
3
  10
 409.50001625624
  20
 677.35217285156
  30
0.0
  11
 409.50001625624
  21
 680.00000000000
  31
0.0
   0
LINE
   5
1BF
 100
AcDbEntity
   8
LEVEL001
 100
AcDbLine
   6
DOT
  62
3
  10
 412.29905800429
  20
 670.75000000000
  30
0.0
  11
 412.29905800429
  21
 672.15008544922
  31
0.0
   0
LINE
   5
1C0
 100
AcDbEntity
   8
LEVEL001
 100
AcDbLine
   6
DOT
  62
3
  10
 412.29905800429
  20
 677.84991455078
  30
0.0
  11
 412.29905800429
  21
 679.25000000000
  31
0.0
   0
LINE
   5
1C1
 100
AcDbEntity
   8
LEVEL001
 100
AcDbLine
   6
DOT
  62
3
  10
 413.59806923475
  20
 673.00000000000
  30
0.0
  11
 445.00000000000
  21
 673.00000000000
  31
0.0
   0
LINE
   5
1C2
 100
AcDbEntity
   8
LEVEL001
 100
AcDbLine
   6
DOT
  62
3
  10
 445.00000000000
  20
 677.00000000000
  30
0.0
  11
 413.59809975233
  21
 677.00000000000
  31
0.0
   0
LINE
   5
1C3
 100
AcDbEntity
   8
LEVEL001
 100
AcDbLine
   6
DASHDOT
  62
1
  10
 394.50001625624
  20
 252.99996948242
  30
0.0
  11
 445.00000000000
  21
 252.99996948242
  31
0.0
   0
LINE
   5
1C4
 100
AcDbEntity
   8
LEVEL001
 100
AcDbLine
   6
DOT
  62
3
  10
 398.25001625624
  20
 248.74996948242
  30
0.0
  11
 398.25001625624
  21
 257.24996948242
  31
0.0
   0
LINE
   5
1C5
 100
AcDbEntity
   8
LEVEL001
 100
AcDbLine
   6
DOT
  62
3
  10
 397.50001625624
  20
 247.99996948242
  30
0.0
  11
 398.25001625624
  21
 248.74996948242
  31
0.0
   0
LINE
   5
1C6
 100
AcDbEntity
   8
LEVEL001
 100
AcDbLine
   6
DOT
  62
3
  10
 398.25001625624
  20
 248.74996948242
  30
0.0
  11
 412.29905800429
  21
 248.74996948242
  31
0.0
   0
LINE
   5
1C7
 100
AcDbEntity
   8
LEVEL001
 100
AcDbLine
   6
DOT
  62
3
  10
 412.29905800429
  20
 248.74996948242
  30
0.0
  11
 413.59806923475
  21
 250.99990844727
  31
0.0
   0
LINE
   5
1C8
 100
AcDbEntity
   8
LEVEL001
 100
AcDbLine
   6
DOT
  62
3
  10
 413.59806923475
  20
 255.00003051758
  30
0.0
  11
 412.29905800429
  21
 257.24996948242
  31
0.0
   0
LINE
   5
1C9
 100
AcDbEntity
   8
LEVEL001
 100
AcDbLine
   6
DOT
  62
3
  10
 412.29905800429
  20
 257.24996948242
  30
0.0
  11
 398.25001625624
  21
 257.24996948242
  31
0.0
   0
LINE
   5
1CA
 100
AcDbEntity
   8
LEVEL001
 100
AcDbLine
   6
DOT
  62
3
  10
 398.25001625624
  20
 257.24996948242
  30
0.0
  11
 397.50001625624
  21
 257.99996948242
  31
0.0
   0
CIRCLE
   5
1CB
 100
AcDbEntity
   8
LEVEL001
 100
AcDbCircle
   6
DOT
  62
3
  10
 411.36207680311
  20
 252.99996948242
  30
0.0
  40
 3.0000014305115
   0
LINE
   5
1CC
 100
AcDbEntity
   8
LEVEL001
 100
AcDbLine
   6
DOT
  62
3
  10
 408.36207680311
  20
 248.74996948242
  30
0.0
  11
 407.61207680311
  21
 247.99996948242
  31
0.0
   0
LINE
   5
1CD
 100
AcDbEntity
   8
LEVEL001
 100
AcDbLine
   6
DOT
  62
3
  10
 407.61207680311
  20
 247.99996948242
  30
0.0
  11
 399.11207680311
  21
 247.99996948242
  31
0.0
   0
LINE
   5
1CE
 100
AcDbEntity
   8
LEVEL001
 100
AcDbLine
   6
DOT
  62
3
  10
 399.11207680311
  20
 247.99996948242
  30
0.0
  11
 398.36207680311
  21
 248.74996948242
  31
0.0
   0
LINE
   5
1CF
 100
AcDbEntity
   8
LEVEL001
 100
AcDbLine
   6
DOT
  62
3
  10
 398.36207680311
  20
 248.74996948242
  30
0.0
  11
 398.36207680311
  21
 257.24993896484
  31
0.0
   0
LINE
   5
1D0
 100
AcDbEntity
   8
LEVEL001
 100
AcDbLine
   6
DOT
  62
3
  10
 398.36207680311
  20
 257.24993896484
  30
0.0
  11
 399.11207680311
  21
 257.99993896484
  31
0.0
   0
LINE
   5
1D1
 100
AcDbEntity
   8
LEVEL001
 100
AcDbLine
   6
DOT
  62
3
  10
 399.11207680311
  20
 257.99993896484
  30
0.0
  11
 407.61207680311
  21
 257.99993896484
  31
0.0
   0
LINE
   5
1D2
 100
AcDbEntity
   8
LEVEL001
 100
AcDbLine
   6
DOT
  62
3
  10
 407.61207680311
  20
 257.99993896484
  30
0.0
  11
 408.36207680311
  21
 257.24993896484
  31
0.0
   0
LINE
   5
1D3
 100
AcDbEntity
   8
LEVEL001
 100
AcDbLine
   6
DOT
  62
3
  10
 408.36207680311
  20
 257.24993896484
  30
0.0
  11
 408.36207680311
  21
 248.74996948242
  31
0.0
   0
LINE
   5
1D4
 100
AcDbEntity
   8
LEVEL001
 100
AcDbLine
   6
DOT
  62
3
  10
 407.61207680311
  20
 247.99996948242
  30
0.0
  11
 407.61207680311
  21
 257.99993896484
  31
0.0
   0
LINE
   5
1D5
 100
AcDbEntity
   8
LEVEL001
 100
AcDbLine
   6
DOT
  62
3
  10
 399.11207680311
  20
 257.99993896484
  30
0.0
  11
 399.11207680311
  21
 247.99996948242
  31
0.0
   0
LINE
   5
1D6
 100
AcDbEntity
   8
LEVEL001
 100
AcDbLine
   6
DOT
  62
3
  10
 397.50001625624
  20
 247.99996948242
  30
0.0
  11
 399.11207680311
  21
 247.99996948242
  31
0.0
   0
LINE
   5
1D7
 100
AcDbEntity
   8
LEVEL001
 100
AcDbLine
   6
DOT
  62
3
  10
 407.61207680311
  20
 247.99996948242
  30
0.0
  11
 409.50001625624
  21
 247.99996948242
  31
0.0
   0
LINE
   5
1D8
 100
AcDbEntity
   8
LEVEL001
 100
AcDbLine
   6
DOT
  62
3
  10
 409.50001625624
  20
 247.99996948242
  30
0.0
  11
 412.29905800429
  21
 248.74996948242
  31
0.0
   0
LINE
   5
1D9
 100
AcDbEntity
   8
LEVEL001
 100
AcDbLine
   6
DOT
  62
3
  10
 412.29905800429
  20
 257.24996948242
  30
0.0
  11
 409.50001625624
  21
 257.99996948242
  31
0.0
   0
LINE
   5
1DA
 100
AcDbEntity
   8
LEVEL001
 100
AcDbLine
   6
DOT
  62
3
  10
 409.50001625624
  20
 257.99996948242
  30
0.0
  11
 407.61207680311
  21
 257.99996948242
  31
0.0
   0
LINE
   5
1DB
 100
AcDbEntity
   8
LEVEL001
 100
AcDbLine
   6
DOT
  62
3
  10
 399.11207680311
  20
 257.99996948242
  30
0.0
  11
 397.50001625624
  21
 257.99996948242
  31
0.0
   0
LINE
   5
1DC
 100
AcDbEntity
   8
LEVEL001
 100
AcDbLine
   6
DOT
  62
3
  10
 409.50001625624
  20
 247.99996948242
  30
0.0
  11
 409.50001625624
  21
 250.64779663086
  31
0.0
   0
LINE
   5
1DD
 100
AcDbEntity
   8
LEVEL001
 100
AcDbLine
   6
DOT
  62
3
  10
 409.50001625624
  20
 255.35214233398
  30
0.0
  11
 409.50001625624
  21
 257.99996948242
  31
0.0
   0
LINE
   5
1DE
 100
AcDbEntity
   8
LEVEL001
 100
AcDbLine
   6
DOT
  62
3
  10
 412.29905800429
  20
 248.74996948242
  30
0.0
  11
 412.29905800429
  21
 250.15005493164
  31
0.0
   0
LINE
   5
1DF
 100
AcDbEntity
   8
LEVEL001
 100
AcDbLine
   6
DOT
  62
3
  10
 412.29905800429
  20
 255.84988403320
  30
0.0
  11
 412.29905800429
  21
 257.24996948242
  31
0.0
   0
LINE
   5
1E0
 100
AcDbEntity
   8
LEVEL001
 100
AcDbLine
   6
DOT
  62
3
  10
 413.59806923475
  20
 250.99996948242
  30
0.0
  11
 445.00000000000
  21
 250.99981689453
  31
0.0
   0
LINE
   5
1E1
 100
AcDbEntity
   8
LEVEL001
 100
AcDbLine
   6
DOT
  62
3
  10
 445.00000000000
  20
 254.99981689453
  30
0.0
  11
 413.59809975233
  21
 254.99996948242
  31
0.0
   0
LINE
   5
1E2
 100
AcDbEntity
   8
LEVEL001
 100
AcDbLine
   6
CONTINUOUS
  62
7
  10
 397.49998573866
  20
 184.99996948242
  30
0.0
  11
 402.49998573866
  21
 179.99996948242
  31
0.0
   0
DIMENSION
   5
1E3
 100
AcDbEntity
   8
LEVEL003
   6
CONTINUOUS
  62
3
 100
AcDbDimension
   2
*D7
  10
 240.00000000000
  20
 179.99996948242
  30
0.0
  11
 240.00000000000
  21
 567.50000000000
  31
0.0
  70
128
   1
\A1;775
   3
GMM005
 100
AcDbAlignedDimension
  13
 487.00003051758
  23
 955.00000000000
  33
0.0
  14
 402.49998573866
  24
 179.99996948242
  34
0.0
  50
 270.00000000000
 100
AcDbRotatedDimension
   0
LINE
   5
1E5
 100
AcDbEntity
   8
LEVEL001
 100
AcDbLine
   6
CONTINUOUS
  62
7
  10
 402.49998573866
  20
 179.99996948242
  30
0.0
  11
 797.50000000000
  21
 179.99996948242
  31
0.0
   0
LINE
   5
1E6
 100
AcDbEntity
   8
LEVEL001
 100
AcDbLine
   6
CONTINUOUS
  62
7
  10
 397.50000000000
  20
 723.99993896484
  30
0.0
  11
 397.50000000000
  21
 184.99996948242
  31
0.0
   0
DIMENSION
   5
1E7
 100
AcDbEntity
   8
LEVEL003
   6
CONTINUOUS
  62
3
 100
AcDbDimension
   2
*D8
  10
 802.50000000000
  20
 460.00000000000
  30
0.0
  11
 600.00000000000
  21
 460.00000000000
  31
0.0
  70
128
   1
\A1;%%c405
   3
GMM006
 100
AcDbAlignedDimension
  13
 397.50000000000
  23
 460.00000000000
  33
0.0
  14
 802.50000000000
  24
 460.00000000000
  34
0.0
 100
AcDbRotatedDimension
   0
DIMENSION
   5
1E9
 100
AcDbEntity
   8
LEVEL003
   6
CONTINUOUS
  62
3
 100
AcDbDimension
   2
*D9
  10
 920.00000000000
  20
 256.99993896484
  30
0.0
  11
 920.00000000000
  21
 218.49993896484
  31
0.0
  70
128
   1
\A1;77
   3
GMM007
 100
AcDbAlignedDimension
  13
 797.50000000000
  23
 179.99995422363
  33
0.0
  14
 877.50000000000
  24
 256.99993896484
  34
0.0
  50
 90.000000000000
 100
AcDbRotatedDimension
   0
DIMENSION
   5
1EB
 100
AcDbEntity
   8
LEVEL003
   6
CONTINUOUS
  62
3
 100
AcDbDimension
   2
*D10
  10
 920.00000000000
  20
 667.99993896484
  30
0.0
  11
 920.00000000000
  21
 462.49993896484
  31
0.0
  70
128
   1
\A1;411
   3
GMM001
 100
AcDbAlignedDimension
  13
 877.50000000000
  23
 256.99993896484
  33
0.0
  14
 877.50000000000
  24
 667.99993896484
  34
0.0
  50
 90.000000000000
 100
AcDbRotatedDimension
   0
ARC
   5
1ED
 100
AcDbEntity
   8
LEVEL001
   6
CONTINUOUS
  62
7
 100
AcDbCircle
  10
 599.99993712606
  20
 615.99993896479
  30
0.0
  40
 37.500000000000
 100
AcDbArc
  50
 107.05752313567
  51
 72.942275895132
   0
LINE
   5
1EE
 100
AcDbEntity
   8
LEVEL001
 100
AcDbLine
   6
CONTINUOUS
  62
7
  10
 590.00000000000
  20
 641.99993896484
  30
0.0
  11
 589.00000000000
  21
 640.99993896484
  31
0.0
   0
LINE
   5
1EF
 100
AcDbEntity
   8
LEVEL001
 100
AcDbLine
   6
CONTINUOUS
  62
7
  10
 600.00000000000
  20
 677.99993896484
  30
0.0
  11
 590.00000000000
  21
 677.99993896484
  31
0.0
   0
LINE
   5
1F0
 100
AcDbEntity
   8
LEVEL001
 100
AcDbLine
   6
CONTINUOUS
  62
7
  10
 590.00000000000
  20
 677.99993896484
  30
0.0
  11
 590.00000000000
  21
 641.99993896484
  31
0.0
   0
LINE
   5
1F1
 100
AcDbEntity
   8
LEVEL001
 100
AcDbLine
   6
CONTINUOUS
  62
7
  10
 590.00000000000
  20
 641.99993896484
  30
0.0
  11
 600.00000000000
  21
 641.99993896484
  31
0.0
   0
LINE
   5
1F2
 100
AcDbEntity
   8
LEVEL001
 100
AcDbLine
   6
CONTINUOUS
  62
7
  10
 600.00000000000
  20
 678.99993896484
  30
0.0
  11
 589.00000000000
  21
 678.99993896484
  31
0.0
   0
LINE
   5
1F3
 100
AcDbEntity
   8
LEVEL001
 100
AcDbLine
   6
CONTINUOUS
  62
7
  10
 589.00000000000
  20
 678.99993896484
  30
0.0
  11
 589.00000000000
  21
 640.99993896484
  31
0.0
   0
LINE
   5
1F4
 100
AcDbEntity
   8
LEVEL001
 100
AcDbLine
   6
CONTINUOUS
  62
7
  10
 589.00000000000
  20
 640.99993896484
  30
0.0
  11
 600.00000000000
  21
 640.99993896484
  31
0.0
   0
ARC
   5
1F5
 100
AcDbEntity
   8
LEVEL001
   6
CONTINUOUS
  62
7
 100
AcDbCircle
  10
 600.00003485896
  20
 615.99993896483
  30
0.0
  40
 50.500000000000
 100
AcDbArc
  50
 102.58116844332
  51
 77.418912602548
   0
LINE
   5
1F6
 100
AcDbEntity
   8
LEVEL001
 100
AcDbLine
   6
CONTINUOUS
  62
7
  10
 610.00000000000
  20
 677.99993896484
  30
0.0
  11
 611.00000000000
  21
 678.99993896484
  31
0.0
   0
LINE
   5
1F7
 100
AcDbEntity
   8
LEVEL001
 100
AcDbLine
   6
CONTINUOUS
  62
7
  10
 600.00000000000
  20
 677.99993896484
  30
0.0
  11
 610.00000000000
  21
 677.99993896484
  31
0.0
   0
LINE
   5
1F8
 100
AcDbEntity
   8
LEVEL001
 100
AcDbLine
   6
CONTINUOUS
  62
7
  10
 610.00000000000
  20
 677.99993896484
  30
0.0
  11
 610.00000000000
  21
 641.99993896484
  31
0.0
   0
LINE
   5
1F9
 100
AcDbEntity
   8
LEVEL001
 100
AcDbLine
   6
CONTINUOUS
  62
7
  10
 610.00000000000
  20
 641.99993896484
  30
0.0
  11
 600.00000000000
  21
 641.99993896484
  31
0.0
   0
LINE
   5
1FA
 100
AcDbEntity
   8
LEVEL001
 100
AcDbLine
   6
CONTINUOUS
  62
7
  10
 600.00000000000
  20
 678.99993896484
  30
0.0
  11
 611.00000000000
  21
 678.99993896484
  31
0.0
   0
LINE
   5
1FB
 100
AcDbEntity
   8
LEVEL001
 100
AcDbLine
   6
CONTINUOUS
  62
7
  10
 611.00000000000
  20
 678.99993896484
  30
0.0
  11
 611.00000000000
  21
 640.99993896484
  31
0.0
   0
LINE
   5
1FC
 100
AcDbEntity
   8
LEVEL001
 100
AcDbLine
   6
CONTINUOUS
  62
7
  10
 611.00000000000
  20
 640.99993896484
  30
0.0
  11
 600.00000000000
  21
 640.99993896484
  31
0.0
   0
LINE
   5
1FD
 100
AcDbEntity
   8
LEVEL001
 100
AcDbLine
   6
DOT
  62
3
  10
 690.00000000000
  20
 850.99993896484
  30
0.0
  11
 688.00000000000
  21
 852.99993896484
  31
0.0
   0
ARC
   5
1FE
 100
AcDbEntity
   8
LEVEL001
   6
DOT
  62
3
 100
AcDbCircle
  10
 688.00000000001
  20
 917.99993896484
  30
0.0
  40
 2.0000000000000
 100
AcDbArc
  50
0.0
  51
 90.000000000195
   0
LINE
   5
1FF
 100
AcDbEntity
   8
LEVEL001
 100
AcDbLine
   6
DOT
  62
3
  10
 688.00000000000
  20
 919.99993896484
  30
0.0
  11
 512.00000000000
  21
 919.99993896484
  31
0.0
   0
LINE
   5
200
 100
AcDbEntity
   8
LEVEL001
 100
AcDbLine
   6
DOT
  62
3
  10
 688.00000000000
  20
 919.99993896484
  30
0.0
  11
 690.00000000000
  21
 917.99993896484
  31
0.0
   0
LINE
   5
201
 100
AcDbEntity
   8
LEVEL001
 100
AcDbLine
   6
DOT
  62
3
  10
 690.00000000000
  20
 917.99993896484
  30
0.0
  11
 690.00000000000
  21
 850.99993896484
  31
0.0
   0
LINE
   5
202
 100
AcDbEntity
   8
LEVEL001
 100
AcDbLine
   6
DOT
  62
3
  10
 688.00000000000
  20
 850.99993896484
  30
0.0
  11
 688.00000000000
  21
 919.99993896484
  31
0.0
   0
LINE
   5
203
 100
AcDbEntity
   8
LEVEL001
 100
AcDbLine
   6
DOT
  62
3
  10
 710.00000000000
  20
 384.99996948242
  30
0.0
  11
 710.00000000000
  21
 839.99993896484
  31
0.0
   0
LINE
   5
204
 100
AcDbEntity
   8
LEVEL001
 100
AcDbLine
   6
DOT
  62
3
  10
 750.00000000000
  20
 714.99993896484
  30
0.0
  11
 750.00000000000
  21
 269.99996948242
  31
0.0
   0
LINE
   5
205
 100
AcDbEntity
   8
LEVEL001
 100
AcDbLine
   6
DOT
  62
3
  10
 490.00000000000
  20
 384.99996948242
  30
0.0
  11
 490.00000000000
  21
 839.99993896484
  31
0.0
   0
LINE
   5
206
 100
AcDbEntity
   8
LEVEL001
 100
AcDbLine
   6
DOT
  62
3
  10
 450.00000000000
  20
 714.99993896484
  30
0.0
  11
 450.00000000000
  21
 269.99996948242
  31
0.0
   0
DIMENSION
   5
207
 100
AcDbEntity
   8
LEVEL003
   6
CONTINUOUS
  62
3
 100
AcDbDimension
   2
*D11
  10
 340.00000000000
  20
 919.99993896484
  30
0.0
  11
 340.00000000000
  21
 937.50000000000
  31
0.0
  70
128
   1
\A1;35
   3
GMM007
 100
AcDbAlignedDimension
  13
 487.00003051758
  23
 955.00000000000
  33
0.0
  14
 512.00000000000
  24
 919.99993896484
  34
0.0
  50
 270.00000000000
 100
AcDbRotatedDimension
   0
DIMENSION
   5
209
 100
AcDbEntity
   8
LEVEL003
   6
CONTINUOUS
  62
3
 100
AcDbDimension
   2
*D12
  10
 340.00000000000
  20
 845.00000000000
  30
0.0
  11
 340.00000000000
  21
 882.50000000000
  31
0.0
  70
128
   1
\A1;75
   3
GMM001
 100
AcDbAlignedDimension
  13
 512.00000000000
  23
 919.99993896484
  33
0.0
  14
 491.50000000000
  24
 845.00000000000
  34
0.0
  50
 270.00000000000
 100
AcDbRotatedDimension
   0
LINE
   5
20B
 100
AcDbEntity
   8
LEVEL001
 100
AcDbLine
   6
CONTINUOUS
  62
7
  10
 708.50000000000
  20
 844.99993896484
  30
0.0
  11
 600.00000000000
  21
 844.99993896484
  31
0.0
   0
LINE
   5
20C
 100
AcDbEntity
   8
LEVEL001
 100
AcDbLine
   6
CONTINUOUS
  62
7
  10
 600.00000000000
  20
 850.99993896484
  30
0.0
  11
 713.00000000000
  21
 850.99993896484
  31
0.0
   0
LINE
   5
20D
 100
AcDbEntity
   8
LEVEL001
 100
AcDbLine
   6
CONTINUOUS
  62
7
  10
 600.00000000000
  20
 834.99993896484
  30
0.0
  11
 797.50000000000
  21
 834.99993896484
  31
0.0
   0
LINE
   5
20E
 100
AcDbEntity
   8
LEVEL001
 100
AcDbLine
   6
CONTINUOUS
  62
3
  10
 797.50000000000
  20
 834.99993896484
  30
0.0
  11
 797.50000000000
  21
 739.99993896484
  31
0.0
   0
LINE
   5
20F
 100
AcDbEntity
   8
LEVEL001
 100
AcDbLine
   6
CONTINUOUS
  62
3
  10
 600.00000000000
  20
 739.99993896484
  30
0.0
  11
 800.00000000000
  21
 739.99993896484
  31
0.0
   0
LINE
   5
210
 100
AcDbEntity
   8
LEVEL001
 100
AcDbLine
   6
CONTINUOUS
  62
7
  10
 600.00000000000
  20
 839.99993896484
  30
0.0
  11
 796.50000000000
  21
 839.99993896484
  31
0.0
   0
LINE
   5
211
 100
AcDbEntity
   8
LEVEL001
 100
AcDbLine
   6
CONTINUOUS
  62
7
  10
 600.00000000000
  20
 724.99993896484
  30
0.0
  11
 801.50000000000
  21
 724.99993896484
  31
0.0
   0
LINE
   5
212
 100
AcDbEntity
   8
LEVEL001
 100
AcDbLine
   6
CONTINUOUS
  62
7
  10
 802.50000000000
  20
 723.99993896484
  30
0.0
  11
 802.50000000000
  21
 184.99995422363
  31
0.0
   0
LINE
   5
213
 100
AcDbEntity
   8
LEVEL001
 100
AcDbLine
   6
CONTINUOUS
  62
3
  10
 802.50000000000
  20
 244.94148630983
  30
0.0
  11
 809.59069824219
  21
 244.71987915039
  31
0.0
   0
LINE
   5
214
 100
AcDbEntity
   8
LEVEL001
 100
AcDbLine
   6
CONTINUOUS
  62
7
  10
 802.50000000000
  20
 243.77945347827
  30
0.0
  11
 814.50000000000
  21
 243.40444946289
  31
0.0
   0
LINE
   5
215
 100
AcDbEntity
   8
LEVEL001
 100
AcDbLine
   6
CONTINUOUS
  62
3
  10
 809.59075927734
  20
 269.28012084961
  30
0.0
  11
 802.50000000000
  21
 269.05846120984
  31
0.0
   0
LINE
   5
216
 100
AcDbEntity
   8
LEVEL001
 100
AcDbLine
   6
CONTINUOUS
  62
7
  10
 802.50000000000
  20
 270.22048548658
  30
0.0
  11
 814.50000000000
  21
 270.59548950195
  31
0.0
   0
LINE
   5
217
 100
AcDbEntity
   8
LEVEL001
 100
AcDbLine
   6
CONTINUOUS
  62
7
  10
 802.50000000000
  20
 681.22045496900
  30
0.0
  11
 814.50000000000
  21
 681.59545898437
  31
0.0
   0
LINE
   5
218
 100
AcDbEntity
   8
LEVEL001
 100
AcDbLine
   6
CONTINUOUS
  62
3
  10
 809.59075927734
  20
 680.28009033203
  30
0.0
  11
 802.50000000000
  21
 680.05843069226
  31
0.0
   0
LINE
   5
219
 100
AcDbEntity
   8
LEVEL001
 100
AcDbLine
   6
CONTINUOUS
  62
7
  10
 802.50000000000
  20
 654.77942296069
  30
0.0
  11
 814.50000000000
  21
 654.40441894531
  31
0.0
   0
LINE
   5
21A
 100
AcDbEntity
   8
LEVEL001
 100
AcDbLine
   6
CONTINUOUS
  62
3
  10
 802.50000000000
  20
 655.94145579225
  30
0.0
  11
 809.59069824219
  21
 655.71984863281
  31
0.0
   0
LINE
   5
21B
 100
AcDbEntity
   8
LEVEL001
 100
AcDbLine
   6
DASHDOT
  62
1
  10
 750.00000000000
  20
 256.99996948242
  30
0.0
  11
 877.50000000000
  21
 256.99996948242
  31
0.0
   0
LEADER
   5
21C
 100
AcDbEntity
   8
LEVEL003
   6
CONTINUOUS
  62
3
 100
AcDbLeader
   3
GMM008
  73
0
  74
1
  75
0
  40
 16.000000000000
  41
0.0
  76
3
  10
 802.50000000000
  20
 243.77945347827
  30
0.0
  10
 855.00000000000
  20
 140.00000000000
  30
0.0
  10
 935.00000000000
  20
 140.00000000000
  30
0.0
  77
3
   0
TEXT
   5
21D
 100
AcDbEntity
   8
LEVEL003
  62
3
 100
AcDbText
  10
 855.00000000000
  20
 140.00000000000
  30
0.0
  40
 16.000000000000
   1
Ｒ３／４
   7
STANDARD
 100
AcDbText
   0
LINE
   5
21E
 100
AcDbEntity
   8
LEVEL001
 100
AcDbLine
   6
CONTINUOUS
  62
7
  10
 802.50000000000
  20
 184.99995422363
  30
0.0
  11
 600.00000000000
  21
 184.99995422363
  31
0.0
   0
LINE
   5
21F
 100
AcDbEntity
   8
LEVEL001
 100
AcDbLine
   6
CONTINUOUS
  62
7
  10
 397.50000000000
  20
 184.99996948242
  30
0.0
  11
 600.00000000000
  21
 184.99996948242
  31
0.0
   0
LINE
   5
220
 100
AcDbEntity
   8
LEVEL001
 100
AcDbLine
   6
CONTINUOUS
  62
7
  10
 715.00000000000
  20
 952.99993896484
  30
0.0
  11
 600.00000000000
  21
 952.99993896484
  31
0.0
   0
LINE
   5
221
 100
AcDbEntity
   8
LEVEL001
 100
AcDbLine
   6
CONTINUOUS
  62
7
  10
 715.00000000000
  20
 852.99993896484
  30
0.0
  11
 600.00000000000
  21
 852.99993896484
  31
0.0
   0
LINE
   5
222
 100
AcDbEntity
   8
LEVEL001
 100
AcDbLine
   6
CONTINUOUS
  62
7
  10
 485.00000000000
  20
 853.00000000000
  30
0.0
  11
 600.00000000000
  21
 853.00000000000
  31
0.0
   0
LINE
   5
223
 100
AcDbEntity
   8
LEVEL001
 100
AcDbLine
   6
CONTINUOUS
  62
7
  10
 485.00003051758
  20
 953.00000000000
  30
0.0
  11
 600.00000000000
  21
 953.00000000000
  31
0.0
   0
ARC
   5
224
 100
AcDbEntity
   8
LEVEL001
   6
CONTINUOUS
  62
7
 100
AcDbCircle
  10
 509.99999999999
  20
 848.99993896484
  30
0.0
  40
 2.0000000000000
 100
AcDbArc
  50
 0.65137759875954E-11
  51
 89.999999999632
   0
ARC
   5
225
 100
AcDbEntity
   8
LEVEL001
   6
CONTINUOUS
  62
7
 100
AcDbCircle
  10
 510.00000000000
  20
 846.99993896484
  30
0.0
  40
 2.0000000000000
 100
AcDbArc
  50
 269.99999999999
  51
0.0
   0
LINE
   5
226
 100
AcDbEntity
   8
LEVEL001
 100
AcDbLine
   6
CONTINUOUS
  62
7
  10
 512.00000000000
  20
 848.99993896484
  30
0.0
  11
 512.00000000000
  21
 846.99993896484
  31
0.0
   0
LINE
   5
227
 100
AcDbEntity
   8
LEVEL001
 100
AcDbLine
   6
CONTINUOUS
  62
7
  10
 491.50000000000
  20
 844.99993896484
  30
0.0
  11
 600.00000000000
  21
 844.99993896484
  31
0.0
   0
LINE
   5
228
 100
AcDbEntity
   8
LEVEL001
 100
AcDbLine
   6
CONTINUOUS
  62
7
  10
 600.00000000000
  20
 834.99993896484
  30
0.0
  11
 402.50000000000
  21
 834.99993896484
  31
0.0
   0
LINE
   5
229
 100
AcDbEntity
   8
LEVEL001
 100
AcDbLine
   6
CONTINUOUS
  62
7
  10
 600.00000000000
  20
 839.99993896484
  30
0.0
  11
 403.50000000000
  21
 839.99993896484
  31
0.0
   0
LINE
   5
22A
 100
AcDbEntity
   8
LEVEL001
 100
AcDbLine
   6
DOT
  62
3
  10
 510.00000000000
  20
 850.99993896484
  30
0.0
  11
 512.00000000000
  21
 852.99993896484
  31
0.0
   0
LINE
   5
22B
 100
AcDbEntity
   8
LEVEL001
 100
AcDbLine
   6
DOT
  62
3
  10
 512.00000000000
  20
 919.99993896484
  30
0.0
  11
 510.00000000000
  21
 917.99993896484
  31
0.0
   0
LINE
   5
22C
 100
AcDbEntity
   8
LEVEL001
 100
AcDbLine
   6
DOT
  62
3
  10
 510.00000000000
  20
 917.99993896484
  30
0.0
  11
 510.00000000000
  21
 850.99993896484
  31
0.0
   0
LINE
   5
22D
 100
AcDbEntity
   8
LEVEL001
 100
AcDbLine
   6
DOT
  62
3
  10
 512.00000000000
  20
 850.99993896484
  30
0.0
  11
 512.00000000000
  21
 919.99993896484
  31
0.0
   0
LINE
   5
22E
 100
AcDbEntity
   8
LEVEL001
 100
AcDbLine
   6
CONTINUOUS
  62
7
  10
 600.00000000000
  20
 850.99993896484
  30
0.0
  11
 487.00000000000
  21
 850.99993896484
  31
0.0
   0
LINE
   5
22F
 100
AcDbEntity
   8
LEVEL001
 100
AcDbLine
   6
CONTINUOUS
  62
7
  10
 485.00000000000
  20
 852.99993896484
  30
0.0
  11
 600.00000000000
  21
 852.99993896484
  31
0.0
   0
ARC
   5
230
 100
AcDbEntity
   8
LEVEL001
   6
DOT
  62
3
 100
AcDbCircle
  10
 512.00000000000
  20
 917.99993896484
  30
0.0
  40
 2.0000000000000
 100
AcDbArc
  50
 90.000000000013
  51
 180.00000000010
   0
LINE
   5
231
 100
AcDbEntity
   8
LEVEL001
 100
AcDbLine
   6
CONTINUOUS
  62
3
  10
 600.00000000000
  20
 739.99993896484
  30
0.0
  11
 400.00000000000
  21
 739.99993896484
  31
0.0
   0
LINE
   5
232
 100
AcDbEntity
   8
LEVEL001
 100
AcDbLine
   6
CONTINUOUS
  62
7
  10
 600.00000000000
  20
 724.99993896484
  30
0.0
  11
 398.50000000000
  21
 724.99993896484
  31
0.0
   0
LINE
   5
233
 100
AcDbEntity
   8
LEVEL001
 100
AcDbLine
   6
CONTINUOUS
  62
3
  10
 402.50000000000
  20
 739.99993896484
  30
0.0
  11
 400.00000000000
  21
 730.66979980469
  31
0.0
   0
LINE
   5
234
 100
AcDbEntity
   8
LEVEL001
 100
AcDbLine
   6
DASHDOT
  62
1
  10
 397.00000000000
  20
 739.99993896484
  30
0.0
  11
 400.00000000000
  21
 739.99993896484
  31
0.0
   0
LINE
   5
235
 100
AcDbEntity
   8
LEVEL001
 100
AcDbLine
   6
DASHDOT
  62
1
  10
 397.00000000000
  20
 834.99993896484
  30
0.0
  11
 397.00000000000
  21
 739.99993896484
  31
0.0
   0
LINE
   5
236
 100
AcDbEntity
   8
LEVEL001
 100
AcDbLine
   6
CONTINUOUS
  62
7
  10
 402.50000000000
  20
 834.99993896484
  30
0.0
  11
 400.00000000000
  21
 832.49993896484
  31
0.0
   0
LINE
   5
237
 100
AcDbEntity
   8
LEVEL001
 100
AcDbLine
   6
CONTINUOUS
  62
7
  10
 400.00000000000
  20
 832.49993896484
  30
0.0
  11
 400.00000000000
  21
 725.99993896484
  31
0.0
   0
ARC
   5
238
 100
AcDbEntity
   8
LEVEL001
   6
CONTINUOUS
  62
7
 100
AcDbCircle
  10
 399.00000000000
  20
 725.99993896483
  30
0.0
  40
 1.0000000000000
 100
AcDbArc
  50
 269.99999999999
  51
 0.35174390333241E-9
   0
LINE
   5
239
 100
AcDbEntity
   8
LEVEL001
 100
AcDbLine
   6
CONTINUOUS
  62
7
  10
 398.50000000000
  20
 724.99993896484
  30
0.0
  11
 397.50000000000
  21
 723.99993896484
  31
0.0
   0
LINE
   5
23A
 100
AcDbEntity
   8
LEVEL001
 100
AcDbLine
   6
CONTINUOUS
  62
3
  10
 402.50000000000
  20
 834.99993896484
  30
0.0
  11
 402.50000000000
  21
 739.99993896484
  31
0.0
   0
LINE
   5
23B
 100
AcDbEntity
   8
LEVEL001
 100
AcDbLine
   6
CONTINUOUS
  62
7
  10
 403.50000000000
  20
 839.99993896484
  30
0.0
  11
 403.50000000000
  21
 834.99993896484
  31
0.0
   0
LINE
   5
23C
 100
AcDbEntity
   8
LEVEL001
 100
AcDbLine
   6
DASHDOT
  62
1
  10
 400.00000000000
  20
 834.99993896484
  30
0.0
  11
 400.00000000000
  21
 832.49993896484
  31
0.0
   0
LINE
   5
23D
 100
AcDbEntity
   8
LEVEL001
 100
AcDbLine
   6
DASHDOT
  62
1
  10
 400.00000000000
  20
 834.99993896484
  30
0.0
  11
 397.00000000000
  21
 834.99993896484
  31
0.0
   0
TEXT
   5
23E
 100
AcDbEntity
   8
LEVEL003
  62
3
 100
AcDbText
  10
 840.00000000000
  20
 820.00000000000
  30
0.0
  40
 16.000000000000
   1
Ｍ４００×６
   7
STANDARD
 100
AcDbText
   0
LEADER
   5
23F
 100
AcDbEntity
   8
LEVEL003
   6
CONTINUOUS
  62
3
 100
AcDbLeader
   3
GMM008
  73
0
  74
1
  75
0
  40
 16.000000000000
  41
0.0
  76
3
  10
 800.00000000000
  20
 800.00000000000
  30
0.0
  10
 844.00000000000
  20
 820.00000000000
  30
0.0
  10
 940.00000000000
  20
 820.00000000000
  30
0.0
  77
3
   0
TEXT
   5
240
 100
AcDbEntity
   8
LEVEL003
  62
7
 100
AcDbText
  10
 1184.9472998800
  20
 86.152437313433
  30
0.0
  40
 30.000000000000
   1
ＯＳＡＫＡ ＪＡＣＫ
   7
STANDARD
 100
AcDbText
   0
CIRCLE
   5
241
 100
AcDbEntity
   8
LEVEL003
 100
AcDbCircle
   6
CONTINUOUS
  62
7
  10
 1123.6080583289
  20
 106.29435282603
  30
0.0
  40
 9.0000000000000
   0
LINE
   5
242
 100
AcDbEntity
   8
LEVEL003
 100
AcDbLine
   6
CONTINUOUS
  62
7
  10
 1141.2720583289
  20
 115.29435282603
  30
0.0
  11
 1129.8450583289
  21
 95.494352826026
  31
0.0
   0
LINE
   5
243
 100
AcDbEntity
   8
LEVEL003
 100
AcDbLine
   6
CONTINUOUS
  62
7
  10
 1129.8450583289
  20
 95.494352826026
  30
0.0
  11
 1106.9820583289
  21
 95.494352826026
  31
0.0
   0
LINE
   5
244
 100
AcDbEntity
   8
LEVEL003
 100
AcDbLine
   6
CONTINUOUS
  62
7
  10
 1104.3810583289
  20
 90.994352826026
  30
0.0
  11
 1145.2440583289
  21
 90.994352826026
  31
0.0
   0
LINE
   5
245
 100
AcDbEntity
   8
LEVEL003
 100
AcDbLine
   6
CONTINUOUS
  62
7
  10
 1145.2440583289
  20
 90.994352826026
  30
0.0
  11
 1159.2720583289
  21
 115.29435282603
  31
0.0
   0
LINE
   5
246
 100
AcDbEntity
   8
LEVEL003
 100
AcDbLine
   6
CONTINUOUS
  62
7
  10
 1159.2720583289
  20
 115.29435282603
  30
0.0
  11
 1141.2720583289
  21
 115.29435282603
  31
0.0
   0
LINE
   5
247
 100
AcDbEntity
   8
LEVEL003
 100
AcDbLine
   6
CONTINUOUS
  62
7
  10
 1106.9820583289
  20
 95.494352826026
  30
0.0
  11
 1104.3810583289
  21
 90.994352826026
  31
0.0
   0
TEXT
   5
248
 100
AcDbEntity
   8
LEVEL003
  62
7
 100
AcDbText
  10
 1193.6802998800
  20
 136.83263731343
  30
0.0
  40
 18.000000000000
   1
Model : ＥＴ５００Ｈ３０
   7
STANDARD
 100
AcDbText
   0
ENDSEC
  0
SECTION
  2
OBJECTS
  0
DICTIONARY
  5
C
100
AcDbDictionary
  3
ACAD_GROUP
350
D
  3
ACAD_MLINESTYLE
350
1B
  0
DICTIONARY
  5
D
102
{ACAD_REACTORS
330
C
102
}
100
AcDbDictionary
  0
DICTIONARY
  5
1B
102
{ACAD_REACTORS
330
C
102
}
100
AcDbDictionary
  3
STANDARD
350
1C
  0
MLINESTYLE
  5
1C
102
{ACAD_REACTORS
330
1B
102
}
100
AcDbMlineStyle
  2
STANDARD
 70
     0
  3

 62
   256
 51
90.0
 52
90.0
 71
     2
 49
0.5
 62
   256
  6
BYLAYER
 49
-0.5
 62
   256
  6
BYLAYER
  0
ENDSEC
   0
EOF
