   0
SECTION
   2
HEADER
   9
$ACADVER
   1
AC1014
   9
$LIMMIN
  10
0.0
  20
0.0
   9
$LIMMAX
  10
 1260.00
  20
 891.000
   9
$EXTMIN
  10
0.0
  20
0.0
  30
0.0
   9
$EXTMAX
  10
 1260.00
  20
 891.000
  30
0.0
   9
$LTSCALE
  40
 25.2000
   9
$HANDSEED
   5
7BC
   0
ENDSEC
   0
SECTION
   2
TABLES
  0
TABLE
  2
VPORT
  5
8
100
AcDbSymbolTable
 70
     1
  0
VPORT
  5
7BB
100
AcDbSymbolTableRecord
100
AcDbViewportTableRecord
  2
*ACTIVE
 70
     0
 10
0.0
 20
0.0
 11
1.0
 21
1.0
  12
 630.000
  22
 445.500
 13
0.0
 23
0.0
 14
1.0
 24
1.0
 15
0.0
 25
0.0
 16
0.0
 26
0.0
 36
1.0
 17
0.0
 27
0.0
 37
0.0
  40
 1260.00
  41
 1.47879
 42
50.0
 43
0.0
 44
0.0
 50
0.0
 51
0.0
 71
     0
 72
   100
 73
     1
 74
     1
 75
     0
 76
     0
 77
     0
 78
     0
  0
ENDTAB
  0
TABLE
  2
LTYPE
  5
5
100
AcDbSymbolTable
 70
    25
  0
LTYPE
  5
12
100
AcDbSymbolTableRecord
100
AcDbLinetypeTableRecord
  2
BYBLOCK
 70
     0
  3

 72
    65
 73
     0
 40
0.0
  0
LTYPE
  5
13
100
AcDbSymbolTableRecord
100
AcDbLinetypeTableRecord
  2
BYLAYER
 70
     0
  3

 72
    65
 73
     0
 40
0.0
  0
LTYPE
  5
14
100
AcDbSymbolTableRecord
100
AcDbLinetypeTableRecord
  2
CONTINUOUS
 70
     0
  3
Solid line
 72
    65
 73
     0
 40
0.0
  0
LTYPE
  5
20
100
AcDbSymbolTableRecord
100
AcDbLinetypeTableRecord
  2
BORDER
 70
     0
  3
__ __ . __ __ . __ __ . __ __ . __ __ . __ __ .
 72
    65
 73
     6
 40
1.75
 49
0.5
 74
     0
 49
-0.25
 74
     0
 49
0.5
 74
     0
 49
-0.25
 74
     0
 49
0.0
 74
     0
 49
-0.25
 74
     0
  0
LTYPE
  5
21
100
AcDbSymbolTableRecord
100
AcDbLinetypeTableRecord
  2
BORDER2
 70
     0
  3
__.__.__.__.__.__.__.__.__.__.__.__.__.__.__.__
 72
    65
 73
     6
 40
0.875
 49
0.25
 74
     0
 49
-0.125
 74
     0
 49
0.25
 74
     0
 49
-0.125
 74
     0
 49
0.0
 74
     0
 49
-0.125
 74
     0
  0
LTYPE
  5
22
100
AcDbSymbolTableRecord
100
AcDbLinetypeTableRecord
  2
BORDERX2
 70
     0
  3
____  ____  .  ____  ____  .  ____  ____  .  __
 72
    65
 73
     6
 40
3.5
 49
1.0
 74
     0
 49
-0.5
 74
     0
 49
1.0
 74
     0
 49
-0.5
 74
     0
 49
0.0
 74
     0
 49
-0.5
 74
     0
  0
LTYPE
  5
23
100
AcDbSymbolTableRecord
100
AcDbLinetypeTableRecord
  2
CENTER
 70
     0
  3
____ _ ____ _ ____ _ ____ _ ____ _ ____ _ ____ 
 72
    65
 73
     4
 40
2.0
 49
1.25
 74
     0
 49
-0.25
 74
     0
 49
0.25
 74
     0
 49
-0.25
 74
     0
  0
LTYPE
  5
24
100
AcDbSymbolTableRecord
100
AcDbLinetypeTableRecord
  2
CENTER2
 70
     0
  3
___ _ ___ _ ___ _ ___ _ ___ _ ___ _ ___ _ ___ _
 72
    65
 73
     4
 40
1.125
 49
0.75
 74
     0
 49
-0.125
 74
     0
 49
0.125
 74
     0
 49
-0.125
 74
     0
  0
LTYPE
  5
25
100
AcDbSymbolTableRecord
100
AcDbLinetypeTableRecord
  2
CENTERX2
 70
     0
  3
________  __  ________  __  ________  __  _____
 72
    65
 73
     4
 40
4.0
 49
2.5
 74
     0
 49
-0.5
 74
     0
 49
0.5
 74
     0
 49
-0.5
 74
     0
  0
LTYPE
  5
26
100
AcDbSymbolTableRecord
100
AcDbLinetypeTableRecord
  2
DASHDOT
 70
     0
  3
__ . __ . __ . __ . __ . __ . __ . __ . __ . __
 72
    65
 73
     4
 40
1.0
 49
0.5
 74
     0
 49
-0.25
 74
     0
 49
0.0
 74
     0
 49
-0.25
 74
     0
  0
LTYPE
  5
27
100
AcDbSymbolTableRecord
100
AcDbLinetypeTableRecord
  2
DASHDOT2
 70
     0
  3
_._._._._._._._._._._._._._._._._._._._._._._._
 72
    65
 73
     4
 40
0.5
 49
0.25
 74
     0
 49
-0.125
 74
     0
 49
0.0
 74
     0
 49
-0.125
 74
     0
  0
LTYPE
  5
28
100
AcDbSymbolTableRecord
100
AcDbLinetypeTableRecord
  2
DASHDOTX2
 70
     0
  3
____  .  ____  .  ____  .  ____  .  ____  .  __
 72
    65
 73
     4
 40
2.0
 49
1.0
 74
     0
 49
-0.5
 74
     0
 49
0.0
 74
     0
 49
-0.5
 74
     0
  0
LTYPE
  5
29
100
AcDbSymbolTableRecord
100
AcDbLinetypeTableRecord
  2
DASHED
 70
     0
  3
__ __ __ __ __ __ __ __ __ __ __ __ __ __ __ __
 72
    65
 73
     2
 40
0.75
 49
0.5
 74
     0
 49
-0.25
 74
     0
  0
LTYPE
  5
2A
100
AcDbSymbolTableRecord
100
AcDbLinetypeTableRecord
  2
DASHED2
 70
     0
  3
_ _ _ _ _ _ _ _ _ _ _ _ _ _ _ _ _ _ _ _ _ _ _ _
 72
    65
 73
     2
 40
0.375
 49
0.25
 74
     0
 49
-0.125
 74
     0
  0
LTYPE
  5
2B
100
AcDbSymbolTableRecord
100
AcDbLinetypeTableRecord
  2
DASHEDX2
 70
     0
  3
____  ____  ____  ____  ____  ____  ____  ____ 
 72
    65
 73
     2
 40
1.5
 49
1.0
 74
     0
 49
-0.5
 74
     0
  0
LTYPE
  5
2C
100
AcDbSymbolTableRecord
100
AcDbLinetypeTableRecord
  2
DIVIDE
 70
     0
  3
____ . . ____ . . ____ . . ____ . . ____ . . __
 72
    65
 73
     6
 40
1.25
 49
0.5
 74
     0
 49
-0.25
 74
     0
 49
0.0
 74
     0
 49
-0.25
 74
     0
 49
0.0
 74
     0
 49
-0.25
 74
     0
  0
LTYPE
  5
2D
100
AcDbSymbolTableRecord
100
AcDbLinetypeTableRecord
  2
DIVIDE2
 70
     0
  3
__..__..__..__..__..__..__..__..__..__..__..__.
 72
    65
 73
     6
 40
0.625
 49
0.25
 74
     0
 49
-0.125
 74
     0
 49
0.0
 74
     0
 49
-0.125
 74
     0
 49
0.0
 74
     0
 49
-0.125
 74
     0
  0
LTYPE
  5
2E
100
AcDbSymbolTableRecord
100
AcDbLinetypeTableRecord
  2
DIVIDEX2
 70
     0
  3
________  .  .  ________  .  .  ________  .  . 
 72
    65
 73
     6
 40
2.5
 49
1.0
 74
     0
 49
-0.5
 74
     0
 49
0.0
 74
     0
 49
-0.5
 74
     0
 49
0.0
 74
     0
 49
-0.5
 74
     0
  0
LTYPE
  5
2F
100
AcDbSymbolTableRecord
100
AcDbLinetypeTableRecord
  2
DOT
 70
     0
  3
. . . . . . . . . . . . . . . . . . . . . . . .
 72
    65
 73
     2
 40
0.25
 49
0.0
 74
     0
 49
-0.25
 74
     0
  0
LTYPE
  5
30
100
AcDbSymbolTableRecord
100
AcDbLinetypeTableRecord
  2
DOT2
 70
     0
  3
...............................................
 72
    65
 73
     2
 40
0.125
 49
0.0
 74
     0
 49
-0.125
 74
     0
  0
LTYPE
  5
31
100
AcDbSymbolTableRecord
100
AcDbLinetypeTableRecord
  2
DOTX2
 70
     0
  3
.  .  .  .  .  .  .  .  .  .  .  .  .  .  .  . 
 72
    65
 73
     2
 40
0.5
 49
0.0
 74
     0
 49
-0.5
 74
     0
  0
LTYPE
  5
32
100
AcDbSymbolTableRecord
100
AcDbLinetypeTableRecord
  2
HIDDEN
 70
     0
  3
__ __ __ __ __ __ __ __ __ __ __ __ __ __ __ __
 72
    65
 73
     2
 40
0.375
 49
0.25
 74
     0
 49
-0.125
 74
     0
  0
LTYPE
  5
33
100
AcDbSymbolTableRecord
100
AcDbLinetypeTableRecord
  2
HIDDEN2
 70
     0
  3
_ _ _ _ _ _ _ _ _ _ _ _ _ _ _ _ _ _ _ _ _ _ _ _
 72
    65
 73
     2
 40
0.1875
 49
0.125
 74
     0
 49
-0.0625
 74
     0
  0
LTYPE
  5
34
100
AcDbSymbolTableRecord
100
AcDbLinetypeTableRecord
  2
HIDDENX2
 70
     0
  3
____ ____ ____ ____ ____ ____ ____ ____ ____ __
 72
    65
 73
     2
 40
0.75
 49
0.5
 74
     0
 49
-0.25
 74
     0
  0
LTYPE
  5
35
100
AcDbSymbolTableRecord
100
AcDbLinetypeTableRecord
  2
PHANTOM
 70
     0
  3
______  __  __  ______  __  __  ______  __  __ 
 72
    65
 73
     6
 40
2.5
 49
1.25
 74
     0
 49
-0.25
 74
     0
 49
0.25
 74
     0
 49
-0.25
 74
     0
 49
0.25
 74
     0
 49
-0.25
 74
     0
  0
LTYPE
  5
36
100
AcDbSymbolTableRecord
100
AcDbLinetypeTableRecord
  2
PHANTOM2
 70
     0
  3
___ _ _ ___ _ _ ___ _ _ ___ _ _ ___ _ _ ___ _ _
 72
    65
 73
     6
 40
1.25
 49
0.625
 74
     0
 49
-0.125
 74
     0
 49
0.125
 74
     0
 49
-0.125
 74
     0
 49
0.125
 74
     0
 49
-0.125
 74
     0
  0
LTYPE
  5
37
100
AcDbSymbolTableRecord
100
AcDbLinetypeTableRecord
  2
PHANTOMX2
 70
     0
  3
____________    ____    ____    ____________   
 72
    65
 73
     6
 40
5.0
 49
2.5
 74
     0
 49
-0.5
 74
     0
 49
0.5
 74
     0
 49
-0.5
 74
     0
 49
0.5
 74
     0
 49
-0.5
 74
     0
  0
ENDTAB
   0
TABLE
   2
LAYER
   5
2
 100
AcDbSymbolTable
  70
18
   0
LAYER
   5
E
 100
AcDbSymbolTableRecord
 100
AcDbLayerTableRecord
   2
0
  70
0
  62
7
   6
CONTINUOUS
   0
LAYER
   5
39
 100
AcDbSymbolTableRecord
 100
AcDbLayerTableRecord
   2
LEVEL001
  70
0
  62
7
   6
CONTINUOUS
   0
LAYER
   5
3A
 100
AcDbSymbolTableRecord
 100
AcDbLayerTableRecord
   2
LEVEL002
  70
0
  62
7
   6
CONTINUOUS
   0
LAYER
   5
3B
 100
AcDbSymbolTableRecord
 100
AcDbLayerTableRecord
   2
LEVEL003
  70
0
  62
7
   6
CONTINUOUS
   0
LAYER
   5
3C
 100
AcDbSymbolTableRecord
 100
AcDbLayerTableRecord
   2
LEVEL011
  70
0
  62
7
   6
CONTINUOUS
   0
LAYER
   5
3D
 100
AcDbSymbolTableRecord
 100
AcDbLayerTableRecord
   2
LEVEL013
  70
0
  62
7
   6
CONTINUOUS
   0
LAYER
   5
3E
 100
AcDbSymbolTableRecord
 100
AcDbLayerTableRecord
   2
LEVEL014
  70
0
  62
7
   6
CONTINUOUS
   0
LAYER
   5
3F
 100
AcDbSymbolTableRecord
 100
AcDbLayerTableRecord
   2
LEVEL015
  70
0
  62
7
   6
CONTINUOUS
   0
LAYER
   5
40
 100
AcDbSymbolTableRecord
 100
AcDbLayerTableRecord
   2
LEVEL016
  70
0
  62
7
   6
CONTINUOUS
   0
LAYER
   5
41
 100
AcDbSymbolTableRecord
 100
AcDbLayerTableRecord
   2
LEVEL018
  70
0
  62
7
   6
CONTINUOUS
   0
LAYER
   5
42
 100
AcDbSymbolTableRecord
 100
AcDbLayerTableRecord
   2
LEVEL019
  70
0
  62
7
   6
CONTINUOUS
   0
LAYER
   5
43
 100
AcDbSymbolTableRecord
 100
AcDbLayerTableRecord
   2
LEVEL020
  70
0
  62
7
   6
CONTINUOUS
   0
LAYER
   5
44
 100
AcDbSymbolTableRecord
 100
AcDbLayerTableRecord
   2
LEVEL021
  70
0
  62
7
   6
CONTINUOUS
   0
LAYER
   5
45
 100
AcDbSymbolTableRecord
 100
AcDbLayerTableRecord
   2
LEVEL024
  70
0
  62
7
   6
CONTINUOUS
   0
LAYER
   5
46
 100
AcDbSymbolTableRecord
 100
AcDbLayerTableRecord
   2
LEVEL026
  70
0
  62
7
   6
CONTINUOUS
   0
LAYER
   5
47
 100
AcDbSymbolTableRecord
 100
AcDbLayerTableRecord
   2
LEVEL042
  70
0
  62
7
   6
CONTINUOUS
   0
LAYER
   5
48
 100
AcDbSymbolTableRecord
 100
AcDbLayerTableRecord
   2
LEVEL044
  70
0
  62
7
   6
CONTINUOUS
   0
LAYER
   5
49
 100
AcDbSymbolTableRecord
 100
AcDbLayerTableRecord
   2
LEVEL050
  70
0
  62
7
   6
CONTINUOUS
   0
ENDTAB
  0
TABLE
  2
STYLE
  5
3
100
AcDbSymbolTable
  70
7
  0
STYLE
  5
F
100
AcDbSymbolTableRecord
100
AcDbTextStyleTableRecord
  2
STANDARD
 70
     0
 40
0.0
 41
1.0
 50
0.0
 71
     0
 42
0.2
  3
TXT
  4
BIGFONT
  0
STYLE
  5
38
100
AcDbSymbolTableRecord
100
AcDbTextStyleTableRecord
  2
STANDARD1
 70
     4
 40
0.0
 41
1.0
 50
0.0
 71
     0
 42
0.2
  3
TXT
  4
BIGFONT
   0
STYLE
   5
4A
 100
AcDbSymbolTableRecord
 100
AcDbTextStyleTableRecord
   2
GMM001
  70
0
  40
0.0
  41
 1.00000
  50
0.0
  71
     0
  42
1.0
   3
txt.shx
   4
bigfont.shx
   0
STYLE
   5
4B
 100
AcDbSymbolTableRecord
 100
AcDbTextStyleTableRecord
   2
GMM002
  70
0
  40
0.0
  41
 0.479167
  50
0.0
  71
     0
  42
1.0
   3
txt.shx
   4
bigfont.shx
   0
STYLE
   5
4C
 100
AcDbSymbolTableRecord
 100
AcDbTextStyleTableRecord
   2
GMM003
  70
0
  40
0.0
  41
 0.440104
  50
0.0
  71
     0
  42
1.0
   3
txt.shx
   4
bigfont.shx
   0
STYLE
   5
4D
 100
AcDbSymbolTableRecord
 100
AcDbTextStyleTableRecord
   2
GMM004
  70
0
  40
0.0
  41
 0.557292
  50
0.0
  71
     0
  42
1.0
   3
txt.shx
   4
bigfont.shx
   0
STYLE
   5
4E
 100
AcDbSymbolTableRecord
 100
AcDbTextStyleTableRecord
   2
GMM005
  70
0
  40
0.0
  41
 0.718750
  50
0.0
  71
     0
  42
1.0
   3
txt.shx
   4
bigfont.shx
   0
ENDTAB
  0
TABLE
  2
VIEW
  5
6
100
AcDbSymbolTable
 70
     0
  0
ENDTAB
  0
TABLE
  2
UCS
  5
7
100
AcDbSymbolTable
 70
     0
  0
ENDTAB
  0
TABLE
  2
APPID
  5
9
100
AcDbSymbolTable
 70
     1
  0
APPID
  5
10
100
AcDbSymbolTableRecord
100
AcDbRegAppTableRecord
  2
ACAD
 70
     0
  0
ENDTAB
   0
TABLE
   2
DIMSTYLE
   5
A
 100
AcDbSymbolTable
  70
15
  0
DIMSTYLE
105
1D
100
AcDbSymbolTableRecord
100
AcDbDimStyleTableRecord
  2
STANDARD
 70
     0
  3

  4

  5

  6

  7

 40
1.0
 41
0.18
 42
0.0625
 43
0.38
 44
0.18
 45
0.0
 46
0.0
 47
0.0
 48
0.0
140
0.18
141
0.09
142
0.0
143
25.4
144
1.0
145
0.0
146
1.0
147
0.09
 71
     0
 72
     0
 73
     1
 74
     1
 75
     0
 76
     0
 77
     0
 78
     0
170
     0
171
     2
172
     0
173
     0
174
     0
175
     0
176
     0
177
     0
178
     0
270
     2
271
     4
272
     4
273
     2
274
     2
340
F
275
     0
280
     0
281
     0
282
     0
283
     1
284
     0
285
     0
286
     0
287
     3
288
     0
   0
DIMSTYLE
 105
4F
 100
AcDbSymbolTableRecord
 100
AcDbDimStyleTableRecord
   2
GMM001
  70
0
   3

   4

   5

   6
_OPEN
   7
_OPEN
  40
 1.00000
  41
 9.00000
  42
 3.00000
  43
 24.0000
  44
 6.00000
  45
0.0
  46
0.0
  47
0.0
  48
0.0
 140
 12.0000
 141
 3.00000
 142
0.0
 143
 0.394000E-1
 144
 1.00000
 145
0.0
 146
 0.625000
 147
 2.40000
  71
0
  72
0
  73
0
  74
0
  75
0
  76
0
  77
3
  78
8
 170
0
 171
2
 172
1
 173
1
 174
0
 175
0
 176
3
 177
3
 178
3
 270
2
 271
2
 272
0
 273
2
 274
2
 340
4A
 275
0
 280
0
 281
0
 282
0
 283
1
 284
0
 285
0
 286
0
 287
3
 288
0
   0
DIMSTYLE
 105
50
 100
AcDbSymbolTableRecord
 100
AcDbDimStyleTableRecord
   2
GMM002
  70
0
   3

   4

   5

   6
_OPEN
   7
_OPEN
  40
 1.00000
  41
 9.00000
  42
 3.00000
  43
 24.0000
  44
 6.00000
  45
0.0
  46
0.0
  47
0.0
  48
0.0
 140
 12.0000
 141
 3.00000
 142
0.0
 143
 0.394000E-1
 144
 1.00000
 145
0.0
 146
 0.625000
 147
0.0
  71
0
  72
0
  73
0
  74
0
  75
0
  76
0
  77
1
  78
8
 170
0
 171
2
 172
1
 173
1
 174
0
 175
0
 176
3
 177
3
 178
7
 270
2
 271
2
 272
0
 273
2
 274
2
 340
F
 275
0
 280
0
 281
0
 282
0
 283
1
 284
0
 285
0
 286
0
 287
3
 288
1
   0
DIMSTYLE
 105
51
 100
AcDbSymbolTableRecord
 100
AcDbDimStyleTableRecord
   2
GMM003
  70
0
   3

   4

   5

   6
_OPEN
   7
_OPEN
  40
 1.00000
  41
 9.00000
  42
 1.50000
  43
 24.0000
  44
 6.00000
  45
0.0
  46
0.0
  47
0.0
  48
0.0
 140
 9.45000
 141
 3.00000
 142
0.0
 143
 0.394000E-1
 144
 1.00000
 145
0.0
 146
 0.625000
 147
0.0
  71
0
  72
0
  73
0
  74
0
  75
0
  76
0
  77
1
  78
8
 170
0
 171
2
 172
1
 173
1
 174
0
 175
0
 176
3
 177
3
 178
7
 270
2
 271
2
 272
0
 273
2
 274
2
 340
F
 275
0
 280
0
 281
0
 282
0
 283
1
 284
0
 285
0
 286
0
 287
3
 288
1
   0
DIMSTYLE
 105
52
 100
AcDbSymbolTableRecord
 100
AcDbDimStyleTableRecord
   2
GMM004
  70
0
   3

   4

   5

   6
_OPEN
   7
_OPEN
  40
 1.00000
  41
 5.04000
  42
0.0
  43
 0.100000E-5
  44
 3.36000
  45
0.0
  46
0.0
  47
0.0
  48
0.0
 140
 8.40000
 141
 3.00000
 142
0.0
 143
 0.394000E-1
 144
 1.00000
 145
0.0
 146
 0.625000
 147
0.0
  71
0
  72
0
  73
0
  74
0
  75
0
  76
0
  77
0
  78
0
 170
0
 171
2
 172
1
 173
1
 174
0
 175
0
 176
3
 177
3
 178
7
 270
2
 271
0
 272
0
 273
2
 274
2
 340
F
 275
1
 280
0
 281
0
 282
0
 283
1
 284
0
 285
0
 286
0
 287
3
 288
1
   0
DIMSTYLE
 105
53
 100
AcDbSymbolTableRecord
 100
AcDbDimStyleTableRecord
   2
GMM005
  70
0
   3

   4

   5

   6
_OPEN
   7
_OPEN
  40
 1.00000
  41
 7.50000
  42
 1.50000
  43
 24.0000
  44
 6.00000
  45
0.0
  46
0.0
  47
0.0
  48
0.0
 140
 9.45000
 141
 3.00000
 142
0.0
 143
 0.394000E-1
 144
 1.00000
 145
0.0
 146
 0.625000
 147
0.0
  71
0
  72
0
  73
0
  74
0
  75
0
  76
0
  77
0
  78
8
 170
0
 171
2
 172
1
 173
1
 174
0
 175
0
 176
3
 177
3
 178
7
 270
2
 271
2
 272
0
 273
2
 274
2
 340
F
 275
0
 280
0
 281
0
 282
0
 283
1
 284
0
 285
0
 286
0
 287
3
 288
1
   0
DIMSTYLE
 105
54
 100
AcDbSymbolTableRecord
 100
AcDbDimStyleTableRecord
   2
GMM006
  70
0
   3

   4

   5

   6
_OPEN
   7
_OPEN
  40
 1.00000
  41
 9.00000
  42
 3.00000
  43
 24.0000
  44
 6.00000
  45
0.0
  46
0.0
  47
0.0
  48
0.0
 140
 12.0000
 141
 3.00000
 142
0.0
 143
 0.394000E-1
 144
 1.00000
 145
0.0
 146
 0.625000
 147
 2.40000
  71
0
  72
0
  73
0
  74
0
  75
0
  76
0
  77
3
  78
8
 170
0
 171
2
 172
1
 173
1
 174
0
 175
0
 176
3
 177
3
 178
3
 270
2
 271
2
 272
0
 273
2
 274
2
 340
4A
 275
0
 280
0
 281
0
 282
0
 283
1
 284
0
 285
0
 286
0
 287
3
 288
0
   0
DIMSTYLE
 105
55
 100
AcDbSymbolTableRecord
 100
AcDbDimStyleTableRecord
   2
GMM007
  70
0
   3

   4

   5

   6
_OPEN
   7
_OPEN
  40
 1.00000
  41
 9.00000
  42
 1.50000
  43
 24.0000
  44
 6.00000
  45
0.0
  46
0.0
  47
0.0
  48
0.0
 140
 9.45000
 141
 3.00000
 142
0.0
 143
 0.394000E-1
 144
 1.00000
 145
0.0
 146
 0.625000
 147
0.0
  71
0
  72
0
  73
0
  74
0
  75
0
  76
0
  77
1
  78
8
 170
0
 171
2
 172
1
 173
1
 174
0
 175
0
 176
3
 177
3
 178
7
 270
2
 271
2
 272
0
 273
2
 274
2
 340
F
 275
0
 280
0
 281
0
 282
0
 283
1
 284
0
 285
0
 286
0
 287
3
 288
1
   0
DIMSTYLE
 105
56
 100
AcDbSymbolTableRecord
 100
AcDbDimStyleTableRecord
   2
GMM008
  70
0
   3

   4

   5

   6
_OPEN
   7
_OPEN
  40
 1.00000
  41
 9.00000
  42
 3.00000
  43
 24.0000
  44
 6.00000
  45
0.0
  46
0.0
  47
0.0
  48
0.0
 140
 12.0000
 141
 3.00000
 142
0.0
 143
 0.394000E-1
 144
 1.00000
 145
0.0
 146
 0.625000
 147
0.0
  71
0
  72
0
  73
0
  74
0
  75
0
  76
0
  77
0
  78
8
 170
0
 171
2
 172
1
 173
1
 174
0
 175
0
 176
3
 177
3
 178
7
 270
2
 271
2
 272
0
 273
2
 274
2
 340
F
 275
0
 280
0
 281
0
 282
0
 283
1
 284
0
 285
0
 286
0
 287
3
 288
1
   0
DIMSTYLE
 105
57
 100
AcDbSymbolTableRecord
 100
AcDbDimStyleTableRecord
   2
GMM009
  70
0
   3

   4

   5

   6
_OPEN
   7
_OPEN
  40
 1.00000
  41
 9.00000
  42
 3.00000
  43
 24.0000
  44
 6.00000
  45
0.0
  46
0.0
  47
0.0
  48
0.0
 140
 12.0000
 141
 3.00000
 142
0.0
 143
 0.394000E-1
 144
 1.00000
 145
0.0
 146
 0.625000
 147
 2.40000
  71
0
  72
0
  73
0
  74
0
  75
0
  76
0
  77
3
  78
8
 170
0
 171
2
 172
1
 173
1
 174
0
 175
0
 176
3
 177
3
 178
3
 270
2
 271
2
 272
0
 273
2
 274
2
 340
4A
 275
0
 280
0
 281
0
 282
0
 283
1
 284
0
 285
0
 286
0
 287
3
 288
0
   0
DIMSTYLE
 105
58
 100
AcDbSymbolTableRecord
 100
AcDbDimStyleTableRecord
   2
GMM010
  70
0
   3

   4

   5

   6
_OPEN
   7
_OPEN
  40
 1.00000
  41
 9.00000
  42
 3.00000
  43
 24.0000
  44
 6.00000
  45
0.0
  46
0.0
  47
0.0
  48
0.0
 140
 12.0000
 141
 3.00000
 142
0.0
 143
 0.394000E-1
 144
 1.00000
 145
0.0
 146
 0.625000
 147
0.0
  71
0
  72
0
  73
0
  74
0
  75
0
  76
0
  77
1
  78
8
 170
0
 171
2
 172
1
 173
1
 174
0
 175
0
 176
3
 177
3
 178
7
 270
2
 271
2
 272
0
 273
2
 274
2
 340
F
 275
0
 280
0
 281
0
 282
0
 283
1
 284
0
 285
0
 286
0
 287
3
 288
1
   0
DIMSTYLE
 105
59
 100
AcDbSymbolTableRecord
 100
AcDbDimStyleTableRecord
   2
GMM011
  70
0
   3

   4

   5

   6
_OPEN
   7
_OPEN
  40
 1.00000
  41
 9.00000
  42
 3.00000
  43
 24.0000
  44
 6.00000
  45
0.0
  46
0.0
  47
0.0
  48
0.0
 140
 12.0000
 141
 3.00000
 142
0.0
 143
 0.394000E-1
 144
 1.00000
 145
0.0
 146
 0.625000
 147
 2.40000
  71
0
  72
0
  73
0
  74
0
  75
0
  76
1
  77
3
  78
8
 170
0
 171
2
 172
1
 173
1
 174
0
 175
0
 176
3
 177
3
 178
3
 270
2
 271
1
 272
0
 273
2
 274
2
 340
4A
 275
0
 280
0
 281
0
 282
0
 283
1
 284
0
 285
0
 286
0
 287
3
 288
0
   0
DIMSTYLE
 105
5A
 100
AcDbSymbolTableRecord
 100
AcDbDimStyleTableRecord
   2
GMM012
  70
0
   3

   4

   5

   6
_OPEN
   7
_OPEN
  40
 1.00000
  41
 9.00000
  42
 3.00000
  43
 24.0000
  44
 6.00000
  45
0.0
  46
0.0
  47
0.0
  48
0.0
 140
 12.0000
 141
 3.00000
 142
0.0
 143
 0.394000E-1
 144
 1.00000
 145
0.0
 146
 0.625000
 147
 2.40000
  71
0
  72
0
  73
0
  74
0
  75
0
  76
0
  77
3
  78
8
 170
0
 171
2
 172
1
 173
1
 174
0
 175
0
 176
3
 177
3
 178
3
 270
2
 271
1
 272
0
 273
2
 274
2
 340
4A
 275
0
 280
0
 281
0
 282
0
 283
1
 284
0
 285
0
 286
0
 287
3
 288
0
   0
DIMSTYLE
 105
5B
 100
AcDbSymbolTableRecord
 100
AcDbDimStyleTableRecord
   2
GMM013
  70
0
   3

   4

   5

   6
_OPEN
   7
_OPEN
  40
 1.00000
  41
 7.50000
  42
 1.50000
  43
 24.0000
  44
 6.00000
  45
0.0
  46
0.0
  47
0.0
  48
0.0
 140
 9.45000
 141
 3.00000
 142
0.0
 143
 0.394000E-1
 144
 1.00000
 145
0.0
 146
 0.625000
 147
0.0
  71
0
  72
0
  73
0
  74
0
  75
0
  76
0
  77
0
  78
8
 170
0
 171
2
 172
1
 173
1
 174
0
 175
0
 176
3
 177
3
 178
7
 270
2
 271
2
 272
0
 273
2
 274
2
 340
F
 275
0
 280
0
 281
0
 282
0
 283
1
 284
0
 285
0
 286
0
 287
3
 288
1
   0
ENDTAB
  0
TABLE
  2
BLOCK_RECORD
  5
1
100
AcDbSymbolTable
 70
     0
  0
BLOCK_RECORD
  5
18
100
AcDbSymbolTableRecord
100
AcDbBlockTableRecord
  2
*MODEL_SPACE
  0
BLOCK_RECORD
  5
15
100
AcDbSymbolTableRecord
100
AcDbBlockTableRecord
  2
*PAPER_SPACE
   0
BLOCK_RECORD
   5
5C
 100
AcDbSymbolTableRecord
 100
AcDbBlockTableRecord
   2
*D1
   0
BLOCK_RECORD
   5
5D
 100
AcDbSymbolTableRecord
 100
AcDbBlockTableRecord
   2
*D2
   0
BLOCK_RECORD
   5
5E
 100
AcDbSymbolTableRecord
 100
AcDbBlockTableRecord
   2
*D3
   0
BLOCK_RECORD
   5
5F
 100
AcDbSymbolTableRecord
 100
AcDbBlockTableRecord
   2
*D12
   0
BLOCK_RECORD
   5
60
 100
AcDbSymbolTableRecord
 100
AcDbBlockTableRecord
   2
*D13
   0
BLOCK_RECORD
   5
61
 100
AcDbSymbolTableRecord
 100
AcDbBlockTableRecord
   2
*D19
   0
BLOCK_RECORD
   5
62
 100
AcDbSymbolTableRecord
 100
AcDbBlockTableRecord
   2
*D21
   0
BLOCK_RECORD
   5
63
 100
AcDbSymbolTableRecord
 100
AcDbBlockTableRecord
   2
*D22
   0
BLOCK_RECORD
   5
64
 100
AcDbSymbolTableRecord
 100
AcDbBlockTableRecord
   2
*D23
   0
BLOCK_RECORD
   5
65
 100
AcDbSymbolTableRecord
 100
AcDbBlockTableRecord
   2
_ARCHTICK
   0
BLOCK_RECORD
   5
66
 100
AcDbSymbolTableRecord
 100
AcDbBlockTableRecord
   2
_BOXBLANK
   0
BLOCK_RECORD
   5
67
 100
AcDbSymbolTableRecord
 100
AcDbBlockTableRecord
   2
_BOXFILLED
   0
BLOCK_RECORD
   5
68
 100
AcDbSymbolTableRecord
 100
AcDbBlockTableRecord
   2
_CLOSED
   0
BLOCK_RECORD
   5
69
 100
AcDbSymbolTableRecord
 100
AcDbBlockTableRecord
   2
_CLOSEDBLANK
   0
BLOCK_RECORD
   5
6A
 100
AcDbSymbolTableRecord
 100
AcDbBlockTableRecord
   2
_DATUMBLANK
   0
BLOCK_RECORD
   5
6B
 100
AcDbSymbolTableRecord
 100
AcDbBlockTableRecord
   2
_DATUMFILLED
   0
BLOCK_RECORD
   5
6C
 100
AcDbSymbolTableRecord
 100
AcDbBlockTableRecord
   2
_DOT
   0
BLOCK_RECORD
   5
6D
 100
AcDbSymbolTableRecord
 100
AcDbBlockTableRecord
   2
_DOTBLANK
   0
BLOCK_RECORD
   5
6E
 100
AcDbSymbolTableRecord
 100
AcDbBlockTableRecord
   2
_DOTSMALL
   0
BLOCK_RECORD
   5
6F
 100
AcDbSymbolTableRecord
 100
AcDbBlockTableRecord
   2
_INTEGRAL
   0
BLOCK_RECORD
   5
70
 100
AcDbSymbolTableRecord
 100
AcDbBlockTableRecord
   2
_NONE
   0
BLOCK_RECORD
   5
71
 100
AcDbSymbolTableRecord
 100
AcDbBlockTableRecord
   2
_OBLIQUE
   0
BLOCK_RECORD
   5
72
 100
AcDbSymbolTableRecord
 100
AcDbBlockTableRecord
   2
_OPEN
   0
BLOCK_RECORD
   5
73
 100
AcDbSymbolTableRecord
 100
AcDbBlockTableRecord
   2
_OPEN30
   0
BLOCK_RECORD
   5
74
 100
AcDbSymbolTableRecord
 100
AcDbBlockTableRecord
   2
_OPEN90
   0
BLOCK_RECORD
   5
75
 100
AcDbSymbolTableRecord
 100
AcDbBlockTableRecord
   2
_ORIGIN
   0
ENDTAB
   0
ENDSEC
  0
SECTION
  2
BLOCKS
  0
BLOCK
  5
19
100
AcDbEntity
  8
0
100
AcDbBlockBegin
  2
*MODEL_SPACE
 70
     0
 10
0.0
 20
0.0
 30
0.0
  3
*MODEL_SPACE
  1

  0
ENDBLK
  5
1A
100
AcDbEntity
  8
0
100
AcDbBlockEnd
  0
BLOCK
  5
16
100
AcDbEntity
 67
     1
  8
0
100
AcDbBlockBegin
  2
*PAPER_SPACE
 70
     0
 10
0.0
 20
0.0
 30
0.0
  3
*PAPER_SPACE
  1

  0
ENDBLK
  5
17
100
AcDbEntity
 67
     1
  8
0
100
AcDbBlockEnd
   0
BLOCK
   5
76
 100
AcDbEntity
   8
0
 100
AcDbBlockBegin
   2
_ARCHTICK
  70
0
  10
0.0
  20
0.0
  30
0.0
   3
_ARCHTICK
   0
POLYLINE
   5
77
 100
AcDbEntity
   8
0
   6
BYBLOCK
  62
0
 100
AcDb2dPolyline
  66
1
  10
0.0
  20
0.0
  30
0.0
  70
1
  40
 0.150000
  41
 0.150000
   0
VERTEX
   5
78
 100
AcDbEntity
   8
0
   6
BYBLOCK
  62
0
 100
AcDbVertex
 100
AcDb2dVertex
  10
-0.500000
  20
-0.500000
  30
0.0
  40
 0.150000
  41
 0.150000
   0
VERTEX
   5
79
 100
AcDbEntity
   8
0
   6
BYBLOCK
  62
0
 100
AcDbVertex
 100
AcDb2dVertex
  10
 0.500000
  20
 0.500000
  30
0.0
  40
 0.150000
  41
 0.150000
   0
SEQEND
   5
7A
 100
AcDbEntity
   8
0
   6
BYBLOCK
  62
0
   0
ENDBLK
   5
7B
 100
AcDbEntity
   8
0
 100
AcDbBlockEnd
   0
BLOCK
   5
7C
 100
AcDbEntity
   8
0
 100
AcDbBlockBegin
   2
_OBLIQUE
  70
0
  10
0.0
  20
0.0
  30
0.0
   3
_OBLIQUE
   0
LINE
   5
7D
 100
AcDbEntity
   8
0
 100
AcDbLine
   6
BYBLOCK
  62
0
  10
-0.500000
  20
-0.500000
  30
0.0
  11
 0.500000
  21
 0.500000
  31
0.0
   0
ENDBLK
   5
7E
 100
AcDbEntity
   8
0
 100
AcDbBlockEnd
   0
BLOCK
   5
7F
 100
AcDbEntity
   8
0
 100
AcDbBlockBegin
   2
_BOXBLANK
  70
0
  10
0.0
  20
0.0
  30
0.0
   3
_BOXBLANK
   0
LINE
   5
80
 100
AcDbEntity
   8
0
 100
AcDbLine
   6
BYBLOCK
  62
0
  10
-0.500000
  20
-0.500000
  30
0.0
  11
 0.500000
  21
-0.500000
  31
0.0
   0
LINE
   5
81
 100
AcDbEntity
   8
0
 100
AcDbLine
   6
BYBLOCK
  62
0
  10
 0.500000
  20
-0.500000
  30
0.0
  11
 0.500000
  21
 0.500000
  31
0.0
   0
LINE
   5
82
 100
AcDbEntity
   8
0
 100
AcDbLine
   6
BYBLOCK
  62
0
  10
 0.500000
  20
 0.500000
  30
0.0
  11
-0.500000
  21
 0.500000
  31
0.0
   0
LINE
   5
83
 100
AcDbEntity
   8
0
 100
AcDbLine
   6
BYBLOCK
  62
0
  10
-0.500000
  20
 0.500000
  30
0.0
  11
-0.500000
  21
-0.500000
  31
0.0
   0
LINE
   5
84
 100
AcDbEntity
   8
0
 100
AcDbLine
   6
BYBLOCK
  62
0
  10
-0.500000
  20
0.0
  30
0.0
  11
-1.00000
  21
0.0
  31
0.0
   0
ENDBLK
   5
85
 100
AcDbEntity
   8
0
 100
AcDbBlockEnd
   0
BLOCK
   5
86
 100
AcDbEntity
   8
0
 100
AcDbBlockBegin
   2
_BOXFILLED
  70
0
  10
0.0
  20
0.0
  30
0.0
   3
_BOXFILLED
   0
SOLID
   5
87
 100
AcDbEntity
   8
0
 100
AcDbTrace
   6
BYBLOCK
  62
0
  10
-0.500000
  20
 0.500000
  30
0.0
  11
 0.500000
  21
 0.500000
  31
0.0
  12
-0.500000
  22
-0.500000
  32
0.0
  13
 0.500000
  23
-0.500000
  33
0.0
   0
LINE
   5
88
 100
AcDbEntity
   8
0
 100
AcDbLine
   6
BYBLOCK
  62
0
  10
-0.500000
  20
0.0
  30
0.0
  11
-1.00000
  21
0.0
  31
0.0
   0
ENDBLK
   5
89
 100
AcDbEntity
   8
0
 100
AcDbBlockEnd
   0
BLOCK
   5
8A
 100
AcDbEntity
   8
0
 100
AcDbBlockBegin
   2
_CLOSED
  70
0
  10
0.0
  20
0.0
  30
0.0
   3
_CLOSED
   0
LINE
   5
8B
 100
AcDbEntity
   8
0
 100
AcDbLine
   6
BYBLOCK
  62
0
  10
-1.00000
  20
 0.166667
  30
0.0
  11
0.0
  21
0.0
  31
0.0
   0
LINE
   5
8C
 100
AcDbEntity
   8
0
 100
AcDbLine
   6
BYBLOCK
  62
0
  10
0.0
  20
0.0
  30
0.0
  11
-1.00000
  21
-0.166667
  31
0.0
   0
LINE
   5
8D
 100
AcDbEntity
   8
0
 100
AcDbLine
   6
BYBLOCK
  62
0
  10
-1.00000
  20
 0.166667
  30
0.0
  11
-1.00000
  21
-0.166667
  31
0.0
   0
LINE
   5
8E
 100
AcDbEntity
   8
0
 100
AcDbLine
   6
BYBLOCK
  62
0
  10
0.0
  20
0.0
  30
0.0
  11
-1.00000
  21
0.0
  31
0.0
   0
ENDBLK
   5
8F
 100
AcDbEntity
   8
0
 100
AcDbBlockEnd
   0
BLOCK
   5
90
 100
AcDbEntity
   8
0
 100
AcDbBlockBegin
   2
_OPEN
  70
0
  10
0.0
  20
0.0
  30
0.0
   3
_OPEN
   0
LINE
   5
91
 100
AcDbEntity
   8
0
 100
AcDbLine
   6
BYBLOCK
  62
0
  10
-1.00000
  20
 0.166667
  30
0.0
  11
0.0
  21
0.0
  31
0.0
   0
LINE
   5
92
 100
AcDbEntity
   8
0
 100
AcDbLine
   6
BYBLOCK
  62
0
  10
0.0
  20
0.0
  30
0.0
  11
-1.00000
  21
-0.166667
  31
0.0
   0
LINE
   5
93
 100
AcDbEntity
   8
0
 100
AcDbLine
   6
BYBLOCK
  62
0
  10
0.0
  20
0.0
  30
0.0
  11
-1.00000
  21
0.0
  31
0.0
   0
ENDBLK
   5
94
 100
AcDbEntity
   8
0
 100
AcDbBlockEnd
   0
BLOCK
   5
95
 100
AcDbEntity
   8
0
 100
AcDbBlockBegin
   2
_OPEN30
  70
0
  10
0.0
  20
0.0
  30
0.0
   3
_OPEN30
   0
LINE
   5
96
 100
AcDbEntity
   8
0
 100
AcDbLine
   6
BYBLOCK
  62
0
  10
-1.00000
  20
 0.267949
  30
0.0
  11
0.0
  21
0.0
  31
0.0
   0
LINE
   5
97
 100
AcDbEntity
   8
0
 100
AcDbLine
   6
BYBLOCK
  62
0
  10
0.0
  20
0.0
  30
0.0
  11
-1.00000
  21
-0.267949
  31
0.0
   0
LINE
   5
98
 100
AcDbEntity
   8
0
 100
AcDbLine
   6
BYBLOCK
  62
0
  10
0.0
  20
0.0
  30
0.0
  11
-1.00000
  21
0.0
  31
0.0
   0
ENDBLK
   5
99
 100
AcDbEntity
   8
0
 100
AcDbBlockEnd
   0
BLOCK
   5
9A
 100
AcDbEntity
   8
0
 100
AcDbBlockBegin
   2
_OPEN90
  70
0
  10
0.0
  20
0.0
  30
0.0
   3
_OPEN90
   0
LINE
   5
9B
 100
AcDbEntity
   8
0
 100
AcDbLine
   6
BYBLOCK
  62
0
  10
-0.500000
  20
 0.500000
  30
0.0
  11
0.0
  21
0.0
  31
0.0
   0
LINE
   5
9C
 100
AcDbEntity
   8
0
 100
AcDbLine
   6
BYBLOCK
  62
0
  10
0.0
  20
0.0
  30
0.0
  11
-0.500000
  21
-0.500000
  31
0.0
   0
LINE
   5
9D
 100
AcDbEntity
   8
0
 100
AcDbLine
   6
BYBLOCK
  62
0
  10
0.0
  20
0.0
  30
0.0
  11
-1.00000
  21
0.0
  31
0.0
   0
ENDBLK
   5
9E
 100
AcDbEntity
   8
0
 100
AcDbBlockEnd
   0
BLOCK
   5
9F
 100
AcDbEntity
   8
0
 100
AcDbBlockBegin
   2
_CLOSEDBLANK
  70
0
  10
0.0
  20
0.0
  30
0.0
   3
_CLOSEDBLANK
   0
LINE
   5
A0
 100
AcDbEntity
   8
0
 100
AcDbLine
   6
BYBLOCK
  62
0
  10
-1.00000
  20
 0.166667
  30
0.0
  11
0.0
  21
0.0
  31
0.0
   0
LINE
   5
A1
 100
AcDbEntity
   8
0
 100
AcDbLine
   6
BYBLOCK
  62
0
  10
0.0
  20
0.0
  30
0.0
  11
-1.00000
  21
-0.166667
  31
0.0
   0
LINE
   5
A2
 100
AcDbEntity
   8
0
 100
AcDbLine
   6
BYBLOCK
  62
0
  10
-1.00000
  20
 0.166667
  30
0.0
  11
-1.00000
  21
-0.166667
  31
0.0
   0
ENDBLK
   5
A3
 100
AcDbEntity
   8
0
 100
AcDbBlockEnd
   0
BLOCK
   5
A4
 100
AcDbEntity
   8
0
 100
AcDbBlockBegin
   2
_DOT
  70
0
  10
0.0
  20
0.0
  30
0.0
   3
_DOT
   0
POLYLINE
   5
A5
 100
AcDbEntity
   8
0
   6
BYBLOCK
  62
0
 100
AcDb2dPolyline
  66
1
  10
0.0
  20
0.0
  30
0.0
  70
1
  40
 0.500000
  41
 0.500000
   0
VERTEX
   5
A6
 100
AcDbEntity
   8
0
   6
BYBLOCK
  62
0
 100
AcDbVertex
 100
AcDb2dVertex
  10
-0.250000
  20
0.0
  30
0.0
  42
 1.00000
  40
 0.500000
  41
 0.500000
   0
VERTEX
   5
A7
 100
AcDbEntity
   8
0
   6
BYBLOCK
  62
0
 100
AcDbVertex
 100
AcDb2dVertex
  10
 0.250000
  20
0.0
  30
0.0
  42
 1.00000
  40
 0.500000
  41
 0.500000
   0
SEQEND
   5
A8
 100
AcDbEntity
   8
0
   6
BYBLOCK
  62
0
   0
LINE
   5
A9
 100
AcDbEntity
   8
0
 100
AcDbLine
   6
BYBLOCK
  62
0
  10
-0.500000
  20
0.0
  30
0.0
  11
-1.00000
  21
0.0
  31
0.0
   0
ENDBLK
   5
AA
 100
AcDbEntity
   8
0
 100
AcDbBlockEnd
   0
BLOCK
   5
AB
 100
AcDbEntity
   8
0
 100
AcDbBlockBegin
   2
_DOTSMALL
  70
0
  10
0.0
  20
0.0
  30
0.0
   3
_DOTSMALL
   0
POLYLINE
   5
AC
 100
AcDbEntity
   8
0
   6
BYBLOCK
  62
0
 100
AcDb2dPolyline
  66
1
  10
0.0
  20
0.0
  30
0.0
  70
1
  40
 0.500000
  41
 0.500000
   0
VERTEX
   5
AD
 100
AcDbEntity
   8
0
   6
BYBLOCK
  62
0
 100
AcDbVertex
 100
AcDb2dVertex
  10
-0.625000E-1
  20
0.0
  30
0.0
  42
 1.00000
  40
 0.500000
  41
 0.500000
   0
VERTEX
   5
AE
 100
AcDbEntity
   8
0
   6
BYBLOCK
  62
0
 100
AcDbVertex
 100
AcDb2dVertex
  10
 0.625000E-1
  20
0.0
  30
0.0
  42
 1.00000
  40
 0.500000
  41
 0.500000
   0
SEQEND
   5
AF
 100
AcDbEntity
   8
0
   6
BYBLOCK
  62
0
   0
ENDBLK
   5
B0
 100
AcDbEntity
   8
0
 100
AcDbBlockEnd
   0
BLOCK
   5
B1
 100
AcDbEntity
   8
0
 100
AcDbBlockBegin
   2
_DATUMBLANK
  70
0
  10
0.0
  20
0.0
  30
0.0
   3
_DATUMBLANK
   0
LINE
   5
B2
 100
AcDbEntity
   8
0
 100
AcDbLine
   6
BYBLOCK
  62
0
  10
0.0
  20
 0.577350
  30
0.0
  11
-1.00000
  21
0.0
  31
0.0
   0
LINE
   5
B3
 100
AcDbEntity
   8
0
 100
AcDbLine
   6
BYBLOCK
  62
0
  10
-1.00000
  20
0.0
  30
0.0
  11
0.0
  21
-0.577350
  31
0.0
   0
LINE
   5
B4
 100
AcDbEntity
   8
0
 100
AcDbLine
   6
BYBLOCK
  62
0
  10
0.0
  20
-0.577350
  30
0.0
  11
0.0
  21
 0.577350
  31
0.0
   0
ENDBLK
   5
B5
 100
AcDbEntity
   8
0
 100
AcDbBlockEnd
   0
BLOCK
   5
B6
 100
AcDbEntity
   8
0
 100
AcDbBlockBegin
   2
_DATUMFILLED
  70
0
  10
0.0
  20
0.0
  30
0.0
   3
_DATUMFILLED
   0
SOLID
   5
B7
 100
AcDbEntity
   8
0
 100
AcDbTrace
   6
BYBLOCK
  62
0
  10
0.0
  20
 0.577350
  30
0.0
  11
-1.00000
  21
0.0
  31
0.0
  12
0.0
  22
-0.577350
  32
0.0
  13
0.0
  23
-0.577350
  33
0.0
   0
ENDBLK
   5
B8
 100
AcDbEntity
   8
0
 100
AcDbBlockEnd
   0
BLOCK
   5
B9
 100
AcDbEntity
   8
0
 100
AcDbBlockBegin
   2
_ORIGIN
  70
0
  10
0.0
  20
0.0
  30
0.0
   3
_ORIGIN
   0
CIRCLE
   5
BA
 100
AcDbEntity
   8
0
 100
AcDbCircle
   6
BYBLOCK
  62
0
  10
0.0
  20
0.0
  30
0.0
  40
 0.500000
   0
LINE
   5
BB
 100
AcDbEntity
   8
0
 100
AcDbLine
   6
BYBLOCK
  62
0
  10
0.0
  20
0.0
  30
0.0
  11
-1.00000
  21
0.0
  31
0.0
   0
ENDBLK
   5
BC
 100
AcDbEntity
   8
0
 100
AcDbBlockEnd
   0
BLOCK
   5
BD
 100
AcDbEntity
   8
0
 100
AcDbBlockBegin
   2
_NONE
  70
0
  10
0.0
  20
0.0
  30
0.0
   3
_NONE
   0
CIRCLE
   5
BE
 100
AcDbEntity
   8
0
 100
AcDbCircle
   6
BYBLOCK
  62
0
  10
0.0
  20
0.0
  30
0.0
  40
 0.250000
   0
ENDBLK
   5
BF
 100
AcDbEntity
   8
0
 100
AcDbBlockEnd
   0
BLOCK
   5
C0
 100
AcDbEntity
   8
0
 100
AcDbBlockBegin
   2
_DOTBLANK
  70
0
  10
0.0
  20
0.0
  30
0.0
   3
_DOTBLANK
   0
CIRCLE
   5
C1
 100
AcDbEntity
   8
0
 100
AcDbCircle
   6
BYBLOCK
  62
0
  10
0.0
  20
0.0
  30
0.0
  40
 0.500000
   0
LINE
   5
C2
 100
AcDbEntity
   8
0
 100
AcDbLine
   6
BYBLOCK
  62
0
  10
-0.500000
  20
0.0
  30
0.0
  11
-1.00000
  21
0.0
  31
0.0
   0
ENDBLK
   5
C3
 100
AcDbEntity
   8
0
 100
AcDbBlockEnd
   0
BLOCK
   5
C4
 100
AcDbEntity
   8
0
 100
AcDbBlockBegin
   2
_INTEGRAL
  70
0
  10
0.0
  20
0.0
  30
0.0
   3
_INTEGRAL
   0
ARC
   5
C5
 100
AcDbEntity
   8
0
   6
BYBLOCK
  62
0
 100
AcDbCircle
  10
 0.444888
  20
-0.913350E-1
  30
0.0
  40
 0.454167
 100
AcDbArc
  50
 102.000
  51
 168.000
   0
ARC
   5
C6
 100
AcDbEntity
   8
0
   6
BYBLOCK
  62
0
 100
AcDbCircle
  10
-0.444888
  20
 0.913350E-1
  30
0.0
  40
 0.454167
 100
AcDbArc
  50
 282.000
  51
 348.000
   0
ENDBLK
   5
C7
 100
AcDbEntity
   8
0
 100
AcDbBlockEnd
   0
BLOCK
   5
C8
 100
AcDbEntity
   8
0
 100
AcDbBlockBegin
   2
*D1
  70
65
  10
0.0
  20
0.0
  30
0.0
   3
*D1
   0
LINE
   5
C9
 100
AcDbEntity
   8
LEVEL003
 100
AcDbLine
   6
CONTINUOUS
  62
3
  10
 169.687
  20
 90.3302
  30
0.0
  11
 139.187
  21
 90.3302
  31
0.0
   0
LINE
   5
CA
 100
AcDbEntity
   8
LEVEL003
 100
AcDbLine
   6
CONTINUOUS
  62
3
  10
 167.187
  20
 222.330
  30
0.0
  11
 139.187
  21
 222.330
  31
0.0
   0
LINE
   5
CB
 100
AcDbEntity
   8
LEVEL003
 100
AcDbLine
   6
CONTINUOUS
  62
3
  10
 145.187
  20
 90.3302
  30
0.0
  11
 145.187
  21
 140.186
  31
0.0
   0
LINE
   5
CC
 100
AcDbEntity
   8
LEVEL003
 100
AcDbLine
   6
CONTINUOUS
  62
3
  10
 145.187
  20
 222.330
  30
0.0
  11
 145.187
  21
 172.474
  31
0.0
   0
INSERT
   5
CD
 100
AcDbEntity
   8
LEVEL003
   6
CONTINUOUS
  62
3
 100
AcDbBlockReference
   2
_OPEN
  10
 145.187
  20
 90.3302
  30
0.0
  41
 9.00000
  42
 9.00000
  43
 9.00000
  50
 270.000
   0
INSERT
   5
CE
 100
AcDbEntity
   8
LEVEL003
   6
CONTINUOUS
  62
3
 100
AcDbBlockReference
   2
_OPEN
  10
 145.187
  20
 222.330
  30
0.0
  41
 9.00000
  42
 9.00000
  43
 9.00000
  50
 90.0000
   0
MTEXT
   5
CF
 100
AcDbEntity
   8
LEVEL003
  62
3
 100
AcDbMText
  10
 142.787
  20
 156.330
  30
0.0
  40
 12.0000
  41
0.0
  71
8
  72
1
   1
\A1;132
   7
GMM001
  11
0.0
  21
 1.00000
  31
0.0
   0
ENDBLK
   5
D0
 100
AcDbEntity
   8
0
 100
AcDbBlockEnd
   0
BLOCK
   5
D1
 100
AcDbEntity
   8
0
 100
AcDbBlockBegin
   2
*D2
  70
65
  10
0.0
  20
0.0
  30
0.0
   3
*D2
   0
LINE
   5
D2
 100
AcDbEntity
   8
LEVEL003
 100
AcDbLine
   6
CONTINUOUS
  62
3
  10
 182.687
  20
 84.3302
  30
0.0
  11
 182.687
  21
 61.8302
  31
0.0
   0
LINE
   5
D3
 100
AcDbEntity
   8
LEVEL003
 100
AcDbLine
   6
CONTINUOUS
  62
3
  10
 317.687
  20
 84.3302
  30
0.0
  11
 317.687
  21
 61.8302
  31
0.0
   0
LINE
   5
D4
 100
AcDbEntity
   8
LEVEL003
 100
AcDbLine
   6
CONTINUOUS
  62
3
  10
 182.687
  20
 67.8302
  30
0.0
  11
 234.043
  21
 67.8302
  31
0.0
   0
LINE
   5
D5
 100
AcDbEntity
   8
LEVEL003
 100
AcDbLine
   6
CONTINUOUS
  62
3
  10
 317.687
  20
 67.8302
  30
0.0
  11
 266.331
  21
 67.8302
  31
0.0
   0
INSERT
   5
D6
 100
AcDbEntity
   8
LEVEL003
   6
CONTINUOUS
  62
3
 100
AcDbBlockReference
   2
_OPEN
  10
 182.687
  20
 67.8302
  30
0.0
  41
 9.00000
  42
 9.00000
  43
 9.00000
  50
 180.000
   0
INSERT
   5
D7
 100
AcDbEntity
   8
LEVEL003
   6
CONTINUOUS
  62
3
 100
AcDbBlockReference
   2
_OPEN
  10
 317.687
  20
 67.8302
  30
0.0
  41
 9.00000
  42
 9.00000
  43
 9.00000
  50
0.0
   0
MTEXT
   5
D8
 100
AcDbEntity
   8
LEVEL003
  62
3
 100
AcDbMText
  10
 250.187
  20
 70.2302
  30
0.0
  40
 12.0000
  41
0.0
  71
8
  72
1
   1
\A1;135
   7
GMM001
   0
ENDBLK
   5
D9
 100
AcDbEntity
   8
0
 100
AcDbBlockEnd
   0
BLOCK
   5
DA
 100
AcDbEntity
   8
0
 100
AcDbBlockBegin
   2
*D3
  70
65
  10
0.0
  20
0.0
  30
0.0
   3
*D3
   0
LINE
   5
DB
 100
AcDbEntity
   8
LEVEL003
 100
AcDbLine
   6
CONTINUOUS
  62
3
  10
 527.687
  20
 84.3302
  30
0.0
  11
 527.687
  21
 61.8302
  31
0.0
   0
LINE
   5
DC
 100
AcDbEntity
   8
LEVEL003
 100
AcDbLine
   6
CONTINUOUS
  62
3
  10
 722.687
  20
 84.3302
  30
0.0
  11
 722.687
  21
 61.8302
  31
0.0
   0
LINE
   5
DD
 100
AcDbEntity
   8
LEVEL003
 100
AcDbLine
   6
CONTINUOUS
  62
3
  10
 527.687
  20
 67.8302
  30
0.0
  11
 609.043
  21
 67.8302
  31
0.0
   0
LINE
   5
DE
 100
AcDbEntity
   8
LEVEL003
 100
AcDbLine
   6
CONTINUOUS
  62
3
  10
 722.687
  20
 67.8302
  30
0.0
  11
 641.331
  21
 67.8302
  31
0.0
   0
INSERT
   5
DF
 100
AcDbEntity
   8
LEVEL003
   6
CONTINUOUS
  62
3
 100
AcDbBlockReference
   2
_OPEN
  10
 527.687
  20
 67.8302
  30
0.0
  41
 9.00000
  42
 9.00000
  43
 9.00000
  50
 180.000
   0
INSERT
   5
E0
 100
AcDbEntity
   8
LEVEL003
   6
CONTINUOUS
  62
3
 100
AcDbBlockReference
   2
_OPEN
  10
 722.687
  20
 67.8302
  30
0.0
  41
 9.00000
  42
 9.00000
  43
 9.00000
  50
0.0
   0
MTEXT
   5
E1
 100
AcDbEntity
   8
LEVEL003
  62
3
 100
AcDbMText
  10
 625.187
  20
 70.2302
  30
0.0
  40
 12.0000
  41
0.0
  71
8
  72
1
   1
\A1;195
   7
GMM001
   0
ENDBLK
   5
E2
 100
AcDbEntity
   8
0
 100
AcDbBlockEnd
   0
BLOCK
   5
E3
 100
AcDbEntity
   8
0
 100
AcDbBlockBegin
   2
*D12
  70
65
  10
0.0
  20
0.0
  30
0.0
   3
*D12
   0
LINE
   5
E4
 100
AcDbEntity
   8
LEVEL003
 100
AcDbLine
   6
CONTINUOUS
  62
3
  10
 172.687
  20
 72.7302
  30
0.0
  11
 172.687
  21
 39.3302
  31
0.0
   0
LINE
   5
E5
 100
AcDbEntity
   8
LEVEL003
 100
AcDbLine
   6
CONTINUOUS
  62
3
  10
 327.687
  20
 72.7302
  30
0.0
  11
 327.687
  21
 39.3302
  31
0.0
   0
LINE
   5
E6
 100
AcDbEntity
   8
LEVEL003
 100
AcDbLine
   6
CONTINUOUS
  62
3
  10
 172.687
  20
 45.3302
  30
0.0
  11
 234.043
  21
 45.3302
  31
0.0
   0
LINE
   5
E7
 100
AcDbEntity
   8
LEVEL003
 100
AcDbLine
   6
CONTINUOUS
  62
3
  10
 327.687
  20
 45.3302
  30
0.0
  11
 266.331
  21
 45.3302
  31
0.0
   0
INSERT
   5
E8
 100
AcDbEntity
   8
LEVEL003
   6
CONTINUOUS
  62
3
 100
AcDbBlockReference
   2
_OPEN
  10
 172.687
  20
 45.3302
  30
0.0
  41
 9.00000
  42
 9.00000
  43
 9.00000
  50
 180.000
   0
INSERT
   5
E9
 100
AcDbEntity
   8
LEVEL003
   6
CONTINUOUS
  62
3
 100
AcDbBlockReference
   2
_OPEN
  10
 327.687
  20
 45.3302
  30
0.0
  41
 9.00000
  42
 9.00000
  43
 9.00000
  50
0.0
   0
MTEXT
   5
EA
 100
AcDbEntity
   8
LEVEL003
  62
3
 100
AcDbMText
  10
 250.187
  20
 47.7302
  30
0.0
  40
 12.0000
  41
0.0
  71
8
  72
1
   1
\A1;155
   7
GMM001
   0
ENDBLK
   5
EB
 100
AcDbEntity
   8
0
 100
AcDbBlockEnd
   0
BLOCK
   5
EC
 100
AcDbEntity
   8
0
 100
AcDbBlockBegin
   2
*D13
  70
65
  10
0.0
  20
0.0
  30
0.0
   3
*D13
   0
LINE
   5
ED
 100
AcDbEntity
   8
LEVEL003
 100
AcDbLine
   6
CONTINUOUS
  62
3
  10
 732.687
  20
 72.7302
  30
0.0
  11
 732.687
  21
 39.3302
  31
0.0
   0
LINE
   5
EE
 100
AcDbEntity
   8
LEVEL003
 100
AcDbLine
   6
CONTINUOUS
  62
3
  10
 517.687
  20
 72.7302
  30
0.0
  11
 517.687
  21
 39.3302
  31
0.0
   0
LINE
   5
EF
 100
AcDbEntity
   8
LEVEL003
 100
AcDbLine
   6
CONTINUOUS
  62
3
  10
 732.687
  20
 45.3302
  30
0.0
  11
 641.331
  21
 45.3302
  31
0.0
   0
LINE
   5
F0
 100
AcDbEntity
   8
LEVEL003
 100
AcDbLine
   6
CONTINUOUS
  62
3
  10
 517.687
  20
 45.3302
  30
0.0
  11
 609.043
  21
 45.3302
  31
0.0
   0
INSERT
   5
F1
 100
AcDbEntity
   8
LEVEL003
   6
CONTINUOUS
  62
3
 100
AcDbBlockReference
   2
_OPEN
  10
 732.687
  20
 45.3302
  30
0.0
  41
 9.00000
  42
 9.00000
  43
 9.00000
  50
0.0
   0
INSERT
   5
F2
 100
AcDbEntity
   8
LEVEL003
   6
CONTINUOUS
  62
3
 100
AcDbBlockReference
   2
_OPEN
  10
 517.687
  20
 45.3302
  30
0.0
  41
 9.00000
  42
 9.00000
  43
 9.00000
  50
 180.000
   0
MTEXT
   5
F3
 100
AcDbEntity
   8
LEVEL003
  62
3
 100
AcDbMText
  10
 625.187
  20
 47.7302
  30
0.0
  40
 12.0000
  41
0.0
  71
8
  72
1
   1
\A1;215
   7
GMM001
   0
ENDBLK
   5
F4
 100
AcDbEntity
   8
0
 100
AcDbBlockEnd
   0
BLOCK
   5
F5
 100
AcDbEntity
   8
0
 100
AcDbBlockBegin
   2
*D19
  70
65
  10
0.0
  20
0.0
  30
0.0
   3
*D19
   0
LINE
   5
F6
 100
AcDbEntity
   8
LEVEL003
 100
AcDbLine
   6
CONTINUOUS
  62
3
  10
 169.687
  20
 75.7302
  30
0.0
  11
 109.187
  21
 75.7302
  31
0.0
   0
LINE
   5
F7
 100
AcDbEntity
   8
LEVEL003
 100
AcDbLine
   6
CONTINUOUS
  62
3
  10
 201.887
  20
 443.330
  30
0.0
  11
 109.187
  21
 443.330
  31
0.0
   0
LINE
   5
F8
 100
AcDbEntity
   8
LEVEL003
 100
AcDbLine
   6
CONTINUOUS
  62
3
  10
 115.187
  20
 75.7302
  30
0.0
  11
 115.187
  21
 259.530
  31
0.0
   0
LINE
   5
F9
 100
AcDbEntity
   8
LEVEL003
 100
AcDbLine
   6
CONTINUOUS
  62
3
  10
 115.187
  20
 443.330
  30
0.0
  11
 115.187
  21
 259.530
  31
0.0
   0
INSERT
   5
FA
 100
AcDbEntity
   8
LEVEL003
   6
CONTINUOUS
  62
3
 100
AcDbBlockReference
   2
_OPEN
  10
 115.187
  20
 75.7302
  30
0.0
  41
 9.00000
  42
 9.00000
  43
 9.00000
  50
 270.000
   0
INSERT
   5
FB
 100
AcDbEntity
   8
LEVEL003
   6
CONTINUOUS
  62
3
 100
AcDbBlockReference
   2
_OPEN
  10
 115.187
  20
 443.330
  30
0.0
  41
 9.00000
  42
 9.00000
  43
 9.00000
  50
 90.0000
   0
MTEXT
   5
FC
 100
AcDbEntity
   8
LEVEL003
  62
3
 100
AcDbMText
  10
 112.787
  20
 259.530
  30
0.0
  40
 12.0000
  41
0.0
  71
8
  72
1
   1
\A1;約370
   7
GMM001
  11
0.0
  21
 1.00000
  31
0.0
   0
ENDBLK
   5
FD
 100
AcDbEntity
   8
0
 100
AcDbBlockEnd
   0
BLOCK
   5
FE
 100
AcDbEntity
   8
0
 100
AcDbBlockBegin
   2
*D21
  70
65
  10
0.0
  20
0.0
  30
0.0
   3
*D21
   0
LINE
   5
FF
 100
AcDbEntity
   8
LEVEL003
 100
AcDbLine
   6
CONTINUOUS
  62
3
  10
 448.497
  20
 609.712
  30
0.0
  11
 448.497
  21
 459.330
  31
0.0
   0
LINE
   5
100
 100
AcDbEntity
   8
LEVEL003
 100
AcDbLine
   6
CONTINUOUS
  62
3
  10
 448.497
  20
 465.330
  30
0.0
  11
 481.842
  21
 465.330
  31
0.0
   0
LINE
   5
101
 100
AcDbEntity
   8
LEVEL003
 100
AcDbLine
   6
CONTINUOUS
  62
3
  10
 515.187
  20
 465.330
  30
0.0
  11
 481.842
  21
 465.330
  31
0.0
   0
INSERT
   5
102
 100
AcDbEntity
   8
LEVEL003
   6
CONTINUOUS
  62
3
 100
AcDbBlockReference
   2
_OPEN
  10
 448.497
  20
 465.330
  30
0.0
  41
 9.00000
  42
 9.00000
  43
 9.00000
  50
 180.000
   0
INSERT
   5
103
 100
AcDbEntity
   8
LEVEL003
   6
CONTINUOUS
  62
3
 100
AcDbBlockReference
   2
_OPEN
  10
 515.187
  20
 465.330
  30
0.0
  41
 9.00000
  42
 9.00000
  43
 9.00000
  50
0.0
   0
MTEXT
   5
104
 100
AcDbEntity
   8
LEVEL003
  62
3
 100
AcDbMText
  10
 481.842
  20
 467.730
  30
0.0
  40
 12.0000
  41
0.0
  71
8
  72
1
   1
\A1;約67
   7
GMM001
   0
ENDBLK
   5
105
 100
AcDbEntity
   8
0
 100
AcDbBlockEnd
   0
BLOCK
   5
106
 100
AcDbEntity
   8
0
 100
AcDbBlockBegin
   2
*D22
  70
65
  10
0.0
  20
0.0
  30
0.0
   3
*D22
   0
LINE
   5
107
 100
AcDbEntity
   8
LEVEL003
 100
AcDbLine
   6
CONTINUOUS
  62
3
  10
 515.187
  20
 532.330
  30
0.0
  11
 515.187
  21
 459.330
  31
0.0
   0
LINE
   5
108
 100
AcDbEntity
   8
LEVEL003
 100
AcDbLine
   6
CONTINUOUS
  62
3
  10
 735.187
  20
 532.330
  30
0.0
  11
 735.187
  21
 459.330
  31
0.0
   0
LINE
   5
109
 100
AcDbEntity
   8
LEVEL003
 100
AcDbLine
   6
CONTINUOUS
  62
3
  10
 515.187
  20
 465.330
  30
0.0
  11
 608.125
  21
 465.330
  31
0.0
   0
LINE
   5
10A
 100
AcDbEntity
   8
LEVEL003
 100
AcDbLine
   6
CONTINUOUS
  62
3
  10
 735.187
  20
 465.330
  30
0.0
  11
 642.250
  21
 465.330
  31
0.0
   0
INSERT
   5
10B
 100
AcDbEntity
   8
LEVEL003
   6
CONTINUOUS
  62
3
 100
AcDbBlockReference
   2
_OPEN
  10
 515.187
  20
 465.330
  30
0.0
  41
 9.00000
  42
 9.00000
  43
 9.00000
  50
 180.000
   0
INSERT
   5
10C
 100
AcDbEntity
   8
LEVEL003
   6
CONTINUOUS
  62
3
 100
AcDbBlockReference
   2
_OPEN
  10
 735.187
  20
 465.330
  30
0.0
  41
 9.00000
  42
 9.00000
  43
 9.00000
  50
0.0
   0
MTEXT
   5
10D
 100
AcDbEntity
   8
LEVEL003
  62
3
 100
AcDbMText
  10
 625.187
  20
 467.730
  30
0.0
  40
 12.0000
  41
0.0
  71
8
  72
1
   1
\A1;220
   7
GMM001
   0
ENDBLK
   5
10E
 100
AcDbEntity
   8
0
 100
AcDbBlockEnd
   0
BLOCK
   5
10F
 100
AcDbEntity
   8
0
 100
AcDbBlockBegin
   2
*D23
  70
65
  10
0.0
  20
0.0
  30
0.0
   3
*D23
   0
LINE
   5
110
 100
AcDbEntity
   8
LEVEL003
 100
AcDbLine
   6
CONTINUOUS
  62
3
  10
 723.187
  20
 520.330
  30
0.0
  11
 796.187
  21
 520.330
  31
0.0
   0
LINE
   5
111
 100
AcDbEntity
   8
LEVEL003
 100
AcDbLine
   6
CONTINUOUS
  62
3
  10
 723.187
  20
 680.330
  30
0.0
  11
 796.187
  21
 680.330
  31
0.0
   0
LINE
   5
112
 100
AcDbEntity
   8
LEVEL003
 100
AcDbLine
   6
CONTINUOUS
  62
3
  10
 790.187
  20
 520.330
  30
0.0
  11
 790.187
  21
 585.236
  31
0.0
   0
LINE
   5
113
 100
AcDbEntity
   8
LEVEL003
 100
AcDbLine
   6
CONTINUOUS
  62
3
  10
 790.187
  20
 680.330
  30
0.0
  11
 790.187
  21
 615.424
  31
0.0
   0
INSERT
   5
114
 100
AcDbEntity
   8
LEVEL003
   6
CONTINUOUS
  62
3
 100
AcDbBlockReference
   2
_OPEN
  10
 790.187
  20
 520.330
  30
0.0
  41
 9.00000
  42
 9.00000
  43
 9.00000
  50
 270.000
   0
INSERT
   5
115
 100
AcDbEntity
   8
LEVEL003
   6
CONTINUOUS
  62
3
 100
AcDbBlockReference
   2
_OPEN
  10
 790.187
  20
 680.330
  30
0.0
  41
 9.00000
  42
 9.00000
  43
 9.00000
  50
 90.0000
   0
MTEXT
   5
116
 100
AcDbEntity
   8
LEVEL003
  62
3
 100
AcDbMText
  10
 787.787
  20
 600.330
  30
0.0
  40
 12.0000
  41
0.0
  71
8
  72
1
   1
\A1;160
   7
GMM001
  11
0.0
  21
 1.00000
  31
0.0
   0
ENDBLK
   5
117
 100
AcDbEntity
   8
0
 100
AcDbBlockEnd
   0
ENDSEC
   0
SECTION
   2
ENTITIES
   0
LINE
   5
118
 100
AcDbEntity
   8
LEVEL020
 100
AcDbLine
   6
DASHDOT
  62
1
  10
 625.187
  20
 210.330
  30
0.0
  11
 625.187
  21
 90.3302
  31
0.0
   0
LINE
   5
119
 100
AcDbEntity
   8
LEVEL020
 100
AcDbLine
   6
DASHDOT
  62
1
  10
 625.187
  20
 222.330
  30
0.0
  11
 625.187
  21
 210.330
  31
0.0
   0
LINE
   5
11A
 100
AcDbEntity
   8
LEVEL019
 100
AcDbLine
   6
CONTINUOUS
  62
3
  10
 735.187
  20
 210.330
  30
0.0
  11
 735.187
  21
 222.330
  31
0.0
   0
LINE
   5
11B
 100
AcDbEntity
   8
LEVEL019
 100
AcDbLine
   6
CONTINUOUS
  62
3
  10
 515.187
  20
 210.330
  30
0.0
  11
 515.187
  21
 222.330
  31
0.0
   0
ARC
   5
11C
 100
AcDbEntity
   8
LEVEL011
   6
CONTINUOUS
  62
3
 100
AcDbCircle
  10
 777.187
  20
 231.828
  30
0.0
  40
 2.50000
 100
AcDbArc
  50
 216.870
  51
 323.130
   0
ARC
   5
11D
 100
AcDbEntity
   8
LEVEL011
   6
CONTINUOUS
  62
3
 100
AcDbCircle
  10
 777.187
  20
 228.828
  30
0.0
  40
 2.50000
 100
AcDbArc
  50
 36.8699
  51
 143.130
   0
ARC
   5
11E
 100
AcDbEntity
   8
LEVEL011
   6
CONTINUOUS
  62
3
 100
AcDbCircle
  10
 773.187
  20
 228.828
  30
0.0
  40
 2.50000
 100
AcDbArc
  50
 36.8699
  51
 143.130
   0
ARC
   5
11F
 100
AcDbEntity
   8
LEVEL011
   6
CONTINUOUS
  62
3
 100
AcDbCircle
  10
 773.187
  20
 233.828
  30
0.0
  40
 2.50000
 100
AcDbArc
  50
 36.8699
  51
 143.130
   0
ARC
   5
120
 100
AcDbEntity
   8
LEVEL011
   6
CONTINUOUS
  62
3
 100
AcDbCircle
  10
 777.187
  20
 236.828
  30
0.0
  40
 2.50000
 100
AcDbArc
  50
 216.870
  51
 323.130
   0
ARC
   5
121
 100
AcDbEntity
   8
LEVEL011
   6
CONTINUOUS
  62
3
 100
AcDbCircle
  10
 773.187
  20
 236.828
  30
0.0
  40
 2.50000
 100
AcDbArc
  50
 216.870
  51
 323.130
   0
LINE
   5
122
 100
AcDbEntity
   8
LEVEL011
 100
AcDbLine
   6
CONTINUOUS
  62
3
  10
 782.187
  20
 125.330
  30
0.0
  11
 782.187
  21
 135.330
  31
0.0
   0
LINE
   5
123
 100
AcDbEntity
   8
LEVEL011
 100
AcDbLine
   6
CONTINUOUS
  62
3
  10
 780.187
  20
 125.330
  30
0.0
  11
 782.187
  21
 125.330
  31
0.0
   0
LINE
   5
124
 100
AcDbEntity
   8
LEVEL011
 100
AcDbLine
   6
CONTINUOUS
  62
3
  10
 780.187
  20
 135.330
  30
0.0
  11
 780.187
  21
 125.330
  31
0.0
   0
LINE
   5
125
 100
AcDbEntity
   8
LEVEL011
 100
AcDbLine
   6
CONTINUOUS
  62
3
  10
 770.187
  20
 125.330
  30
0.0
  11
 768.187
  21
 125.330
  31
0.0
   0
LINE
   5
126
 100
AcDbEntity
   8
LEVEL011
 100
AcDbLine
   6
CONTINUOUS
  62
3
  10
 770.187
  20
 135.330
  30
0.0
  11
 770.187
  21
 125.330
  31
0.0
   0
LINE
   5
127
 100
AcDbEntity
   8
LEVEL011
 100
AcDbLine
   6
CONTINUOUS
  62
3
  10
 765.187
  20
 160.330
  30
0.0
  11
 765.187
  21
 135.330
  31
0.0
   0
LINE
   5
128
 100
AcDbEntity
   8
LEVEL011
 100
AcDbLine
   6
CONTINUOUS
  62
3
  10
 765.187
  20
 160.330
  30
0.0
  11
 770.187
  21
 165.330
  31
0.0
   0
LINE
   5
129
 100
AcDbEntity
   8
LEVEL011
 100
AcDbLine
   6
CONTINUOUS
  62
3
  10
 779.187
  20
 165.330
  30
0.0
  11
 779.187
  21
 230.328
  31
0.0
   0
LINE
   5
12A
 100
AcDbEntity
   8
LEVEL011
 100
AcDbLine
   6
CONTINUOUS
  62
3
  10
 771.187
  20
 165.330
  30
0.0
  11
 771.187
  21
 230.328
  31
0.0
   0
LINE
   5
12B
 100
AcDbEntity
   8
LEVEL011
 100
AcDbLine
   6
CONTINUOUS
  62
3
  10
 780.187
  20
 165.330
  30
0.0
  11
 770.187
  21
 165.330
  31
0.0
   0
LINE
   5
12C
 100
AcDbEntity
   8
LEVEL011
 100
AcDbLine
   6
CONTINUOUS
  62
3
  10
 799.187
  20
 120.330
  30
0.0
  11
 799.187
  21
 125.330
  31
0.0
   0
LINE
   5
12D
 100
AcDbEntity
   8
LEVEL011
 100
AcDbLine
   6
CONTINUOUS
  62
3
  10
 796.687
  20
 125.330
  30
0.0
  11
 801.687
  21
 125.330
  31
0.0
   0
LINE
   5
12E
 100
AcDbEntity
   8
LEVEL011
 100
AcDbLine
   6
CONTINUOUS
  62
3
  10
 803.187
  20
 130.330
  30
0.0
  11
 801.187
  21
 145.330
  31
0.0
   0
LINE
   5
12F
 100
AcDbEntity
   8
LEVEL011
 100
AcDbLine
   6
CONTINUOUS
  62
3
  10
 800.187
  20
 120.330
  30
0.0
  11
 803.187
  21
 130.330
  31
0.0
   0
LINE
   5
130
 100
AcDbEntity
   8
LEVEL011
 100
AcDbLine
   6
CONTINUOUS
  62
3
  10
 795.187
  20
 130.330
  30
0.0
  11
 798.187
  21
 120.330
  31
0.0
   0
LINE
   5
131
 100
AcDbEntity
   8
LEVEL011
 100
AcDbLine
   6
CONTINUOUS
  62
3
  10
 797.187
  20
 145.330
  30
0.0
  11
 795.187
  21
 130.330
  31
0.0
   0
LINE
   5
132
 100
AcDbEntity
   8
LEVEL011
 100
AcDbLine
   6
CONTINUOUS
  62
3
  10
 797.187
  20
 145.330
  30
0.0
  11
 801.187
  21
 145.330
  31
0.0
   0
LINE
   5
133
 100
AcDbEntity
   8
LEVEL011
 100
AcDbLine
   6
CONTINUOUS
  62
3
  10
 800.187
  20
 145.330
  30
0.0
  11
 800.187
  21
 155.330
  31
0.0
   0
LINE
   5
134
 100
AcDbEntity
   8
LEVEL011
 100
AcDbLine
   6
CONTINUOUS
  62
3
  10
 798.187
  20
 145.330
  30
0.0
  11
 798.187
  21
 155.330
  31
0.0
   0
ARC
   5
135
 100
AcDbEntity
   8
LEVEL011
   6
CONTINUOUS
  62
3
 100
AcDbCircle
  10
 790.187
  20
 155.330
  30
0.0
  40
 10.0000
 100
AcDbArc
  50
 0.110734E-10
  51
 135.000
   0
ARC
   5
136
 100
AcDbEntity
   8
LEVEL011
   6
CONTINUOUS
  62
3
 100
AcDbCircle
  10
 790.187
  20
 155.330
  30
0.0
  40
 8.00000
 100
AcDbArc
  50
 0.372507E-10
  51
 135.000
   0
LINE
   5
137
 100
AcDbEntity
   8
LEVEL011
 100
AcDbLine
   6
CONTINUOUS
  62
3
  10
 780.187
  20
 165.330
  30
0.0
  11
 785.187
  21
 160.330
  31
0.0
   0
LINE
   5
138
 100
AcDbEntity
   8
LEVEL011
 100
AcDbLine
   6
CONTINUOUS
  62
3
  10
 785.187
  20
 135.330
  30
0.0
  11
 785.187
  21
 160.330
  31
0.0
   0
LINE
   5
139
 100
AcDbEntity
   8
LEVEL011
 100
AcDbLine
   6
CONTINUOUS
  62
3
  10
 765.187
  20
 135.330
  30
0.0
  11
 785.187
  21
 135.330
  31
0.0
   0
LINE
   5
13A
 100
AcDbEntity
   8
LEVEL011
 100
AcDbLine
   6
CONTINUOUS
  62
3
  10
 768.187
  20
 125.330
  30
0.0
  11
 768.187
  21
 135.330
  31
0.0
   0
LINE
   5
13B
 100
AcDbEntity
   8
LEVEL011
 100
AcDbLine
   6
CONTINUOUS
  62
3
  10
 798.187
  20
 120.330
  30
0.0
  11
 800.187
  21
 120.330
  31
0.0
   0
ARC
   5
13C
 100
AcDbEntity
   8
LEVEL011
   6
CONTINUOUS
  62
3
 100
AcDbCircle
  10
 761.187
  20
 256.330
  30
0.0
  40
 18.0000
 100
AcDbArc
  50
 0.144751E-11
  51
 90.0000
   0
ARC
   5
13D
 100
AcDbEntity
   8
LEVEL011
   6
CONTINUOUS
  62
3
 100
AcDbCircle
  10
 761.187
  20
 256.330
  30
0.0
  40
 10.0000
 100
AcDbArc
  50
 0.192156E-10
  51
 90.0000
   0
ARC
   5
13E
 100
AcDbEntity
   8
LEVEL011
   6
DASHDOT
  62
1
 100
AcDbCircle
  10
 761.187
  20
 256.330
  30
0.0
  40
 14.0000
 100
AcDbArc
  50
 0.837485E-11
  51
 90.0000
   0
LINE
   5
13F
 100
AcDbEntity
   8
LEVEL011
 100
AcDbLine
   6
CONTINUOUS
  62
3
  10
 779.187
  20
 235.328
  30
0.0
  11
 779.187
  21
 256.330
  31
0.0
   0
LINE
   5
140
 100
AcDbEntity
   8
LEVEL011
 100
AcDbLine
   6
CONTINUOUS
  62
3
  10
 771.187
  20
 235.328
  30
0.0
  11
 771.187
  21
 256.330
  31
0.0
   0
LINE
   5
141
 100
AcDbEntity
   8
LEVEL011
 100
AcDbLine
   6
DASHDOT
  62
1
  10
 775.187
  20
 131.330
  30
0.0
  11
 775.187
  21
 256.330
  31
0.0
   0
LINE
   5
142
 100
AcDbEntity
   8
LEVEL011
 100
AcDbLine
   6
CONTINUOUS
  62
3
  10
 858.187
  20
 242.328
  30
0.0
  11
 858.187
  21
 252.328
  31
0.0
   0
LINE
   5
143
 100
AcDbEntity
   8
LEVEL011
 100
AcDbLine
   6
CONTINUOUS
  62
3
  10
 842.187
  20
 242.328
  30
0.0
  11
 842.187
  21
 252.328
  31
0.0
   0
LINE
   5
144
 100
AcDbEntity
   8
LEVEL011
 100
AcDbLine
   6
CONTINUOUS
  62
3
  10
 858.187
  20
 242.328
  30
0.0
  11
 842.187
  21
 242.328
  31
0.0
   0
LINE
   5
145
 100
AcDbEntity
   8
LEVEL011
 100
AcDbLine
   6
CONTINUOUS
  62
3
  10
 858.187
  20
 252.328
  30
0.0
  11
 842.187
  21
 252.328
  31
0.0
   0
LINE
   5
146
 100
AcDbEntity
   8
LEVEL011
 100
AcDbLine
   6
CONTINUOUS
  62
3
  10
 865.187
  20
 186.328
  30
0.0
  11
 865.187
  21
 196.328
  31
0.0
   0
LINE
   5
147
 100
AcDbEntity
   8
LEVEL011
 100
AcDbLine
   6
CONTINUOUS
  62
3
  10
 835.187
  20
 186.328
  30
0.0
  11
 835.187
  21
 196.328
  31
0.0
   0
LINE
   5
148
 100
AcDbEntity
   8
LEVEL011
 100
AcDbLine
   6
CONTINUOUS
  62
3
  10
 865.187
  20
 186.328
  30
0.0
  11
 835.187
  21
 186.328
  31
0.0
   0
LINE
   5
149
 100
AcDbEntity
   8
LEVEL011
 100
AcDbLine
   6
CONTINUOUS
  62
3
  10
 865.187
  20
 196.328
  30
0.0
  11
 835.187
  21
 196.328
  31
0.0
   0
LINE
   5
14A
 100
AcDbEntity
   8
LEVEL011
 100
AcDbLine
   6
CONTINUOUS
  62
3
  10
 857.187
  20
 217.328
  30
0.0
  11
 857.187
  21
 242.328
  31
0.0
   0
LINE
   5
14B
 100
AcDbEntity
   8
LEVEL011
 100
AcDbLine
   6
CONTINUOUS
  62
3
  10
 843.187
  20
 217.328
  30
0.0
  11
 843.187
  21
 242.328
  31
0.0
   0
LINE
   5
14C
 100
AcDbEntity
   8
LEVEL011
 100
AcDbLine
   6
CONTINUOUS
  62
3
  10
 863.187
  20
 207.328
  30
0.0
  11
 860.187
  21
 217.328
  31
0.0
   0
LINE
   5
14D
 100
AcDbEntity
   8
LEVEL011
 100
AcDbLine
   6
CONTINUOUS
  62
3
  10
 837.187
  20
 207.328
  30
0.0
  11
 840.187
  21
 217.328
  31
0.0
   0
LINE
   5
14E
 100
AcDbEntity
   8
LEVEL011
 100
AcDbLine
   6
CONTINUOUS
  62
3
  10
 860.187
  20
 217.328
  30
0.0
  11
 840.187
  21
 217.328
  31
0.0
   0
LINE
   5
14F
 100
AcDbEntity
   8
LEVEL011
 100
AcDbLine
   6
CONTINUOUS
  62
3
  10
 869.187
  20
 207.328
  30
0.0
  11
 831.187
  21
 207.328
  31
0.0
   0
LINE
   5
150
 100
AcDbEntity
   8
LEVEL011
 100
AcDbLine
   6
CONTINUOUS
  62
3
  10
 869.187
  20
 200.493
  30
0.0
  11
 869.187
  21
 207.328
  31
0.0
   0
LINE
   5
151
 100
AcDbEntity
   8
LEVEL011
 100
AcDbLine
   6
CONTINUOUS
  62
3
  10
 831.187
  20
 200.493
  30
0.0
  11
 831.187
  21
 207.328
  31
0.0
   0
ARC
   5
152
 100
AcDbEntity
   8
LEVEL011
   6
CONTINUOUS
  62
3
 100
AcDbCircle
  10
 865.187
  20
 191.328
  30
0.0
  40
 10.0000
 100
AcDbArc
  50
 0.407111E-11
  51
 90.0000
   0
ARC
   5
153
 100
AcDbEntity
   8
LEVEL011
   6
CONTINUOUS
  62
3
 100
AcDbCircle
  10
 835.187
  20
 191.328
  30
0.0
  40
 10.0000
 100
AcDbArc
  50
 90.0000
  51
 180.000
   0
ARC
   5
154
 100
AcDbEntity
   8
LEVEL011
   6
CONTINUOUS
  62
3
 100
AcDbCircle
  10
 835.187
  20
 129.328
  30
0.0
  40
 10.0000
 100
AcDbArc
  50
 180.000
  51
 270.000
   0
ARC
   5
155
 100
AcDbEntity
   8
LEVEL011
   6
CONTINUOUS
  62
3
 100
AcDbCircle
  10
 865.187
  20
 129.328
  30
0.0
  40
 10.0000
 100
AcDbArc
  50
 270.000
  51
 0.227982E-11
   0
LINE
   5
156
 100
AcDbEntity
   8
LEVEL011
 100
AcDbLine
   6
CONTINUOUS
  62
3
  10
 865.187
  20
 201.328
  30
0.0
  11
 835.187
  21
 201.328
  31
0.0
   0
LINE
   5
157
 100
AcDbEntity
   8
LEVEL011
 100
AcDbLine
   6
CONTINUOUS
  62
3
  10
 865.187
  20
 119.328
  30
0.0
  11
 835.187
  21
 119.328
  31
0.0
   0
LINE
   5
158
 100
AcDbEntity
   8
LEVEL011
 100
AcDbLine
   6
CONTINUOUS
  62
3
  10
 875.187
  20
 129.328
  30
0.0
  11
 875.187
  21
 191.328
  31
0.0
   0
LINE
   5
159
 100
AcDbEntity
   8
LEVEL011
 100
AcDbLine
   6
CONTINUOUS
  62
3
  10
 825.187
  20
 129.328
  30
0.0
  11
 825.187
  21
 191.328
  31
0.0
   0
LINE
   5
15A
 100
AcDbEntity
   8
LEVEL011
 100
AcDbLine
   6
CONTINUOUS
  62
3
  10
 832.187
  20
 125.328
  30
0.0
  11
 832.187
  21
 165.328
  31
0.0
   0
LINE
   5
15B
 100
AcDbEntity
   8
LEVEL011
 100
AcDbLine
   6
CONTINUOUS
  62
3
  10
 835.187
  20
 125.328
  30
0.0
  11
 835.187
  21
 165.328
  31
0.0
   0
LINE
   5
15C
 100
AcDbEntity
   8
LEVEL011
 100
AcDbLine
   6
CONTINUOUS
  62
3
  10
 865.187
  20
 125.328
  30
0.0
  11
 865.187
  21
 165.328
  31
0.0
   0
LINE
   5
15D
 100
AcDbEntity
   8
LEVEL011
 100
AcDbLine
   6
CONTINUOUS
  62
3
  10
 868.187
  20
 125.328
  30
0.0
  11
 868.187
  21
 165.328
  31
0.0
   0
LINE
   5
15E
 100
AcDbEntity
   8
LEVEL011
 100
AcDbLine
   6
CONTINUOUS
  62
3
  10
 835.187
  20
 125.328
  30
0.0
  11
 832.187
  21
 125.328
  31
0.0
   0
LINE
   5
15F
 100
AcDbEntity
   8
LEVEL011
 100
AcDbLine
   6
CONTINUOUS
  62
3
  10
 868.187
  20
 125.328
  30
0.0
  11
 865.187
  21
 125.328
  31
0.0
   0
ARC
   5
160
 100
AcDbEntity
   8
LEVEL011
   6
CONTINUOUS
  62
3
 100
AcDbCircle
  10
 850.187
  20
 165.328
  30
0.0
  40
 18.0000
 100
AcDbArc
  50
0.0
  51
 180.000
   0
ARC
   5
161
 100
AcDbEntity
   8
LEVEL011
   6
CONTINUOUS
  62
3
 100
AcDbCircle
  10
 850.187
  20
 165.328
  30
0.0
  40
 15.0000
 100
AcDbArc
  50
0.0
  51
 180.000
   0
CIRCLE
   5
162
 100
AcDbEntity
   8
LEVEL011
 100
AcDbCircle
   6
CONTINUOUS
  62
3
  10
 850.187
  20
 165.328
  30
0.0
  40
 10.0000
   0
CIRCLE
   5
163
 100
AcDbEntity
   8
LEVEL011
 100
AcDbCircle
   6
CONTINUOUS
  62
3
  10
 850.187
  20
 135.328
  30
0.0
  40
 10.0000
   0
LINE
   5
164
 100
AcDbEntity
   8
LEVEL011
 100
AcDbLine
   6
CONTINUOUS
  62
3
  10
 847.187
  20
 302.330
  30
0.0
  11
 847.187
  21
 252.328
  31
0.0
   0
LINE
   5
165
 100
AcDbEntity
   8
LEVEL011
 100
AcDbLine
   6
CONTINUOUS
  62
3
  10
 853.187
  20
 302.330
  30
0.0
  11
 853.187
  21
 252.328
  31
0.0
   0
ARC
   5
166
 100
AcDbEntity
   8
LEVEL011
   6
CONTINUOUS
  62
3
 100
AcDbCircle
  10
 837.187
  20
 302.330
  30
0.0
  40
 10.0000
 100
AcDbArc
  50
0.0
  51
 90.0000
   0
ARC
   5
167
 100
AcDbEntity
   8
LEVEL011
   6
CONTINUOUS
  62
3
 100
AcDbCircle
  10
 837.187
  20
 302.330
  30
0.0
  40
 16.0000
 100
AcDbArc
  50
0.0
  51
 90.0000
   0
ARC
   5
168
 100
AcDbEntity
   8
LEVEL011
   6
DASHDOT
  62
1
 100
AcDbCircle
  10
 837.187
  20
 302.330
  30
0.0
  40
 13.0000
 100
AcDbArc
  50
0.0
  51
 90.0000
   0
LINE
   5
169
 100
AcDbEntity
   8
LEVEL011
 100
AcDbLine
   6
DASHDOT
  62
1
  10
 850.187
  20
 113.434
  30
0.0
  11
 850.187
  21
 302.330
  31
0.0
   0
LINE
   5
16A
 100
AcDbEntity
   8
LEVEL011
 100
AcDbLine
   6
DASHDOT
  62
1
  10
 761.187
  20
 270.330
  30
0.0
  11
 700.187
  21
 270.330
  31
0.0
   0
LINE
   5
16B
 100
AcDbEntity
   8
LEVEL011
 100
AcDbLine
   6
DASHDOT
  62
1
  10
 837.187
  20
 315.330
  30
0.0
  11
 700.187
  21
 315.330
  31
0.0
   0
LINE
   5
16C
 100
AcDbEntity
   8
LEVEL011
 100
AcDbLine
   6
CONTINUOUS
  62
3
  10
 745.187
  20
 318.330
  30
0.0
  11
 837.187
  21
 318.330
  31
0.0
   0
LINE
   5
16D
 100
AcDbEntity
   8
LEVEL011
 100
AcDbLine
   6
CONTINUOUS
  62
3
  10
 745.187
  20
 312.330
  30
0.0
  11
 837.187
  21
 312.330
  31
0.0
   0
LINE
   5
16E
 100
AcDbEntity
   8
LEVEL011
 100
AcDbLine
   6
CONTINUOUS
  62
3
  10
 761.187
  20
 274.330
  30
0.0
  11
 745.187
  21
 274.330
  31
0.0
   0
LINE
   5
16F
 100
AcDbEntity
   8
LEVEL011
 100
AcDbLine
   6
CONTINUOUS
  62
3
  10
 761.187
  20
 266.330
  30
0.0
  11
 745.187
  21
 266.330
  31
0.0
   0
DIMENSION
   5
170
 100
AcDbEntity
   8
LEVEL003
   6
CONTINUOUS
  62
3
 100
AcDbDimension
   2
*D1
  10
 145.187
  20
 222.330
  30
0.0
  11
 145.187
  21
 156.330
  31
0.0
  70
0
   1
\A1;132
   3
GMM001
 100
AcDbAlignedDimension
  13
 172.687
  23
 90.3302
  33
0.0
  14
 170.187
  24
 222.330
  34
0.0
  50
 90.0000
 100
AcDbRotatedDimension
   0
DIMENSION
   5
172
 100
AcDbEntity
   8
LEVEL003
   6
CONTINUOUS
  62
3
 100
AcDbDimension
   2
*D2
  10
 317.687
  20
 67.8302
  30
0.0
  11
 250.187
  21
 67.8302
  31
0.0
  70
0
   1
\A1;135
   3
GMM001
 100
AcDbAlignedDimension
  13
 182.687
  23
 87.3302
  33
0.0
  14
 317.687
  24
 87.3302
  34
0.0
 100
AcDbRotatedDimension
   0
LINE
   5
174
 100
AcDbEntity
   8
LEVEL020
 100
AcDbLine
   6
DOT
  62
3
  10
 520.191
  20
 210.330
  30
0.0
  11
 521.875
  21
 109.914
  31
0.0
   0
ARC
   5
175
 100
AcDbEntity
   8
LEVEL020
   6
DOT
  62
3
 100
AcDbCircle
  10
 531.866
  20
 110.330
  30
0.0
  40
 10.0000
 100
AcDbArc
  50
 182.386
  51
 270.000
   0
LINE
   5
176
 100
AcDbEntity
   8
LEVEL020
 100
AcDbLine
   6
DOT
  62
3
  10
 730.182
  20
 210.330
  30
0.0
  11
 728.498
  21
 109.914
  31
0.0
   0
ARC
   5
177
 100
AcDbEntity
   8
LEVEL020
   6
DOT
  62
3
 100
AcDbCircle
  10
 718.507
  20
 110.330
  30
0.0
  40
 10.0000
 100
AcDbArc
  50
 270.000
  51
 357.614
   0
LINE
   5
178
 100
AcDbEntity
   8
LEVEL020
 100
AcDbLine
   6
DOT
  62
3
  10
 531.866
  20
 100.330
  30
0.0
  11
 718.507
  21
 100.330
  31
0.0
   0
LINE
   5
179
 100
AcDbEntity
   8
LEVEL020
 100
AcDbLine
   6
CONTINUOUS
  62
3
  10
 732.687
  20
 90.3302
  30
0.0
  11
 735.187
  21
 210.330
  31
0.0
   0
LINE
   5
17A
 100
AcDbEntity
   8
LEVEL020
 100
AcDbLine
   6
CONTINUOUS
  62
3
  10
 735.187
  20
 210.330
  30
0.0
  11
 515.187
  21
 210.330
  31
0.0
   0
LINE
   5
17B
 100
AcDbEntity
   8
LEVEL020
 100
AcDbLine
   6
CONTINUOUS
  62
3
  10
 515.187
  20
 210.330
  30
0.0
  11
 517.687
  21
 90.3302
  31
0.0
   0
LINE
   5
17C
 100
AcDbEntity
   8
LEVEL020
 100
AcDbLine
   6
DOT
  62
3
  10
 530.187
  20
 90.8302
  30
0.0
  11
 525.187
  21
 90.8302
  31
0.0
   0
LINE
   5
17D
 100
AcDbEntity
   8
LEVEL020
 100
AcDbLine
   6
CONTINUOUS
  62
3
  10
 732.687
  20
 90.3302
  30
0.0
  11
 712.687
  21
 90.3302
  31
0.0
   0
LINE
   5
17E
 100
AcDbEntity
   8
LEVEL020
 100
AcDbLine
   6
CONTINUOUS
  62
3
  10
 517.687
  20
 90.3302
  30
0.0
  11
 537.687
  21
 90.3302
  31
0.0
   0
ARC
   5
17F
 100
AcDbEntity
   8
LEVEL020
   6
CONTINUOUS
  62
3
 100
AcDbCircle
  10
 546.347
  20
 85.3302
  30
0.0
  40
 10.0000
 100
AcDbArc
  50
 90.0000
  51
 150.000
   0
ARC
   5
180
 100
AcDbEntity
   8
LEVEL020
   6
CONTINUOUS
  62
3
 100
AcDbCircle
  10
 704.026
  20
 85.3302
  30
0.0
  40
 10.0000
 100
AcDbArc
  50
 30.0000
  51
 90.0000
   0
LINE
   5
181
 100
AcDbEntity
   8
LEVEL020
 100
AcDbLine
   6
CONTINUOUS
  62
3
  10
 704.026
  20
 95.3302
  30
0.0
  11
 546.347
  21
 95.3302
  31
0.0
   0
LINE
   5
182
 100
AcDbEntity
   8
LEVEL020
 100
AcDbLine
   6
DASHDOT
  62
1
  10
 722.687
  20
 87.3302
  30
0.0
  11
 722.687
  21
 105.640
  31
0.0
   0
LINE
   5
183
 100
AcDbEntity
   8
LEVEL020
 100
AcDbLine
   6
DASHDOT
  62
1
  10
 527.687
  20
 87.3302
  30
0.0
  11
 527.687
  21
 105.506
  31
0.0
   0
LINE
   5
184
 100
AcDbEntity
   8
LEVEL020
 100
AcDbLine
   6
DOT
  62
3
  10
 530.687
  20
 90.3302
  30
0.0
  11
 530.687
  21
 99.3302
  31
0.0
   0
LINE
   5
185
 100
AcDbEntity
   8
LEVEL020
 100
AcDbLine
   6
DOT
  62
3
  10
 530.687
  20
 99.3302
  30
0.0
  11
 530.187
  21
 101.196
  31
0.0
   0
LINE
   5
186
 100
AcDbEntity
   8
LEVEL020
 100
AcDbLine
   6
DOT
  62
3
  10
 525.187
  20
 101.196
  30
0.0
  11
 524.687
  21
 99.3302
  31
0.0
   0
LINE
   5
187
 100
AcDbEntity
   8
LEVEL020
 100
AcDbLine
   6
DOT
  62
3
  10
 524.687
  20
 99.3302
  30
0.0
  11
 524.687
  21
 90.3302
  31
0.0
   0
LINE
   5
188
 100
AcDbEntity
   8
LEVEL020
 100
AcDbLine
   6
DOT
  62
3
  10
 530.687
  20
 99.3302
  30
0.0
  11
 524.687
  21
 99.3302
  31
0.0
   0
LINE
   5
189
 100
AcDbEntity
   8
LEVEL020
 100
AcDbLine
   6
DOT
  62
3
  10
 530.187
  20
 101.196
  30
0.0
  11
 525.187
  21
 101.196
  31
0.0
   0
LINE
   5
18A
 100
AcDbEntity
   8
LEVEL020
 100
AcDbLine
   6
DOT
  62
3
  10
 530.687
  20
 90.3302
  30
0.0
  11
 530.187
  21
 90.8302
  31
0.0
   0
LINE
   5
18B
 100
AcDbEntity
   8
LEVEL020
 100
AcDbLine
   6
DOT
  62
3
  10
 530.187
  20
 90.8302
  30
0.0
  11
 530.187
  21
 101.196
  31
0.0
   0
LINE
   5
18C
 100
AcDbEntity
   8
LEVEL020
 100
AcDbLine
   6
DOT
  62
3
  10
 525.187
  20
 101.196
  30
0.0
  11
 525.187
  21
 90.8302
  31
0.0
   0
LINE
   5
18D
 100
AcDbEntity
   8
LEVEL020
 100
AcDbLine
   6
DOT
  62
3
  10
 525.187
  20
 90.8302
  30
0.0
  11
 524.687
  21
 90.3302
  31
0.0
   0
LINE
   5
18E
 100
AcDbEntity
   8
LEVEL020
 100
AcDbLine
   6
DOT
  62
3
  10
 530.187
  20
 101.196
  30
0.0
  11
 527.687
  21
 102.640
  31
0.0
   0
LINE
   5
18F
 100
AcDbEntity
   8
LEVEL020
 100
AcDbLine
   6
DOT
  62
3
  10
 525.187
  20
 101.196
  30
0.0
  11
 527.687
  21
 102.640
  31
0.0
   0
DIMENSION
   5
190
 100
AcDbEntity
   8
LEVEL003
   6
CONTINUOUS
  62
3
 100
AcDbDimension
   2
*D3
  10
 722.687
  20
 67.8302
  30
0.0
  11
 625.187
  21
 67.8302
  31
0.0
  70
0
   1
\A1;195
   3
GMM001
 100
AcDbAlignedDimension
  13
 527.687
  23
 87.3302
  33
0.0
  14
 722.687
  24
 87.3302
  34
0.0
 100
AcDbRotatedDimension
   0
LEADER
   5
192
 100
AcDbEntity
   8
LEVEL003
   6
CONTINUOUS
  62
3
 100
AcDbLeader
   3
GMM002
  73
0
  74
1
  75
0
  40
 12.0000
  41
0.0
  76
3
  10
 527.687
  20
 90.3302
  30
0.0
  10
 505.187
  20
 60.3302
  30
0.0
  10
 445.187
  20
 60.3302
  30
0.0
  77
3
   0
TEXT
   5
193
 100
AcDbEntity
   8
LEVEL003
  62
3
 100
AcDbText
  10
 445.187
  20
 60.3302
  30
0.0
  40
 12.0000
   1
４－Ｍ６
   7
STANDARD
 100
AcDbText
   0
TEXT
   5
194
 100
AcDbEntity
   8
LEVEL003
  62
3
 100
AcDbText
  10
 445.187
  20
 44.3302
  30
0.0
  40
 12.0000
   1
タップ　９
   7
STANDARD
 100
AcDbText
   0
TEXT
   5
195
 100
AcDbEntity
   8
LEVEL003
  62
3
 100
AcDbText
  10
 910.187
  20
 750.330
  30
0.0
  40
 12.0000
   1
注；本ユニットは、屋内使用のため、
   7
STANDARD
 100
AcDbText
   0
TEXT
   5
196
 100
AcDbEntity
   8
LEVEL003
  62
3
 100
AcDbText
  10
 910.187
  20
 734.330
  30
0.0
  40
 12.0000
   1
　　屋外に放置しないで下さい。
   7
STANDARD
 100
AcDbText
   0
LINE
   5
197
 100
AcDbEntity
   8
LEVEL020
 100
AcDbLine
   6
DASHDOT
  62
1
  10
 250.187
  20
 222.330
  30
0.0
  11
 250.187
  21
 210.330
  31
0.0
   0
LINE
   5
198
 100
AcDbEntity
   8
LEVEL020
 100
AcDbLine
   6
DASHDOT
  62
1
  10
 250.187
  20
 210.330
  30
0.0
  11
 250.187
  21
 90.3302
  31
0.0
   0
LINE
   5
199
 100
AcDbEntity
   8
LEVEL019
 100
AcDbLine
   6
CONTINUOUS
  62
3
  10
 170.187
  20
 210.330
  30
0.0
  11
 170.187
  21
 222.330
  31
0.0
   0
LINE
   5
19A
 100
AcDbEntity
   8
LEVEL019
 100
AcDbLine
   6
CONTINUOUS
  62
3
  10
 170.187
  20
 222.330
  30
0.0
  11
 330.187
  21
 222.330
  31
0.0
   0
LINE
   5
19B
 100
AcDbEntity
   8
LEVEL019
 100
AcDbLine
   6
CONTINUOUS
  62
3
  10
 330.187
  20
 210.330
  30
0.0
  11
 330.187
  21
 222.330
  31
0.0
   0
LINE
   5
19C
 100
AcDbEntity
   8
LEVEL016
 100
AcDbLine
   6
CONTINUOUS
  62
3
  10
 196.187
  20
 231.830
  30
0.0
  11
 196.187
  21
 224.080
  31
0.0
   0
LINE
   5
19D
 100
AcDbEntity
   8
LEVEL016
 100
AcDbLine
   6
CONTINUOUS
  62
3
  10
 197.687
  20
 231.830
  30
0.0
  11
 197.687
  21
 224.080
  31
0.0
   0
LINE
   5
19E
 100
AcDbEntity
   8
LEVEL016
 100
AcDbLine
   6
CONTINUOUS
  62
3
  10
 199.187
  20
 231.330
  30
0.0
  11
 199.187
  21
 224.080
  31
0.0
   0
LINE
   5
19F
 100
AcDbEntity
   8
LEVEL016
 100
AcDbLine
   6
CONTINUOUS
  62
3
  10
 194.687
  20
 231.830
  30
0.0
  11
 194.687
  21
 224.080
  31
0.0
   0
LINE
   5
1A0
 100
AcDbEntity
   8
LEVEL016
 100
AcDbLine
   6
CONTINUOUS
  62
3
  10
 193.187
  20
 231.830
  30
0.0
  11
 193.187
  21
 224.080
  31
0.0
   0
LINE
   5
1A1
 100
AcDbEntity
   8
LEVEL016
 100
AcDbLine
   6
CONTINUOUS
  62
3
  10
 191.687
  20
 231.830
  30
0.0
  11
 191.687
  21
 224.080
  31
0.0
   0
LINE
   5
1A2
 100
AcDbEntity
   8
LEVEL016
 100
AcDbLine
   6
DASHDOT
  62
1
  10
 190.187
  20
 237.026
  30
0.0
  11
 190.187
  21
 222.330
  31
0.0
   0
LINE
   5
1A3
 100
AcDbEntity
   8
LEVEL016
 100
AcDbLine
   6
CONTINUOUS
  62
3
  10
 181.187
  20
 231.330
  30
0.0
  11
 181.187
  21
 224.080
  31
0.0
   0
LINE
   5
1A4
 100
AcDbEntity
   8
LEVEL016
 100
AcDbLine
   6
CONTINUOUS
  62
3
  10
 182.687
  20
 231.830
  30
0.0
  11
 182.687
  21
 224.080
  31
0.0
   0
LINE
   5
1A5
 100
AcDbEntity
   8
LEVEL016
 100
AcDbLine
   6
CONTINUOUS
  62
3
  10
 184.187
  20
 231.830
  30
0.0
  11
 184.187
  21
 224.080
  31
0.0
   0
LINE
   5
1A6
 100
AcDbEntity
   8
LEVEL016
 100
AcDbLine
   6
CONTINUOUS
  62
3
  10
 185.687
  20
 231.830
  30
0.0
  11
 185.687
  21
 224.080
  31
0.0
   0
LINE
   5
1A7
 100
AcDbEntity
   8
LEVEL016
 100
AcDbLine
   6
CONTINUOUS
  62
3
  10
 188.687
  20
 231.830
  30
0.0
  11
 188.687
  21
 224.080
  31
0.0
   0
LINE
   5
1A8
 100
AcDbEntity
   8
LEVEL016
 100
AcDbLine
   6
CONTINUOUS
  62
3
  10
 187.187
  20
 231.830
  30
0.0
  11
 187.187
  21
 224.080
  31
0.0
   0
LINE
   5
1A9
 100
AcDbEntity
   8
LEVEL016
 100
AcDbLine
   6
CONTINUOUS
  62
3
  10
 200.187
  20
 224.080
  30
0.0
  11
 198.437
  21
 222.330
  31
0.0
   0
LINE
   5
1AA
 100
AcDbEntity
   8
LEVEL016
 100
AcDbLine
   6
CONTINUOUS
  62
3
  10
 180.187
  20
 224.080
  30
0.0
  11
 200.187
  21
 224.080
  31
0.0
   0
LINE
   5
1AB
 100
AcDbEntity
   8
LEVEL016
 100
AcDbLine
   6
CONTINUOUS
  62
3
  10
 200.187
  20
 224.080
  30
0.0
  11
 200.187
  21
 229.330
  31
0.0
   0
LINE
   5
1AC
 100
AcDbEntity
   8
LEVEL016
 100
AcDbLine
   6
CONTINUOUS
  62
3
  10
 185.187
  20
 234.330
  30
0.0
  11
 195.187
  21
 234.330
  31
0.0
   0
ARC
   5
1AD
 100
AcDbEntity
   8
LEVEL016
   6
CONTINUOUS
  62
3
 100
AcDbCircle
  10
 195.187
  20
 229.330
  30
0.0
  40
 5.00000
 100
AcDbArc
  50
 0.325689E-11
  51
 90.0000
   0
LINE
   5
1AE
 100
AcDbEntity
   8
LEVEL016
 100
AcDbLine
   6
CONTINUOUS
  62
3
  10
 180.187
  20
 224.080
  30
0.0
  11
 181.937
  21
 222.330
  31
0.0
   0
LINE
   5
1AF
 100
AcDbEntity
   8
LEVEL016
 100
AcDbLine
   6
CONTINUOUS
  62
3
  10
 180.187
  20
 224.080
  30
0.0
  11
 180.187
  21
 229.330
  31
0.0
   0
ARC
   5
1B0
 100
AcDbEntity
   8
LEVEL016
   6
CONTINUOUS
  62
3
 100
AcDbCircle
  10
 185.187
  20
 229.330
  30
0.0
  40
 5.00000
 100
AcDbArc
  50
 90.0000
  51
 180.000
   0
LINE
   5
1B1
 100
AcDbEntity
   8
LEVEL020
 100
AcDbLine
   6
DOT
  62
3
  10
 175.191
  20
 210.330
  30
0.0
  11
 176.875
  21
 109.914
  31
0.0
   0
ARC
   5
1B2
 100
AcDbEntity
   8
LEVEL020
   6
DOT
  62
3
 100
AcDbCircle
  10
 186.866
  20
 110.330
  30
0.0
  40
 10.0000
 100
AcDbArc
  50
 182.386
  51
 270.000
   0
LINE
   5
1B3
 100
AcDbEntity
   8
LEVEL020
 100
AcDbLine
   6
DOT
  62
3
  10
 325.182
  20
 210.330
  30
0.0
  11
 323.498
  21
 109.914
  31
0.0
   0
ARC
   5
1B4
 100
AcDbEntity
   8
LEVEL020
   6
DOT
  62
3
 100
AcDbCircle
  10
 313.507
  20
 110.330
  30
0.0
  40
 10.0000
 100
AcDbArc
  50
 270.000
  51
 357.614
   0
LINE
   5
1B5
 100
AcDbEntity
   8
LEVEL020
 100
AcDbLine
   6
DOT
  62
3
  10
 186.866
  20
 100.330
  30
0.0
  11
 313.507
  21
 100.330
  31
0.0
   0
LINE
   5
1B6
 100
AcDbEntity
   8
LEVEL020
 100
AcDbLine
   6
DASHDOT
  62
1
  10
 317.687
  20
 87.3302
  30
0.0
  11
 317.687
  21
 105.640
  31
0.0
   0
LINE
   5
1B7
 100
AcDbEntity
   8
LEVEL020
 100
AcDbLine
   6
CONTINUOUS
  62
3
  10
 327.687
  20
 90.3302
  30
0.0
  11
 330.187
  21
 210.330
  31
0.0
   0
LINE
   5
1B8
 100
AcDbEntity
   8
LEVEL020
 100
AcDbLine
   6
CONTINUOUS
  62
3
  10
 330.187
  20
 210.330
  30
0.0
  11
 170.187
  21
 210.330
  31
0.0
   0
LINE
   5
1B9
 100
AcDbEntity
   8
LEVEL020
 100
AcDbLine
   6
CONTINUOUS
  62
3
  10
 170.187
  20
 210.330
  30
0.0
  11
 172.687
  21
 90.3302
  31
0.0
   0
LINE
   5
1BA
 100
AcDbEntity
   8
LEVEL020
 100
AcDbLine
   6
DOT
  62
3
  10
 185.187
  20
 90.8302
  30
0.0
  11
 180.187
  21
 90.8302
  31
0.0
   0
LINE
   5
1BB
 100
AcDbEntity
   8
LEVEL020
 100
AcDbLine
   6
CONTINUOUS
  62
3
  10
 327.687
  20
 90.3302
  30
0.0
  11
 307.687
  21
 90.3302
  31
0.0
   0
ARC
   5
1BC
 100
AcDbEntity
   8
LEVEL020
   6
CONTINUOUS
  62
3
 100
AcDbCircle
  10
 299.026
  20
 85.3302
  30
0.0
  40
 10.0000
 100
AcDbArc
  50
 30.0000
  51
 90.0000
   0
LINE
   5
1BD
 100
AcDbEntity
   8
LEVEL020
 100
AcDbLine
   6
CONTINUOUS
  62
3
  10
 172.687
  20
 90.3302
  30
0.0
  11
 192.687
  21
 90.3302
  31
0.0
   0
ARC
   5
1BE
 100
AcDbEntity
   8
LEVEL020
   6
CONTINUOUS
  62
3
 100
AcDbCircle
  10
 201.347
  20
 85.3302
  30
0.0
  40
 10.0000
 100
AcDbArc
  50
 90.0000
  51
 150.000
   0
LINE
   5
1BF
 100
AcDbEntity
   8
LEVEL020
 100
AcDbLine
   6
CONTINUOUS
  62
3
  10
 299.026
  20
 95.3302
  30
0.0
  11
 201.347
  21
 95.3302
  31
0.0
   0
LINE
   5
1C0
 100
AcDbEntity
   8
LEVEL020
 100
AcDbLine
   6
DASHDOT
  62
1
  10
 182.687
  20
 87.3302
  30
0.0
  11
 182.687
  21
 105.506
  31
0.0
   0
LINE
   5
1C1
 100
AcDbEntity
   8
LEVEL020
 100
AcDbLine
   6
DOT
  62
3
  10
 185.687
  20
 90.3302
  30
0.0
  11
 185.687
  21
 99.3302
  31
0.0
   0
LINE
   5
1C2
 100
AcDbEntity
   8
LEVEL020
 100
AcDbLine
   6
DOT
  62
3
  10
 185.687
  20
 99.3302
  30
0.0
  11
 185.187
  21
 101.196
  31
0.0
   0
LINE
   5
1C3
 100
AcDbEntity
   8
LEVEL020
 100
AcDbLine
   6
DOT
  62
3
  10
 180.187
  20
 101.196
  30
0.0
  11
 179.687
  21
 99.3302
  31
0.0
   0
LINE
   5
1C4
 100
AcDbEntity
   8
LEVEL020
 100
AcDbLine
   6
DOT
  62
3
  10
 179.687
  20
 99.3302
  30
0.0
  11
 179.687
  21
 90.3302
  31
0.0
   0
LINE
   5
1C5
 100
AcDbEntity
   8
LEVEL020
 100
AcDbLine
   6
DOT
  62
3
  10
 185.687
  20
 99.3302
  30
0.0
  11
 179.687
  21
 99.3302
  31
0.0
   0
LINE
   5
1C6
 100
AcDbEntity
   8
LEVEL020
 100
AcDbLine
   6
DOT
  62
3
  10
 185.187
  20
 101.196
  30
0.0
  11
 180.187
  21
 101.196
  31
0.0
   0
LINE
   5
1C7
 100
AcDbEntity
   8
LEVEL020
 100
AcDbLine
   6
DOT
  62
3
  10
 185.687
  20
 90.3302
  30
0.0
  11
 185.187
  21
 90.8302
  31
0.0
   0
LINE
   5
1C8
 100
AcDbEntity
   8
LEVEL020
 100
AcDbLine
   6
DOT
  62
3
  10
 185.187
  20
 90.8302
  30
0.0
  11
 185.187
  21
 101.196
  31
0.0
   0
LINE
   5
1C9
 100
AcDbEntity
   8
LEVEL020
 100
AcDbLine
   6
DOT
  62
3
  10
 180.187
  20
 101.196
  30
0.0
  11
 180.187
  21
 90.8302
  31
0.0
   0
LINE
   5
1CA
 100
AcDbEntity
   8
LEVEL020
 100
AcDbLine
   6
DOT
  62
3
  10
 180.187
  20
 90.8302
  30
0.0
  11
 179.687
  21
 90.3302
  31
0.0
   0
LINE
   5
1CB
 100
AcDbEntity
   8
LEVEL020
 100
AcDbLine
   6
DOT
  62
3
  10
 180.187
  20
 101.196
  30
0.0
  11
 182.687
  21
 102.640
  31
0.0
   0
LINE
   5
1CC
 100
AcDbEntity
   8
LEVEL020
 100
AcDbLine
   6
DOT
  62
3
  10
 185.187
  20
 101.196
  30
0.0
  11
 182.687
  21
 102.640
  31
0.0
   0
LEADER
   5
1CD
 100
AcDbEntity
   8
LEVEL003
   6
CONTINUOUS
  62
3
 100
AcDbLeader
   3
GMM003
  73
0
  74
1
  75
0
  40
 9.45000
  41
0.0
  76
3
  10
 217.580
  20
 229.458
  30
0.0
  10
 190.187
  20
 150.330
  30
0.0
  10
 260.186
  20
 150.330
  30
0.0
  77
3
   0
LEADER
   5
1CE
 100
AcDbEntity
   8
LEVEL003
   6
CONTINUOUS
  62
3
 100
AcDbLeader
   3
GMM003
  73
0
  74
1
  75
0
  40
 9.45000
  41
0.0
  76
3
  10
 296.602
  20
 258.868
  30
0.0
  10
 250.187
  20
 165.330
  30
0.0
  10
 320.186
  20
 165.330
  30
0.0
  77
3
   0
LINE
   5
1CF
 100
AcDbEntity
   8
LEVEL026
 100
AcDbLine
   6
CONTINUOUS
  62
3
  10
 207.805
  20
 222.330
  30
0.0
  11
 207.805
  21
 252.330
  31
0.0
   0
LINE
   5
1D0
 100
AcDbEntity
   8
LEVEL042
 100
AcDbLine
   6
CONTINUOUS
  62
25
  10
 1143.20
  20
 488.967
  30
0.0
  11
 1143.20
  21
 506.967
  31
0.0
   0
LINE
   5
1D1
 100
AcDbEntity
   8
LEVEL042
 100
AcDbLine
   6
CONTINUOUS
  62
25
  10
 981.198
  20
 488.967
  30
0.0
  11
 981.198
  21
 506.967
  31
0.0
   0
LINE
   5
1D2
 100
AcDbEntity
   8
LEVEL042
 100
AcDbLine
   6
CONTINUOUS
  62
25
  10
 981.198
  20
 488.967
  30
0.0
  11
 1143.20
  21
 488.967
  31
0.0
   0
LINE
   5
1D3
 100
AcDbEntity
   8
LEVEL042
 100
AcDbLine
   6
CONTINUOUS
  62
3
  10
 1025.40
  20
 454.319
  30
0.0
  11
 1105.40
  21
 454.319
  31
0.0
   0
TEXT
   5
1D4
 100
AcDbEntity
   8
LEVEL042
  62
3
 100
AcDbText
  10
 1027.08
  20
 454.331
  30
0.0
  40
 15.0000
   1
油圧回路図
   7
STANDARD
  72
1
  11
 1064.58
  21
 454.331
  31
0.0
 100
AcDbText
   0
CIRCLE
   5
1D5
 100
AcDbEntity
   8
LEVEL042
 100
AcDbCircle
   6
CONTINUOUS
  62
3
  10
 1012.55
  20
 613.594
  30
0.0
  40
 1.34400
   0
CIRCLE
   5
1D6
 100
AcDbEntity
   8
LEVEL042
 100
AcDbCircle
   6
CONTINUOUS
  62
3
  10
 1008.23
  20
 620.314
  30
0.0
  40
 1.34400
   0
LINE
   5
1D7
 100
AcDbEntity
   8
LEVEL042
 100
AcDbLine
   6
CONTINUOUS
  62
3
  10
 1003.91
  20
 620.314
  30
0.0
  11
 1003.07
  21
 622.330
  31
0.0
   0
LINE
   5
1D8
 100
AcDbEntity
   8
LEVEL042
 100
AcDbLine
   6
CONTINUOUS
  62
3
  10
 1003.07
  20
 622.330
  30
0.0
  11
 1002.23
  21
 620.314
  31
0.0
   0
LINE
   5
1D9
 100
AcDbEntity
   8
LEVEL042
 100
AcDbLine
   6
CONTINUOUS
  62
3
  10
 1002.23
  20
 620.314
  30
0.0
  11
 1001.39
  21
 618.298
  31
0.0
   0
LINE
   5
1DA
 100
AcDbEntity
   8
LEVEL042
 100
AcDbLine
   6
CONTINUOUS
  62
3
  10
 1001.39
  20
 618.298
  30
0.0
  11
 1000.55
  21
 620.314
  31
0.0
   0
LINE
   5
1DB
 100
AcDbEntity
   8
LEVEL042
 100
AcDbLine
   6
CONTINUOUS
  62
3
  10
 1000.55
  20
 620.314
  30
0.0
  11
 999.712
  21
 622.330
  31
0.0
   0
LINE
   5
1DC
 100
AcDbEntity
   8
LEVEL042
 100
AcDbLine
   6
CONTINUOUS
  62
3
  10
 999.712
  20
 622.330
  30
0.0
  11
 998.872
  21
 620.314
  31
0.0
   0
LINE
   5
1DD
 100
AcDbEntity
   8
LEVEL042
 100
AcDbLine
   6
CONTINUOUS
  62
3
  10
 998.872
  20
 620.314
  30
0.0
  11
 998.032
  21
 618.298
  31
0.0
   0
LINE
   5
1DE
 100
AcDbEntity
   8
LEVEL042
 100
AcDbLine
   6
CONTINUOUS
  62
3
  10
 1021.20
  20
 610.234
  30
0.0
  11
 1021.20
  21
 623.675
  31
0.0
   0
LINE
   5
1DF
 100
AcDbEntity
   8
LEVEL042
 100
AcDbLine
   6
CONTINUOUS
  62
3
  10
 1021.20
  20
 623.675
  30
0.0
  11
 1003.91
  21
 623.675
  31
0.0
   0
LINE
   5
1E0
 100
AcDbEntity
   8
LEVEL042
 100
AcDbLine
   6
CONTINUOUS
  62
3
  10
 1003.91
  20
 623.675
  30
0.0
  11
 1003.91
  21
 610.234
  31
0.0
   0
LINE
   5
1E1
 100
AcDbEntity
   8
LEVEL042
 100
AcDbLine
   6
CONTINUOUS
  62
3
  10
 1003.91
  20
 610.234
  30
0.0
  11
 1021.20
  21
 610.234
  31
0.0
   0
CIRCLE
   5
1E2
 100
AcDbEntity
   8
LEVEL042
 100
AcDbCircle
   6
CONTINUOUS
  62
3
  10
 1016.88
  20
 620.314
  30
0.0
  40
 1.34400
   0
LINE
   5
1E3
 100
AcDbEntity
   8
LEVEL042
 100
AcDbLine
   6
CONTINUOUS
  62
3
  10
 1013.08
  20
 614.831
  30
0.0
  11
 1016.17
  21
 622.077
  31
0.0
   0
CIRCLE
   5
1E4
 100
AcDbEntity
   8
LEVEL042
 100
AcDbCircle
   6
CONTINUOUS
  62
3
  10
 1012.80
  20
 636.954
  30
0.0
  40
 8.40000
   0
LEADER
   5
1E5
 100
AcDbEntity
   8
LEVEL042
   6
CONTINUOUS
  62
3
 100
AcDbLeader
   3
GMM004
  73
0
  74
1
  75
0
  40
 8.40000
  41
0.0
  76
2
  10
 1008.05
  20
 641.706
  30
0.0
  10
 1017.55
  20
 632.203
  30
0.0
  77
3
   0
CIRCLE
   5
1E6
 100
AcDbEntity
   8
LEVEL042
 100
AcDbCircle
   6
CONTINUOUS
  62
25
  10
 1071.20
  20
 626.954
  30
0.0
  40
 0.900000
   0
LINE
   5
1E7
 100
AcDbEntity
   8
LEVEL042
 100
AcDbLine
   6
CONTINUOUS
  62
3
  10
 1031.20
  20
 616.954
  30
0.0
  11
 1031.20
  21
 636.954
  31
0.0
   0
LINE
   5
1E8
 100
AcDbEntity
   8
LEVEL042
 100
AcDbLine
   6
CONTINUOUS
  62
3
  10
 1021.20
  20
 636.954
  30
0.0
  11
 1031.20
  21
 636.954
  31
0.0
   0
CIRCLE
   5
1E9
 100
AcDbEntity
   8
LEVEL042
 100
AcDbCircle
   6
CONTINUOUS
  62
25
  10
 1031.20
  20
 626.954
  30
0.0
  40
 0.900000
   0
LINE
   5
1EA
 100
AcDbEntity
   8
LEVEL042
 100
AcDbLine
   6
CONTINUOUS
  62
3
  10
 1021.20
  20
 616.954
  30
0.0
  11
 1031.20
  21
 616.954
  31
0.0
   0
LINE
   5
1EB
 100
AcDbEntity
   8
LEVEL042
 100
AcDbLine
   6
CONTINUOUS
  62
3
  10
 1069.10
  20
 682.192
  30
0.0
  11
 1071.20
  21
 682.192
  31
0.0
   0
LINE
   5
1EC
 100
AcDbEntity
   8
LEVEL042
 100
AcDbLine
   6
CONTINUOUS
  62
3
  10
 1071.20
  20
 682.192
  30
0.0
  11
 1073.30
  21
 682.192
  31
0.0
   0
LINE
   5
1ED
 100
AcDbEntity
   8
LEVEL042
 100
AcDbLine
   6
DASHDOT
  62
1
  10
 970.187
  20
 480.330
  30
0.0
  11
 970.187
  21
 675.330
  31
0.0
   0
LINE
   5
1EE
 100
AcDbEntity
   8
LEVEL042
 100
AcDbLine
   6
DASHDOT
  62
1
  10
 970.187
  20
 675.330
  30
0.0
  11
 1165.19
  21
 675.330
  31
0.0
   0
LINE
   5
1EF
 100
AcDbEntity
   8
LEVEL042
 100
AcDbLine
   6
DASHDOT
  62
1
  10
 1165.19
  20
 675.330
  30
0.0
  11
 1165.19
  21
 480.330
  31
0.0
   0
LINE
   5
1F0
 100
AcDbEntity
   8
LEVEL042
 100
AcDbLine
   6
DASHDOT
  62
1
  10
 1165.19
  20
 480.330
  30
0.0
  11
 970.187
  21
 480.330
  31
0.0
   0
LINE
   5
1F1
 100
AcDbEntity
   8
LEVEL042
 100
AcDbLine
   6
CONTINUOUS
  62
3
  10
 1043.20
  20
 647.063
  30
0.0
  11
 1043.20
  21
 669.463
  31
0.0
   0
LINE
   5
1F2
 100
AcDbEntity
   8
LEVEL042
 100
AcDbLine
   6
CONTINUOUS
  62
3
  10
 1043.20
  20
 669.463
  30
0.0
  11
 1110.40
  21
 669.463
  31
0.0
   0
LINE
   5
1F3
 100
AcDbEntity
   8
LEVEL042
 100
AcDbLine
   6
CONTINUOUS
  62
3
  10
 1110.40
  20
 669.463
  30
0.0
  11
 1110.40
  21
 647.063
  31
0.0
   0
LINE
   5
1F4
 100
AcDbEntity
   8
LEVEL042
 100
AcDbLine
   6
CONTINUOUS
  62
3
  10
 1110.40
  20
 647.063
  30
0.0
  11
 1043.20
  21
 647.063
  31
0.0
   0
LINE
   5
1F5
 100
AcDbEntity
   8
LEVEL042
 100
AcDbLine
   6
CONTINUOUS
  62
3
  10
 1065.60
  20
 669.463
  30
0.0
  11
 1065.60
  21
 647.063
  31
0.0
   0
LINE
   5
1F6
 100
AcDbEntity
   8
LEVEL042
 100
AcDbLine
   6
CONTINUOUS
  62
3
  10
 1088.00
  20
 669.463
  30
0.0
  11
 1088.00
  21
 647.063
  31
0.0
   0
LINE
   5
1F7
 100
AcDbEntity
   8
LEVEL042
 100
AcDbLine
   6
CONTINUOUS
  62
3
  10
 1068.40
  20
 663.863
  30
0.0
  11
 1071.20
  21
 663.863
  31
0.0
   0
LINE
   5
1F8
 100
AcDbEntity
   8
LEVEL042
 100
AcDbLine
   6
CONTINUOUS
  62
3
  10
 1071.20
  20
 663.863
  30
0.0
  11
 1074.00
  21
 663.863
  31
0.0
   0
LINE
   5
1F9
 100
AcDbEntity
   8
LEVEL042
 100
AcDbLine
   6
CONTINUOUS
  62
3
  10
 1079.60
  20
 663.863
  30
0.0
  11
 1082.40
  21
 663.863
  31
0.0
   0
LINE
   5
1FA
 100
AcDbEntity
   8
LEVEL042
 100
AcDbLine
   6
CONTINUOUS
  62
3
  10
 1082.40
  20
 663.863
  30
0.0
  11
 1085.20
  21
 663.863
  31
0.0
   0
CIRCLE
   5
1FB
 100
AcDbEntity
   8
LEVEL042
 100
AcDbCircle
   6
CONTINUOUS
  62
3
  10
 1026.40
  20
 660.130
  30
0.0
  40
 2.24000
   0
LINE
   5
1FC
 100
AcDbEntity
   8
LEVEL042
 100
AcDbLine
   6
CONTINUOUS
  62
3
  10
 1043.20
  20
 654.530
  30
0.0
  11
 1026.40
  21
 654.530
  31
0.0
   0
LINE
   5
1FD
 100
AcDbEntity
   8
LEVEL042
 100
AcDbLine
   6
CONTINUOUS
  62
3
  10
 1026.40
  20
 647.063
  30
0.0
  11
 1043.20
  21
 647.063
  31
0.0
   0
LINE
   5
1FE
 100
AcDbEntity
   8
LEVEL042
 100
AcDbLine
   6
CONTINUOUS
  62
3
  10
 1026.40
  20
 657.890
  30
0.0
  11
 1026.40
  21
 643.330
  31
0.0
   0
LINE
   5
1FF
 100
AcDbEntity
   8
LEVEL042
 100
AcDbLine
   6
CONTINUOUS
  62
3
  10
 1118.80
  20
 654.530
  30
0.0
  11
 1118.80
  21
 647.063
  31
0.0
   0
LINE
   5
200
 100
AcDbEntity
   8
LEVEL042
 100
AcDbLine
   6
CONTINUOUS
  62
3
  10
 1123.00
  20
 659.384
  30
0.0
  11
 1123.00
  21
 654.530
  31
0.0
   0
LINE
   5
201
 100
AcDbEntity
   8
LEVEL042
 100
AcDbLine
   6
CONTINUOUS
  62
3
  10
 1127.20
  20
 654.530
  30
0.0
  11
 1127.20
  21
 647.063
  31
0.0
   0
LINE
   5
202
 100
AcDbEntity
   8
LEVEL042
 100
AcDbLine
   6
CONTINUOUS
  62
3
  10
 1110.40
  20
 654.530
  30
0.0
  11
 1112.73
  21
 654.530
  31
0.0
   0
LINE
   5
203
 100
AcDbEntity
   8
LEVEL042
 100
AcDbLine
   6
CONTINUOUS
  62
3
  10
 1112.73
  20
 654.530
  30
0.0
  11
 1114.60
  21
 652.663
  31
0.0
   0
LINE
   5
204
 100
AcDbEntity
   8
LEVEL042
 100
AcDbLine
   6
CONTINUOUS
  62
3
  10
 1114.60
  20
 652.663
  30
0.0
  11
 1116.46
  21
 654.530
  31
0.0
   0
LINE
   5
205
 100
AcDbEntity
   8
LEVEL042
 100
AcDbLine
   6
CONTINUOUS
  62
3
  10
 1116.46
  20
 654.530
  30
0.0
  11
 1121.13
  21
 654.530
  31
0.0
   0
LINE
   5
206
 100
AcDbEntity
   8
LEVEL042
 100
AcDbLine
   6
CONTINUOUS
  62
3
  10
 1121.13
  20
 654.530
  30
0.0
  11
 1123.00
  21
 652.663
  31
0.0
   0
LINE
   5
207
 100
AcDbEntity
   8
LEVEL042
 100
AcDbLine
   6
CONTINUOUS
  62
3
  10
 1123.00
  20
 652.663
  30
0.0
  11
 1124.86
  21
 654.530
  31
0.0
   0
LINE
   5
208
 100
AcDbEntity
   8
LEVEL042
 100
AcDbLine
   6
CONTINUOUS
  62
3
  10
 1124.86
  20
 654.530
  30
0.0
  11
 1129.53
  21
 654.530
  31
0.0
   0
LINE
   5
209
 100
AcDbEntity
   8
LEVEL042
 100
AcDbLine
   6
CONTINUOUS
  62
3
  10
 1129.53
  20
 654.530
  30
0.0
  11
 1131.40
  21
 652.663
  31
0.0
   0
LINE
   5
20A
 100
AcDbEntity
   8
LEVEL042
 100
AcDbLine
   6
CONTINUOUS
  62
3
  10
 1131.40
  20
 652.663
  30
0.0
  11
 1133.26
  21
 654.530
  31
0.0
   0
LINE
   5
20B
 100
AcDbEntity
   8
LEVEL042
 100
AcDbLine
   6
CONTINUOUS
  62
3
  10
 1133.26
  20
 654.530
  30
0.0
  11
 1135.60
  21
 654.530
  31
0.0
   0
LINE
   5
20C
 100
AcDbEntity
   8
LEVEL042
 100
AcDbLine
   6
CONTINUOUS
  62
3
  10
 1135.60
  20
 654.530
  30
0.0
  11
 1135.60
  21
 647.063
  31
0.0
   0
LINE
   5
20D
 100
AcDbEntity
   8
LEVEL042
 100
AcDbLine
   6
CONTINUOUS
  62
3
  10
 1135.60
  20
 647.063
  30
0.0
  11
 1110.40
  21
 647.063
  31
0.0
   0
LINE
   5
20E
 100
AcDbEntity
   8
LEVEL042
 100
AcDbLine
   6
CONTINUOUS
  62
3
  10
 1077.90
  20
 642.797
  30
0.0
  11
 1077.90
  21
 638.797
  31
0.0
   0
LINE
   5
20F
 100
AcDbEntity
   8
LEVEL042
 100
AcDbLine
   6
CONTINUOUS
  62
3
  10
 1077.90
  20
 638.797
  30
0.0
  11
 1086.90
  21
 638.797
  31
0.0
   0
LINE
   5
210
 100
AcDbEntity
   8
LEVEL042
 100
AcDbLine
   6
CONTINUOUS
  62
3
  10
 1086.90
  20
 638.797
  30
0.0
  11
 1086.90
  21
 642.797
  31
0.0
   0
LEADER
   5
211
 100
AcDbEntity
   8
LEVEL042
   6
CONTINUOUS
  62
3
 100
AcDbLeader
   3
GMM005
  73
0
  74
1
  75
0
  40
 9.45000
  41
0.0
  76
2
  10
 1104.80
  20
 669.463
  30
0.0
  10
 1093.60
  20
 647.063
  30
0.0
  77
3
   0
LEADER
   5
212
 100
AcDbEntity
   8
LEVEL042
   6
CONTINUOUS
  62
3
 100
AcDbLeader
   3
GMM005
  73
0
  74
1
  75
0
  40
 9.45000
  41
0.0
  76
2
  10
 1104.80
  20
 647.063
  30
0.0
  10
 1093.60
  20
 669.463
  30
0.0
  77
3
   0
LEADER
   5
213
 100
AcDbEntity
   8
LEVEL042
   6
CONTINUOUS
  62
3
 100
AcDbLeader
   3
GMM005
  73
0
  74
1
  75
0
  40
 9.45000
  41
0.0
  76
2
  10
 1048.80
  20
 669.463
  30
0.0
  10
 1048.80
  20
 647.063
  30
0.0
  77
3
   0
LEADER
   5
214
 100
AcDbEntity
   8
LEVEL042
   6
CONTINUOUS
  62
3
 100
AcDbLeader
   3
GMM005
  73
0
  74
1
  75
0
  40
 9.45000
  41
0.0
  76
2
  10
 1060.00
  20
 647.063
  30
0.0
  10
 1060.00
  20
 669.463
  30
0.0
  77
3
   0
LINE
   5
215
 100
AcDbEntity
   8
LEVEL042
 100
AcDbLine
   6
CONTINUOUS
  62
3
  10
 1071.20
  20
 682.192
  30
0.0
  11
 1071.20
  21
 663.863
  31
0.0
   0
LINE
   5
216
 100
AcDbEntity
   8
LEVEL042
 100
AcDbLine
   6
CONTINUOUS
  62
3
  10
 1082.40
  20
 682.192
  30
0.0
  11
 1082.40
  21
 663.863
  31
0.0
   0
LINE
   5
217
 100
AcDbEntity
   8
LEVEL042
 100
AcDbLine
   6
CONTINUOUS
  62
3
  10
 1080.30
  20
 682.192
  30
0.0
  11
 1082.40
  21
 682.192
  31
0.0
   0
LINE
   5
218
 100
AcDbEntity
   8
LEVEL042
 100
AcDbLine
   6
CONTINUOUS
  62
3
  10
 1082.40
  20
 682.192
  30
0.0
  11
 1084.50
  21
 682.192
  31
0.0
   0
LINE
   5
219
 100
AcDbEntity
   8
LEVEL042
 100
AcDbLine
   6
CONTINUOUS
  62
3
  10
 1031.20
  20
 626.954
  30
0.0
  11
 1071.20
  21
 626.954
  31
0.0
   0
LINE
   5
21A
 100
AcDbEntity
   8
LEVEL026
 100
AcDbLine
   6
DASHDOT
  62
1
  10
 220.305
  20
 248.661
  30
0.0
  11
 220.305
  21
 225.999
  31
0.0
   0
DIMENSION
   5
21B
 100
AcDbEntity
   8
LEVEL003
   6
CONTINUOUS
  62
3
 100
AcDbDimension
   2
*D12
  10
 327.687
  20
 45.3302
  30
0.0
  11
 250.187
  21
 45.3302
  31
0.0
  70
0
   1
\A1;155
   3
GMM006
 100
AcDbAlignedDimension
  13
 172.687
  23
 75.7302
  33
0.0
  14
 327.687
  24
 75.7302
  34
0.0
 100
AcDbRotatedDimension
   0
DIMENSION
   5
21D
 100
AcDbEntity
   8
LEVEL003
   6
CONTINUOUS
  62
3
 100
AcDbDimension
   2
*D13
  10
 517.687
  20
 45.3302
  30
0.0
  11
 625.187
  21
 45.3302
  31
0.0
  70
0
   1
\A1;215
   3
GMM001
 100
AcDbAlignedDimension
  13
 732.687
  23
 75.7302
  33
0.0
  14
 517.687
  24
 75.7302
  34
0.0
  50
 180.000
 100
AcDbRotatedDimension
   0
LINE
   5
21F
 100
AcDbEntity
   8
LEVEL026
 100
AcDbLine
   6
DASHDOT
  62
1
  10
 207.805
  20
 237.330
  30
0.0
  11
 230.305
  21
 237.330
  31
0.0
   0
TEXT
   5
220
 100
AcDbEntity
   8
LEVEL003
  62
3
 100
AcDbText
  10
 205.187
  20
 150.330
  30
0.0
  40
 12.0000
   1
戻り口
   7
STANDARD
 100
AcDbText
   0
TEXT
   5
221
 100
AcDbEntity
   8
LEVEL003
  62
3
 100
AcDbText
  10
 205.187
  20
 134.330
  30
0.0
  40
 12.0000
   1
Ｒｃ３／８
   7
STANDARD
 100
AcDbText
   0
LINE
   5
222
 100
AcDbEntity
   8
LEVEL015
 100
AcDbLine
   6
DASHDOT
  62
1
  10
 199.555
  20
 355.330
  30
0.0
  11
 276.055
  21
 355.330
  31
0.0
   0
LINE
   5
223
 100
AcDbEntity
   8
LEVEL015
 100
AcDbLine
   6
DASHDOT
  62
1
  10
 237.805
  20
 346.504
  30
0.0
  11
 237.805
  21
 396.330
  31
0.0
   0
LINE
   5
224
 100
AcDbEntity
   8
LEVEL013
 100
AcDbLine
   6
DASHDOT
  62
1
  10
 263.805
  20
 266.330
  30
0.0
  11
 248.805
  21
 266.330
  31
0.0
   0
LINE
   5
225
 100
AcDbEntity
   8
LEVEL013
 100
AcDbLine
   6
DASHDOT
  62
1
  10
 237.805
  20
 352.330
  30
0.0
  11
 237.805
  21
 247.330
  31
0.0
   0
LINE
   5
226
 100
AcDbEntity
   8
LEVEL013
 100
AcDbLine
   6
DASHDOT
  62
1
  10
 205.805
  20
 266.330
  30
0.0
  11
 227.805
  21
 266.330
  31
0.0
   0
CIRCLE
   5
227
 100
AcDbEntity
   8
LEVEL015
 100
AcDbCircle
   6
CONTINUOUS
  62
3
  10
 237.805
  20
 355.330
  30
0.0
  40
 2.12500
   0
CIRCLE
   5
228
 100
AcDbEntity
   8
LEVEL015
 100
AcDbCircle
   6
CONTINUOUS
  62
3
  10
 237.805
  20
 355.330
  30
0.0
  40
 0.637500
   0
ARC
   5
229
 100
AcDbEntity
   8
LEVEL015
   6
CONTINUOUS
  62
3
 100
AcDbCircle
  10
 242.442
  20
 357.453
  30
0.0
  40
 0.850000
 100
AcDbArc
  50
 284.999
  51
 24.5935
   0
ARC
   5
22A
 100
AcDbEntity
   8
LEVEL015
   6
CONTINUOUS
  62
3
 100
AcDbCircle
  10
 240.324
  20
 359.765
  30
0.0
  40
 0.850000
 100
AcDbArc
  50
 60.4063
  51
 160.000
   0
ARC
   5
22B
 100
AcDbEntity
   8
LEVEL015
   6
CONTINUOUS
  62
3
 100
AcDbCircle
  10
 237.805
  20
 355.330
  30
0.0
  40
 5.95000
 100
AcDbArc
  50
 24.5941
  51
 60.4060
   0
LINE
   5
22C
 100
AcDbEntity
   8
LEVEL015
 100
AcDbLine
   6
CONTINUOUS
  62
3
  10
 239.857
  20
 355.880
  30
0.0
  11
 242.662
  21
 356.632
  31
0.0
   0
LINE
   5
22D
 100
AcDbEntity
   8
LEVEL015
 100
AcDbLine
   6
CONTINUOUS
  62
3
  10
 238.532
  20
 357.327
  30
0.0
  11
 239.525
  21
 360.056
  31
0.0
   0
ARC
   5
22E
 100
AcDbEntity
   8
LEVEL013
   6
CONTINUOUS
  62
3
 100
AcDbCircle
  10
 232.003
  20
 342.504
  30
0.0
  40
 4.00000
 100
AcDbArc
  50
 89.9998
  51
 154.311
   0
ARC
   5
22F
 100
AcDbEntity
   8
LEVEL013
   6
CONTINUOUS
  62
3
 100
AcDbCircle
  10
 233.805
  20
 341.637
  30
0.0
  40
 6.00000
 100
AcDbArc
  50
 154.311
  51
 180.000
   0
ARC
   5
230
 100
AcDbEntity
   8
LEVEL013
   6
CONTINUOUS
  62
3
 100
AcDbCircle
  10
 243.607
  20
 342.504
  30
0.0
  40
 4.00000
 100
AcDbArc
  50
 25.6893
  51
 90.0002
   0
ARC
   5
231
 100
AcDbEntity
   8
LEVEL013
   6
CONTINUOUS
  62
3
 100
AcDbCircle
  10
 241.805
  20
 341.637
  30
0.0
  40
 6.00000
 100
AcDbArc
  50
0.0
  51
 25.6892
   0
ARC
   5
232
 100
AcDbEntity
   8
LEVEL013
   6
CONTINUOUS
  62
3
 100
AcDbCircle
  10
 243.607
  20
 338.687
  30
0.0
  40
 4.00000
 100
AcDbArc
  50
 270.000
  51
 334.311
   0
ARC
   5
233
 100
AcDbEntity
   8
LEVEL013
   6
CONTINUOUS
  62
3
 100
AcDbCircle
  10
 241.805
  20
 339.554
  30
0.0
  40
 6.00000
 100
AcDbArc
  50
 334.311
  51
 0.293596E-5
   0
ARC
   5
234
 100
AcDbEntity
   8
LEVEL013
   6
CONTINUOUS
  62
3
 100
AcDbCircle
  10
 243.607
  20
 337.298
  30
0.0
  40
 4.00000
 100
AcDbArc
  50
 270.000
  51
 334.311
   0
ARC
   5
235
 100
AcDbEntity
   8
LEVEL013
   6
CONTINUOUS
  62
3
 100
AcDbCircle
  10
 241.805
  20
 338.165
  30
0.0
  40
 6.00000
 100
AcDbArc
  50
 334.311
  51
 0.293597E-5
   0
ARC
   5
236
 100
AcDbEntity
   8
LEVEL013
   6
CONTINUOUS
  62
3
 100
AcDbCircle
  10
 246.409
  20
 334.320
  30
0.0
  40
 4.00000
 100
AcDbArc
  50
 8.13024
  51
 57.4709
   0
ARC
   5
237
 100
AcDbEntity
   8
LEVEL013
   6
CONTINUOUS
  62
3
 100
AcDbCircle
  10
 237.805
  20
 320.830
  30
0.0
  40
 20.0000
 100
AcDbArc
  50
 57.4705
  51
 60.0195
   0
ARC
   5
238
 100
AcDbEntity
   8
LEVEL015
   6
CONTINUOUS
  62
3
 100
AcDbCircle
  10
 237.805
  20
 355.330
  30
0.0
  40
 21.2500
 100
AcDbArc
  50
 315.000
  51
 225.000
   0
LINE
   5
239
 100
AcDbEntity
   8
LEVEL015
 100
AcDbLine
   6
CONTINUOUS
  62
3
  10
 252.831
  20
 340.304
  30
0.0
  11
 255.836
  21
 337.299
  31
0.0
   0
LINE
   5
23A
 100
AcDbEntity
   8
LEVEL013
 100
AcDbLine
   6
CONTINUOUS
  62
3
  10
 232.003
  20
 346.504
  30
0.0
  11
 243.607
  21
 346.504
  31
0.0
   0
LINE
   5
23B
 100
AcDbEntity
   8
LEVEL013
 100
AcDbLine
   6
CONTINUOUS
  62
3
  10
 247.805
  20
 338.165
  30
0.0
  11
 247.805
  21
 341.637
  31
0.0
   0
LINE
   5
23C
 100
AcDbEntity
   8
LEVEL013
 100
AcDbLine
   6
CONTINUOUS
  62
3
  10
 247.082
  20
 332.330
  30
0.0
  11
 247.082
  21
 334.687
  31
0.0
   0
ARC
   5
23D
 100
AcDbEntity
   8
LEVEL013
   6
CONTINUOUS
  62
3
 100
AcDbCircle
  10
 251.930
  20
 308.330
  30
0.0
  40
 1.00000
 100
AcDbArc
  50
 270.000
  51
0.0
   0
ARC
   5
23E
 100
AcDbEntity
   8
LEVEL013
   6
CONTINUOUS
  62
3
 100
AcDbCircle
  10
 250.930
  20
 315.330
  30
0.0
  40
 1.00000
 100
AcDbArc
  50
 270.000
  51
 0.299634E-9
   0
ARC
   5
23F
 100
AcDbEntity
   8
LEVEL013
   6
CONTINUOUS
  62
3
 100
AcDbCircle
  10
 250.930
  20
 321.330
  30
0.0
  40
 1.00000
 100
AcDbArc
  50
 0.260551E-9
  51
 90.0000
   0
ARC
   5
240
 100
AcDbEntity
   8
LEVEL013
   6
CONTINUOUS
  62
3
 100
AcDbCircle
  10
 254.113
  20
 325.830
  30
0.0
  40
 1.00000
 100
AcDbArc
  50
 270.000
  51
 0.273579E-9
   0
ARC
   5
241
 100
AcDbEntity
   8
LEVEL013
   6
CONTINUOUS
  62
3
 100
AcDbCircle
  10
 241.805
  20
 326.830
  30
0.0
  40
 1.00000
 100
AcDbArc
  50
 270.000
  51
 0.299634E-9
   0
ARC
   5
242
 100
AcDbEntity
   8
LEVEL013
   6
CONTINUOUS
  62
3
 100
AcDbCircle
  10
 248.480
  20
 333.944
  30
0.0
  40
 3.00000
 100
AcDbArc
  50
 220.028
  51
 270.000
   0
ARC
   5
243
 100
AcDbEntity
   8
LEVEL013
   6
CONTINUOUS
  62
3
 100
AcDbCircle
  10
 243.805
  20
 329.944
  30
0.0
  40
 1.00000
 100
AcDbArc
  50
 90.0000
  51
 180.000
   0
LINE
   5
244
 100
AcDbEntity
   8
LEVEL013
 100
AcDbLine
   6
CONTINUOUS
  62
3
  10
 252.930
  20
 308.330
  30
0.0
  11
 252.930
  21
 324.830
  31
0.0
   0
LINE
   5
245
 100
AcDbEntity
   8
LEVEL013
 100
AcDbLine
   6
CONTINUOUS
  62
3
  10
 251.930
  20
 315.330
  30
0.0
  11
 251.930
  21
 321.330
  31
0.0
   0
LINE
   5
246
 100
AcDbEntity
   8
LEVEL013
 100
AcDbLine
   6
CONTINUOUS
  62
3
  10
 245.805
  20
 314.330
  30
0.0
  11
 250.930
  21
 314.330
  31
0.0
   0
LINE
   5
247
 100
AcDbEntity
   8
LEVEL013
 100
AcDbLine
   6
CONTINUOUS
  62
3
  10
 252.805
  20
 329.330
  30
0.0
  11
 252.805
  21
 324.830
  31
0.0
   0
LINE
   5
248
 100
AcDbEntity
   8
LEVEL013
 100
AcDbLine
   6
CONTINUOUS
  62
3
  10
 252.410
  20
 324.830
  30
0.0
  11
 252.410
  21
 329.330
  31
0.0
   0
LINE
   5
249
 100
AcDbEntity
   8
LEVEL013
 100
AcDbLine
   6
CONTINUOUS
  62
3
  10
 257.805
  20
 329.330
  30
0.0
  11
 252.410
  21
 329.330
  31
0.0
   0
LINE
   5
24A
 100
AcDbEntity
   8
LEVEL013
 100
AcDbLine
   6
CONTINUOUS
  62
3
  10
 255.113
  20
 325.830
  30
0.0
  11
 255.113
  21
 329.330
  31
0.0
   0
LINE
   5
24B
 100
AcDbEntity
   8
LEVEL013
 100
AcDbLine
   6
CONTINUOUS
  62
3
  10
 246.182
  20
 332.014
  30
0.0
  11
 245.105
  21
 333.298
  31
0.0
   0
LINE
   5
24C
 100
AcDbEntity
   8
LEVEL013
 100
AcDbLine
   6
CONTINUOUS
  62
3
  10
 242.805
  20
 329.944
  30
0.0
  11
 242.805
  21
 326.830
  31
0.0
   0
LINE
   5
24D
 100
AcDbEntity
   8
LEVEL013
 100
AcDbLine
   6
CONTINUOUS
  62
3
  10
 251.805
  20
 324.830
  30
0.0
  11
 250.368
  21
 334.886
  31
0.0
   0
TEXT
   5
24E
 100
AcDbEntity
   8
LEVEL013
  62
3
 100
AcDbText
  10
 235.305
  20
 315.330
  30
0.0
  40
 6.00000
   1
Ｎ
  41
 0.833333
   7
STANDARD
  72
1
  11
 237.805
  21
 315.330
  31
0.0
 100
AcDbText
   0
TEXT
   5
24F
 100
AcDbEntity
   8
LEVEL013
  62
3
 100
AcDbText
  10
 245.305
  20
 315.330
  30
0.0
  40
 6.00000
   1
Ｂ
  41
 0.833333
   7
STANDARD
  72
1
  11
 247.805
  21
 315.330
  31
0.0
 100
AcDbText
   0
ARC
   5
250
 100
AcDbEntity
   8
LEVEL013
   6
CONTINUOUS
  62
3
 100
AcDbCircle
  10
 251.884
  20
 285.830
  30
0.0
  40
 1.00000
 100
AcDbArc
  50
 90.0000
  51
 180.000
   0
ARC
   5
251
 100
AcDbEntity
   8
LEVEL013
   6
CONTINUOUS
  62
3
 100
AcDbCircle
  10
 262.805
  20
 278.330
  30
0.0
  40
 1.00000
 100
AcDbArc
  50
0.0
  51
 90.0000
   0
ARC
   5
252
 100
AcDbEntity
   8
LEVEL013
   6
CONTINUOUS
  62
3
 100
AcDbCircle
  10
 249.088
  20
 280.330
  30
0.0
  40
 1.00000
 100
AcDbArc
  50
 180.000
  51
 270.000
   0
ARC
   5
253
 100
AcDbEntity
   8
LEVEL013
   6
CONTINUOUS
  62
3
 100
AcDbCircle
  10
 258.805
  20
 280.330
  30
0.0
  40
 1.00000
 100
AcDbArc
  50
 180.000
  51
 270.000
   0
ARC
   5
254
 100
AcDbEntity
   8
LEVEL013
   6
CONTINUOUS
  62
3
 100
AcDbCircle
  10
 251.884
  20
 299.830
  30
0.0
  40
 1.00000
 100
AcDbArc
  50
 180.000
  51
 270.000
   0
LINE
   5
255
 100
AcDbEntity
   8
LEVEL013
 100
AcDbLine
   6
CONTINUOUS
  62
3
  10
 249.088
  20
 279.330
  30
0.0
  11
 262.805
  21
 279.330
  31
0.0
   0
LINE
   5
256
 100
AcDbEntity
   8
LEVEL013
 100
AcDbLine
   6
CONTINUOUS
  62
3
  10
 257.805
  20
 280.330
  30
0.0
  11
 257.805
  21
 286.830
  31
0.0
   0
LINE
   5
257
 100
AcDbEntity
   8
LEVEL013
 100
AcDbLine
   6
CONTINUOUS
  62
3
  10
 251.884
  20
 298.830
  30
0.0
  11
 258.305
  21
 298.830
  31
0.0
   0
LINE
   5
258
 100
AcDbEntity
   8
LEVEL013
 100
AcDbLine
   6
CONTINUOUS
  62
3
  10
 258.305
  20
 298.830
  30
0.0
  11
 258.305
  21
 286.830
  31
0.0
   0
LINE
   5
259
 100
AcDbEntity
   8
LEVEL013
 100
AcDbLine
   6
CONTINUOUS
  62
3
  10
 258.305
  20
 286.830
  30
0.0
  11
 251.884
  21
 286.830
  31
0.0
   0
LINE
   5
25A
 100
AcDbEntity
   8
LEVEL013
 100
AcDbLine
   6
CONTINUOUS
  62
3
  10
 257.805
  20
 298.830
  30
0.0
  11
 257.805
  21
 329.330
  31
0.0
   0
ARC
   5
25B
 100
AcDbEntity
   8
LEVEL013
   6
CONTINUOUS
  62
3
 100
AcDbCircle
  10
 249.088
  20
 252.330
  30
0.0
  40
 1.00000
 100
AcDbArc
  50
 90.0000
  51
 180.000
   0
ARC
   5
25C
 100
AcDbEntity
   8
LEVEL013
   6
CONTINUOUS
  62
3
 100
AcDbCircle
  10
 258.805
  20
 252.330
  30
0.0
  40
 1.00000
 100
AcDbArc
  50
 90.0000
  51
 180.000
   0
ARC
   5
25D
 100
AcDbEntity
   8
LEVEL013
   6
CONTINUOUS
  62
3
 100
AcDbCircle
  10
 262.805
  20
 254.330
  30
0.0
  40
 1.00000
 100
AcDbArc
  50
 270.000
  51
 0.192156E-9
   0
LINE
   5
25E
 100
AcDbEntity
   8
LEVEL013
 100
AcDbLine
   6
CONTINUOUS
  62
3
  10
 263.805
  20
 254.330
  30
0.0
  11
 263.805
  21
 278.330
  31
0.0
   0
LINE
   5
25F
 100
AcDbEntity
   8
LEVEL013
 100
AcDbLine
   6
CONTINUOUS
  62
3
  10
 249.088
  20
 253.330
  30
0.0
  11
 262.805
  21
 253.330
  31
0.0
   0
ARC
   5
260
 100
AcDbEntity
   8
LEVEL013
   6
CONTINUOUS
  62
3
 100
AcDbCircle
  10
 216.805
  20
 280.330
  30
0.0
  40
 1.00000
 100
AcDbArc
  50
 270.000
  51
0.0
   0
ARC
   5
261
 100
AcDbEntity
   8
LEVEL013
   6
CONTINUOUS
  62
3
 100
AcDbCircle
  10
 206.805
  20
 278.330
  30
0.0
  40
 1.00000
 100
AcDbArc
  50
 90.0000
  51
 180.000
   0
ARC
   5
262
 100
AcDbEntity
   8
LEVEL013
   6
CONTINUOUS
  62
3
 100
AcDbCircle
  10
 214.805
  20
 274.330
  30
0.0
  40
 1.00000
 100
AcDbArc
  50
 90.0000
  51
 180.000
   0
ARC
   5
263
 100
AcDbEntity
   8
LEVEL013
   6
CONTINUOUS
  62
3
 100
AcDbCircle
  10
 226.521
  20
 276.330
  30
0.0
  40
 1.00000
 100
AcDbArc
  50
 270.000
  51
 0.690460E-9
   0
LINE
   5
264
 100
AcDbEntity
   8
LEVEL013
 100
AcDbLine
   6
CONTINUOUS
  62
3
  10
 216.805
  20
 279.330
  30
0.0
  11
 206.805
  21
 279.330
  31
0.0
   0
LINE
   5
265
 100
AcDbEntity
   8
LEVEL013
 100
AcDbLine
   6
CONTINUOUS
  62
3
  10
 214.805
  20
 275.330
  30
0.0
  11
 226.521
  21
 275.330
  31
0.0
   0
LINE
   5
266
 100
AcDbEntity
   8
LEVEL013
 100
AcDbLine
   6
CONTINUOUS
  62
3
  10
 217.805
  20
 280.830
  30
0.0
  11
 257.805
  21
 280.830
  31
0.0
   0
ARC
   5
267
 100
AcDbEntity
   8
LEVEL013
   6
CONTINUOUS
  62
3
 100
AcDbCircle
  10
 216.805
  20
 252.330
  30
0.0
  40
 1.00000
 100
AcDbArc
  50
 0.107477E-9
  51
 90.0000
   0
ARC
   5
268
 100
AcDbEntity
   8
LEVEL013
   6
CONTINUOUS
  62
3
 100
AcDbCircle
  10
 206.805
  20
 254.330
  30
0.0
  40
 1.00000
 100
AcDbArc
  50
 180.000
  51
 270.000
   0
ARC
   5
269
 100
AcDbEntity
   8
LEVEL013
   6
CONTINUOUS
  62
3
 100
AcDbCircle
  10
 214.805
  20
 258.330
  30
0.0
  40
 1.00000
 100
AcDbArc
  50
 180.000
  51
 270.000
   0
ARC
   5
26A
 100
AcDbEntity
   8
LEVEL013
   6
CONTINUOUS
  62
3
 100
AcDbCircle
  10
 226.521
  20
 256.330
  30
0.0
  40
 1.00000
 100
AcDbArc
  50
0.0
  51
 90.0000
   0
LINE
   5
26B
 100
AcDbEntity
   8
LEVEL013
 100
AcDbLine
   6
CONTINUOUS
  62
3
  10
 214.805
  20
 257.330
  30
0.0
  11
 226.521
  21
 257.330
  31
0.0
   0
LINE
   5
26C
 100
AcDbEntity
   8
LEVEL013
 100
AcDbLine
   6
CONTINUOUS
  62
3
  10
 217.805
  20
 257.330
  30
0.0
  11
 217.805
  21
 252.330
  31
0.0
   0
LINE
   5
26D
 100
AcDbEntity
   8
LEVEL013
 100
AcDbLine
   6
CONTINUOUS
  62
3
  10
 217.805
  20
 252.330
  30
0.0
  11
 257.805
  21
 252.330
  31
0.0
   0
LINE
   5
26E
 100
AcDbEntity
   8
LEVEL013
 100
AcDbLine
   6
CONTINUOUS
  62
3
  10
 205.805
  20
 254.330
  30
0.0
  11
 205.805
  21
 278.330
  31
0.0
   0
LINE
   5
26F
 100
AcDbEntity
   8
LEVEL013
 100
AcDbLine
   6
CONTINUOUS
  62
3
  10
 213.805
  20
 258.330
  30
0.0
  11
 213.805
  21
 274.330
  31
0.0
   0
LINE
   5
270
 100
AcDbEntity
   8
LEVEL026
 100
AcDbLine
   6
CONTINUOUS
  62
3
  10
 207.805
  20
 252.330
  30
0.0
  11
 267.805
  21
 252.330
  31
0.0
   0
LINE
   5
271
 100
AcDbEntity
   8
LEVEL013
 100
AcDbLine
   6
CONTINUOUS
  62
3
  10
 216.805
  20
 253.330
  30
0.0
  11
 206.805
  21
 253.330
  31
0.0
   0
ARC
   5
272
 100
AcDbEntity
   8
LEVEL013
   6
CONTINUOUS
  62
3
 100
AcDbCircle
  10
 233.805
  20
 326.830
  30
0.0
  40
 1.00000
 100
AcDbArc
  50
 180.000
  51
 270.000
   0
ARC
   5
273
 100
AcDbEntity
   8
LEVEL013
   6
CONTINUOUS
  62
3
 100
AcDbCircle
  10
 210.805
  20
 322.947
  30
0.0
  40
 1.00000
 100
AcDbArc
  50
 97.1244
  51
 180.000
   0
ARC
   5
274
 100
AcDbEntity
   8
LEVEL013
   6
CONTINUOUS
  62
3
 100
AcDbCircle
  10
 210.805
  20
 311.713
  30
0.0
  40
 1.00000
 100
AcDbArc
  50
 180.000
  51
 262.876
   0
ARC
   5
275
 100
AcDbEntity
   8
LEVEL013
   6
CONTINUOUS
  62
3
 100
AcDbCircle
  10
 215.805
  20
 326.596
  30
0.0
  40
 2.00000
 100
AcDbArc
  50
 277.125
  51
 0.957550E-4
   0
ARC
   5
276
 100
AcDbEntity
   8
LEVEL013
   6
CONTINUOUS
  62
3
 100
AcDbCircle
  10
 215.805
  20
 308.065
  30
0.0
  40
 2.00000
 100
AcDbArc
  50
 0.122811E-3
  51
 82.8748
   0
ARC
   5
277
 100
AcDbEntity
   8
LEVEL013
   6
CONTINUOUS
  62
3
 100
AcDbCircle
  10
 193.956
  20
 317.330
  30
0.0
  40
 25.0000
 100
AcDbArc
  50
 342.542
  51
 17.4576
   0
ARC
   5
278
 100
AcDbEntity
   8
LEVEL013
   6
CONTINUOUS
  62
3
 100
AcDbCircle
  10
 223.679
  20
 308.330
  30
0.0
  40
 1.00000
 100
AcDbArc
  50
 180.000
  51
 270.000
   0
ARC
   5
279
 100
AcDbEntity
   8
LEVEL013
   6
CONTINUOUS
  62
3
 100
AcDbCircle
  10
 224.679
  20
 321.330
  30
0.0
  40
 1.00000
 100
AcDbArc
  50
 90.0000
  51
 180.000
   0
ARC
   5
27A
 100
AcDbEntity
   8
LEVEL013
   6
CONTINUOUS
  62
3
 100
AcDbCircle
  10
 224.679
  20
 315.330
  30
0.0
  40
 1.00000
 100
AcDbArc
  50
 180.000
  51
 270.000
   0
ARC
   5
27B
 100
AcDbEntity
   8
LEVEL013
   6
CONTINUOUS
  62
3
 100
AcDbCircle
  10
 221.496
  20
 325.830
  30
0.0
  40
 1.00000
 100
AcDbArc
  50
 180.000
  51
 270.000
   0
ARC
   5
27C
 100
AcDbEntity
   8
LEVEL013
   6
CONTINUOUS
  62
3
 100
AcDbCircle
  10
 227.130
  20
 333.944
  30
0.0
  40
 3.00000
 100
AcDbArc
  50
 269.999
  51
 319.971
   0
ARC
   5
27D
 100
AcDbEntity
   8
LEVEL013
   6
CONTINUOUS
  62
3
 100
AcDbCircle
  10
 231.805
  20
 329.944
  30
0.0
  40
 1.00000
 100
AcDbArc
  50
0.0
  51
 90.0000
   0
ARC
   5
27E
 100
AcDbEntity
   8
LEVEL013
   6
CONTINUOUS
  62
3
 100
AcDbCircle
  10
 232.003
  20
 338.687
  30
0.0
  40
 4.00000
 100
AcDbArc
  50
 205.689
  51
 270.000
   0
ARC
   5
27F
 100
AcDbEntity
   8
LEVEL013
   6
CONTINUOUS
  62
3
 100
AcDbCircle
  10
 233.805
  20
 339.554
  30
0.0
  40
 6.00000
 100
AcDbArc
  50
 180.000
  51
 205.689
   0
ARC
   5
280
 100
AcDbEntity
   8
LEVEL013
   6
CONTINUOUS
  62
3
 100
AcDbCircle
  10
 232.003
  20
 337.298
  30
0.0
  40
 4.00000
 100
AcDbArc
  50
 205.689
  51
 270.000
   0
ARC
   5
281
 100
AcDbEntity
   8
LEVEL013
   6
CONTINUOUS
  62
3
 100
AcDbCircle
  10
 233.805
  20
 338.165
  30
0.0
  40
 6.00000
 100
AcDbArc
  50
 180.000
  51
 205.689
   0
ARC
   5
282
 100
AcDbEntity
   8
LEVEL013
   6
CONTINUOUS
  62
3
 100
AcDbCircle
  10
 229.201
  20
 334.320
  30
0.0
  40
 4.00000
 100
AcDbArc
  50
 122.529
  51
 171.870
   0
ARC
   5
283
 100
AcDbEntity
   8
LEVEL013
   6
CONTINUOUS
  62
3
 100
AcDbCircle
  10
 237.805
  20
 320.830
  30
0.0
  40
 20.0000
 100
AcDbArc
  50
 119.980
  51
 122.529
   0
ARC
   5
284
 100
AcDbEntity
   8
LEVEL015
   6
CONTINUOUS
  62
3
 100
AcDbCircle
  10
 237.805
  20
 355.330
  30
0.0
  40
 25.5000
 100
AcDbArc
  50
 315.000
  51
 225.000
   0
ARC
   5
285
 100
AcDbEntity
   8
LEVEL013
   6
CONTINUOUS
  62
3
 100
AcDbCircle
  10
 237.805
  20
 355.250
  30
0.0
  40
 50.0000
 100
AcDbArc
  50
 253.415
  51
 286.585
   0
ARC
   5
286
 100
AcDbEntity
   8
LEVEL015
   6
CONTINUOUS
  62
3
 100
AcDbCircle
  10
 237.805
  20
 355.330
  30
0.0
  40
 34.0000
 100
AcDbArc
  50
 306.032
  51
 233.968
   0
ARC
   5
287
 100
AcDbEntity
   8
LEVEL015
   6
CONTINUOUS
  62
3
 100
AcDbCircle
  10
 237.805
  20
 355.330
  30
0.0
  40
 30.5000
 100
AcDbArc
  50
 301.520
  51
 238.480
   0
LINE
   5
288
 100
AcDbEntity
   8
LEVEL013
 100
AcDbLine
   6
CONTINUOUS
  62
3
  10
 210.681
  20
 323.940
  30
0.0
  11
 216.053
  21
 324.611
  31
0.0
   0
LINE
   5
289
 100
AcDbEntity
   8
LEVEL013
 100
AcDbLine
   6
CONTINUOUS
  62
3
  10
 210.681
  20
 310.721
  30
0.0
  11
 216.053
  21
 310.049
  31
0.0
   0
LINE
   5
28A
 100
AcDbEntity
   8
LEVEL013
 100
AcDbLine
   6
CONTINUOUS
  62
3
  10
 217.805
  20
 326.596
  30
0.0
  11
 217.805
  21
 329.330
  31
0.0
   0
LINE
   5
28B
 100
AcDbEntity
   8
LEVEL013
 100
AcDbLine
   6
CONTINUOUS
  62
3
  10
 222.679
  20
 308.330
  30
0.0
  11
 222.679
  21
 324.830
  31
0.0
   0
LINE
   5
28C
 100
AcDbEntity
   8
LEVEL013
 100
AcDbLine
   6
CONTINUOUS
  62
3
  10
 222.805
  20
 329.330
  30
0.0
  11
 222.805
  21
 324.830
  31
0.0
   0
LINE
   5
28D
 100
AcDbEntity
   8
LEVEL013
 100
AcDbLine
   6
CONTINUOUS
  62
3
  10
 223.200
  20
 324.830
  30
0.0
  11
 223.200
  21
 329.330
  31
0.0
   0
LINE
   5
28E
 100
AcDbEntity
   8
LEVEL013
 100
AcDbLine
   6
CONTINUOUS
  62
3
  10
 223.200
  20
 329.330
  30
0.0
  11
 217.805
  21
 329.330
  31
0.0
   0
LINE
   5
28F
 100
AcDbEntity
   8
LEVEL013
 100
AcDbLine
   6
CONTINUOUS
  62
3
  10
 223.679
  20
 315.330
  30
0.0
  11
 223.679
  21
 321.330
  31
0.0
   0
LINE
   5
290
 100
AcDbEntity
   8
LEVEL013
 100
AcDbLine
   6
CONTINUOUS
  62
3
  10
 220.496
  20
 325.830
  30
0.0
  11
 220.496
  21
 329.330
  31
0.0
   0
LINE
   5
291
 100
AcDbEntity
   8
LEVEL013
 100
AcDbLine
   6
CONTINUOUS
  62
3
  10
 229.427
  20
 332.014
  30
0.0
  11
 230.505
  21
 333.298
  31
0.0
   0
LINE
   5
292
 100
AcDbEntity
   8
LEVEL013
 100
AcDbLine
   6
CONTINUOUS
  62
3
  10
 232.805
  20
 326.830
  30
0.0
  11
 232.805
  21
 329.944
  31
0.0
   0
LINE
   5
293
 100
AcDbEntity
   8
LEVEL013
 100
AcDbLine
   6
CONTINUOUS
  62
3
  10
 224.679
  20
 314.330
  30
0.0
  11
 229.805
  21
 314.330
  31
0.0
   0
LINE
   5
294
 100
AcDbEntity
   8
LEVEL013
 100
AcDbLine
   6
CONTINUOUS
  62
3
  10
 209.805
  20
 322.947
  30
0.0
  11
 209.805
  21
 311.713
  31
0.0
   0
LINE
   5
295
 100
AcDbEntity
   8
LEVEL015
 100
AcDbLine
   6
CONTINUOUS
  62
3
  10
 222.779
  20
 340.304
  30
0.0
  11
 219.774
  21
 337.299
  31
0.0
   0
LINE
   5
296
 100
AcDbEntity
   8
LEVEL015
 100
AcDbLine
   6
CONTINUOUS
  62
3
  10
 235.720
  20
 354.919
  30
0.0
  11
 220.805
  21
 338.330
  31
0.0
   0
LINE
   5
297
 100
AcDbEntity
   8
LEVEL015
 100
AcDbLine
   6
CONTINUOUS
  62
3
  10
 220.805
  20
 338.330
  30
0.0
  11
 237.393
  21
 353.245
  31
0.0
   0
LINE
   5
298
 100
AcDbEntity
   8
LEVEL013
 100
AcDbLine
   6
CONTINUOUS
  62
3
  10
 227.805
  20
 338.165
  30
0.0
  11
 227.805
  21
 341.637
  31
0.0
   0
LINE
   5
299
 100
AcDbEntity
   8
LEVEL013
 100
AcDbLine
   6
CONTINUOUS
  62
3
  10
 228.528
  20
 332.330
  30
0.0
  11
 228.528
  21
 334.687
  31
0.0
   0
LINE
   5
29A
 100
AcDbEntity
   8
LEVEL013
 100
AcDbLine
   6
CONTINUOUS
  62
3
  10
 223.805
  20
 324.830
  30
0.0
  11
 225.241
  21
 334.886
  31
0.0
   0
LINE
   5
29B
 100
AcDbEntity
   8
LEVEL013
 100
AcDbLine
   6
CONTINUOUS
  62
3
  10
 232.003
  20
 334.687
  30
0.0
  11
 243.607
  21
 334.687
  31
0.0
   0
LINE
   5
29C
 100
AcDbEntity
   8
LEVEL013
 100
AcDbLine
   6
CONTINUOUS
  62
3
  10
 232.003
  20
 333.298
  30
0.0
  11
 243.607
  21
 333.298
  31
0.0
   0
LINE
   5
29D
 100
AcDbEntity
   8
LEVEL013
 100
AcDbLine
   6
CONTINUOUS
  62
3
  10
 241.805
  20
 325.830
  30
0.0
  11
 233.805
  21
 325.830
  31
0.0
   0
LINE
   5
29E
 100
AcDbEntity
   8
LEVEL013
 100
AcDbLine
   6
CONTINUOUS
  62
3
  10
 223.679
  20
 307.330
  30
0.0
  11
 251.930
  21
 307.330
  31
0.0
   0
LINE
   5
29F
 100
AcDbEntity
   8
LEVEL013
 100
AcDbLine
   6
CONTINUOUS
  62
3
  10
 224.679
  20
 322.330
  30
0.0
  11
 250.930
  21
 322.330
  31
0.0
   0
LINE
   5
2A0
 100
AcDbEntity
   8
LEVEL013
 100
AcDbLine
   6
CONTINUOUS
  62
3
  10
 221.496
  20
 324.830
  30
0.0
  11
 254.113
  21
 324.830
  31
0.0
   0
LINE
   5
2A1
 100
AcDbEntity
   8
LEVEL013
 100
AcDbLine
   6
CONTINUOUS
  62
3
  10
 229.805
  20
 314.830
  30
0.0
  11
 245.805
  21
 314.830
  31
0.0
   0
LINE
   5
2A2
 100
AcDbEntity
   8
LEVEL013
 100
AcDbLine
   6
CONTINUOUS
  62
3
  10
 245.805
  20
 307.330
  30
0.0
  11
 245.805
  21
 314.830
  31
0.0
   0
LINE
   5
2A3
 100
AcDbEntity
   8
LEVEL013
 100
AcDbLine
   6
CONTINUOUS
  62
3
  10
 245.805
  20
 314.830
  30
0.0
  11
 244.939
  21
 315.330
  31
0.0
   0
LINE
   5
2A4
 100
AcDbEntity
   8
LEVEL013
 100
AcDbLine
   6
CONTINUOUS
  62
3
  10
 244.939
  20
 315.330
  30
0.0
  11
 230.671
  21
 315.330
  31
0.0
   0
LINE
   5
2A5
 100
AcDbEntity
   8
LEVEL013
 100
AcDbLine
   6
CONTINUOUS
  62
3
  10
 230.671
  20
 315.330
  30
0.0
  11
 229.805
  21
 314.830
  31
0.0
   0
LINE
   5
2A6
 100
AcDbEntity
   8
LEVEL013
 100
AcDbLine
   6
CONTINUOUS
  62
3
  10
 229.805
  20
 314.830
  30
0.0
  11
 229.805
  21
 307.330
  31
0.0
   0
LINE
   5
2A7
 100
AcDbEntity
   8
LEVEL013
 100
AcDbLine
   6
CONTINUOUS
  62
3
  10
 228.528
  20
 330.944
  30
0.0
  11
 247.082
  21
 330.944
  31
0.0
   0
LINE
   5
2A8
 100
AcDbEntity
   8
LEVEL013
 100
AcDbLine
   6
CONTINUOUS
  62
3
  10
 217.805
  20
 275.330
  30
0.0
  11
 217.805
  21
 308.065
  31
0.0
   0
TEXT
   5
2A9
 100
AcDbEntity
   8
LEVEL013
  62
3
 100
AcDbText
  10
 225.305
  20
 315.330
  30
0.0
  40
 6.00000
   1
Ａ
  41
 0.833333
   7
STANDARD
  72
1
  11
 227.805
  21
 315.330
  31
0.0
 100
AcDbText
   0
CIRCLE
   5
2AA
 100
AcDbEntity
   8
LEVEL026
 100
AcDbCircle
   6
CONTINUOUS
  62
3
  10
 220.305
  20
 237.330
  30
0.0
  40
 7.47500
   0
CIRCLE
   5
2AB
 100
AcDbEntity
   8
LEVEL026
 100
AcDbCircle
   6
CONTINUOUS
  62
3
  10
 220.305
  20
 237.330
  30
0.0
  40
 8.33100
   0
LINE
   5
2AC
 100
AcDbEntity
   8
LEVEL026
 100
AcDbLine
   6
CONTINUOUS
  62
3
  10
 267.805
  20
 252.330
  30
0.0
  11
 267.805
  21
 222.330
  31
0.0
   0
LINE
   5
2AD
 100
AcDbEntity
   8
LEVEL026
 100
AcDbLine
   6
DASHDOT
  62
1
  10
 304.305
  20
 227.330
  30
0.0
  11
 304.305
  21
 267.830
  31
0.0
   0
LINE
   5
2AE
 100
AcDbEntity
   8
LEVEL026
 100
AcDbLine
   6
CONTINUOUS
  62
3
  10
 274.805
  20
 245.024
  30
0.0
  11
 274.805
  21
 229.636
  31
0.0
   0
LINE
   5
2AF
 100
AcDbEntity
   8
LEVEL026
 100
AcDbLine
   6
DASHDOT
  62
1
  10
 267.805
  20
 237.330
  30
0.0
  11
 317.813
  21
 237.330
  31
0.0
   0
LINE
   5
2B0
 100
AcDbEntity
   8
LEVEL026
 100
AcDbLine
   6
CONTINUOUS
  62
3
  10
 278.421
  20
 228.667
  30
0.0
  11
 291.805
  21
 228.667
  31
0.0
   0
LINE
   5
2B1
 100
AcDbEntity
   8
LEVEL026
 100
AcDbLine
   6
CONTINUOUS
  62
3
  10
 312.805
  20
 262.830
  30
0.0
  11
 315.805
  21
 262.830
  31
0.0
   0
LINE
   5
2B2
 100
AcDbEntity
   8
LEVEL026
 100
AcDbLine
   6
CONTINUOUS
  62
3
  10
 315.805
  20
 262.830
  30
0.0
  11
 316.805
  21
 261.830
  31
0.0
   0
LINE
   5
2B3
 100
AcDbEntity
   8
LEVEL026
 100
AcDbLine
   6
CONTINUOUS
  62
3
  10
 316.805
  20
 261.830
  30
0.0
  11
 316.805
  21
 228.830
  31
0.0
   0
LINE
   5
2B4
 100
AcDbEntity
   8
LEVEL026
 100
AcDbLine
   6
CONTINUOUS
  62
3
  10
 316.805
  20
 228.830
  30
0.0
  11
 291.805
  21
 228.830
  31
0.0
   0
LINE
   5
2B5
 100
AcDbEntity
   8
LEVEL026
 100
AcDbLine
   6
CONTINUOUS
  62
3
  10
 291.805
  20
 228.830
  30
0.0
  11
 291.805
  21
 253.830
  31
0.0
   0
LINE
   5
2B6
 100
AcDbEntity
   8
LEVEL026
 100
AcDbLine
   6
CONTINUOUS
  62
3
  10
 278.421
  20
 228.667
  30
0.0
  11
 267.805
  21
 228.999
  31
0.0
   0
LINE
   5
2B7
 100
AcDbEntity
   8
LEVEL026
 100
AcDbLine
   6
CONTINUOUS
  62
3
  10
 278.421
  20
 228.667
  30
0.0
  11
 274.805
  21
 229.636
  31
0.0
   0
LINE
   5
2B8
 100
AcDbEntity
   8
LEVEL026
 100
AcDbLine
   6
CONTINUOUS
  62
3
  10
 274.805
  20
 229.636
  30
0.0
  11
 267.805
  21
 229.855
  31
0.0
   0
LINE
   5
2B9
 100
AcDbEntity
   8
LEVEL026
 100
AcDbLine
   6
CONTINUOUS
  62
3
  10
 278.421
  20
 245.993
  30
0.0
  11
 278.421
  21
 228.667
  31
0.0
   0
LINE
   5
2BA
 100
AcDbEntity
   8
LEVEL026
 100
AcDbLine
   6
CONTINUOUS
  62
3
  10
 278.421
  20
 245.993
  30
0.0
  11
 267.805
  21
 245.661
  31
0.0
   0
LINE
   5
2BB
 100
AcDbEntity
   8
LEVEL026
 100
AcDbLine
   6
CONTINUOUS
  62
3
  10
 267.805
  20
 244.805
  30
0.0
  11
 274.805
  21
 245.024
  31
0.0
   0
LINE
   5
2BC
 100
AcDbEntity
   8
LEVEL026
 100
AcDbLine
   6
CONTINUOUS
  62
3
  10
 274.805
  20
 245.024
  30
0.0
  11
 278.421
  21
 245.993
  31
0.0
   0
LINE
   5
2BD
 100
AcDbEntity
   8
LEVEL026
 100
AcDbLine
   6
CONTINUOUS
  62
3
  10
 278.421
  20
 245.993
  30
0.0
  11
 291.805
  21
 245.993
  31
0.0
   0
LINE
   5
2BE
 100
AcDbEntity
   8
LEVEL018
 100
AcDbLine
   6
CONTINUOUS
  62
3
  10
 302.805
  20
 340.330
  30
0.0
  11
 302.805
  21
 361.830
  31
0.0
   0
LINE
   5
2BF
 100
AcDbEntity
   8
LEVEL018
 100
AcDbLine
   6
CONTINUOUS
  62
3
  10
 305.805
  20
 340.330
  30
0.0
  11
 305.805
  21
 361.830
  31
0.0
   0
LINE
   5
2C0
 100
AcDbEntity
   8
LEVEL018
 100
AcDbLine
   6
CONTINUOUS
  62
3
  10
 308.805
  20
 340.330
  30
0.0
  11
 308.805
  21
 361.830
  31
0.0
   0
LINE
   5
2C1
 100
AcDbEntity
   8
LEVEL018
 100
AcDbLine
   6
CONTINUOUS
  62
3
  10
 311.805
  20
 340.330
  30
0.0
  11
 311.805
  21
 361.830
  31
0.0
   0
LINE
   5
2C2
 100
AcDbEntity
   8
LEVEL018
 100
AcDbLine
   6
DASHDOT
  62
1
  10
 304.305
  20
 262.830
  30
0.0
  11
 304.305
  21
 372.830
  31
0.0
   0
LINE
   5
2C3
 100
AcDbEntity
   8
LEVEL018
 100
AcDbLine
   6
CONTINUOUS
  62
3
  10
 285.305
  20
 361.830
  30
0.0
  11
 323.305
  21
 361.830
  31
0.0
   0
LINE
   5
2C4
 100
AcDbEntity
   8
LEVEL018
 100
AcDbLine
   6
CONTINUOUS
  62
3
  10
 287.805
  20
 340.330
  30
0.0
  11
 287.805
  21
 361.830
  31
0.0
   0
LINE
   5
2C5
 100
AcDbEntity
   8
LEVEL018
 100
AcDbLine
   6
CONTINUOUS
  62
3
  10
 290.805
  20
 340.330
  30
0.0
  11
 290.805
  21
 361.830
  31
0.0
   0
LINE
   5
2C6
 100
AcDbEntity
   8
LEVEL018
 100
AcDbLine
   6
CONTINUOUS
  62
3
  10
 293.805
  20
 340.330
  30
0.0
  11
 293.805
  21
 361.830
  31
0.0
   0
LINE
   5
2C7
 100
AcDbEntity
   8
LEVEL018
 100
AcDbLine
   6
CONTINUOUS
  62
3
  10
 296.805
  20
 340.330
  30
0.0
  11
 296.805
  21
 361.830
  31
0.0
   0
LINE
   5
2C8
 100
AcDbEntity
   8
LEVEL018
 100
AcDbLine
   6
CONTINUOUS
  62
3
  10
 299.805
  20
 340.330
  30
0.0
  11
 299.805
  21
 361.830
  31
0.0
   0
LINE
   5
2C9
 100
AcDbEntity
   8
LEVEL018
 100
AcDbLine
   6
CONTINUOUS
  62
3
  10
 289.555
  20
 324.330
  30
0.0
  11
 306.305
  21
 324.330
  31
0.0
   0
LINE
   5
2CA
 100
AcDbEntity
   8
LEVEL018
 100
AcDbLine
   6
CONTINUOUS
  62
3
  10
 289.555
  20
 321.330
  30
0.0
  11
 306.305
  21
 321.330
  31
0.0
   0
LINE
   5
2CB
 100
AcDbEntity
   8
LEVEL018
 100
AcDbLine
   6
CONTINUOUS
  62
3
  10
 289.555
  20
 330.330
  30
0.0
  11
 306.305
  21
 330.330
  31
0.0
   0
LINE
   5
2CC
 100
AcDbEntity
   8
LEVEL018
 100
AcDbLine
   6
CONTINUOUS
  62
3
  10
 289.555
  20
 327.330
  30
0.0
  11
 306.305
  21
 327.330
  31
0.0
   0
LINE
   5
2CD
 100
AcDbEntity
   8
LEVEL018
 100
AcDbLine
   6
CONTINUOUS
  62
3
  10
 289.555
  20
 335.330
  30
0.0
  11
 289.555
  21
 319.830
  31
0.0
   0
LINE
   5
2CE
 100
AcDbEntity
   8
LEVEL018
 100
AcDbLine
   6
CONTINUOUS
  62
3
  10
 314.805
  20
 340.330
  30
0.0
  11
 314.805
  21
 361.830
  31
0.0
   0
LINE
   5
2CF
 100
AcDbEntity
   8
LEVEL018
 100
AcDbLine
   6
CONTINUOUS
  62
3
  10
 317.805
  20
 340.330
  30
0.0
  11
 317.805
  21
 361.830
  31
0.0
   0
LINE
   5
2D0
 100
AcDbEntity
   8
LEVEL018
 100
AcDbLine
   6
CONTINUOUS
  62
3
  10
 320.805
  20
 340.330
  30
0.0
  11
 320.805
  21
 361.830
  31
0.0
   0
LINE
   5
2D1
 100
AcDbEntity
   8
LEVEL018
 100
AcDbLine
   6
CONTINUOUS
  62
3
  10
 302.305
  20
 322.830
  30
0.0
  11
 319.055
  21
 322.830
  31
0.0
   0
LINE
   5
2D2
 100
AcDbEntity
   8
LEVEL018
 100
AcDbLine
   6
CONTINUOUS
  62
3
  10
 302.305
  20
 328.830
  30
0.0
  11
 319.055
  21
 328.830
  31
0.0
   0
LINE
   5
2D3
 100
AcDbEntity
   8
LEVEL018
 100
AcDbLine
   6
CONTINUOUS
  62
3
  10
 302.305
  20
 325.830
  30
0.0
  11
 319.055
  21
 325.830
  31
0.0
   0
LINE
   5
2D4
 100
AcDbEntity
   8
LEVEL018
 100
AcDbLine
   6
CONTINUOUS
  62
3
  10
 319.055
  20
 335.330
  30
0.0
  11
 319.055
  21
 319.830
  31
0.0
   0
LINE
   5
2D5
 100
AcDbEntity
   8
LEVEL018
 100
AcDbLine
   6
CONTINUOUS
  62
3
  10
 302.305
  20
 331.830
  30
0.0
  11
 319.055
  21
 331.830
  31
0.0
   0
LINE
   5
2D6
 100
AcDbEntity
   8
LEVEL018
 100
AcDbLine
   6
CONTINUOUS
  62
3
  10
 286.805
  20
 340.330
  30
0.0
  11
 321.805
  21
 340.330
  31
0.0
   0
LINE
   5
2D7
 100
AcDbEntity
   8
LEVEL018
 100
AcDbLine
   6
CONTINUOUS
  62
3
  10
 321.305
  20
 335.330
  30
0.0
  11
 287.305
  21
 335.330
  31
0.0
   0
LINE
   5
2D8
 100
AcDbEntity
   8
LEVEL018
 100
AcDbLine
   6
CONTINUOUS
  62
3
  10
 287.305
  20
 335.330
  30
0.0
  11
 286.805
  21
 340.330
  31
0.0
   0
LINE
   5
2D9
 100
AcDbEntity
   8
LEVEL018
 100
AcDbLine
   6
CONTINUOUS
  62
3
  10
 286.805
  20
 340.330
  30
0.0
  11
 285.305
  21
 341.830
  31
0.0
   0
LINE
   5
2DA
 100
AcDbEntity
   8
LEVEL018
 100
AcDbLine
   6
CONTINUOUS
  62
3
  10
 285.305
  20
 341.830
  30
0.0
  11
 285.305
  21
 361.830
  31
0.0
   0
LINE
   5
2DB
 100
AcDbEntity
   8
LEVEL018
 100
AcDbLine
   6
CONTINUOUS
  62
3
  10
 285.305
  20
 361.830
  30
0.0
  11
 289.805
  21
 367.830
  31
0.0
   0
LINE
   5
2DC
 100
AcDbEntity
   8
LEVEL018
 100
AcDbLine
   6
CONTINUOUS
  62
3
  10
 289.805
  20
 367.830
  30
0.0
  11
 304.305
  21
 367.830
  31
0.0
   0
LINE
   5
2DD
 100
AcDbEntity
   8
LEVEL018
 100
AcDbLine
   6
CONTINUOUS
  62
3
  10
 304.305
  20
 367.830
  30
0.0
  11
 318.805
  21
 367.830
  31
0.0
   0
LINE
   5
2DE
 100
AcDbEntity
   8
LEVEL018
 100
AcDbLine
   6
CONTINUOUS
  62
3
  10
 318.805
  20
 367.830
  30
0.0
  11
 323.305
  21
 361.830
  31
0.0
   0
LINE
   5
2DF
 100
AcDbEntity
   8
LEVEL018
 100
AcDbLine
   6
CONTINUOUS
  62
3
  10
 323.305
  20
 361.830
  30
0.0
  11
 323.305
  21
 341.830
  31
0.0
   0
LINE
   5
2E0
 100
AcDbEntity
   8
LEVEL018
 100
AcDbLine
   6
CONTINUOUS
  62
3
  10
 323.305
  20
 341.830
  30
0.0
  11
 321.805
  21
 340.330
  31
0.0
   0
LINE
   5
2E1
 100
AcDbEntity
   8
LEVEL018
 100
AcDbLine
   6
CONTINUOUS
  62
3
  10
 321.805
  20
 340.330
  30
0.0
  11
 321.305
  21
 335.330
  31
0.0
   0
LINE
   5
2E2
 100
AcDbEntity
   8
LEVEL018
 100
AcDbLine
   6
CONTINUOUS
  62
3
  10
 288.305
  20
 319.830
  30
0.0
  11
 288.305
  21
 279.830
  31
0.0
   0
LINE
   5
2E3
 100
AcDbEntity
   8
LEVEL018
 100
AcDbLine
   6
CONTINUOUS
  62
3
  10
 288.305
  20
 279.830
  30
0.0
  11
 320.305
  21
 279.830
  31
0.0
   0
LINE
   5
2E4
 100
AcDbEntity
   8
LEVEL018
 100
AcDbLine
   6
CONTINUOUS
  62
3
  10
 320.305
  20
 279.830
  30
0.0
  11
 320.305
  21
 319.830
  31
0.0
   0
LINE
   5
2E5
 100
AcDbEntity
   8
LEVEL018
 100
AcDbLine
   6
CONTINUOUS
  62
3
  10
 320.305
  20
 319.830
  30
0.0
  11
 288.305
  21
 319.830
  31
0.0
   0
ARC
   5
2E6
 100
AcDbEntity
   8
LEVEL018
   6
CONTINUOUS
  62
3
 100
AcDbCircle
  10
 313.805
  20
 264.330
  30
0.0
  40
 1.50000
 100
AcDbArc
  50
 90.0000
  51
 131.815
   0
ARC
   5
2E7
 100
AcDbEntity
   8
LEVEL024
   6
CONTINUOUS
  62
3
 100
AcDbCircle
  10
 315.187
  20
 387.330
  30
0.0
  40
 15.0000
 100
AcDbArc
  50
0.0
  51
 90.0000
   0
LINE
   5
2E8
 100
AcDbEntity
   8
LEVEL024
 100
AcDbLine
   6
CONTINUOUS
  62
3
  10
 330.187
  20
 222.330
  30
0.0
  11
 330.187
  21
 387.330
  31
0.0
   0
ARC
   5
2E9
 100
AcDbEntity
   8
LEVEL024
   6
CONTINUOUS
  62
3
 100
AcDbCircle
  10
 185.187
  20
 387.330
  30
0.0
  40
 15.0000
 100
AcDbArc
  50
 90.0000
  51
 180.000
   0
LINE
   5
2EA
 100
AcDbEntity
   8
LEVEL024
 100
AcDbLine
   6
CONTINUOUS
  62
3
  10
 170.187
  20
 222.330
  30
0.0
  11
 170.187
  21
 387.330
  31
0.0
   0
LINE
   5
2EB
 100
AcDbEntity
   8
LEVEL024
 100
AcDbLine
   6
CONTINUOUS
  62
3
  10
 185.187
  20
 402.330
  30
0.0
  11
 315.187
  21
 402.330
  31
0.0
   0
LINE
   5
2EC
 100
AcDbEntity
   8
LEVEL026
 100
AcDbLine
   6
DASHDOT
  62
1
  10
 300.305
  20
 281.330
  30
0.0
  11
 300.305
  21
 251.330
  31
0.0
   0
LINE
   5
2ED
 100
AcDbEntity
   8
LEVEL026
 100
AcDbLine
   6
DASHDOT
  62
1
  10
 263.805
  20
 266.330
  30
0.0
  11
 313.813
  21
 266.330
  31
0.0
   0
LINE
   5
2EE
 100
AcDbEntity
   8
LEVEL026
 100
AcDbLine
   6
CONTINUOUS
  62
3
  10
 274.421
  20
 257.667
  30
0.0
  11
 263.805
  21
 257.999
  31
0.0
   0
LINE
   5
2EF
 100
AcDbEntity
   8
LEVEL026
 100
AcDbLine
   6
CONTINUOUS
  62
3
  10
 263.805
  20
 258.855
  30
0.0
  11
 270.805
  21
 258.636
  31
0.0
   0
LINE
   5
2F0
 100
AcDbEntity
   8
LEVEL026
 100
AcDbLine
   6
CONTINUOUS
  62
3
  10
 270.805
  20
 258.636
  30
0.0
  11
 274.421
  21
 257.667
  31
0.0
   0
LINE
   5
2F1
 100
AcDbEntity
   8
LEVEL026
 100
AcDbLine
   6
CONTINUOUS
  62
3
  10
 287.805
  20
 254.830
  30
0.0
  11
 288.805
  21
 253.830
  31
0.0
   0
LINE
   5
2F2
 100
AcDbEntity
   8
LEVEL026
 100
AcDbLine
   6
CONTINUOUS
  62
3
  10
 274.421
  20
 257.667
  30
0.0
  11
 287.805
  21
 257.667
  31
0.0
   0
LINE
   5
2F3
 100
AcDbEntity
   8
LEVEL026
 100
AcDbLine
   6
CONTINUOUS
  62
3
  10
 274.421
  20
 274.993
  30
0.0
  11
 263.805
  21
 274.661
  31
0.0
   0
LINE
   5
2F4
 100
AcDbEntity
   8
LEVEL026
 100
AcDbLine
   6
CONTINUOUS
  62
3
  10
 263.805
  20
 273.805
  30
0.0
  11
 270.805
  21
 274.024
  31
0.0
   0
LINE
   5
2F5
 100
AcDbEntity
   8
LEVEL026
 100
AcDbLine
   6
CONTINUOUS
  62
3
  10
 270.805
  20
 274.024
  30
0.0
  11
 274.421
  21
 274.993
  31
0.0
   0
LINE
   5
2F6
 100
AcDbEntity
   8
LEVEL026
 100
AcDbLine
   6
CONTINUOUS
  62
3
  10
 274.421
  20
 274.993
  30
0.0
  11
 287.805
  21
 274.993
  31
0.0
   0
LINE
   5
2F7
 100
AcDbEntity
   8
LEVEL026
 100
AcDbLine
   6
CONTINUOUS
  62
3
  10
 270.805
  20
 258.636
  30
0.0
  11
 270.805
  21
 274.024
  31
0.0
   0
LINE
   5
2F8
 100
AcDbEntity
   8
LEVEL026
 100
AcDbLine
   6
CONTINUOUS
  62
3
  10
 274.421
  20
 257.667
  30
0.0
  11
 274.421
  21
 274.993
  31
0.0
   0
LINE
   5
2F9
 100
AcDbEntity
   8
LEVEL018
 100
AcDbLine
   6
CONTINUOUS
  62
3
  10
 289.305
  20
 279.830
  30
0.0
  11
 289.305
  21
 278.830
  31
0.0
   0
LINE
   5
2FA
 100
AcDbEntity
   8
LEVEL026
 100
AcDbLine
   6
CONTINUOUS
  62
3
  10
 288.805
  20
 278.830
  30
0.0
  11
 287.805
  21
 277.830
  31
0.0
   0
LINE
   5
2FB
 100
AcDbEntity
   8
LEVEL026
 100
AcDbLine
   6
CONTINUOUS
  62
3
  10
 287.805
  20
 277.830
  30
0.0
  11
 287.805
  21
 254.830
  31
0.0
   0
LINE
   5
2FC
 100
AcDbEntity
   8
LEVEL018
 100
AcDbLine
   6
CONTINUOUS
  62
3
  10
 312.805
  20
 275.830
  30
0.0
  11
 319.305
  21
 275.830
  31
0.0
   0
LINE
   5
2FD
 100
AcDbEntity
   8
LEVEL018
 100
AcDbLine
   6
CONTINUOUS
  62
3
  10
 319.305
  20
 275.830
  30
0.0
  11
 319.305
  21
 279.830
  31
0.0
   0
LINE
   5
2FE
 100
AcDbEntity
   8
LEVEL018
 100
AcDbLine
   6
CONTINUOUS
  62
3
  10
 312.805
  20
 265.830
  30
0.0
  11
 313.805
  21
 265.830
  31
0.0
   0
LINE
   5
2FF
 100
AcDbEntity
   8
LEVEL018
 100
AcDbLine
   6
CONTINUOUS
  62
3
  10
 313.805
  20
 265.830
  30
0.0
  11
 313.805
  21
 275.830
  31
0.0
   0
LINE
   5
300
 100
AcDbEntity
   8
LEVEL026
 100
AcDbLine
   6
CONTINUOUS
  62
3
  10
 311.805
  20
 278.830
  30
0.0
  11
 312.805
  21
 277.830
  31
0.0
   0
LINE
   5
301
 100
AcDbEntity
   8
LEVEL018
 100
AcDbLine
   6
CONTINUOUS
  62
3
  10
 289.305
  20
 279.330
  30
0.0
  11
 319.305
  21
 279.330
  31
0.0
   0
LINE
   5
302
 100
AcDbEntity
   8
LEVEL026
 100
AcDbLine
   6
CONTINUOUS
  62
3
  10
 311.805
  20
 278.830
  30
0.0
  11
 288.805
  21
 278.830
  31
0.0
   0
LINE
   5
303
 100
AcDbEntity
   8
LEVEL026
 100
AcDbLine
   6
CONTINUOUS
  62
3
  10
 311.805
  20
 253.830
  30
0.0
  11
 312.805
  21
 254.830
  31
0.0
   0
LINE
   5
304
 100
AcDbEntity
   8
LEVEL026
 100
AcDbLine
   6
CONTINUOUS
  62
3
  10
 311.805
  20
 253.830
  30
0.0
  11
 288.805
  21
 253.830
  31
0.0
   0
LINE
   5
305
 100
AcDbEntity
   8
LEVEL026
 100
AcDbLine
   6
CONTINUOUS
  62
3
  10
 312.805
  20
 277.830
  30
0.0
  11
 312.805
  21
 254.830
  31
0.0
   0
CIRCLE
   5
306
 100
AcDbEntity
   8
LEVEL003
 100
AcDbCircle
   6
CONTINUOUS
  62
3
  10
 300.305
  20
 266.330
  30
0.0
  40
 7.47500
   0
CIRCLE
   5
307
 100
AcDbEntity
   8
LEVEL003
 100
AcDbCircle
   6
CONTINUOUS
  62
3
  10
 300.305
  20
 266.330
  30
0.0
  40
 8.33100
   0
ARC
   5
308
 100
AcDbEntity
   8
0
   6
CONTINUOUS
  62
3
 100
AcDbCircle
  10
 177.687
  20
 90.9535
  30
0.0
  40
 5.22330
 100
AcDbArc
  50
 270.000
  51
 293.865
   0
ARC
   5
309
 100
AcDbEntity
   8
0
   6
CONTINUOUS
  62
3
 100
AcDbCircle
  10
 187.687
  20
 90.9535
  30
0.0
  40
 5.22330
 100
AcDbArc
  50
 246.135
  51
 270.000
   0
ARC
   5
30A
 100
AcDbEntity
   8
0
   6
CONTINUOUS
  62
3
 100
AcDbCircle
  10
 187.687
  20
 84.1069
  30
0.0
  40
 5.22330
 100
AcDbArc
  50
 90.0000
  51
 113.865
   0
ARC
   5
30B
 100
AcDbEntity
   8
0
   6
CONTINUOUS
  62
3
 100
AcDbCircle
  10
 177.687
  20
 84.1069
  30
0.0
  40
 5.22330
 100
AcDbArc
  50
 66.1351
  51
 90.0000
   0
ARC
   5
30C
 100
AcDbEntity
   8
0
   6
CONTINUOUS
  62
3
 100
AcDbCircle
  10
 182.687
  20
 95.2836
  30
0.0
  40
 9.55342
 100
AcDbArc
  50
 252.412
  51
 287.588
   0
ARC
   5
30D
 100
AcDbEntity
   8
0
   6
CONTINUOUS
  62
3
 100
AcDbCircle
  10
 182.687
  20
 79.7768
  30
0.0
  40
 9.55342
 100
AcDbArc
  50
 72.4120
  51
 107.588
   0
LINE
   5
30E
 100
AcDbEntity
   8
0
 100
AcDbLine
   6
CONTINUOUS
  62
3
  10
 179.800
  20
 86.1768
  30
0.0
  11
 179.800
  21
 88.8836
  31
0.0
   0
LINE
   5
30F
 100
AcDbEntity
   8
0
 100
AcDbLine
   6
CONTINUOUS
  62
3
  10
 185.573
  20
 86.1768
  30
0.0
  11
 185.573
  21
 88.8836
  31
0.0
   0
LINE
   5
310
 100
AcDbEntity
   8
0
 100
AcDbLine
   6
CONTINUOUS
  62
3
  10
 187.687
  20
 85.7302
  30
0.0
  11
 188.460
  21
 86.1768
  31
0.0
   0
LINE
   5
311
 100
AcDbEntity
   8
0
 100
AcDbLine
   6
CONTINUOUS
  62
3
  10
 188.460
  20
 86.1768
  30
0.0
  11
 188.460
  21
 88.8836
  31
0.0
   0
LINE
   5
312
 100
AcDbEntity
   8
0
 100
AcDbLine
   6
CONTINUOUS
  62
3
  10
 188.460
  20
 88.8836
  30
0.0
  11
 187.687
  21
 89.3302
  31
0.0
   0
LINE
   5
313
 100
AcDbEntity
   8
0
 100
AcDbLine
   6
CONTINUOUS
  62
3
  10
 187.687
  20
 89.3302
  30
0.0
  11
 177.687
  21
 89.3302
  31
0.0
   0
LINE
   5
314
 100
AcDbEntity
   8
0
 100
AcDbLine
   6
CONTINUOUS
  62
3
  10
 177.687
  20
 89.3302
  30
0.0
  11
 176.913
  21
 88.8836
  31
0.0
   0
LINE
   5
315
 100
AcDbEntity
   8
0
 100
AcDbLine
   6
CONTINUOUS
  62
3
  10
 176.913
  20
 88.8836
  30
0.0
  11
 176.913
  21
 86.1768
  31
0.0
   0
LINE
   5
316
 100
AcDbEntity
   8
0
 100
AcDbLine
   6
CONTINUOUS
  62
3
  10
 176.913
  20
 86.1768
  30
0.0
  11
 177.687
  21
 85.7302
  31
0.0
   0
LINE
   5
317
 100
AcDbEntity
   8
0
 100
AcDbLine
   6
CONTINUOUS
  62
3
  10
 172.687
  20
 85.7302
  30
0.0
  11
 192.687
  21
 85.7302
  31
0.0
   0
LINE
   5
318
 100
AcDbEntity
   8
0
 100
AcDbLine
   6
CONTINUOUS
  62
3
  10
 172.687
  20
 75.7302
  30
0.0
  11
 192.687
  21
 75.7302
  31
0.0
   0
LINE
   5
319
 100
AcDbEntity
   8
0
 100
AcDbLine
   6
CONTINUOUS
  62
3
  10
 172.687
  20
 85.7302
  30
0.0
  11
 172.687
  21
 75.7302
  31
0.0
   0
LINE
   5
31A
 100
AcDbEntity
   8
0
 100
AcDbLine
   6
CONTINUOUS
  62
3
  10
 192.687
  20
 85.7302
  30
0.0
  11
 192.687
  21
 75.7302
  31
0.0
   0
LINE
   5
31B
 100
AcDbEntity
   8
0
 100
AcDbLine
   6
CONTINUOUS
  62
3
  10
 179.687
  20
 89.3302
  30
0.0
  11
 179.687
  21
 90.3302
  31
0.0
   0
LINE
   5
31C
 100
AcDbEntity
   8
0
 100
AcDbLine
   6
CONTINUOUS
  62
3
  10
 185.687
  20
 89.3302
  30
0.0
  11
 185.687
  21
 90.3302
  31
0.0
   0
ARC
   5
31D
 100
AcDbEntity
   8
0
   6
CONTINUOUS
  62
3
 100
AcDbCircle
  10
 312.687
  20
 90.9535
  30
0.0
  40
 5.22330
 100
AcDbArc
  50
 270.000
  51
 293.865
   0
ARC
   5
31E
 100
AcDbEntity
   8
0
   6
CONTINUOUS
  62
3
 100
AcDbCircle
  10
 322.687
  20
 90.9535
  30
0.0
  40
 5.22330
 100
AcDbArc
  50
 246.135
  51
 270.000
   0
ARC
   5
31F
 100
AcDbEntity
   8
0
   6
CONTINUOUS
  62
3
 100
AcDbCircle
  10
 322.687
  20
 84.1069
  30
0.0
  40
 5.22330
 100
AcDbArc
  50
 90.0000
  51
 113.865
   0
ARC
   5
320
 100
AcDbEntity
   8
0
   6
CONTINUOUS
  62
3
 100
AcDbCircle
  10
 312.687
  20
 84.1069
  30
0.0
  40
 5.22330
 100
AcDbArc
  50
 66.1351
  51
 90.0000
   0
ARC
   5
321
 100
AcDbEntity
   8
0
   6
CONTINUOUS
  62
3
 100
AcDbCircle
  10
 317.687
  20
 95.2836
  30
0.0
  40
 9.55342
 100
AcDbArc
  50
 252.412
  51
 287.588
   0
ARC
   5
322
 100
AcDbEntity
   8
0
   6
CONTINUOUS
  62
3
 100
AcDbCircle
  10
 317.687
  20
 79.7768
  30
0.0
  40
 9.55342
 100
AcDbArc
  50
 72.4120
  51
 107.588
   0
LINE
   5
323
 100
AcDbEntity
   8
0
 100
AcDbLine
   6
CONTINUOUS
  62
3
  10
 314.800
  20
 86.1768
  30
0.0
  11
 314.800
  21
 88.8836
  31
0.0
   0
LINE
   5
324
 100
AcDbEntity
   8
0
 100
AcDbLine
   6
CONTINUOUS
  62
3
  10
 320.573
  20
 86.1768
  30
0.0
  11
 320.573
  21
 88.8836
  31
0.0
   0
LINE
   5
325
 100
AcDbEntity
   8
0
 100
AcDbLine
   6
CONTINUOUS
  62
3
  10
 322.687
  20
 85.7302
  30
0.0
  11
 323.460
  21
 86.1768
  31
0.0
   0
LINE
   5
326
 100
AcDbEntity
   8
0
 100
AcDbLine
   6
CONTINUOUS
  62
3
  10
 323.460
  20
 86.1768
  30
0.0
  11
 323.460
  21
 88.8836
  31
0.0
   0
LINE
   5
327
 100
AcDbEntity
   8
0
 100
AcDbLine
   6
CONTINUOUS
  62
3
  10
 323.460
  20
 88.8836
  30
0.0
  11
 322.687
  21
 89.3302
  31
0.0
   0
LINE
   5
328
 100
AcDbEntity
   8
0
 100
AcDbLine
   6
CONTINUOUS
  62
3
  10
 322.687
  20
 89.3302
  30
0.0
  11
 312.687
  21
 89.3302
  31
0.0
   0
LINE
   5
329
 100
AcDbEntity
   8
0
 100
AcDbLine
   6
CONTINUOUS
  62
3
  10
 312.687
  20
 89.3302
  30
0.0
  11
 311.913
  21
 88.8836
  31
0.0
   0
LINE
   5
32A
 100
AcDbEntity
   8
0
 100
AcDbLine
   6
CONTINUOUS
  62
3
  10
 311.913
  20
 88.8836
  30
0.0
  11
 311.913
  21
 86.1768
  31
0.0
   0
LINE
   5
32B
 100
AcDbEntity
   8
0
 100
AcDbLine
   6
CONTINUOUS
  62
3
  10
 311.913
  20
 86.1768
  30
0.0
  11
 312.687
  21
 85.7302
  31
0.0
   0
LINE
   5
32C
 100
AcDbEntity
   8
0
 100
AcDbLine
   6
CONTINUOUS
  62
3
  10
 307.687
  20
 85.7302
  30
0.0
  11
 327.687
  21
 85.7302
  31
0.0
   0
LINE
   5
32D
 100
AcDbEntity
   8
0
 100
AcDbLine
   6
CONTINUOUS
  62
3
  10
 307.687
  20
 75.7302
  30
0.0
  11
 327.687
  21
 75.7302
  31
0.0
   0
LINE
   5
32E
 100
AcDbEntity
   8
0
 100
AcDbLine
   6
CONTINUOUS
  62
3
  10
 307.687
  20
 85.7302
  30
0.0
  11
 307.687
  21
 75.7302
  31
0.0
   0
LINE
   5
32F
 100
AcDbEntity
   8
0
 100
AcDbLine
   6
CONTINUOUS
  62
3
  10
 327.687
  20
 85.7302
  30
0.0
  11
 327.687
  21
 75.7302
  31
0.0
   0
LINE
   5
330
 100
AcDbEntity
   8
0
 100
AcDbLine
   6
CONTINUOUS
  62
3
  10
 314.687
  20
 89.3302
  30
0.0
  11
 314.687
  21
 90.3302
  31
0.0
   0
LINE
   5
331
 100
AcDbEntity
   8
0
 100
AcDbLine
   6
CONTINUOUS
  62
3
  10
 320.687
  20
 89.3302
  30
0.0
  11
 320.687
  21
 90.3302
  31
0.0
   0
ARC
   5
332
 100
AcDbEntity
   8
0
   6
CONTINUOUS
  62
3
 100
AcDbCircle
  10
 522.687
  20
 90.9535
  30
0.0
  40
 5.22330
 100
AcDbArc
  50
 270.000
  51
 293.865
   0
ARC
   5
333
 100
AcDbEntity
   8
0
   6
CONTINUOUS
  62
3
 100
AcDbCircle
  10
 532.687
  20
 90.9535
  30
0.0
  40
 5.22330
 100
AcDbArc
  50
 246.135
  51
 270.000
   0
ARC
   5
334
 100
AcDbEntity
   8
0
   6
CONTINUOUS
  62
3
 100
AcDbCircle
  10
 532.687
  20
 84.1069
  30
0.0
  40
 5.22330
 100
AcDbArc
  50
 90.0000
  51
 113.865
   0
ARC
   5
335
 100
AcDbEntity
   8
0
   6
CONTINUOUS
  62
3
 100
AcDbCircle
  10
 522.687
  20
 84.1069
  30
0.0
  40
 5.22330
 100
AcDbArc
  50
 66.1351
  51
 90.0000
   0
ARC
   5
336
 100
AcDbEntity
   8
0
   6
CONTINUOUS
  62
3
 100
AcDbCircle
  10
 527.687
  20
 95.2836
  30
0.0
  40
 9.55342
 100
AcDbArc
  50
 252.412
  51
 287.588
   0
ARC
   5
337
 100
AcDbEntity
   8
0
   6
CONTINUOUS
  62
3
 100
AcDbCircle
  10
 527.687
  20
 79.7768
  30
0.0
  40
 9.55342
 100
AcDbArc
  50
 72.4120
  51
 107.588
   0
LINE
   5
338
 100
AcDbEntity
   8
0
 100
AcDbLine
   6
CONTINUOUS
  62
3
  10
 524.800
  20
 86.1768
  30
0.0
  11
 524.800
  21
 88.8836
  31
0.0
   0
LINE
   5
339
 100
AcDbEntity
   8
0
 100
AcDbLine
   6
CONTINUOUS
  62
3
  10
 530.573
  20
 86.1768
  30
0.0
  11
 530.573
  21
 88.8836
  31
0.0
   0
LINE
   5
33A
 100
AcDbEntity
   8
0
 100
AcDbLine
   6
CONTINUOUS
  62
3
  10
 532.687
  20
 85.7302
  30
0.0
  11
 533.460
  21
 86.1768
  31
0.0
   0
LINE
   5
33B
 100
AcDbEntity
   8
0
 100
AcDbLine
   6
CONTINUOUS
  62
3
  10
 533.460
  20
 86.1768
  30
0.0
  11
 533.460
  21
 88.8836
  31
0.0
   0
LINE
   5
33C
 100
AcDbEntity
   8
0
 100
AcDbLine
   6
CONTINUOUS
  62
3
  10
 533.460
  20
 88.8836
  30
0.0
  11
 532.687
  21
 89.3302
  31
0.0
   0
LINE
   5
33D
 100
AcDbEntity
   8
0
 100
AcDbLine
   6
CONTINUOUS
  62
3
  10
 532.687
  20
 89.3302
  30
0.0
  11
 522.687
  21
 89.3302
  31
0.0
   0
LINE
   5
33E
 100
AcDbEntity
   8
0
 100
AcDbLine
   6
CONTINUOUS
  62
3
  10
 522.687
  20
 89.3302
  30
0.0
  11
 521.913
  21
 88.8836
  31
0.0
   0
LINE
   5
33F
 100
AcDbEntity
   8
0
 100
AcDbLine
   6
CONTINUOUS
  62
3
  10
 521.913
  20
 88.8836
  30
0.0
  11
 521.913
  21
 86.1768
  31
0.0
   0
LINE
   5
340
 100
AcDbEntity
   8
0
 100
AcDbLine
   6
CONTINUOUS
  62
3
  10
 521.913
  20
 86.1768
  30
0.0
  11
 522.687
  21
 85.7302
  31
0.0
   0
LINE
   5
341
 100
AcDbEntity
   8
0
 100
AcDbLine
   6
CONTINUOUS
  62
3
  10
 517.687
  20
 85.7302
  30
0.0
  11
 537.687
  21
 85.7302
  31
0.0
   0
LINE
   5
342
 100
AcDbEntity
   8
0
 100
AcDbLine
   6
CONTINUOUS
  62
3
  10
 517.687
  20
 75.7302
  30
0.0
  11
 537.687
  21
 75.7302
  31
0.0
   0
LINE
   5
343
 100
AcDbEntity
   8
0
 100
AcDbLine
   6
CONTINUOUS
  62
3
  10
 517.687
  20
 85.7302
  30
0.0
  11
 517.687
  21
 75.7302
  31
0.0
   0
LINE
   5
344
 100
AcDbEntity
   8
0
 100
AcDbLine
   6
CONTINUOUS
  62
3
  10
 537.687
  20
 85.7302
  30
0.0
  11
 537.687
  21
 75.7302
  31
0.0
   0
LINE
   5
345
 100
AcDbEntity
   8
0
 100
AcDbLine
   6
CONTINUOUS
  62
3
  10
 524.687
  20
 89.3302
  30
0.0
  11
 524.687
  21
 90.3302
  31
0.0
   0
LINE
   5
346
 100
AcDbEntity
   8
0
 100
AcDbLine
   6
CONTINUOUS
  62
3
  10
 530.687
  20
 89.3302
  30
0.0
  11
 530.687
  21
 90.3302
  31
0.0
   0
ARC
   5
347
 100
AcDbEntity
   8
0
   6
CONTINUOUS
  62
3
 100
AcDbCircle
  10
 717.687
  20
 90.9535
  30
0.0
  40
 5.22330
 100
AcDbArc
  50
 270.000
  51
 293.865
   0
ARC
   5
348
 100
AcDbEntity
   8
0
   6
CONTINUOUS
  62
3
 100
AcDbCircle
  10
 727.687
  20
 90.9535
  30
0.0
  40
 5.22330
 100
AcDbArc
  50
 246.135
  51
 270.000
   0
ARC
   5
349
 100
AcDbEntity
   8
0
   6
CONTINUOUS
  62
3
 100
AcDbCircle
  10
 727.687
  20
 84.1069
  30
0.0
  40
 5.22330
 100
AcDbArc
  50
 90.0000
  51
 113.865
   0
ARC
   5
34A
 100
AcDbEntity
   8
0
   6
CONTINUOUS
  62
3
 100
AcDbCircle
  10
 717.687
  20
 84.1069
  30
0.0
  40
 5.22330
 100
AcDbArc
  50
 66.1351
  51
 90.0000
   0
ARC
   5
34B
 100
AcDbEntity
   8
0
   6
CONTINUOUS
  62
3
 100
AcDbCircle
  10
 722.687
  20
 95.2836
  30
0.0
  40
 9.55342
 100
AcDbArc
  50
 252.412
  51
 287.588
   0
ARC
   5
34C
 100
AcDbEntity
   8
0
   6
CONTINUOUS
  62
3
 100
AcDbCircle
  10
 722.687
  20
 79.7768
  30
0.0
  40
 9.55342
 100
AcDbArc
  50
 72.4120
  51
 107.588
   0
LINE
   5
34D
 100
AcDbEntity
   8
0
 100
AcDbLine
   6
CONTINUOUS
  62
3
  10
 719.800
  20
 86.1768
  30
0.0
  11
 719.800
  21
 88.8836
  31
0.0
   0
LINE
   5
34E
 100
AcDbEntity
   8
0
 100
AcDbLine
   6
CONTINUOUS
  62
3
  10
 725.573
  20
 86.1768
  30
0.0
  11
 725.573
  21
 88.8836
  31
0.0
   0
LINE
   5
34F
 100
AcDbEntity
   8
0
 100
AcDbLine
   6
CONTINUOUS
  62
3
  10
 727.687
  20
 85.7302
  30
0.0
  11
 728.460
  21
 86.1768
  31
0.0
   0
LINE
   5
350
 100
AcDbEntity
   8
0
 100
AcDbLine
   6
CONTINUOUS
  62
3
  10
 728.460
  20
 86.1768
  30
0.0
  11
 728.460
  21
 88.8836
  31
0.0
   0
LINE
   5
351
 100
AcDbEntity
   8
0
 100
AcDbLine
   6
CONTINUOUS
  62
3
  10
 728.460
  20
 88.8836
  30
0.0
  11
 727.687
  21
 89.3302
  31
0.0
   0
LINE
   5
352
 100
AcDbEntity
   8
0
 100
AcDbLine
   6
CONTINUOUS
  62
3
  10
 727.687
  20
 89.3302
  30
0.0
  11
 717.687
  21
 89.3302
  31
0.0
   0
LINE
   5
353
 100
AcDbEntity
   8
0
 100
AcDbLine
   6
CONTINUOUS
  62
3
  10
 717.687
  20
 89.3302
  30
0.0
  11
 716.913
  21
 88.8836
  31
0.0
   0
LINE
   5
354
 100
AcDbEntity
   8
0
 100
AcDbLine
   6
CONTINUOUS
  62
3
  10
 716.913
  20
 88.8836
  30
0.0
  11
 716.913
  21
 86.1768
  31
0.0
   0
LINE
   5
355
 100
AcDbEntity
   8
0
 100
AcDbLine
   6
CONTINUOUS
  62
3
  10
 716.913
  20
 86.1768
  30
0.0
  11
 717.687
  21
 85.7302
  31
0.0
   0
LINE
   5
356
 100
AcDbEntity
   8
0
 100
AcDbLine
   6
CONTINUOUS
  62
3
  10
 712.687
  20
 85.7302
  30
0.0
  11
 732.687
  21
 85.7302
  31
0.0
   0
LINE
   5
357
 100
AcDbEntity
   8
0
 100
AcDbLine
   6
CONTINUOUS
  62
3
  10
 712.687
  20
 75.7302
  30
0.0
  11
 732.687
  21
 75.7302
  31
0.0
   0
LINE
   5
358
 100
AcDbEntity
   8
0
 100
AcDbLine
   6
CONTINUOUS
  62
3
  10
 712.687
  20
 85.7302
  30
0.0
  11
 712.687
  21
 75.7302
  31
0.0
   0
LINE
   5
359
 100
AcDbEntity
   8
0
 100
AcDbLine
   6
CONTINUOUS
  62
3
  10
 732.687
  20
 85.7302
  30
0.0
  11
 732.687
  21
 75.7302
  31
0.0
   0
LINE
   5
35A
 100
AcDbEntity
   8
0
 100
AcDbLine
   6
CONTINUOUS
  62
3
  10
 719.687
  20
 89.3302
  30
0.0
  11
 719.687
  21
 90.3302
  31
0.0
   0
LINE
   5
35B
 100
AcDbEntity
   8
0
 100
AcDbLine
   6
CONTINUOUS
  62
3
  10
 725.687
  20
 89.3302
  30
0.0
  11
 725.687
  21
 90.3302
  31
0.0
   0
LINE
   5
35C
 100
AcDbEntity
   8
LEVEL014
 100
AcDbLine
   6
DASHDOT
  62
1
  10
 680.187
  20
 390.330
  30
0.0
  11
 680.187
  21
 195.330
  31
0.0
   0
LINE
   5
35D
 100
AcDbEntity
   8
LEVEL014
 100
AcDbLine
   6
DOT
  62
3
  10
 661.187
  20
 374.330
  30
0.0
  11
 665.187
  21
 378.330
  31
0.0
   0
LINE
   5
35E
 100
AcDbEntity
   8
LEVEL014
 100
AcDbLine
   6
DOT
  62
3
  10
 640.187
  20
 316.830
  30
0.0
  11
 640.187
  21
 374.330
  31
0.0
   0
LINE
   5
35F
 100
AcDbEntity
   8
LEVEL014
 100
AcDbLine
   6
DOT
  62
3
  10
 720.187
  20
 222.330
  30
0.0
  11
 720.187
  21
 374.330
  31
0.0
   0
LINE
   5
360
 100
AcDbEntity
   8
LEVEL014
 100
AcDbLine
   6
DOT
  62
3
  10
 699.187
  20
 374.330
  30
0.0
  11
 695.187
  21
 378.330
  31
0.0
   0
LINE
   5
361
 100
AcDbEntity
   8
LEVEL014
 100
AcDbLine
   6
DOT
  62
3
  10
 665.187
  20
 378.330
  30
0.0
  11
 695.187
  21
 378.330
  31
0.0
   0
LINE
   5
362
 100
AcDbEntity
   8
LEVEL014
 100
AcDbLine
   6
DOT
  62
3
  10
 640.187
  20
 374.330
  30
0.0
  11
 720.187
  21
 374.330
  31
0.0
   0
LINE
   5
363
 100
AcDbEntity
   8
LEVEL014
 100
AcDbLine
   6
DOT
  62
3
  10
 640.187
  20
 369.330
  30
0.0
  11
 720.187
  21
 369.330
  31
0.0
   0
LINE
   5
364
 100
AcDbEntity
   8
LEVEL014
 100
AcDbLine
   6
DOT
  62
3
  10
 640.187
  20
 341.330
  30
0.0
  11
 720.187
  21
 341.330
  31
0.0
   0
LINE
   5
365
 100
AcDbEntity
   8
LEVEL014
 100
AcDbLine
   6
DOT
  62
3
  10
 640.187
  20
 230.330
  30
0.0
  11
 720.187
  21
 230.330
  31
0.0
   0
LINE
   5
366
 100
AcDbEntity
   8
LEVEL014
 100
AcDbLine
   6
DOT
  62
3
  10
 640.187
  20
 222.330
  30
0.0
  11
 640.187
  21
 289.330
  31
0.0
   0
LINE
   5
367
 100
AcDbEntity
   8
LEVEL026
 100
AcDbLine
   6
DOT
  62
3
  10
 616.497
  20
 222.330
  30
0.0
  11
 616.497
  21
 252.330
  31
0.0
   0
LINE
   5
368
 100
AcDbEntity
   8
LEVEL026
 100
AcDbLine
   6
DOT
  62
3
  10
 616.497
  20
 252.330
  30
0.0
  11
 609.497
  21
 252.330
  31
0.0
   0
LINE
   5
369
 100
AcDbEntity
   8
LEVEL026
 100
AcDbLine
   6
DASHDOT
  62
1
  10
 596.997
  20
 227.330
  30
0.0
  11
 596.997
  21
 267.830
  31
0.0
   0
LINE
   5
36A
 100
AcDbEntity
   8
LEVEL026
 100
AcDbLine
   6
DASHDOT
  62
1
  10
 583.488
  20
 237.330
  30
0.0
  11
 610.505
  21
 237.330
  31
0.0
   0
LINE
   5
36B
 100
AcDbEntity
   8
LEVEL018
 100
AcDbLine
   6
DASHDOT
  62
1
  10
 653.997
  20
 260.830
  30
0.0
  11
 653.997
  21
 276.830
  31
0.0
   0
LINE
   5
36C
 100
AcDbEntity
   8
LEVEL018
 100
AcDbLine
   6
DASHDOT
  62
1
  10
 596.997
  20
 262.830
  30
0.0
  11
 596.997
  21
 372.830
  31
0.0
   0
LINE
   5
36D
 100
AcDbEntity
   8
LEVEL018
 100
AcDbLine
   6
DASHDOT
  62
1
  10
 606.997
  20
 303.080
  30
0.0
  11
 666.997
  21
 303.080
  31
0.0
   0
LINE
   5
36E
 100
AcDbEntity
   8
LEVEL015
 100
AcDbLine
   6
DASHDOT
  62
1
  10
 601.997
  20
 311.691
  30
0.0
  11
 601.997
  21
 390.830
  31
0.0
   0
ARC
   5
36F
 100
AcDbEntity
   8
LEVEL015
   6
DOT
  62
3
 100
AcDbCircle
  10
 612.997
  20
 382.830
  30
0.0
  40
 3.00000
 100
AcDbArc
  50
0.0
  51
 90.0000
   0
LINE
   5
370
 100
AcDbEntity
   8
LEVEL015
 100
AcDbLine
   6
DOT
  62
3
  10
 612.997
  20
 385.830
  30
0.0
  11
 603.353
  21
 385.830
  31
0.0
   0
LINE
   5
371
 100
AcDbEntity
   8
LEVEL018
 100
AcDbLine
   6
DOT
  62
3
  10
 600.686
  20
 361.830
  30
0.0
  11
 615.997
  21
 361.830
  31
0.0
   0
ARC
   5
372
 100
AcDbEntity
   8
LEVEL015
   6
DOT
  62
3
 100
AcDbCircle
  10
 612.997
  20
 327.830
  30
0.0
  40
 3.00000
 100
AcDbArc
  50
 270.000
  51
0.0
   0
ARC
   5
373
 100
AcDbEntity
   8
LEVEL015
   6
DOT
  62
3
 100
AcDbCircle
  10
 601.997
  20
 261.330
  30
0.0
  40
 64.2826
 100
AcDbArc
  50
 81.0505
  51
 81.2760
   0
ARC
   5
374
 100
AcDbEntity
   8
LEVEL015
   6
DOT
  62
3
 100
AcDbCircle
  10
 611.497
  20
 322.830
  30
0.0
  40
 0.500000
 100
AcDbArc
  50
 300.000
  51
 0.163496E-8
   0
LINE
   5
375
 100
AcDbEntity
   8
LEVEL018
 100
AcDbLine
   6
DOT
  62
3
  10
 607.497
  20
 340.330
  30
0.0
  11
 607.497
  21
 361.830
  31
0.0
   0
LINE
   5
376
 100
AcDbEntity
   8
LEVEL018
 100
AcDbLine
   6
DOT
  62
3
  10
 610.497
  20
 340.330
  30
0.0
  11
 610.497
  21
 361.830
  31
0.0
   0
LINE
   5
377
 100
AcDbEntity
   8
LEVEL018
 100
AcDbLine
   6
DOT
  62
3
  10
 611.747
  20
 335.330
  30
0.0
  11
 611.747
  21
 319.830
  31
0.0
   0
LINE
   5
378
 100
AcDbEntity
   8
LEVEL015
 100
AcDbLine
   6
DOT
  62
3
  10
 611.997
  20
 322.830
  30
0.0
  11
 611.997
  21
 324.830
  31
0.0
   0
LINE
   5
379
 100
AcDbEntity
   8
LEVEL015
 100
AcDbLine
   6
DOT
  62
3
  10
 612.997
  20
 324.830
  30
0.0
  11
 611.997
  21
 324.830
  31
0.0
   0
LINE
   5
37A
 100
AcDbEntity
   8
LEVEL018
 100
AcDbLine
   6
DOT
  62
3
  10
 613.497
  20
 340.330
  30
0.0
  11
 613.497
  21
 361.830
  31
0.0
   0
LINE
   5
37B
 100
AcDbEntity
   8
LEVEL018
 100
AcDbLine
   6
DOT
  62
3
  10
 601.352
  20
 367.830
  30
0.0
  11
 611.497
  21
 367.830
  31
0.0
   0
LINE
   5
37C
 100
AcDbEntity
   8
LEVEL018
 100
AcDbLine
   6
DOT
  62
3
  10
 611.497
  20
 367.830
  30
0.0
  11
 615.997
  21
 361.830
  31
0.0
   0
LINE
   5
37D
 100
AcDbEntity
   8
LEVEL018
 100
AcDbLine
   6
DOT
  62
3
  10
 615.997
  20
 361.830
  30
0.0
  11
 615.997
  21
 341.830
  31
0.0
   0
LINE
   5
37E
 100
AcDbEntity
   8
LEVEL018
 100
AcDbLine
   6
DOT
  62
3
  10
 615.997
  20
 341.830
  30
0.0
  11
 614.497
  21
 340.330
  31
0.0
   0
LINE
   5
37F
 100
AcDbEntity
   8
LEVEL018
 100
AcDbLine
   6
DOT
  62
3
  10
 614.497
  20
 340.330
  30
0.0
  11
 613.997
  21
 335.330
  31
0.0
   0
LINE
   5
380
 100
AcDbEntity
   8
LEVEL018
 100
AcDbLine
   6
DOT
  62
3
  10
 613.997
  20
 335.330
  30
0.0
  11
 597.740
  21
 335.330
  31
0.0
   0
LINE
   5
381
 100
AcDbEntity
   8
LEVEL018
 100
AcDbLine
   6
DOT
  62
3
  10
 604.497
  20
 340.330
  30
0.0
  11
 604.497
  21
 361.830
  31
0.0
   0
LINE
   5
382
 100
AcDbEntity
   8
LEVEL018
 100
AcDbLine
   6
DOT
  62
3
  10
 601.497
  20
 340.330
  30
0.0
  11
 601.497
  21
 361.830
  31
0.0
   0
LINE
   5
383
 100
AcDbEntity
   8
LEVEL018
 100
AcDbLine
   6
DOT
  62
3
  10
 598.497
  20
 340.330
  30
0.0
  11
 598.497
  21
 342.134
  31
0.0
   0
LINE
   5
384
 100
AcDbEntity
   8
LEVEL018
 100
AcDbLine
   6
DOT
  62
3
  10
 598.296
  20
 340.330
  30
0.0
  11
 614.497
  21
 340.330
  31
0.0
   0
LINE
   5
385
 100
AcDbEntity
   8
LEVEL015
 100
AcDbLine
   6
DOT
  62
3
  10
 615.997
  20
 361.830
  30
0.0
  11
 615.997
  21
 382.830
  31
0.0
   0
LINE
   5
386
 100
AcDbEntity
   8
LEVEL015
 100
AcDbLine
   6
DOT
  62
3
  10
 615.997
  20
 327.830
  30
0.0
  11
 615.997
  21
 341.830
  31
0.0
   0
ARC
   5
387
 100
AcDbEntity
   8
LEVEL018
   6
DOT
  62
3
 100
AcDbCircle
  10
 663.247
  20
 314.830
  30
0.0
  40
 2.00000
 100
AcDbArc
  50
0.0
  51
 90.0000
   0
LINE
   5
388
 100
AcDbEntity
   8
LEVEL018
 100
AcDbLine
   6
DOT
  62
3
  10
 631.997
  20
 316.830
  30
0.0
  11
 663.247
  21
 316.830
  31
0.0
   0
LINE
   5
389
 100
AcDbEntity
   8
LEVEL018
 100
AcDbLine
   6
DOT
  62
3
  10
 618.997
  20
 288.330
  30
0.0
  11
 618.997
  21
 317.830
  31
0.0
   0
LINE
   5
38A
 100
AcDbEntity
   8
LEVEL018
 100
AcDbLine
   6
DOT
  62
3
  10
 619.997
  20
 317.830
  30
0.0
  11
 619.997
  21
 288.330
  31
0.0
   0
LINE
   5
38B
 100
AcDbEntity
   8
LEVEL018
 100
AcDbLine
   6
DOT
  62
3
  10
 612.997
  20
 317.830
  30
0.0
  11
 628.997
  21
 317.830
  31
0.0
   0
ARC
   5
38C
 100
AcDbEntity
   8
LEVEL018
   6
DOT
  62
3
 100
AcDbCircle
  10
 644.247
  20
 275.330
  30
0.0
  40
 1.50000
 100
AcDbArc
  50
 180.000
  51
 270.000
   0
ARC
   5
38D
 100
AcDbEntity
   8
LEVEL018
   6
DOT
  62
3
 100
AcDbCircle
  10
 645.683
  20
 271.828
  30
0.0
  40
 8.00000
 100
AcDbArc
  50
 268.665
  51
 295.199
   0
LINE
   5
38E
 100
AcDbEntity
   8
LEVEL018
 100
AcDbLine
   6
DOT
  62
3
  10
 642.747
  20
 289.330
  30
0.0
  11
 642.747
  21
 275.330
  31
0.0
   0
LINE
   5
38F
 100
AcDbEntity
   8
LEVEL018
 100
AcDbLine
   6
DOT
  62
3
  10
 646.997
  20
 273.830
  30
0.0
  11
 646.997
  21
 268.830
  31
0.0
   0
LINE
   5
390
 100
AcDbEntity
   8
LEVEL018
 100
AcDbLine
   6
DOT
  62
3
  10
 644.182
  20
 264.589
  30
0.0
  11
 645.497
  21
 263.830
  31
0.0
   0
LINE
   5
391
 100
AcDbEntity
   8
LEVEL018
 100
AcDbLine
   6
DOT
  62
3
  10
 649.089
  20
 268.830
  30
0.0
  11
 649.089
  21
 264.589
  31
0.0
   0
LINE
   5
392
 100
AcDbEntity
   8
LEVEL018
 100
AcDbLine
   6
DOT
  62
3
  10
 644.182
  20
 268.830
  30
0.0
  11
 644.182
  21
 264.589
  31
0.0
   0
LINE
   5
393
 100
AcDbEntity
   8
LEVEL018
 100
AcDbLine
   6
DOT
  62
3
  10
 628.997
  20
 287.830
  30
0.0
  11
 628.997
  21
 318.330
  31
0.0
   0
LINE
   5
394
 100
AcDbEntity
   8
LEVEL018
 100
AcDbLine
   6
DOT
  62
3
  10
 628.997
  20
 318.330
  30
0.0
  11
 631.997
  21
 318.330
  31
0.0
   0
LINE
   5
395
 100
AcDbEntity
   8
LEVEL018
 100
AcDbLine
   6
DOT
  62
3
  10
 631.997
  20
 318.330
  30
0.0
  11
 631.997
  21
 287.830
  31
0.0
   0
LINE
   5
396
 100
AcDbEntity
   8
LEVEL018
 100
AcDbLine
   6
DOT
  62
3
  10
 631.997
  20
 287.830
  30
0.0
  11
 628.997
  21
 287.830
  31
0.0
   0
ARC
   5
397
 100
AcDbEntity
   8
LEVEL018
   6
DOT
  62
3
 100
AcDbCircle
  10
 663.247
  20
 291.330
  30
0.0
  40
 2.00000
 100
AcDbArc
  50
 270.000
  51
0.0
   0
ARC
   5
398
 100
AcDbEntity
   8
LEVEL018
   6
DOT
  62
3
 100
AcDbCircle
  10
 663.747
  20
 275.330
  30
0.0
  40
 1.50000
 100
AcDbArc
  50
 270.000
  51
 0.343059E-9
   0
LINE
   5
399
 100
AcDbEntity
   8
LEVEL018
 100
AcDbLine
   6
DOT
  62
3
  10
 663.812
  20
 264.589
  30
0.0
  11
 663.812
  21
 268.830
  31
0.0
   0
ARC
   5
39A
 100
AcDbEntity
   8
LEVEL018
   6
DOT
  62
3
 100
AcDbCircle
  10
 662.310
  20
 271.828
  30
0.0
  40
 8.00000
 100
AcDbArc
  50
 244.801
  51
 271.335
   0
LINE
   5
39B
 100
AcDbEntity
   8
LEVEL018
 100
AcDbLine
   6
DOT
  62
3
  10
 660.997
  20
 273.830
  30
0.0
  11
 660.997
  21
 268.830
  31
0.0
   0
LINE
   5
39C
 100
AcDbEntity
   8
LEVEL018
 100
AcDbLine
   6
DOT
  62
3
  10
 658.904
  20
 268.830
  30
0.0
  11
 658.904
  21
 264.589
  31
0.0
   0
LINE
   5
39D
 100
AcDbEntity
   8
LEVEL018
 100
AcDbLine
   6
DOT
  62
3
  10
 662.497
  20
 263.830
  30
0.0
  11
 663.812
  21
 264.589
  31
0.0
   0
LINE
   5
39E
 100
AcDbEntity
   8
LEVEL018
 100
AcDbLine
   6
DOT
  62
3
  10
 665.247
  20
 314.830
  30
0.0
  11
 665.247
  21
 275.330
  31
0.0
   0
ARC
   5
39F
 100
AcDbEntity
   8
LEVEL018
   6
DOT
  62
3
 100
AcDbCircle
  10
 653.997
  20
 280.071
  30
0.0
  40
 16.2408
 100
AcDbArc
  50
 252.412
  51
 287.588
   0
LINE
   5
3A0
 100
AcDbEntity
   8
LEVEL018
 100
AcDbLine
   6
DOT
  62
3
  10
 631.997
  20
 289.330
  30
0.0
  11
 663.247
  21
 289.330
  31
0.0
   0
LINE
   5
3A1
 100
AcDbEntity
   8
LEVEL018
 100
AcDbLine
   6
DOT
  62
3
  10
 663.747
  20
 273.830
  30
0.0
  11
 644.247
  21
 273.830
  31
0.0
   0
LINE
   5
3A2
 100
AcDbEntity
   8
LEVEL018
 100
AcDbLine
   6
DOT
  62
3
  10
 663.812
  20
 268.830
  30
0.0
  11
 644.182
  21
 268.830
  31
0.0
   0
LINE
   5
3A3
 100
AcDbEntity
   8
LEVEL018
 100
AcDbLine
   6
DOT
  62
3
  10
 645.497
  20
 263.830
  30
0.0
  11
 662.497
  21
 263.830
  31
0.0
   0
ARC
   5
3A4
 100
AcDbEntity
   8
LEVEL018
   6
DOT
  62
3
 100
AcDbCircle
  10
 610.497
  20
 274.330
  30
0.0
  40
 1.50000
 100
AcDbArc
  50
 90.0000
  51
 180.000
   0
ARC
   5
3A5
 100
AcDbEntity
   8
LEVEL018
   6
DOT
  62
3
 100
AcDbCircle
  10
 606.497
  20
 264.330
  30
0.0
  40
 1.50000
 100
AcDbArc
  50
 90.0000
  51
 180.000
   0
LINE
   5
3A6
 100
AcDbEntity
   8
LEVEL018
 100
AcDbLine
   6
DOT
  62
3
  10
 611.997
  20
 276.830
  30
0.0
  11
 610.997
  21
 275.830
  31
0.0
   0
LINE
   5
3A7
 100
AcDbEntity
   8
LEVEL018
 100
AcDbLine
   6
DOT
  62
3
  10
 604.997
  20
 264.330
  30
0.0
  11
 604.997
  21
 262.830
  31
0.0
   0
LINE
   5
3A8
 100
AcDbEntity
   8
LEVEL018
 100
AcDbLine
   6
DOT
  62
3
  10
 606.497
  20
 265.830
  30
0.0
  11
 606.497
  21
 275.830
  31
0.0
   0
LINE
   5
3A9
 100
AcDbEntity
   8
LEVEL018
 100
AcDbLine
   6
DOT
  62
3
  10
 611.997
  20
 279.830
  30
0.0
  11
 611.997
  21
 276.830
  31
0.0
   0
LINE
   5
3AA
 100
AcDbEntity
   8
LEVEL026
 100
AcDbLine
   6
DOT
  62
3
  10
 589.683
  20
 262.830
  30
0.0
  11
 608.497
  21
 262.830
  31
0.0
   0
LINE
   5
3AB
 100
AcDbEntity
   8
LEVEL026
 100
AcDbLine
   6
DOT
  62
3
  10
 608.497
  20
 262.830
  30
0.0
  11
 609.497
  21
 261.830
  31
0.0
   0
LINE
   5
3AC
 100
AcDbEntity
   8
LEVEL026
 100
AcDbLine
   6
DOT
  62
3
  10
 609.497
  20
 261.830
  30
0.0
  11
 609.497
  21
 228.830
  31
0.0
   0
LINE
   5
3AD
 100
AcDbEntity
   8
LEVEL026
 100
AcDbLine
   6
DOT
  62
3
  10
 609.497
  20
 228.830
  30
0.0
  11
 585.904
  21
 228.830
  31
0.0
   0
LINE
   5
3AE
 100
AcDbEntity
   8
LEVEL018
 100
AcDbLine
   6
DOT
  62
3
  10
 591.517
  20
 279.330
  30
0.0
  11
 611.997
  21
 279.330
  31
0.0
   0
LINE
   5
3AF
 100
AcDbEntity
   8
LEVEL018
 100
AcDbLine
   6
DOT
  62
3
  10
 591.239
  20
 276.830
  30
0.0
  11
 611.997
  21
 276.830
  31
0.0
   0
LINE
   5
3B0
 100
AcDbEntity
   8
LEVEL018
 100
AcDbLine
   6
DOT
  62
3
  10
 591.128
  20
 275.830
  30
0.0
  11
 610.997
  21
 275.830
  31
0.0
   0
LINE
   5
3B1
 100
AcDbEntity
   8
LEVEL018
 100
AcDbLine
   6
DOT
  62
3
  10
 606.497
  20
 265.830
  30
0.0
  11
 590.927
  21
 274.025
  31
0.0
   0
LINE
   5
3B2
 100
AcDbEntity
   8
LEVEL018
 100
AcDbLine
   6
DOT
  62
3
  10
 590.173
  20
 267.239
  30
0.0
  11
 606.497
  21
 275.830
  31
0.0
   0
LINE
   5
3B3
 100
AcDbEntity
   8
LEVEL018
 100
AcDbLine
   6
DOT
  62
3
  10
 590.016
  20
 265.830
  30
0.0
  11
 608.997
  21
 265.830
  31
0.0
   0
LINE
   5
3B4
 100
AcDbEntity
   8
LEVEL018
 100
AcDbLine
   6
DOT
  62
3
  10
 608.997
  20
 265.830
  30
0.0
  11
 608.997
  21
 274.330
  31
0.0
   0
LINE
   5
3B5
 100
AcDbEntity
   8
LEVEL018
 100
AcDbLine
   6
DOT
  62
3
  10
 612.997
  20
 288.330
  30
0.0
  11
 628.997
  21
 288.330
  31
0.0
   0
LINE
   5
3B6
 100
AcDbEntity
   8
LEVEL018
 100
AcDbLine
   6
DOT
  62
3
  10
 596.184
  20
 321.330
  30
0.0
  11
 598.997
  21
 321.330
  31
0.0
   0
LINE
   5
3B7
 100
AcDbEntity
   8
LEVEL018
 100
AcDbLine
   6
DOT
  62
3
  10
 596.518
  20
 324.330
  30
0.0
  11
 598.997
  21
 324.330
  31
0.0
   0
LINE
   5
3B8
 100
AcDbEntity
   8
LEVEL018
 100
AcDbLine
   6
DOT
  62
3
  10
 596.851
  20
 327.330
  30
0.0
  11
 598.997
  21
 327.330
  31
0.0
   0
LINE
   5
3B9
 100
AcDbEntity
   8
LEVEL018
 100
AcDbLine
   6
DOT
  62
3
  10
 597.185
  20
 330.330
  30
0.0
  11
 598.997
  21
 330.330
  31
0.0
   0
LINE
   5
3BA
 100
AcDbEntity
   8
LEVEL018
 100
AcDbLine
   6
DOT
  62
3
  10
 597.351
  20
 331.830
  30
0.0
  11
 611.747
  21
 331.830
  31
0.0
   0
LINE
   5
3BB
 100
AcDbEntity
   8
LEVEL018
 100
AcDbLine
   6
DOT
  62
3
  10
 596.351
  20
 322.830
  30
0.0
  11
 611.747
  21
 322.830
  31
0.0
   0
LINE
   5
3BC
 100
AcDbEntity
   8
LEVEL018
 100
AcDbLine
   6
DOT
  62
3
  10
 596.685
  20
 325.830
  30
0.0
  11
 611.747
  21
 325.830
  31
0.0
   0
LINE
   5
3BD
 100
AcDbEntity
   8
LEVEL018
 100
AcDbLine
   6
DOT
  62
3
  10
 597.018
  20
 328.830
  30
0.0
  11
 611.747
  21
 328.830
  31
0.0
   0
LINE
   5
3BE
 100
AcDbEntity
   8
LEVEL018
 100
AcDbLine
   6
DOT
  62
3
  10
 595.851
  20
 318.330
  30
0.0
  11
 611.997
  21
 318.330
  31
0.0
   0
LINE
   5
3BF
 100
AcDbEntity
   8
LEVEL018
 100
AcDbLine
   6
DOT
  62
3
  10
 611.997
  20
 318.330
  30
0.0
  11
 611.997
  21
 288.330
  31
0.0
   0
LINE
   5
3C0
 100
AcDbEntity
   8
LEVEL018
 100
AcDbLine
   6
DOT
  62
3
  10
 611.997
  20
 288.330
  30
0.0
  11
 592.517
  21
 288.330
  31
0.0
   0
LINE
   5
3C1
 100
AcDbEntity
   8
LEVEL018
 100
AcDbLine
   6
DOT
  62
3
  10
 596.018
  20
 319.830
  30
0.0
  11
 612.997
  21
 319.830
  31
0.0
   0
LINE
   5
3C2
 100
AcDbEntity
   8
LEVEL018
 100
AcDbLine
   6
DOT
  62
3
  10
 612.997
  20
 319.830
  30
0.0
  11
 612.997
  21
 279.830
  31
0.0
   0
LINE
   5
3C3
 100
AcDbEntity
   8
LEVEL018
 100
AcDbLine
   6
DOT
  62
3
  10
 612.997
  20
 279.830
  30
0.0
  11
 591.572
  21
 279.830
  31
0.0
   0
ARC
   5
3C4
 100
AcDbEntity
   8
LEVEL015
   6
CONTINUOUS
  62
3
 100
AcDbCircle
  10
 586.997
  20
 387.330
  30
0.0
  40
 2.00000
 100
AcDbArc
  50
 90.0000
  51
 180.000
   0
LINE
   5
3C5
 100
AcDbEntity
   8
LEVEL015
 100
AcDbLine
   6
CONTINUOUS
  62
3
  10
 603.353
  20
 385.830
  30
0.0
  11
 589.997
  21
 385.830
  31
0.0
   0
LINE
   5
3C6
 100
AcDbEntity
   8
LEVEL015
 100
AcDbLine
   6
CONTINUOUS
  62
3
  10
 589.997
  20
 367.830
  30
0.0
  11
 589.997
  21
 389.330
  31
0.0
   0
LINE
   5
3C7
 100
AcDbEntity
   8
LEVEL015
 100
AcDbLine
   6
CONTINUOUS
  62
3
  10
 589.997
  20
 389.330
  30
0.0
  11
 586.997
  21
 389.330
  31
0.0
   0
LINE
   5
3C8
 100
AcDbEntity
   8
LEVEL018
 100
AcDbLine
   6
CONTINUOUS
  62
3
  10
 597.740
  20
 335.330
  30
0.0
  11
 579.997
  21
 335.330
  31
0.0
   0
LINE
   5
3C9
 100
AcDbEntity
   8
LEVEL018
 100
AcDbLine
   6
CONTINUOUS
  62
3
  10
 579.997
  20
 335.330
  30
0.0
  11
 579.497
  21
 340.330
  31
0.0
   0
LINE
   5
3CA
 100
AcDbEntity
   8
LEVEL018
 100
AcDbLine
   6
CONTINUOUS
  62
3
  10
 579.497
  20
 340.330
  30
0.0
  11
 577.997
  21
 341.830
  31
0.0
   0
LINE
   5
3CB
 100
AcDbEntity
   8
LEVEL018
 100
AcDbLine
   6
CONTINUOUS
  62
3
  10
 577.997
  20
 341.830
  30
0.0
  11
 577.997
  21
 361.830
  31
0.0
   0
LINE
   5
3CC
 100
AcDbEntity
   8
LEVEL018
 100
AcDbLine
   6
CONTINUOUS
  62
3
  10
 577.997
  20
 361.830
  30
0.0
  11
 582.497
  21
 367.830
  31
0.0
   0
LINE
   5
3CD
 100
AcDbEntity
   8
LEVEL018
 100
AcDbLine
   6
CONTINUOUS
  62
3
  10
 582.497
  20
 367.830
  30
0.0
  11
 596.997
  21
 367.830
  31
0.0
   0
LINE
   5
3CE
 100
AcDbEntity
   8
LEVEL018
 100
AcDbLine
   6
CONTINUOUS
  62
3
  10
 596.997
  20
 367.830
  30
0.0
  11
 601.352
  21
 367.830
  31
0.0
   0
LINE
   5
3CF
 100
AcDbEntity
   8
LEVEL015
 100
AcDbLine
   6
CONTINUOUS
  62
3
  10
 584.997
  20
 387.330
  30
0.0
  11
 584.997
  21
 367.830
  31
0.0
   0
LINE
   5
3D0
 100
AcDbEntity
   8
LEVEL018
 100
AcDbLine
   6
CONTINUOUS
  62
3
  10
 589.497
  20
 340.330
  30
0.0
  11
 589.497
  21
 361.830
  31
0.0
   0
LINE
   5
3D1
 100
AcDbEntity
   8
LEVEL018
 100
AcDbLine
   6
CONTINUOUS
  62
3
  10
 592.497
  20
 340.330
  30
0.0
  11
 592.497
  21
 361.830
  31
0.0
   0
LINE
   5
3D2
 100
AcDbEntity
   8
LEVEL018
 100
AcDbLine
   6
CONTINUOUS
  62
3
  10
 595.497
  20
 340.330
  30
0.0
  11
 595.497
  21
 361.830
  31
0.0
   0
LINE
   5
3D3
 100
AcDbEntity
   8
LEVEL018
 100
AcDbLine
   6
CONTINUOUS
  62
3
  10
 580.497
  20
 340.330
  30
0.0
  11
 580.497
  21
 361.830
  31
0.0
   0
LINE
   5
3D4
 100
AcDbEntity
   8
LEVEL018
 100
AcDbLine
   6
CONTINUOUS
  62
3
  10
 583.497
  20
 340.330
  30
0.0
  11
 583.497
  21
 361.830
  31
0.0
   0
LINE
   5
3D5
 100
AcDbEntity
   8
LEVEL018
 100
AcDbLine
   6
CONTINUOUS
  62
3
  10
 586.497
  20
 340.330
  30
0.0
  11
 586.497
  21
 361.830
  31
0.0
   0
LINE
   5
3D6
 100
AcDbEntity
   8
LEVEL018
 100
AcDbLine
   6
CONTINUOUS
  62
3
  10
 577.997
  20
 361.830
  30
0.0
  11
 600.686
  21
 361.830
  31
0.0
   0
LINE
   5
3D7
 100
AcDbEntity
   8
LEVEL018
 100
AcDbLine
   6
CONTINUOUS
  62
3
  10
 598.497
  20
 342.134
  30
0.0
  11
 598.497
  21
 361.830
  31
0.0
   0
LINE
   5
3D8
 100
AcDbEntity
   8
LEVEL018
 100
AcDbLine
   6
CONTINUOUS
  62
3
  10
 579.497
  20
 340.330
  30
0.0
  11
 598.296
  21
 340.330
  31
0.0
   0
LINE
   5
3D9
 100
AcDbEntity
   8
LEVEL018
 100
AcDbLine
   6
CONTINUOUS
  62
3
  10
 582.247
  20
 335.330
  30
0.0
  11
 582.247
  21
 319.830
  31
0.0
   0
LINE
   5
3DA
 100
AcDbEntity
   8
LEVEL018
 100
AcDbLine
   6
CONTINUOUS
  62
3
  10
 582.247
  20
 321.330
  30
0.0
  11
 596.184
  21
 321.330
  31
0.0
   0
LINE
   5
3DB
 100
AcDbEntity
   8
LEVEL018
 100
AcDbLine
   6
CONTINUOUS
  62
3
  10
 582.247
  20
 327.330
  30
0.0
  11
 596.851
  21
 327.330
  31
0.0
   0
LINE
   5
3DC
 100
AcDbEntity
   8
LEVEL018
 100
AcDbLine
   6
CONTINUOUS
  62
3
  10
 582.247
  20
 324.330
  30
0.0
  11
 596.518
  21
 324.330
  31
0.0
   0
LINE
   5
3DD
 100
AcDbEntity
   8
LEVEL018
 100
AcDbLine
   6
CONTINUOUS
  62
3
  10
 582.247
  20
 330.330
  30
0.0
  11
 597.185
  21
 330.330
  31
0.0
   0
LINE
   5
3DE
 100
AcDbEntity
   8
LEVEL018
 100
AcDbLine
   6
CONTINUOUS
  62
3
  10
 591.572
  20
 279.830
  30
0.0
  11
 580.997
  21
 279.830
  31
0.0
   0
LINE
   5
3DF
 100
AcDbEntity
   8
LEVEL018
 100
AcDbLine
   6
CONTINUOUS
  62
3
  10
 580.997
  20
 279.830
  30
0.0
  11
 580.997
  21
 319.830
  31
0.0
   0
LINE
   5
3E0
 100
AcDbEntity
   8
LEVEL018
 100
AcDbLine
   6
CONTINUOUS
  62
3
  10
 580.997
  20
 319.830
  30
0.0
  11
 596.018
  21
 319.830
  31
0.0
   0
LINE
   5
3E1
 100
AcDbEntity
   8
LEVEL018
 100
AcDbLine
   6
CONTINUOUS
  62
3
  10
 592.517
  20
 288.330
  30
0.0
  11
 581.997
  21
 288.330
  31
0.0
   0
LINE
   5
3E2
 100
AcDbEntity
   8
LEVEL018
 100
AcDbLine
   6
CONTINUOUS
  62
3
  10
 581.997
  20
 288.330
  30
0.0
  11
 581.997
  21
 318.330
  31
0.0
   0
LINE
   5
3E3
 100
AcDbEntity
   8
LEVEL018
 100
AcDbLine
   6
CONTINUOUS
  62
3
  10
 581.997
  20
 318.330
  30
0.0
  11
 595.851
  21
 318.330
  31
0.0
   0
LINE
   5
3E4
 100
AcDbEntity
   8
LEVEL018
 100
AcDbLine
   6
CONTINUOUS
  62
3
  10
 594.997
  20
 331.830
  30
0.0
  11
 597.351
  21
 331.830
  31
0.0
   0
LINE
   5
3E5
 100
AcDbEntity
   8
LEVEL018
 100
AcDbLine
   6
CONTINUOUS
  62
3
  10
 594.997
  20
 328.830
  30
0.0
  11
 597.018
  21
 328.830
  31
0.0
   0
LINE
   5
3E6
 100
AcDbEntity
   8
LEVEL018
 100
AcDbLine
   6
CONTINUOUS
  62
3
  10
 594.997
  20
 325.830
  30
0.0
  11
 596.685
  21
 325.830
  31
0.0
   0
LINE
   5
3E7
 100
AcDbEntity
   8
LEVEL018
 100
AcDbLine
   6
CONTINUOUS
  62
3
  10
 594.997
  20
 322.830
  30
0.0
  11
 596.351
  21
 322.830
  31
0.0
   0
ARC
   5
3E8
 100
AcDbEntity
   8
LEVEL018
   6
CONTINUOUS
  62
3
 100
AcDbCircle
  10
 583.497
  20
 274.330
  30
0.0
  40
 1.50000
 100
AcDbArc
  50
0.0
  51
 90.0000
   0
LINE
   5
3E9
 100
AcDbEntity
   8
LEVEL018
 100
AcDbLine
   6
CONTINUOUS
  62
3
  10
 581.997
  20
 276.830
  30
0.0
  11
 582.997
  21
 275.830
  31
0.0
   0
LINE
   5
3EA
 100
AcDbEntity
   8
LEVEL018
 100
AcDbLine
   6
CONTINUOUS
  62
3
  10
 581.997
  20
 279.830
  30
0.0
  11
 581.997
  21
 276.830
  31
0.0
   0
LINE
   5
3EB
 100
AcDbEntity
   8
LEVEL018
 100
AcDbLine
   6
CONTINUOUS
  62
3
  10
 590.927
  20
 274.025
  30
0.0
  11
 587.497
  21
 275.830
  31
0.0
   0
LINE
   5
3EC
 100
AcDbEntity
   8
LEVEL018
 100
AcDbLine
   6
CONTINUOUS
  62
3
  10
 581.997
  20
 276.830
  30
0.0
  11
 591.239
  21
 276.830
  31
0.0
   0
LINE
   5
3ED
 100
AcDbEntity
   8
LEVEL018
 100
AcDbLine
   6
CONTINUOUS
  62
3
  10
 582.997
  20
 275.830
  30
0.0
  11
 591.128
  21
 275.830
  31
0.0
   0
LINE
   5
3EE
 100
AcDbEntity
   8
LEVEL018
 100
AcDbLine
   6
CONTINUOUS
  62
3
  10
 581.997
  20
 279.330
  30
0.0
  11
 591.517
  21
 279.330
  31
0.0
   0
LINE
   5
3EF
 100
AcDbEntity
   8
LEVEL018
 100
AcDbLine
   6
CONTINUOUS
  62
3
  10
 587.497
  20
 275.830
  30
0.0
  11
 587.497
  21
 265.830
  31
0.0
   0
LINE
   5
3F0
 100
AcDbEntity
   8
LEVEL018
 100
AcDbLine
   6
CONTINUOUS
  62
3
  10
 584.997
  20
 274.330
  30
0.0
  11
 584.997
  21
 265.830
  31
0.0
   0
LINE
   5
3F1
 100
AcDbEntity
   8
LEVEL018
 100
AcDbLine
   6
CONTINUOUS
  62
3
  10
 584.997
  20
 265.830
  30
0.0
  11
 590.016
  21
 265.830
  31
0.0
   0
LINE
   5
3F2
 100
AcDbEntity
   8
LEVEL026
 100
AcDbLine
   6
CONTINUOUS
  62
3
  10
 585.904
  20
 228.830
  30
0.0
  11
 584.497
  21
 228.830
  31
0.0
   0
LINE
   5
3F3
 100
AcDbEntity
   8
LEVEL026
 100
AcDbLine
   6
CONTINUOUS
  62
3
  10
 584.497
  20
 228.830
  30
0.0
  11
 584.497
  21
 261.830
  31
0.0
   0
LINE
   5
3F4
 100
AcDbEntity
   8
LEVEL026
 100
AcDbLine
   6
CONTINUOUS
  62
3
  10
 584.497
  20
 261.830
  30
0.0
  11
 585.497
  21
 262.830
  31
0.0
   0
LINE
   5
3F5
 100
AcDbEntity
   8
LEVEL026
 100
AcDbLine
   6
CONTINUOUS
  62
3
  10
 585.497
  20
 262.830
  30
0.0
  11
 588.997
  21
 262.830
  31
0.0
   0
ARC
   5
3F6
 100
AcDbEntity
   8
LEVEL018
   6
CONTINUOUS
  62
3
 100
AcDbCircle
  10
 587.497
  20
 264.330
  30
0.0
  40
 1.50000
 100
AcDbArc
  50
0.0
  51
 90.0000
   0
LINE
   5
3F7
 100
AcDbEntity
   8
LEVEL018
 100
AcDbLine
   6
CONTINUOUS
  62
3
  10
 588.997
  20
 264.330
  30
0.0
  11
 588.997
  21
 262.830
  31
0.0
   0
LINE
   5
3F8
 100
AcDbEntity
   8
LEVEL018
 100
AcDbLine
   6
CONTINUOUS
  62
3
  10
 587.497
  20
 265.830
  30
0.0
  11
 590.173
  21
 267.239
  31
0.0
   0
LINE
   5
3F9
 100
AcDbEntity
   8
LEVEL024
 100
AcDbLine
   6
CONTINUOUS
  62
3
  10
 583.848
  20
 210.330
  30
0.0
  11
 605.187
  21
 402.330
  31
0.0
   0
ARC
   5
3FA
 100
AcDbEntity
   8
LEVEL024
   6
CONTINUOUS
  62
3
 100
AcDbCircle
  10
 720.187
  20
 387.330
  30
0.0
  40
 15.0000
 100
AcDbArc
  50
 0.434252E-12
  51
 90.0000
   0
LINE
   5
3FB
 100
AcDbEntity
   8
LEVEL024
 100
AcDbLine
   6
CONTINUOUS
  62
3
  10
 605.187
  20
 402.330
  30
0.0
  11
 720.187
  21
 402.330
  31
0.0
   0
LINE
   5
3FC
 100
AcDbEntity
   8
LEVEL024
 100
AcDbLine
   6
CONTINUOUS
  62
3
  10
 735.187
  20
 222.330
  30
0.0
  11
 735.187
  21
 387.330
  31
0.0
   0
LINE
   5
3FD
 100
AcDbEntity
   8
LEVEL042
 100
AcDbLine
   6
CONTINUOUS
  62
25
  10
 1150.19
  20
 645.330
  30
0.0
  11
 1150.19
  21
 682.192
  31
0.0
   0
LINE
   5
3FE
 100
AcDbEntity
   8
LEVEL042
 100
AcDbLine
   6
CONTINUOUS
  62
3
  10
 1148.09
  20
 682.192
  30
0.0
  11
 1150.19
  21
 682.192
  31
0.0
   0
LINE
   5
3FF
 100
AcDbEntity
   8
LEVEL042
 100
AcDbLine
   6
CONTINUOUS
  62
3
  10
 1150.19
  20
 682.192
  30
0.0
  11
 1152.29
  21
 682.192
  31
0.0
   0
TEXT
   5
400
 100
AcDbEntity
   8
LEVEL042
  62
3
 100
AcDbText
  10
 1000.19
  20
 705.330
  30
0.0
  40
 12.0000
   1
加圧口
   7
STANDARD
 100
AcDbText
   0
TEXT
   5
401
 100
AcDbEntity
   8
LEVEL042
  62
3
 100
AcDbText
  10
 1000.19
  20
 689.330
  30
0.0
  40
 12.0000
   1
Ｒｃ３／８
   7
STANDARD
 100
AcDbText
   0
TEXT
   5
402
 100
AcDbEntity
   8
LEVEL042
  62
3
 100
AcDbText
  10
 1120.19
  20
 735.330
  30
0.0
  40
 12.0000
   1
戻り口
   7
STANDARD
 100
AcDbText
   0
TEXT
   5
403
 100
AcDbEntity
   8
LEVEL042
  62
3
 100
AcDbText
  10
 1120.19
  20
 719.330
  30
0.0
  40
 12.0000
   1
Ｒｃ３／８
   7
STANDARD
 100
AcDbText
   0
LEADER
   5
404
 100
AcDbEntity
   8
LEVEL042
   6
CONTINUOUS
  62
3
 100
AcDbLeader
   3
GMM007
  73
0
  74
1
  75
0
  40
 9.45000
  41
0.0
  76
3
  10
 1071.20
  20
 682.192
  30
0.0
  10
 1060.19
  20
 705.330
  30
0.0
  10
 1000.19
  20
 705.330
  30
0.0
  77
3
   0
LEADER
   5
405
 100
AcDbEntity
   8
LEVEL042
   6
CONTINUOUS
  62
3
 100
AcDbLeader
   3
GMM003
  73
0
  74
1
  75
0
  40
 9.45000
  41
0.0
  76
3
  10
 1082.40
  20
 682.192
  30
0.0
  10
 1120.19
  20
 735.330
  30
0.0
  10
 1180.19
  20
 735.330
  30
0.0
  77
3
   0
LINE
   5
406
 100
AcDbEntity
   8
LEVEL042
 100
AcDbLine
   6
CONTINUOUS
  62
3
  10
 1142.69
  20
 652.830
  30
0.0
  11
 1142.69
  21
 645.330
  31
0.0
   0
LINE
   5
407
 100
AcDbEntity
   8
LEVEL042
 100
AcDbLine
   6
CONTINUOUS
  62
3
  10
 1142.69
  20
 645.330
  30
0.0
  11
 1157.69
  21
 645.330
  31
0.0
   0
LINE
   5
408
 100
AcDbEntity
   8
LEVEL042
 100
AcDbLine
   6
CONTINUOUS
  62
3
  10
 1157.69
  20
 645.330
  30
0.0
  11
 1157.69
  21
 652.830
  31
0.0
   0
LEADER
   5
409
 100
AcDbEntity
   8
LEVEL042
   6
CONTINUOUS
  62
3
 100
AcDbLeader
   3
GMM003
  73
0
  74
1
  75
0
  40
 9.45000
  41
0.0
  76
3
  10
 1150.19
  20
 682.192
  30
0.0
  10
 1120.19
  20
 705.330
  30
0.0
  10
 1210.19
  20
 705.330
  30
0.0
  77
3
   0
LINE
   5
40A
 100
AcDbEntity
   8
LEVEL001
 100
AcDbLine
   6
CONTINUOUS
  62
3
  10
 571.497
  20
 252.330
  30
0.0
  11
 581.497
  21
 252.330
  31
0.0
   0
LINE
   5
40B
 100
AcDbEntity
   8
LEVEL001
 100
AcDbLine
   6
CONTINUOUS
  62
3
  10
 581.497
  20
 252.330
  30
0.0
  11
 581.497
  21
 258.030
  31
0.0
   0
LINE
   5
40C
 100
AcDbEntity
   8
LEVEL001
 100
AcDbLine
   6
CONTINUOUS
  62
3
  10
 581.497
  20
 258.030
  30
0.0
  11
 580.977
  21
 258.330
  31
0.0
   0
LINE
   5
40D
 100
AcDbEntity
   8
LEVEL001
 100
AcDbLine
   6
CONTINUOUS
  62
3
  10
 580.977
  20
 258.330
  30
0.0
  11
 572.016
  21
 258.330
  31
0.0
   0
LINE
   5
40E
 100
AcDbEntity
   8
LEVEL001
 100
AcDbLine
   6
CONTINUOUS
  62
3
  10
 572.016
  20
 258.330
  30
0.0
  11
 571.497
  21
 258.030
  31
0.0
   0
LINE
   5
40F
 100
AcDbEntity
   8
LEVEL001
 100
AcDbLine
   6
CONTINUOUS
  62
3
  10
 571.497
  20
 258.030
  30
0.0
  11
 571.497
  21
 252.330
  31
0.0
   0
LINE
   5
410
 100
AcDbEntity
   8
LEVEL001
 100
AcDbLine
   6
CONTINUOUS
  62
3
  10
 571.497
  20
 258.030
  30
0.0
  11
 581.497
  21
 258.030
  31
0.0
   0
LINE
   5
411
 100
AcDbEntity
   8
LEVEL001
 100
AcDbLine
   6
DOT
  62
3
  10
 573.610
  20
 258.330
  30
0.0
  11
 573.610
  21
 255.330
  31
0.0
   0
LINE
   5
412
 100
AcDbEntity
   8
LEVEL001
 100
AcDbLine
   6
DOT
  62
3
  10
 573.610
  20
 255.330
  30
0.0
  11
 576.497
  21
 253.664
  31
0.0
   0
LINE
   5
413
 100
AcDbEntity
   8
LEVEL001
 100
AcDbLine
   6
DOT
  62
3
  10
 576.497
  20
 253.664
  30
0.0
  11
 579.383
  21
 255.330
  31
0.0
   0
LINE
   5
414
 100
AcDbEntity
   8
LEVEL001
 100
AcDbLine
   6
DOT
  62
3
  10
 579.383
  20
 255.330
  30
0.0
  11
 579.383
  21
 258.330
  31
0.0
   0
LINE
   5
415
 100
AcDbEntity
   8
LEVEL001
 100
AcDbLine
   6
DOT
  62
3
  10
 577.940
  20
 258.330
  30
0.0
  11
 577.940
  21
 255.330
  31
0.0
   0
LINE
   5
416
 100
AcDbEntity
   8
LEVEL001
 100
AcDbLine
   6
DOT
  62
3
  10
 573.610
  20
 255.330
  30
0.0
  11
 579.383
  21
 255.330
  31
0.0
   0
LINE
   5
417
 100
AcDbEntity
   8
LEVEL001
 100
AcDbLine
   6
DASHDOT
  62
1
  10
 576.497
  20
 261.330
  30
0.0
  11
 576.497
  21
 249.330
  31
0.0
   0
LINE
   5
418
 100
AcDbEntity
   8
LEVEL001
 100
AcDbLine
   6
DOT
  62
3
  10
 575.053
  20
 258.330
  30
0.0
  11
 575.053
  21
 255.330
  31
0.0
   0
LINE
   5
419
 100
AcDbEntity
   8
LEVEL013
 100
AcDbLine
   6
DASHDOT
  62
1
  10
 564.497
  20
 318.330
  30
0.0
  11
 564.497
  21
 302.330
  31
0.0
   0
LINE
   5
41A
 100
AcDbEntity
   8
LEVEL013
 100
AcDbLine
   6
DASHDOT
  62
1
  10
 516.497
  20
 318.330
  30
0.0
  11
 516.497
  21
 302.330
  31
0.0
   0
LINE
   5
41B
 100
AcDbEntity
   8
LEVEL013
 100
AcDbLine
   6
CONTINUOUS
  62
7
  10
 544.497
  20
 330.330
  30
0.0
  11
 544.497
  21
 329.330
  31
0.0
   0
LINE
   5
41C
 100
AcDbEntity
   8
LEVEL013
 100
AcDbLine
   6
CONTINUOUS
  62
7
  10
 536.497
  20
 330.330
  30
0.0
  11
 536.497
  21
 329.330
  31
0.0
   0
LINE
   5
41D
 100
AcDbEntity
   8
LEVEL013
 100
AcDbLine
   6
DASHDOT
  62
1
  10
 534.497
  20
 330.330
  30
0.0
  11
 546.497
  21
 330.330
  31
0.0
   0
ARC
   5
41E
 100
AcDbEntity
   8
LEVEL013
   6
DASHDOT
  62
1
 100
AcDbCircle
  10
 497.562
  20
 386.830
  30
0.0
  40
 53.0000
 100
AcDbArc
  50
 260.000
  51
 270.000
   0
LINE
   5
41F
 100
AcDbEntity
   8
LEVEL013
 100
AcDbLine
   6
DASHDOT
  62
1
  10
 497.562
  20
 333.830
  30
0.0
  11
 530.497
  21
 333.830
  31
0.0
   0
LINE
   5
420
 100
AcDbEntity
   8
LEVEL013
 100
AcDbLine
   6
DASHDOT
  62
1
  10
 540.497
  20
 247.330
  30
0.0
  11
 540.497
  21
 347.330
  31
0.0
   0
LINE
   5
421
 100
AcDbEntity
   8
LEVEL013
 100
AcDbLine
   6
DASHDOT
  62
1
  10
 488.359
  20
 334.635
  30
0.0
  11
 445.473
  21
 342.197
  31
0.0
   0
ARC
   5
422
 100
AcDbEntity
   8
LEVEL013
   6
CONTINUOUS
  62
3
 100
AcDbCircle
  10
 454.549
  20
 340.597
  30
0.0
  40
 6.00000
 100
AcDbArc
  50
 79.9207
  51
 260.080
   0
ARC
   5
423
 100
AcDbEntity
   8
LEVEL013
   6
CONTINUOUS
  62
3
 100
AcDbCircle
  10
 473.879
  20
 350.389
  30
0.0
  40
 10.0000
 100
AcDbArc
  50
 224.341
  51
 260.000
   0
ARC
   5
424
 100
AcDbEntity
   8
LEVEL013
   6
CONTINUOUS
  62
3
 100
AcDbCircle
  10
 462.436
  20
 339.206
  30
0.0
  40
 6.00000
 100
AcDbArc
  50
 44.3407
  51
 79.9998
   0
LINE
   5
425
 100
AcDbEntity
   8
LEVEL013
 100
AcDbLine
   6
CONTINUOUS
  62
3
  10
 455.599
  20
 346.504
  30
0.0
  11
 463.478
  21
 345.115
  31
0.0
   0
ARC
   5
426
 100
AcDbEntity
   8
LEVEL013
   6
CONTINUOUS
  62
3
 100
AcDbCircle
  10
 469.364
  20
 324.784
  30
0.0
  40
 10.0000
 100
AcDbArc
  50
 80.0001
  51
 115.659
   0
ARC
   5
427
 100
AcDbEntity
   8
LEVEL013
   6
CONTINUOUS
  62
3
 100
AcDbCircle
  10
 462.436
  20
 339.206
  30
0.0
  40
 5.99999
 100
AcDbArc
  50
 260.000
  51
 295.658
   0
LINE
   5
428
 100
AcDbEntity
   8
LEVEL013
 100
AcDbLine
   6
CONTINUOUS
  62
3
  10
 453.515
  20
 334.687
  30
0.0
  11
 461.394
  21
 333.298
  31
0.0
   0
LINE
   5
429
 100
AcDbEntity
   8
LEVEL013
 100
AcDbLine
   6
CONTINUOUS
  62
3
  10
 487.838
  20
 331.681
  30
0.0
  11
 471.101
  21
 334.632
  31
0.0
   0
ARC
   5
42A
 100
AcDbEntity
   8
LEVEL013
   6
CONTINUOUS
  62
3
 100
AcDbCircle
  10
 497.562
  20
 386.830
  30
0.0
  40
 50.0000
 100
AcDbArc
  50
 260.000
  51
 270.000
   0
LINE
   5
42B
 100
AcDbEntity
   8
LEVEL013
 100
AcDbLine
   6
CONTINUOUS
  62
3
  10
 488.880
  20
 337.590
  30
0.0
  11
 472.142
  21
 340.541
  31
0.0
   0
LINE
   5
42C
 100
AcDbEntity
   8
LEVEL013
 100
AcDbLine
   6
CONTINUOUS
  62
3
  10
 497.562
  20
 336.830
  30
0.0
  11
 525.530
  21
 336.830
  31
0.0
   0
ARC
   5
42D
 100
AcDbEntity
   8
LEVEL013
   6
CONTINUOUS
  62
3
 100
AcDbCircle
  10
 525.530
  20
 346.830
  30
0.0
  40
 10.0000
 100
AcDbArc
  50
 270.000
  51
 299.927
   0
ARC
   5
42E
 100
AcDbEntity
   8
LEVEL013
   6
CONTINUOUS
  62
3
 100
AcDbCircle
  10
 531.893
  20
 334.320
  30
0.0
  40
 4.00000
 100
AcDbArc
  50
 122.529
  51
 171.870
   0
ARC
   5
42F
 100
AcDbEntity
   8
LEVEL013
   6
CONTINUOUS
  62
3
 100
AcDbCircle
  10
 540.497
  20
 320.830
  30
0.0
  40
 20.0000
 100
AcDbArc
  50
 57.4706
  51
 122.529
   0
ARC
   5
430
 100
AcDbEntity
   8
LEVEL013
   6
CONTINUOUS
  62
3
 100
AcDbCircle
  10
 526.201
  20
 329.830
  30
0.0
  40
 1.00000
 100
AcDbArc
  50
 351.870
  51
 89.9988
   0
LINE
   5
431
 100
AcDbEntity
   8
LEVEL013
 100
AcDbLine
   6
CONTINUOUS
  62
3
  10
 526.497
  20
 324.830
  30
0.0
  11
 527.933
  21
 334.886
  31
0.0
   0
ARC
   5
432
 100
AcDbEntity
   8
LEVEL013
   6
CONTINUOUS
  62
3
 100
AcDbCircle
  10
 529.259
  20
 325.830
  30
0.0
  40
 1.00000
 100
AcDbArc
  50
 270.000
  51
 0.416882E-9
   0
ARC
   5
433
 100
AcDbEntity
   8
LEVEL013
   6
CONTINUOUS
  62
3
 100
AcDbCircle
  10
 519.139
  20
 327.330
  30
0.0
  40
 1.50000
 100
AcDbArc
  50
 180.000
  51
 270.000
   0
ARC
   5
434
 100
AcDbEntity
   8
LEVEL013
   6
CONTINUOUS
  62
3
 100
AcDbCircle
  10
 497.562
  20
 386.830
  30
0.0
  40
 56.0000
 100
AcDbArc
  50
 260.000
  51
 270.000
   0
ARC
   5
435
 100
AcDbEntity
   8
LEVEL013
   6
CONTINUOUS
  62
3
 100
AcDbCircle
  10
 516.139
  20
 329.330
  30
0.0
  40
 1.50000
 100
AcDbArc
  50
0.0
  51
 90.0000
   0
LINE
   5
436
 100
AcDbEntity
   8
LEVEL013
 100
AcDbLine
   6
CONTINUOUS
  62
3
  10
 517.639
  20
 329.330
  30
0.0
  11
 517.639
  21
 327.330
  31
0.0
   0
LINE
   5
437
 100
AcDbEntity
   8
LEVEL013
 100
AcDbLine
   6
CONTINUOUS
  62
3
  10
 519.139
  20
 325.830
  30
0.0
  11
 526.639
  21
 325.830
  31
0.0
   0
LINE
   5
438
 100
AcDbEntity
   8
LEVEL013
 100
AcDbLine
   6
CONTINUOUS
  62
3
  10
 497.562
  20
 330.830
  30
0.0
  11
 526.201
  21
 330.830
  31
0.0
   0
LINE
   5
439
 100
AcDbEntity
   8
LEVEL013
 100
AcDbLine
   6
CONTINUOUS
  62
3
  10
 508.497
  20
 314.830
  30
0.0
  11
 524.497
  21
 314.830
  31
0.0
   0
ARC
   5
43A
 100
AcDbEntity
   8
LEVEL013
   6
CONTINUOUS
  62
3
 100
AcDbCircle
  10
 507.497
  20
 306.414
  30
0.0
  40
 1.00000
 100
AcDbArc
  50
 95.0001
  51
 179.998
   0
LINE
   5
43B
 100
AcDbEntity
   8
LEVEL013
 100
AcDbLine
   6
CONTINUOUS
  62
3
  10
 524.497
  20
 308.905
  30
0.0
  11
 524.497
  21
 314.830
  31
0.0
   0
LINE
   5
43C
 100
AcDbEntity
   8
LEVEL013
 100
AcDbLine
   6
CONTINUOUS
  62
3
  10
 524.497
  20
 314.830
  30
0.0
  11
 523.631
  21
 315.330
  31
0.0
   0
LINE
   5
43D
 100
AcDbEntity
   8
LEVEL013
 100
AcDbLine
   6
CONTINUOUS
  62
3
  10
 523.631
  20
 315.330
  30
0.0
  11
 509.363
  21
 315.330
  31
0.0
   0
LINE
   5
43E
 100
AcDbEntity
   8
LEVEL013
 100
AcDbLine
   6
CONTINUOUS
  62
3
  10
 509.363
  20
 315.330
  30
0.0
  11
 508.497
  21
 314.830
  31
0.0
   0
LINE
   5
43F
 100
AcDbEntity
   8
LEVEL013
 100
AcDbLine
   6
CONTINUOUS
  62
3
  10
 508.497
  20
 314.830
  30
0.0
  11
 508.497
  21
 307.505
  31
0.0
   0
LINE
   5
440
 100
AcDbEntity
   8
LEVEL013
 100
AcDbLine
   6
CONTINUOUS
  62
3
  10
 507.409
  20
 307.410
  30
0.0
  11
 525.497
  21
 308.993
  31
0.0
   0
LINE
   5
441
 100
AcDbEntity
   8
LEVEL013
 100
AcDbLine
   6
CONTINUOUS
  62
3
  10
 525.497
  20
 308.993
  30
0.0
  11
 525.497
  21
 324.830
  31
0.0
   0
LINE
   5
442
 100
AcDbEntity
   8
LEVEL013
 100
AcDbLine
   6
CONTINUOUS
  62
3
  10
 525.497
  20
 324.830
  30
0.0
  11
 529.259
  21
 324.830
  31
0.0
   0
ARC
   5
443
 100
AcDbEntity
   8
LEVEL013
   6
CONTINUOUS
  62
3
 100
AcDbCircle
  10
 540.497
  20
 330.330
  30
0.0
  40
 2.00000
 100
AcDbArc
  50
 330.000
  51
 210.000
   0
ARC
   5
444
 100
AcDbEntity
   8
LEVEL013
   6
CONTINUOUS
  62
3
 100
AcDbCircle
  10
 540.497
  20
 330.330
  30
0.0
  40
 4.00000
 100
AcDbArc
  50
0.0
  51
 180.000
   0
ARC
   5
445
 100
AcDbEntity
   8
LEVEL013
   6
CONTINUOUS
  62
3
 100
AcDbCircle
  10
 531.259
  20
 328.330
  30
0.0
  40
 1.00000
 100
AcDbArc
  50
 90.0000
  51
 180.000
   0
LINE
   5
446
 100
AcDbEntity
   8
LEVEL013
 100
AcDbLine
   6
CONTINUOUS
  62
3
  10
 530.259
  20
 328.330
  30
0.0
  11
 530.259
  21
 325.830
  31
0.0
   0
ARC
   5
447
 100
AcDbEntity
   8
LEVEL013
   6
CONTINUOUS
  62
3
 100
AcDbCircle
  10
 551.734
  20
 325.830
  30
0.0
  40
 1.00000
 100
AcDbArc
  50
 180.000
  51
 270.000
   0
ARC
   5
448
 100
AcDbEntity
   8
LEVEL013
   6
CONTINUOUS
  62
3
 100
AcDbCircle
  10
 549.734
  20
 328.330
  30
0.0
  40
 1.00000
 100
AcDbArc
  50
0.0
  51
 90.0000
   0
LINE
   5
449
 100
AcDbEntity
   8
LEVEL013
 100
AcDbLine
   6
CONTINUOUS
  62
3
  10
 550.734
  20
 325.830
  30
0.0
  11
 550.734
  21
 328.330
  31
0.0
   0
LINE
   5
44A
 100
AcDbEntity
   8
LEVEL013
 100
AcDbLine
   6
CONTINUOUS
  62
3
  10
 549.734
  20
 329.330
  30
0.0
  11
 531.259
  21
 329.330
  31
0.0
   0
ARC
   5
44B
 100
AcDbEntity
   8
LEVEL013
   6
CONTINUOUS
  62
3
 100
AcDbCircle
  10
 549.100
  20
 334.320
  30
0.0
  40
 4.00000
 100
AcDbArc
  50
 8.13064
  51
 57.4712
   0
ARC
   5
44C
 100
AcDbEntity
   8
LEVEL013
   6
CONTINUOUS
  62
3
 100
AcDbCircle
  10
 556.032
  20
 335.294
  30
0.0
  40
 3.00000
 100
AcDbArc
  50
 188.001
  51
 239.999
   0
LINE
   5
44D
 100
AcDbEntity
   8
LEVEL013
 100
AcDbLine
   6
CONTINUOUS
  62
3
  10
 554.354
  20
 325.830
  30
0.0
  11
 559.497
  21
 325.830
  31
0.0
   0
LINE
   5
44E
 100
AcDbEntity
   8
LEVEL013
 100
AcDbLine
   6
CONTINUOUS
  62
3
  10
 559.497
  20
 325.830
  30
0.0
  11
 559.497
  21
 329.830
  31
0.0
   0
LINE
   5
44F
 100
AcDbEntity
   8
LEVEL013
 100
AcDbLine
   6
CONTINUOUS
  62
3
  10
 559.497
  20
 329.830
  30
0.0
  11
 554.532
  21
 332.696
  31
0.0
   0
LINE
   5
450
 100
AcDbEntity
   8
LEVEL013
 100
AcDbLine
   6
CONTINUOUS
  62
3
  10
 554.497
  20
 324.830
  30
0.0
  11
 553.060
  21
 334.886
  31
0.0
   0
LINE
   5
451
 100
AcDbEntity
   8
LEVEL013
 100
AcDbLine
   6
CONTINUOUS
  62
3
  10
 556.497
  20
 314.830
  30
0.0
  11
 572.497
  21
 314.830
  31
0.0
   0
LINE
   5
452
 100
AcDbEntity
   8
LEVEL013
 100
AcDbLine
   6
CONTINUOUS
  62
3
  10
 572.497
  20
 307.505
  30
0.0
  11
 572.497
  21
 314.830
  31
0.0
   0
LINE
   5
453
 100
AcDbEntity
   8
LEVEL013
 100
AcDbLine
   6
CONTINUOUS
  62
3
  10
 572.497
  20
 314.830
  30
0.0
  11
 571.631
  21
 315.330
  31
0.0
   0
LINE
   5
454
 100
AcDbEntity
   8
LEVEL013
 100
AcDbLine
   6
CONTINUOUS
  62
3
  10
 571.631
  20
 315.330
  30
0.0
  11
 557.363
  21
 315.330
  31
0.0
   0
LINE
   5
455
 100
AcDbEntity
   8
LEVEL013
 100
AcDbLine
   6
CONTINUOUS
  62
3
  10
 557.363
  20
 315.330
  30
0.0
  11
 556.497
  21
 314.830
  31
0.0
   0
LINE
   5
456
 100
AcDbEntity
   8
LEVEL013
 100
AcDbLine
   6
CONTINUOUS
  62
3
  10
 556.497
  20
 314.830
  30
0.0
  11
 556.497
  21
 308.905
  31
0.0
   0
LINE
   5
457
 100
AcDbEntity
   8
LEVEL013
 100
AcDbLine
   6
CONTINUOUS
  62
3
  10
 573.584
  20
 307.410
  30
0.0
  11
 555.497
  21
 308.992
  31
0.0
   0
LINE
   5
458
 100
AcDbEntity
   8
LEVEL013
 100
AcDbLine
   6
CONTINUOUS
  62
3
  10
 555.497
  20
 308.992
  30
0.0
  11
 555.497
  21
 324.830
  31
0.0
   0
LINE
   5
459
 100
AcDbEntity
   8
LEVEL013
 100
AcDbLine
   6
CONTINUOUS
  62
3
  10
 555.497
  20
 324.830
  30
0.0
  11
 551.734
  21
 324.830
  31
0.0
   0
LINE
   5
45A
 100
AcDbEntity
   8
LEVEL013
 100
AcDbLine
   6
CONTINUOUS
  62
3
  10
 521.032
  20
 298.830
  30
0.0
  11
 559.961
  21
 298.830
  31
0.0
   0
LINE
   5
45B
 100
AcDbEntity
   8
LEVEL013
 100
AcDbLine
   6
CONTINUOUS
  62
3
  10
 559.961
  20
 298.830
  30
0.0
  11
 559.961
  21
 286.830
  31
0.0
   0
LINE
   5
45C
 100
AcDbEntity
   8
LEVEL013
 100
AcDbLine
   6
CONTINUOUS
  62
3
  10
 559.961
  20
 286.830
  30
0.0
  11
 521.032
  21
 286.830
  31
0.0
   0
LINE
   5
45D
 100
AcDbEntity
   8
LEVEL013
 100
AcDbLine
   6
CONTINUOUS
  62
3
  10
 521.032
  20
 286.830
  30
0.0
  11
 521.032
  21
 298.830
  31
0.0
   0
LINE
   5
45E
 100
AcDbEntity
   8
LEVEL013
 100
AcDbLine
   6
CONTINUOUS
  62
3
  10
 506.497
  20
 306.414
  30
0.0
  11
 506.497
  21
 280.830
  31
0.0
   0
LINE
   5
45F
 100
AcDbEntity
   8
LEVEL013
 100
AcDbLine
   6
CONTINUOUS
  62
3
  10
 506.497
  20
 280.830
  30
0.0
  11
 506.359
  21
 278.830
  31
0.0
   0
LINE
   5
460
 100
AcDbEntity
   8
LEVEL013
 100
AcDbLine
   6
DASHDOT
  62
1
  10
 569.328
  20
 266.330
  30
0.0
  11
 546.666
  21
 266.330
  31
0.0
   0
LINE
   5
461
 100
AcDbEntity
   8
LEVEL013
 100
AcDbLine
   6
CONTINUOUS
  62
7
  10
 540.230
  20
 264.330
  30
0.0
  11
 540.763
  21
 264.330
  31
0.0
   0
ARC
   5
462
 100
AcDbEntity
   8
LEVEL013
   6
CONTINUOUS
  62
3
 100
AcDbCircle
  10
 557.997
  20
 266.330
  30
0.0
  40
 13.0000
 100
AcDbArc
  50
 204.901
  51
 90.0001
   0
LINE
   5
463
 100
AcDbEntity
   8
LEVEL013
 100
AcDbLine
   6
CONTINUOUS
  62
3
  10
 522.997
  20
 279.330
  30
0.0
  11
 557.997
  21
 279.330
  31
0.0
   0
ARC
   5
464
 100
AcDbEntity
   8
LEVEL013
   6
CONTINUOUS
  62
3
 100
AcDbCircle
  10
 522.997
  20
 266.330
  30
0.0
  40
 13.0000
 100
AcDbArc
  50
 90.0002
  51
 105.942
   0
LINE
   5
465
 100
AcDbEntity
   8
LEVEL013
 100
AcDbLine
   6
CONTINUOUS
  62
3
  10
 506.497
  20
 280.830
  30
0.0
  11
 574.497
  21
 280.830
  31
0.0
   0
ARC
   5
466
 100
AcDbEntity
   8
LEVEL013
   6
CONTINUOUS
  62
3
 100
AcDbCircle
  10
 522.997
  20
 266.330
  30
0.0
  40
 13.0000
 100
AcDbArc
  50
 310.832
  51
 335.099
   0
ARC
   5
467
 100
AcDbEntity
   8
LEVEL013
   6
CONTINUOUS
  62
3
 100
AcDbCircle
  10
 540.230
  20
 258.330
  30
0.0
  40
 6.00000
 100
AcDbArc
  50
 90.0002
  51
 155.099
   0
ARC
   5
468
 100
AcDbEntity
   8
LEVEL013
   6
CONTINUOUS
  62
3
 100
AcDbCircle
  10
 540.763
  20
 258.330
  30
0.0
  40
 6.00000
 100
AcDbArc
  50
 24.9010
  51
 90.0004
   0
ARC
   5
469
 100
AcDbEntity
   8
LEVEL013
   6
CONTINUOUS
  62
3
 100
AcDbCircle
  10
 522.997
  20
 266.330
  30
0.0
  40
 13.0000
 100
AcDbArc
  50
 254.057
  51
 285.943
   0
LINE
   5
46A
 100
AcDbEntity
   8
LEVEL026
 100
AcDbLine
   6
DASHDOT
  62
1
  10
 532.997
  20
 266.330
  30
0.0
  11
 492.497
  21
 266.330
  31
0.0
   0
LINE
   5
46B
 100
AcDbEntity
   8
LEVEL026
 100
AcDbLine
   6
DASHDOT
  62
1
  10
 522.997
  20
 252.822
  30
0.0
  11
 522.997
  21
 279.839
  31
0.0
   0
LINE
   5
46C
 100
AcDbEntity
   8
LEVEL026
 100
AcDbLine
   6
CONTINUOUS
  62
3
  10
 531.497
  20
 278.830
  30
0.0
  11
 531.497
  21
 253.830
  31
0.0
   0
LINE
   5
46D
 100
AcDbEntity
   8
LEVEL026
 100
AcDbLine
   6
CONTINUOUS
  62
3
  10
 531.497
  20
 253.830
  30
0.0
  11
 498.497
  21
 253.830
  31
0.0
   0
LINE
   5
46E
 100
AcDbEntity
   8
LEVEL026
 100
AcDbLine
   6
CONTINUOUS
  62
3
  10
 498.497
  20
 253.830
  30
0.0
  11
 497.497
  21
 254.830
  31
0.0
   0
LINE
   5
46F
 100
AcDbEntity
   8
LEVEL026
 100
AcDbLine
   6
CONTINUOUS
  62
3
  10
 497.497
  20
 254.830
  30
0.0
  11
 497.497
  21
 277.830
  31
0.0
   0
LINE
   5
470
 100
AcDbEntity
   8
LEVEL026
 100
AcDbLine
   6
CONTINUOUS
  62
3
  10
 497.497
  20
 277.830
  30
0.0
  11
 498.497
  21
 278.830
  31
0.0
   0
LINE
   5
471
 100
AcDbEntity
   8
LEVEL026
 100
AcDbLine
   6
CONTINUOUS
  62
3
  10
 498.497
  20
 278.830
  30
0.0
  11
 531.497
  21
 278.830
  31
0.0
   0
LINE
   5
472
 100
AcDbEntity
   8
LEVEL026
 100
AcDbLine
   6
DOT
  62
3
  10
 497.497
  20
 274.661
  30
0.0
  11
 498.380
  21
 273.778
  31
0.0
   0
LINE
   5
473
 100
AcDbEntity
   8
LEVEL026
 100
AcDbLine
   6
DOT
  62
3
  10
 518.497
  20
 273.149
  30
0.0
  11
 514.880
  21
 274.118
  31
0.0
   0
LINE
   5
474
 100
AcDbEntity
   8
LEVEL026
 100
AcDbLine
   6
DOT
  62
3
  10
 514.880
  20
 274.118
  30
0.0
  11
 497.497
  21
 274.661
  31
0.0
   0
LINE
   5
475
 100
AcDbEntity
   8
LEVEL026
 100
AcDbLine
   6
DOT
  62
3
  10
 514.880
  20
 274.118
  30
0.0
  11
 514.880
  21
 258.543
  31
0.0
   0
LINE
   5
476
 100
AcDbEntity
   8
LEVEL026
 100
AcDbLine
   6
DOT
  62
3
  10
 518.497
  20
 259.512
  30
0.0
  11
 522.433
  21
 266.330
  31
0.0
   0
LINE
   5
477
 100
AcDbEntity
   8
LEVEL026
 100
AcDbLine
   6
DOT
  62
3
  10
 522.433
  20
 266.330
  30
0.0
  11
 518.497
  21
 273.149
  31
0.0
   0
LINE
   5
478
 100
AcDbEntity
   8
LEVEL026
 100
AcDbLine
   6
DOT
  62
3
  10
 498.380
  20
 273.778
  30
0.0
  11
 498.380
  21
 258.883
  31
0.0
   0
LINE
   5
479
 100
AcDbEntity
   8
LEVEL026
 100
AcDbLine
   6
DOT
  62
3
  10
 498.380
  20
 258.883
  30
0.0
  11
 518.497
  21
 259.512
  31
0.0
   0
LINE
   5
47A
 100
AcDbEntity
   8
LEVEL026
 100
AcDbLine
   6
DOT
  62
3
  10
 518.497
  20
 259.512
  30
0.0
  11
 518.497
  21
 273.149
  31
0.0
   0
LINE
   5
47B
 100
AcDbEntity
   8
LEVEL026
 100
AcDbLine
   6
DOT
  62
3
  10
 518.497
  20
 273.149
  30
0.0
  11
 498.380
  21
 273.778
  31
0.0
   0
LINE
   5
47C
 100
AcDbEntity
   8
LEVEL026
 100
AcDbLine
   6
DOT
  62
3
  10
 497.497
  20
 257.999
  30
0.0
  11
 498.380
  21
 258.883
  31
0.0
   0
LINE
   5
47D
 100
AcDbEntity
   8
LEVEL026
 100
AcDbLine
   6
DOT
  62
3
  10
 497.497
  20
 257.999
  30
0.0
  11
 514.880
  21
 258.543
  31
0.0
   0
LINE
   5
47E
 100
AcDbEntity
   8
LEVEL026
 100
AcDbLine
   6
DOT
  62
3
  10
 514.880
  20
 258.543
  30
0.0
  11
 518.497
  21
 259.512
  31
0.0
   0
LINE
   5
47F
 100
AcDbEntity
   8
LEVEL013
 100
AcDbLine
   6
DASHDOT
  62
1
  10
 557.997
  20
 254.999
  30
0.0
  11
 557.997
  21
 277.661
  31
0.0
   0
CIRCLE
   5
480
 100
AcDbEntity
   8
LEVEL013
 100
AcDbCircle
   6
CONTINUOUS
  62
3
  10
 557.997
  20
 266.330
  30
0.0
  40
 7.47500
   0
CIRCLE
   5
481
 100
AcDbEntity
   8
LEVEL013
 100
AcDbCircle
   6
CONTINUOUS
  62
3
  10
 557.997
  20
 266.330
  30
0.0
  40
 8.33100
   0
ARC
   5
482
 100
AcDbEntity
   8
LEVEL013
   6
CONTINUOUS
  62
3
 100
AcDbCircle
  10
 573.497
  20
 306.414
  30
0.0
  40
 1.00000
 100
AcDbArc
  50
0.0
  51
 84.9999
   0
LINE
   5
483
 100
AcDbEntity
   8
LEVEL026
 100
AcDbLine
   6
DASHDOT
  62
1
  10
 551.497
  20
 230.080
  30
0.0
  11
 551.497
  21
 244.580
  31
0.0
   0
LINE
   5
484
 100
AcDbEntity
   8
LEVEL026
 100
AcDbLine
   6
DASHDOT
  62
1
  10
 540.497
  20
 238.080
  30
0.0
  11
 540.497
  21
 252.580
  31
0.0
   0
LINE
   5
485
 100
AcDbEntity
   8
LEVEL026
 100
AcDbLine
   6
DASHDOT
  62
1
  10
 547.747
  20
 245.330
  30
0.0
  11
 533.247
  21
 245.330
  31
0.0
   0
CIRCLE
   5
486
 100
AcDbEntity
   8
LEVEL026
 100
AcDbCircle
   6
CONTINUOUS
  62
3
  10
 551.497
  20
 237.330
  30
0.0
  40
 4.75000
   0
CIRCLE
   5
487
 100
AcDbEntity
   8
LEVEL026
 100
AcDbCircle
   6
CONTINUOUS
  62
3
  10
 551.497
  20
 237.330
  30
0.0
  40
 4.25000
   0
CIRCLE
   5
488
 100
AcDbEntity
   8
LEVEL026
 100
AcDbCircle
   6
CONTINUOUS
  62
3
  10
 551.497
  20
 237.330
  30
0.0
  40
 3.81699
   0
CIRCLE
   5
489
 100
AcDbEntity
   8
LEVEL026
 100
AcDbCircle
   6
CONTINUOUS
  62
3
  10
 540.497
  20
 245.330
  30
0.0
  40
 4.75000
   0
CIRCLE
   5
48A
 100
AcDbEntity
   8
LEVEL026
 100
AcDbCircle
   6
CONTINUOUS
  62
3
  10
 540.497
  20
 245.330
  30
0.0
  40
 4.25000
   0
CIRCLE
   5
48B
 100
AcDbEntity
   8
LEVEL026
 100
AcDbCircle
   6
CONTINUOUS
  62
3
  10
 540.497
  20
 245.330
  30
0.0
  40
 3.81699
   0
LINE
   5
48C
 100
AcDbEntity
   8
LEVEL026
 100
AcDbLine
   6
CONTINUOUS
  62
3
  10
 542.806
  20
 245.330
  30
0.0
  11
 541.651
  21
 243.330
  31
0.0
   0
LINE
   5
48D
 100
AcDbEntity
   8
LEVEL026
 100
AcDbLine
   6
CONTINUOUS
  62
3
  10
 541.651
  20
 243.330
  30
0.0
  11
 539.342
  21
 243.330
  31
0.0
   0
LINE
   5
48E
 100
AcDbEntity
   8
LEVEL026
 100
AcDbLine
   6
CONTINUOUS
  62
3
  10
 539.342
  20
 243.330
  30
0.0
  11
 538.187
  21
 245.330
  31
0.0
   0
LINE
   5
48F
 100
AcDbEntity
   8
LEVEL026
 100
AcDbLine
   6
CONTINUOUS
  62
3
  10
 538.187
  20
 245.330
  30
0.0
  11
 539.342
  21
 247.330
  31
0.0
   0
LINE
   5
490
 100
AcDbEntity
   8
LEVEL026
 100
AcDbLine
   6
CONTINUOUS
  62
3
  10
 539.342
  20
 247.330
  30
0.0
  11
 541.651
  21
 247.330
  31
0.0
   0
LINE
   5
491
 100
AcDbEntity
   8
LEVEL026
 100
AcDbLine
   6
CONTINUOUS
  62
3
  10
 541.651
  20
 247.330
  30
0.0
  11
 542.806
  21
 245.330
  31
0.0
   0
LINE
   5
492
 100
AcDbEntity
   8
LEVEL026
 100
AcDbLine
   6
DASHDOT
  62
1
  10
 558.747
  20
 237.330
  30
0.0
  11
 544.247
  21
 237.330
  31
0.0
   0
LINE
   5
493
 100
AcDbEntity
   8
LEVEL026
 100
AcDbLine
   6
CONTINUOUS
  62
3
  10
 553.806
  20
 237.330
  30
0.0
  11
 552.651
  21
 235.330
  31
0.0
   0
LINE
   5
494
 100
AcDbEntity
   8
LEVEL026
 100
AcDbLine
   6
CONTINUOUS
  62
3
  10
 552.651
  20
 235.330
  30
0.0
  11
 550.342
  21
 235.330
  31
0.0
   0
LINE
   5
495
 100
AcDbEntity
   8
LEVEL026
 100
AcDbLine
   6
CONTINUOUS
  62
3
  10
 550.342
  20
 235.330
  30
0.0
  11
 549.187
  21
 237.330
  31
0.0
   0
LINE
   5
496
 100
AcDbEntity
   8
LEVEL026
 100
AcDbLine
   6
CONTINUOUS
  62
3
  10
 549.187
  20
 237.330
  30
0.0
  11
 550.342
  21
 239.330
  31
0.0
   0
LINE
   5
497
 100
AcDbEntity
   8
LEVEL026
 100
AcDbLine
   6
CONTINUOUS
  62
3
  10
 550.342
  20
 239.330
  30
0.0
  11
 552.651
  21
 239.330
  31
0.0
   0
LINE
   5
498
 100
AcDbEntity
   8
LEVEL026
 100
AcDbLine
   6
CONTINUOUS
  62
3
  10
 552.651
  20
 239.330
  30
0.0
  11
 553.806
  21
 237.330
  31
0.0
   0
LINE
   5
499
 100
AcDbEntity
   8
LEVEL026
 100
AcDbLine
   6
DOT
  62
3
  10
 506.497
  20
 245.661
  30
0.0
  11
 507.380
  21
 244.778
  31
0.0
   0
LINE
   5
49A
 100
AcDbEntity
   8
LEVEL026
 100
AcDbLine
   6
DOT
  62
3
  10
 527.497
  20
 244.149
  30
0.0
  11
 523.880
  21
 245.118
  31
0.0
   0
LINE
   5
49B
 100
AcDbEntity
   8
LEVEL026
 100
AcDbLine
   6
DOT
  62
3
  10
 523.880
  20
 245.118
  30
0.0
  11
 506.497
  21
 245.661
  31
0.0
   0
LINE
   5
49C
 100
AcDbEntity
   8
LEVEL026
 100
AcDbLine
   6
DOT
  62
3
  10
 523.880
  20
 245.118
  30
0.0
  11
 523.880
  21
 229.543
  31
0.0
   0
LINE
   5
49D
 100
AcDbEntity
   8
LEVEL026
 100
AcDbLine
   6
DOT
  62
3
  10
 527.497
  20
 230.512
  30
0.0
  11
 531.433
  21
 237.330
  31
0.0
   0
LINE
   5
49E
 100
AcDbEntity
   8
LEVEL026
 100
AcDbLine
   6
DOT
  62
3
  10
 531.433
  20
 237.330
  30
0.0
  11
 527.497
  21
 244.149
  31
0.0
   0
LINE
   5
49F
 100
AcDbEntity
   8
LEVEL026
 100
AcDbLine
   6
DOT
  62
3
  10
 507.380
  20
 244.778
  30
0.0
  11
 507.380
  21
 229.883
  31
0.0
   0
LINE
   5
4A0
 100
AcDbEntity
   8
LEVEL026
 100
AcDbLine
   6
DOT
  62
3
  10
 507.380
  20
 229.883
  30
0.0
  11
 527.497
  21
 230.512
  31
0.0
   0
LINE
   5
4A1
 100
AcDbEntity
   8
LEVEL026
 100
AcDbLine
   6
DOT
  62
3
  10
 527.497
  20
 230.512
  30
0.0
  11
 527.497
  21
 244.149
  31
0.0
   0
LINE
   5
4A2
 100
AcDbEntity
   8
LEVEL026
 100
AcDbLine
   6
DOT
  62
3
  10
 527.497
  20
 244.149
  30
0.0
  11
 507.380
  21
 244.778
  31
0.0
   0
LINE
   5
4A3
 100
AcDbEntity
   8
LEVEL026
 100
AcDbLine
   6
DOT
  62
3
  10
 506.497
  20
 228.999
  30
0.0
  11
 507.380
  21
 229.883
  31
0.0
   0
LINE
   5
4A4
 100
AcDbEntity
   8
LEVEL026
 100
AcDbLine
   6
DOT
  62
3
  10
 506.497
  20
 228.999
  30
0.0
  11
 523.880
  21
 229.543
  31
0.0
   0
LINE
   5
4A5
 100
AcDbEntity
   8
LEVEL026
 100
AcDbLine
   6
DOT
  62
3
  10
 523.880
  20
 229.543
  30
0.0
  11
 527.497
  21
 230.512
  31
0.0
   0
LINE
   5
4A6
 100
AcDbEntity
   8
LEVEL026
 100
AcDbLine
   6
DASHDOT
  62
1
  10
 541.997
  20
 237.330
  30
0.0
  11
 501.497
  21
 237.330
  31
0.0
   0
LINE
   5
4A7
 100
AcDbEntity
   8
LEVEL026
 100
AcDbLine
   6
CONTINUOUS
  62
3
  10
 506.497
  20
 252.330
  30
0.0
  11
 506.497
  21
 222.330
  31
0.0
   0
LINE
   5
4A8
 100
AcDbEntity
   8
LEVEL026
 100
AcDbLine
   6
CONTINUOUS
  62
3
  10
 506.497
  20
 222.330
  30
0.0
  11
 515.187
  21
 222.330
  31
0.0
   0
LINE
   5
4A9
 100
AcDbEntity
   8
LEVEL013
 100
AcDbLine
   6
CONTINUOUS
  62
3
  10
 574.925
  20
 258.330
  30
0.0
  11
 575.497
  21
 266.330
  31
0.0
   0
LINE
   5
4AA
 100
AcDbEntity
   8
LEVEL013
 100
AcDbLine
   6
CONTINUOUS
  62
3
  10
 575.497
  20
 266.330
  30
0.0
  11
 574.497
  21
 280.830
  31
0.0
   0
LINE
   5
4AB
 100
AcDbEntity
   8
LEVEL013
 100
AcDbLine
   6
CONTINUOUS
  62
3
  10
 574.497
  20
 280.830
  30
0.0
  11
 574.497
  21
 306.414
  31
0.0
   0
TEXT
   5
4AC
 100
AcDbEntity
   8
LEVEL003
  62
3
 100
AcDbText
  10
 265.187
  20
 165.330
  30
0.0
  40
 12.0000
   1
加圧口
   7
STANDARD
 100
AcDbText
   0
TEXT
   5
4AD
 100
AcDbEntity
   8
LEVEL003
  62
3
 100
AcDbText
  10
 265.187
  20
 149.330
  30
0.0
  40
 12.0000
   1
Ｒｃ３／８
   7
STANDARD
 100
AcDbText
   0
LINE
   5
4AE
 100
AcDbEntity
   8
LEVEL019
 100
AcDbLine
   6
CONTINUOUS
  62
3
  10
 515.187
  20
 222.330
  30
0.0
  11
 585.182
  21
 222.330
  31
0.0
   0
LINE
   5
4AF
 100
AcDbEntity
   8
LEVEL019
 100
AcDbLine
   6
DOT
  62
3
  10
 585.182
  20
 222.330
  30
0.0
  11
 735.187
  21
 222.330
  31
0.0
   0
MTEXT
   5
4B0
 100
AcDbEntity
   8
LEVEL042
  62
25
 100
AcDbMText
  10
 1023.15
  20
 602.774
  30
0.0
  40
 12.0960
  41
0.0
  71
7
  72
1
   1
72MPa
   7
GMM002
   0
TEXT
   5
4B1
 100
AcDbEntity
   8
LEVEL003
  62
3
 100
AcDbText
  10
 805.187
  20
 345.330
  30
0.0
  40
 12.0000
   1
各３ｍ
   7
STANDARD
 100
AcDbText
   0
LEADER
   5
4B2
 100
AcDbEntity
   8
LEVEL003
   6
CONTINUOUS
  62
3
 100
AcDbLeader
   3
GMM002
  73
0
  74
1
  75
0
  40
 12.0000
  41
0.0
  76
3
  10
 760.187
  20
 274.330
  30
0.0
  10
 790.187
  20
 345.330
  30
0.0
  10
 850.187
  20
 345.330
  30
0.0
  77
3
   0
LEADER
   5
4B3
 100
AcDbEntity
   8
LEVEL003
   6
CONTINUOUS
  62
3
 100
AcDbLeader
   3
GMM008
  73
0
  74
1
  75
0
  40
 12.0000
  41
0.0
  76
2
  10
 790.187
  20
 318.330
  30
0.0
  10
 805.187
  20
 345.330
  30
0.0
  77
3
   0
TEXT
   5
4B4
 100
AcDbEntity
   8
LEVEL011
  62
3
 100
AcDbText
  10
 843.756
  20
 131.288
  30
0.0
  40
 9.54545
   1
縮
  41
 1.43750
   7
STANDARD
  72
1
  11
 850.617
  21
 131.288
  31
0.0
 100
AcDbText
   0
TEXT
   5
4B5
 100
AcDbEntity
   8
LEVEL011
  62
3
 100
AcDbText
  10
 843.326
  20
 160.401
  30
0.0
  40
 9.54545
   1
伸
  41
 1.43750
   7
STANDARD
  72
1
  11
 850.187
  21
 160.401
  31
0.0
 100
AcDbText
   0
LINE
   5
4B6
 100
AcDbEntity
   8
0
 100
AcDbLine
   6
DASHDOT
  62
1
  10
 705.437
  20
 266.830
  30
0.0
  11
 705.437
  21
 275.330
  31
0.0
   0
LINE
   5
4B7
 100
AcDbEntity
   8
0
 100
AcDbLine
   6
DASHDOT
  62
1
  10
 705.437
  20
 275.330
  30
0.0
  11
 674.937
  21
 275.330
  31
0.0
   0
LINE
   5
4B8
 100
AcDbEntity
   8
0
 100
AcDbLine
   6
DASHDOT
  62
1
  10
 674.937
  20
 275.330
  30
0.0
  11
 674.937
  21
 266.830
  31
0.0
   0
LINE
   5
4B9
 100
AcDbEntity
   8
0
 100
AcDbLine
   6
DASHDOT
  62
1
  10
 702.687
  20
 210.330
  30
0.0
  11
 702.687
  21
 240.330
  31
0.0
   0
LINE
   5
4BA
 100
AcDbEntity
   8
0
 100
AcDbLine
   6
DASHDOT
  62
1
  10
 677.687
  20
 210.330
  30
0.0
  11
 677.687
  21
 240.330
  31
0.0
   0
LINE
   5
4BB
 100
AcDbEntity
   8
0
 100
AcDbLine
   6
DASHDOT
  62
1
  10
 670.687
  20
 251.830
  30
0.0
  11
 670.687
  21
 224.830
  31
0.0
   0
LINE
   5
4BC
 100
AcDbEntity
   8
0
 100
AcDbLine
   6
DASHDOT
  62
1
  10
 709.687
  20
 251.830
  30
0.0
  11
 709.687
  21
 224.830
  31
0.0
   0
LINE
   5
4BD
 100
AcDbEntity
   8
0
 100
AcDbLine
   6
DOT
  62
3
  10
 713.687
  20
 222.330
  30
0.0
  11
 713.687
  21
 237.330
  31
0.0
   0
LINE
   5
4BE
 100
AcDbEntity
   8
0
 100
AcDbLine
   6
DOT
  62
3
  10
 666.687
  20
 222.330
  30
0.0
  11
 666.687
  21
 237.330
  31
0.0
   0
LINE
   5
4BF
 100
AcDbEntity
   8
0
 100
AcDbLine
   6
DOT
  62
3
  10
 666.687
  20
 237.330
  30
0.0
  11
 713.687
  21
 237.330
  31
0.0
   0
LINE
   5
4C0
 100
AcDbEntity
   8
0
 100
AcDbLine
   6
DOT
  62
3
  10
 667.687
  20
 237.330
  30
0.0
  11
 667.687
  21
 239.830
  31
0.0
   0
LINE
   5
4C1
 100
AcDbEntity
   8
0
 100
AcDbLine
   6
DOT
  62
3
  10
 667.687
  20
 239.830
  30
0.0
  11
 674.937
  21
 239.830
  31
0.0
   0
LINE
   5
4C2
 100
AcDbEntity
   8
0
 100
AcDbLine
   6
DOT
  62
3
  10
 674.937
  20
 239.830
  30
0.0
  11
 674.937
  21
 266.830
  31
0.0
   0
LINE
   5
4C3
 100
AcDbEntity
   8
0
 100
AcDbLine
   6
DOT
  62
3
  10
 674.937
  20
 266.830
  30
0.0
  11
 705.437
  21
 266.830
  31
0.0
   0
LINE
   5
4C4
 100
AcDbEntity
   8
0
 100
AcDbLine
   6
DOT
  62
3
  10
 705.437
  20
 266.830
  30
0.0
  11
 705.437
  21
 239.830
  31
0.0
   0
LINE
   5
4C5
 100
AcDbEntity
   8
0
 100
AcDbLine
   6
DOT
  62
3
  10
 705.437
  20
 239.830
  30
0.0
  11
 712.687
  21
 239.830
  31
0.0
   0
LINE
   5
4C6
 100
AcDbEntity
   8
0
 100
AcDbLine
   6
DOT
  62
3
  10
 712.687
  20
 239.830
  30
0.0
  11
 712.687
  21
 237.330
  31
0.0
   0
ARC
   5
4C7
 100
AcDbEntity
   8
0
   6
DOT
  62
3
 100
AcDbCircle
  10
 669.037
  20
 240.495
  30
0.0
  40
 1.10000
 100
AcDbArc
  50
 106.240
  51
 180.000
   0
ARC
   5
4C8
 100
AcDbEntity
   8
0
   6
DOT
  62
3
 100
AcDbCircle
  10
 670.687
  20
 234.830
  30
0.0
  40
 7.00000
 100
AcDbArc
  50
 93.2758
  51
 106.240
   0
ARC
   5
4C9
 100
AcDbEntity
   8
0
   6
DOT
  62
3
 100
AcDbCircle
  10
 670.687
  20
 234.830
  30
0.0
  40
 7.00000
 100
AcDbArc
  50
 73.7600
  51
 86.7242
   0
ARC
   5
4CA
 100
AcDbEntity
   8
0
   6
DOT
  62
3
 100
AcDbCircle
  10
 672.337
  20
 240.495
  30
0.0
  40
 1.10000
 100
AcDbArc
  50
 0.244267E-9
  51
 73.7600
   0
LINE
   5
4CB
 100
AcDbEntity
   8
0
 100
AcDbLine
   6
DOT
  62
3
  10
 667.937
  20
 240.495
  30
0.0
  11
 667.937
  21
 239.830
  31
0.0
   0
LINE
   5
4CC
 100
AcDbEntity
   8
0
 100
AcDbLine
   6
DOT
  62
3
  10
 667.937
  20
 239.830
  30
0.0
  11
 673.437
  21
 239.830
  31
0.0
   0
LINE
   5
4CD
 100
AcDbEntity
   8
0
 100
AcDbLine
   6
DOT
  62
3
  10
 673.437
  20
 239.830
  30
0.0
  11
 673.437
  21
 240.495
  31
0.0
   0
LINE
   5
4CE
 100
AcDbEntity
   8
0
 100
AcDbLine
   6
DOT
  62
3
  10
 670.287
  20
 241.819
  30
0.0
  11
 670.287
  21
 240.730
  31
0.0
   0
LINE
   5
4CF
 100
AcDbEntity
   8
0
 100
AcDbLine
   6
DOT
  62
3
  10
 670.287
  20
 240.730
  30
0.0
  11
 671.087
  21
 240.730
  31
0.0
   0
LINE
   5
4D0
 100
AcDbEntity
   8
0
 100
AcDbLine
   6
DOT
  62
3
  10
 671.087
  20
 240.730
  30
0.0
  11
 671.087
  21
 241.819
  31
0.0
   0
ARC
   5
4D1
 100
AcDbEntity
   8
0
   6
DOT
  62
3
 100
AcDbCircle
  10
 711.337
  20
 240.495
  30
0.0
  40
 1.10000
 100
AcDbArc
  50
0.0
  51
 73.7600
   0
ARC
   5
4D2
 100
AcDbEntity
   8
0
   6
DOT
  62
3
 100
AcDbCircle
  10
 709.687
  20
 234.830
  30
0.0
  40
 7.00000
 100
AcDbArc
  50
 73.7600
  51
 86.7242
   0
ARC
   5
4D3
 100
AcDbEntity
   8
0
   6
DOT
  62
3
 100
AcDbCircle
  10
 709.687
  20
 234.830
  30
0.0
  40
 7.00000
 100
AcDbArc
  50
 93.2758
  51
 106.240
   0
ARC
   5
4D4
 100
AcDbEntity
   8
0
   6
DOT
  62
3
 100
AcDbCircle
  10
 708.037
  20
 240.495
  30
0.0
  40
 1.10000
 100
AcDbArc
  50
 106.240
  51
 180.000
   0
LINE
   5
4D5
 100
AcDbEntity
   8
0
 100
AcDbLine
   6
DOT
  62
3
  10
 712.437
  20
 240.495
  30
0.0
  11
 712.437
  21
 239.830
  31
0.0
   0
LINE
   5
4D6
 100
AcDbEntity
   8
0
 100
AcDbLine
   6
DOT
  62
3
  10
 712.437
  20
 239.830
  30
0.0
  11
 706.937
  21
 239.830
  31
0.0
   0
LINE
   5
4D7
 100
AcDbEntity
   8
0
 100
AcDbLine
   6
DOT
  62
3
  10
 706.937
  20
 239.830
  30
0.0
  11
 706.937
  21
 240.495
  31
0.0
   0
LINE
   5
4D8
 100
AcDbEntity
   8
0
 100
AcDbLine
   6
DOT
  62
3
  10
 710.087
  20
 241.819
  30
0.0
  11
 710.087
  21
 240.730
  31
0.0
   0
LINE
   5
4D9
 100
AcDbEntity
   8
0
 100
AcDbLine
   6
DOT
  62
3
  10
 710.087
  20
 240.730
  30
0.0
  11
 709.287
  21
 240.730
  31
0.0
   0
LINE
   5
4DA
 100
AcDbEntity
   8
0
 100
AcDbLine
   6
DOT
  62
3
  10
 709.287
  20
 240.730
  30
0.0
  11
 709.287
  21
 241.819
  31
0.0
   0
LINE
   5
4DB
 100
AcDbEntity
   8
0
 100
AcDbLine
   6
DASHDOT
  62
1
  10
 690.187
  20
 222.330
  30
0.0
  11
 690.187
  21
 285.330
  31
0.0
   0
LINE
   5
4DC
 100
AcDbEntity
   8
LEVEL021
 100
AcDbLine
   6
DASHDOT
  62
1
  10
 625.187
  20
 397.330
  30
0.0
  11
 625.187
  21
 448.349
  31
0.0
   0
LINE
   5
4DD
 100
AcDbEntity
   8
LEVEL021
 100
AcDbLine
   6
DOT
  62
3
  10
 631.187
  20
 417.030
  30
0.0
  11
 628.437
  21
 414.280
  31
0.0
   0
LINE
   5
4DE
 100
AcDbEntity
   8
LEVEL021
 100
AcDbLine
   6
DOT
  62
3
  10
 619.187
  20
 417.030
  30
0.0
  11
 631.187
  21
 417.030
  31
0.0
   0
LINE
   5
4DF
 100
AcDbEntity
   8
LEVEL021
 100
AcDbLine
   6
DOT
  62
3
  10
 625.187
  20
 435.830
  30
0.0
  11
 635.760
  21
 436.755
  31
0.0
   0
LINE
   5
4E0
 100
AcDbEntity
   8
LEVEL021
 100
AcDbLine
   6
DOT
  62
3
  10
 621.937
  20
 402.330
  30
0.0
  11
 621.937
  21
 414.280
  31
0.0
   0
LINE
   5
4E1
 100
AcDbEntity
   8
LEVEL021
 100
AcDbLine
   6
DOT
  62
3
  10
 628.437
  20
 402.330
  30
0.0
  11
 628.437
  21
 414.280
  31
0.0
   0
LINE
   5
4E2
 100
AcDbEntity
   8
LEVEL021
 100
AcDbLine
   6
DOT
  62
3
  10
 621.937
  20
 414.280
  30
0.0
  11
 625.187
  21
 414.280
  31
0.0
   0
LINE
   5
4E3
 100
AcDbEntity
   8
LEVEL021
 100
AcDbLine
   6
DOT
  62
3
  10
 619.187
  20
 417.030
  30
0.0
  11
 619.187
  21
 417.330
  31
0.0
   0
LINE
   5
4E4
 100
AcDbEntity
   8
LEVEL021
 100
AcDbLine
   6
DOT
  62
3
  10
 619.187
  20
 417.030
  30
0.0
  11
 621.937
  21
 414.280
  31
0.0
   0
LINE
   5
4E5
 100
AcDbEntity
   8
LEVEL021
 100
AcDbLine
   6
DOT
  62
3
  10
 628.437
  20
 414.280
  30
0.0
  11
 625.187
  21
 414.280
  31
0.0
   0
LINE
   5
4E6
 100
AcDbEntity
   8
LEVEL021
 100
AcDbLine
   6
DOT
  62
3
  10
 625.187
  20
 435.830
  30
0.0
  11
 614.613
  21
 436.755
  31
0.0
   0
ARC
   5
4E7
 100
AcDbEntity
   8
LEVEL021
   6
DOT
  62
3
 100
AcDbCircle
  10
 614.788
  20
 438.748
  30
0.0
  40
 2.00000
 100
AcDbArc
  50
 180.904
  51
 265.000
   0
LINE
   5
4E8
 100
AcDbEntity
   8
LEVEL021
 100
AcDbLine
   6
DOT
  62
3
  10
 612.788
  20
 440.444
  30
0.0
  11
 612.788
  21
 438.716
  31
0.0
   0
LINE
   5
4E9
 100
AcDbEntity
   8
LEVEL021
 100
AcDbLine
   6
DOT
  62
3
  10
 631.187
  20
 417.330
  30
0.0
  11
 631.187
  21
 417.030
  31
0.0
   0
ARC
   5
4EA
 100
AcDbEntity
   8
LEVEL021
   6
DOT
  62
3
 100
AcDbCircle
  10
 635.585
  20
 438.748
  30
0.0
  40
 2.00000
 100
AcDbArc
  50
 275.000
  51
 359.096
   0
LINE
   5
4EB
 100
AcDbEntity
   8
LEVEL021
 100
AcDbLine
   6
DOT
  62
3
  10
 637.585
  20
 440.444
  30
0.0
  11
 637.585
  21
 438.716
  31
0.0
   0
LINE
   5
4EC
 100
AcDbEntity
   8
LEVEL021
 100
AcDbLine
   6
CONTINUOUS
  62
3
  10
 625.187
  20
 443.330
  30
0.0
  11
 635.760
  21
 442.405
  31
0.0
   0
LINE
   5
4ED
 100
AcDbEntity
   8
LEVEL021
 100
AcDbLine
   6
CONTINUOUS
  62
3
  10
 634.187
  20
 417.330
  30
0.0
  11
 616.187
  21
 417.330
  31
0.0
   0
LINE
   5
4EE
 100
AcDbEntity
   8
LEVEL021
 100
AcDbLine
   6
CONTINUOUS
  62
3
  10
 612.788
  20
 440.444
  30
0.0
  11
 612.187
  21
 402.330
  31
0.0
   0
LINE
   5
4EF
 100
AcDbEntity
   8
LEVEL021
 100
AcDbLine
   6
CONTINUOUS
  62
3
  10
 616.187
  20
 417.330
  30
0.0
  11
 616.187
  21
 434.521
  31
0.0
   0
LINE
   5
4F0
 100
AcDbEntity
   8
LEVEL021
 100
AcDbLine
   6
CONTINUOUS
  62
3
  10
 625.187
  20
 417.330
  30
0.0
  11
 625.187
  21
 402.330
  31
0.0
   0
ARC
   5
4F1
 100
AcDbEntity
   8
LEVEL021
   6
CONTINUOUS
  62
3
 100
AcDbCircle
  10
 620.029
  20
 434.457
  30
0.0
  40
 3.85559
 100
AcDbArc
  50
 133.844
  51
 156.671
   0
ARC
   5
4F2
 100
AcDbEntity
   8
LEVEL021
   6
CONTINUOUS
  62
3
 100
AcDbCircle
  10
 619.880
  20
 434.521
  30
0.0
  40
 3.69345
 100
AcDbArc
  50
 156.671
  51
 180.000
   0
LINE
   5
4F3
 100
AcDbEntity
   8
LEVEL021
 100
AcDbLine
   6
CONTINUOUS
  62
3
  10
 625.187
  20
 443.330
  30
0.0
  11
 614.613
  21
 442.405
  31
0.0
   0
ARC
   5
4F4
 100
AcDbEntity
   8
LEVEL021
   6
CONTINUOUS
  62
3
 100
AcDbCircle
  10
 620.125
  20
 434.357
  30
0.0
  40
 3.99381
 100
AcDbArc
  50
 111.694
  51
 133.844
   0
ARC
   5
4F5
 100
AcDbEntity
   8
LEVEL021
   6
CONTINUOUS
  62
3
 100
AcDbCircle
  10
 614.788
  20
 440.413
  30
0.0
  40
 2.00000
 100
AcDbArc
  50
 95.0000
  51
 179.096
   0
ARC
   5
4F6
 100
AcDbEntity
   8
LEVEL021
   6
CONTINUOUS
  62
3
 100
AcDbCircle
  10
 620.187
  20
 434.201
  30
0.0
  40
 4.16132
 100
AcDbArc
  50
 90.0000
  51
 111.694
   0
LINE
   5
4F7
 100
AcDbEntity
   8
LEVEL021
 100
AcDbLine
   6
CONTINUOUS
  62
3
  10
 637.585
  20
 440.444
  30
0.0
  11
 638.187
  21
 402.330
  31
0.0
   0
LINE
   5
4F8
 100
AcDbEntity
   8
LEVEL021
 100
AcDbLine
   6
CONTINUOUS
  62
3
  10
 634.187
  20
 417.330
  30
0.0
  11
 634.187
  21
 434.521
  31
0.0
   0
ARC
   5
4F9
 100
AcDbEntity
   8
LEVEL021
   6
CONTINUOUS
  62
3
 100
AcDbCircle
  10
 630.344
  20
 434.457
  30
0.0
  40
 3.85559
 100
AcDbArc
  50
 23.3292
  51
 46.1559
   0
ARC
   5
4FA
 100
AcDbEntity
   8
LEVEL021
   6
CONTINUOUS
  62
3
 100
AcDbCircle
  10
 630.493
  20
 434.521
  30
0.0
  40
 3.69345
 100
AcDbArc
  50
 0.188705E-9
  51
 23.3292
   0
ARC
   5
4FB
 100
AcDbEntity
   8
LEVEL021
   6
CONTINUOUS
  62
3
 100
AcDbCircle
  10
 635.585
  20
 440.413
  30
0.0
  40
 2.00000
 100
AcDbArc
  50
 0.903882
  51
 85.0000
   0
ARC
   5
4FC
 100
AcDbEntity
   8
LEVEL021
   6
CONTINUOUS
  62
3
 100
AcDbCircle
  10
 630.187
  20
 434.201
  30
0.0
  40
 4.16132
 100
AcDbArc
  50
 68.3059
  51
 90.0000
   0
ARC
   5
4FD
 100
AcDbEntity
   8
LEVEL021
   6
CONTINUOUS
  62
3
 100
AcDbCircle
  10
 630.248
  20
 434.357
  30
0.0
  40
 3.99381
 100
AcDbArc
  50
 46.1559
  51
 68.3059
   0
LINE
   5
4FE
 100
AcDbEntity
   8
LEVEL021
 100
AcDbLine
   6
DASHDOT
  62
1
  10
 191.685
  20
 397.330
  30
0.0
  11
 191.685
  21
 432.514
  31
0.0
   0
LINE
   5
4FF
 100
AcDbEntity
   8
LEVEL021
 100
AcDbLine
   6
DOT
  62
3
  10
 194.935
  20
 414.280
  30
0.0
  11
 191.685
  21
 414.280
  31
0.0
   0
LINE
   5
500
 100
AcDbEntity
   8
LEVEL021
 100
AcDbLine
   6
DOT
  62
3
  10
 194.935
  20
 402.330
  30
0.0
  11
 194.935
  21
 414.280
  31
0.0
   0
LINE
   5
501
 100
AcDbEntity
   8
LEVEL021
 100
AcDbLine
   6
DOT
  62
3
  10
 197.685
  20
 417.030
  30
0.0
  11
 194.935
  21
 414.280
  31
0.0
   0
LINE
   5
502
 100
AcDbEntity
   8
LEVEL021
 100
AcDbLine
   6
DOT
  62
3
  10
 197.685
  20
 417.330
  30
0.0
  11
 197.685
  21
 417.030
  31
0.0
   0
LINE
   5
503
 100
AcDbEntity
   8
LEVEL021
 100
AcDbLine
   6
DOT
  62
3
  10
 199.363
  20
 417.330
  30
0.0
  11
 199.363
  21
 438.863
  31
0.0
   0
LINE
   5
504
 100
AcDbEntity
   8
LEVEL021
 100
AcDbLine
   6
DOT
  62
3
  10
 188.435
  20
 402.330
  30
0.0
  11
 188.435
  21
 414.280
  31
0.0
   0
LINE
   5
505
 100
AcDbEntity
   8
LEVEL021
 100
AcDbLine
   6
DOT
  62
3
  10
 188.435
  20
 414.280
  30
0.0
  11
 191.685
  21
 414.280
  31
0.0
   0
LINE
   5
506
 100
AcDbEntity
   8
LEVEL021
 100
AcDbLine
   6
DOT
  62
3
  10
 185.685
  20
 417.030
  30
0.0
  11
 185.685
  21
 417.330
  31
0.0
   0
LINE
   5
507
 100
AcDbEntity
   8
LEVEL021
 100
AcDbLine
   6
DOT
  62
3
  10
 185.685
  20
 417.030
  30
0.0
  11
 188.435
  21
 414.280
  31
0.0
   0
LINE
   5
508
 100
AcDbEntity
   8
LEVEL021
 100
AcDbLine
   6
DOT
  62
3
  10
 185.685
  20
 417.030
  30
0.0
  11
 197.685
  21
 417.030
  31
0.0
   0
LINE
   5
509
 100
AcDbEntity
   8
LEVEL021
 100
AcDbLine
   6
DOT
  62
3
  10
 199.363
  20
 417.330
  30
0.0
  11
 183.363
  21
 417.330
  31
0.0
   0
LINE
   5
50A
 100
AcDbEntity
   8
LEVEL021
 100
AcDbLine
   6
CONTINUOUS
  62
3
  10
 183.010
  20
 417.330
  30
0.0
  11
 198.266
  21
 439.821
  31
0.0
   0
LINE
   5
50B
 100
AcDbEntity
   8
LEVEL021
 100
AcDbLine
   6
CONTINUOUS
  62
3
  10
 183.010
  20
 417.330
  30
0.0
  11
 183.010
  21
 402.330
  31
0.0
   0
LINE
   5
50C
 100
AcDbEntity
   8
LEVEL021
 100
AcDbLine
   6
CONTINUOUS
  62
3
  10
 201.410
  20
 402.330
  30
0.0
  11
 201.410
  21
 431.830
  31
0.0
   0
LINE
   5
50D
 100
AcDbEntity
   8
LEVEL021
 100
AcDbLine
   6
CONTINUOUS
  62
3
  10
 202.510
  20
 402.330
  30
0.0
  11
 202.510
  21
 431.830
  31
0.0
   0
LINE
   5
50E
 100
AcDbEntity
   8
LEVEL021
 100
AcDbLine
   6
DASHDOT
  62
1
  10
 308.688
  20
 397.330
  30
0.0
  11
 308.688
  21
 432.514
  31
0.0
   0
LINE
   5
50F
 100
AcDbEntity
   8
LEVEL021
 100
AcDbLine
   6
DOT
  62
3
  10
 305.438
  20
 402.330
  30
0.0
  11
 305.438
  21
 414.280
  31
0.0
   0
LINE
   5
510
 100
AcDbEntity
   8
LEVEL021
 100
AcDbLine
   6
DOT
  62
3
  10
 302.688
  20
 417.030
  30
0.0
  11
 305.438
  21
 414.280
  31
0.0
   0
LINE
   5
511
 100
AcDbEntity
   8
LEVEL021
 100
AcDbLine
   6
DOT
  62
3
  10
 302.688
  20
 417.330
  30
0.0
  11
 302.688
  21
 417.030
  31
0.0
   0
LINE
   5
512
 100
AcDbEntity
   8
LEVEL021
 100
AcDbLine
   6
DOT
  62
3
  10
 305.438
  20
 414.280
  30
0.0
  11
 308.688
  21
 414.280
  31
0.0
   0
LINE
   5
513
 100
AcDbEntity
   8
LEVEL021
 100
AcDbLine
   6
DOT
  62
3
  10
 311.938
  20
 402.330
  30
0.0
  11
 311.938
  21
 414.280
  31
0.0
   0
LINE
   5
514
 100
AcDbEntity
   8
LEVEL021
 100
AcDbLine
   6
DOT
  62
3
  10
 311.938
  20
 414.280
  30
0.0
  11
 308.688
  21
 414.280
  31
0.0
   0
LINE
   5
515
 100
AcDbEntity
   8
LEVEL021
 100
AcDbLine
   6
DOT
  62
3
  10
 301.010
  20
 417.330
  30
0.0
  11
 301.010
  21
 438.863
  31
0.0
   0
LINE
   5
516
 100
AcDbEntity
   8
LEVEL021
 100
AcDbLine
   6
DOT
  62
3
  10
 314.688
  20
 417.330
  30
0.0
  11
 314.688
  21
 417.030
  31
0.0
   0
LINE
   5
517
 100
AcDbEntity
   8
LEVEL021
 100
AcDbLine
   6
DOT
  62
3
  10
 314.688
  20
 417.030
  30
0.0
  11
 311.938
  21
 414.280
  31
0.0
   0
LINE
   5
518
 100
AcDbEntity
   8
LEVEL021
 100
AcDbLine
   6
DOT
  62
3
  10
 301.010
  20
 417.330
  30
0.0
  11
 317.010
  21
 417.330
  31
0.0
   0
LINE
   5
519
 100
AcDbEntity
   8
LEVEL021
 100
AcDbLine
   6
DOT
  62
3
  10
 314.688
  20
 417.030
  30
0.0
  11
 302.688
  21
 417.030
  31
0.0
   0
LINE
   5
51A
 100
AcDbEntity
   8
LEVEL021
 100
AcDbLine
   6
CONTINUOUS
  62
3
  10
 317.010
  20
 417.330
  30
0.0
  11
 301.754
  21
 439.821
  31
0.0
   0
LINE
   5
51B
 100
AcDbEntity
   8
LEVEL021
 100
AcDbLine
   6
CONTINUOUS
  62
3
  10
 298.963
  20
 402.330
  30
0.0
  11
 298.963
  21
 431.830
  31
0.0
   0
LINE
   5
51C
 100
AcDbEntity
   8
LEVEL021
 100
AcDbLine
   6
CONTINUOUS
  62
3
  10
 297.510
  20
 402.330
  30
0.0
  11
 297.510
  21
 431.830
  31
0.0
   0
LINE
   5
51D
 100
AcDbEntity
   8
LEVEL021
 100
AcDbLine
   6
CONTINUOUS
  62
3
  10
 317.010
  20
 402.330
  30
0.0
  11
 317.010
  21
 417.330
  31
0.0
   0
ARC
   5
51E
 100
AcDbEntity
   8
LEVEL021
   6
DOT
  62
3
 100
AcDbCircle
  10
 297.010
  20
 438.863
  30
0.0
  40
 4.00000
 100
AcDbArc
  50
 0.732800E-11
  51
 62.0195
   0
LINE
   5
51F
 100
AcDbEntity
   8
LEVEL021
 100
AcDbLine
   6
CONTINUOUS
  62
3
  10
 293.863
  20
 436.930
  30
0.0
  11
 206.510
  21
 436.930
  31
0.0
   0
LINE
   5
520
 100
AcDbEntity
   8
LEVEL021
 100
AcDbLine
   6
CONTINUOUS
  62
3
  10
 293.510
  20
 435.830
  30
0.0
  11
 206.510
  21
 435.830
  31
0.0
   0
ARC
   5
521
 100
AcDbEntity
   8
LEVEL021
   6
CONTINUOUS
  62
3
 100
AcDbCircle
  10
 293.863
  20
 431.830
  30
0.0
  40
 5.10000
 100
AcDbArc
  50
0.0
  51
 90.0000
   0
ARC
   5
522
 100
AcDbEntity
   8
LEVEL021
   6
CONTINUOUS
  62
3
 100
AcDbCircle
  10
 293.510
  20
 431.830
  30
0.0
  40
 4.00000
 100
AcDbArc
  50
0.0
  51
 90.0000
   0
ARC
   5
523
 100
AcDbEntity
   8
LEVEL021
   6
CONTINUOUS
  62
3
 100
AcDbCircle
  10
 295.133
  20
 435.330
  30
0.0
  40
 8.00000
 100
AcDbArc
  50
 34.1500
  51
 90.0000
   0
ARC
   5
524
 100
AcDbEntity
   8
LEVEL021
   6
DOT
  62
3
 100
AcDbCircle
  10
 203.363
  20
 438.863
  30
0.0
  40
 4.00000
 100
AcDbArc
  50
 117.981
  51
 180.000
   0
ARC
   5
525
 100
AcDbEntity
   8
LEVEL021
   6
CONTINUOUS
  62
3
 100
AcDbCircle
  10
 206.510
  20
 431.830
  30
0.0
  40
 5.10000
 100
AcDbArc
  50
 90.0000
  51
 180.000
   0
ARC
   5
526
 100
AcDbEntity
   8
LEVEL021
   6
CONTINUOUS
  62
3
 100
AcDbCircle
  10
 206.510
  20
 431.830
  30
0.0
  40
 4.00000
 100
AcDbArc
  50
 90.0000
  51
 180.000
   0
ARC
   5
527
 100
AcDbEntity
   8
LEVEL021
   6
CONTINUOUS
  62
3
 100
AcDbCircle
  10
 204.887
  20
 435.330
  30
0.0
  40
 8.00000
 100
AcDbArc
  50
 90.0000
  51
 145.850
   0
LINE
   5
528
 100
AcDbEntity
   8
LEVEL021
 100
AcDbLine
   6
CONTINUOUS
  62
3
  10
 295.133
  20
 443.330
  30
0.0
  11
 204.887
  21
 443.330
  31
0.0
   0
DIMENSION
   5
529
 100
AcDbEntity
   8
LEVEL003
   6
CONTINUOUS
  62
3
 100
AcDbDimension
   2
*D19
  10
 115.187
  20
 443.330
  30
0.0
  11
 115.187
  21
 259.530
  31
0.0
  70
0
   1
\A1;約370
   3
GMM009
 100
AcDbAlignedDimension
  13
 172.687
  23
 75.7302
  33
0.0
  14
 204.887
  24
 443.330
  34
0.0
  50
 90.0000
 100
AcDbRotatedDimension
   0
LINE
   5
52A
 100
AcDbEntity
   8
LEVEL044
 100
AcDbLine
   6
CONTINUOUS
  62
3
  10
 160.187
  20
 555.330
  30
0.0
  11
 235.370
  21
 555.330
  31
0.0
   0
TEXT
   5
52B
 100
AcDbEntity
   8
LEVEL044
  62
3
 100
AcDbText
  10
 160.278
  20
 555.330
  30
0.0
  40
 15.0000
   1
電気回路図
   7
STANDARD
  72
1
  11
 197.778
  21
 555.330
  31
0.0
 100
AcDbText
   0
LINE
   5
52C
 100
AcDbEntity
   8
LEVEL019
 100
AcDbLine
   6
CONTINUOUS
  62
3
  10
 530.187
  20
 520.330
  30
0.0
  11
 720.187
  21
 520.330
  31
0.0
   0
LINE
   5
52D
 100
AcDbEntity
   8
LEVEL019
 100
AcDbLine
   6
CONTINUOUS
  62
3
  10
 720.187
  20
 680.330
  30
0.0
  11
 530.187
  21
 680.330
  31
0.0
   0
LINE
   5
52E
 100
AcDbEntity
   8
LEVEL016
 100
AcDbLine
   6
DASHDOT
  62
1
  10
 560.187
  20
 660.330
  30
0.0
  11
 530.187
  21
 660.330
  31
0.0
   0
ARC
   5
52F
 100
AcDbEntity
   8
LEVEL016
   6
DASHDOT
  62
1
 100
AcDbCircle
  10
 545.187
  20
 660.330
  30
0.0
  40
 9.00000
 100
AcDbArc
  50
 9.50000
  51
 315.500
   0
LINE
   5
530
 100
AcDbEntity
   8
LEVEL016
 100
AcDbLine
   6
CONTINUOUS
  62
3
  10
 554.170
  20
 660.880
  30
0.0
  11
 555.168
  21
 660.888
  31
0.0
   0
LINE
   5
531
 100
AcDbEntity
   8
LEVEL016
 100
AcDbLine
   6
CONTINUOUS
  62
3
  10
 555.168
  20
 660.888
  30
0.0
  11
 555.177
  21
 659.946
  31
0.0
   0
LINE
   5
532
 100
AcDbEntity
   8
LEVEL016
 100
AcDbLine
   6
CONTINUOUS
  62
3
  10
 555.177
  20
 659.946
  30
0.0
  11
 554.178
  21
 659.938
  31
0.0
   0
LINE
   5
533
 100
AcDbEntity
   8
LEVEL016
 100
AcDbLine
   6
CONTINUOUS
  62
3
  10
 554.178
  20
 659.938
  30
0.0
  11
 554.088
  21
 659.000
  31
0.0
   0
LINE
   5
534
 100
AcDbEntity
   8
LEVEL016
 100
AcDbLine
   6
CONTINUOUS
  62
3
  10
 554.088
  20
 659.000
  30
0.0
  11
 555.066
  21
 658.801
  31
0.0
   0
LINE
   5
535
 100
AcDbEntity
   8
LEVEL016
 100
AcDbLine
   6
CONTINUOUS
  62
3
  10
 555.066
  20
 658.801
  30
0.0
  11
 554.878
  21
 657.878
  31
0.0
   0
LINE
   5
536
 100
AcDbEntity
   8
LEVEL016
 100
AcDbLine
   6
CONTINUOUS
  62
3
  10
 554.878
  20
 657.878
  30
0.0
  11
 553.900
  21
 658.077
  31
0.0
   0
LINE
   5
537
 100
AcDbEntity
   8
LEVEL016
 100
AcDbLine
   6
CONTINUOUS
  62
3
  10
 553.900
  20
 658.077
  30
0.0
  11
 553.617
  21
 657.178
  31
0.0
   0
LINE
   5
538
 100
AcDbEntity
   8
LEVEL016
 100
AcDbLine
   6
CONTINUOUS
  62
3
  10
 553.617
  20
 657.178
  30
0.0
  11
 554.532
  21
 656.780
  31
0.0
   0
LINE
   5
539
 100
AcDbEntity
   8
LEVEL016
 100
AcDbLine
   6
CONTINUOUS
  62
3
  10
 554.532
  20
 656.780
  30
0.0
  11
 554.157
  21
 655.916
  31
0.0
   0
LINE
   5
53A
 100
AcDbEntity
   8
LEVEL016
 100
AcDbLine
   6
CONTINUOUS
  62
3
  10
 554.157
  20
 655.916
  30
0.0
  11
 553.241
  21
 656.314
  31
0.0
   0
LINE
   5
53B
 100
AcDbEntity
   8
LEVEL016
 100
AcDbLine
   6
CONTINUOUS
  62
3
  10
 553.241
  20
 656.314
  30
0.0
  11
 552.777
  21
 655.495
  31
0.0
   0
LINE
   5
53C
 100
AcDbEntity
   8
LEVEL016
 100
AcDbLine
   6
CONTINUOUS
  62
3
  10
 552.777
  20
 655.495
  30
0.0
  11
 553.590
  21
 654.915
  31
0.0
   0
LINE
   5
53D
 100
AcDbEntity
   8
LEVEL016
 100
AcDbLine
   6
CONTINUOUS
  62
3
  10
 553.590
  20
 654.915
  30
0.0
  11
 553.043
  21
 654.148
  31
0.0
   0
LINE
   5
53E
 100
AcDbEntity
   8
LEVEL016
 100
AcDbLine
   6
CONTINUOUS
  62
3
  10
 553.043
  20
 654.148
  30
0.0
  11
 552.230
  21
 654.728
  31
0.0
   0
LINE
   5
53F
 100
AcDbEntity
   8
LEVEL016
 100
AcDbLine
   6
CONTINUOUS
  62
3
  10
 552.230
  20
 654.728
  30
0.0
  11
 551.606
  21
 654.022
  31
0.0
   0
ARC
   5
540
 100
AcDbEntity
   8
LEVEL016
   6
CONTINUOUS
  62
3
 100
AcDbCircle
  10
 545.187
  20
 660.330
  30
0.0
  40
 10.0000
 100
AcDbArc
  50
 9.79953
  51
 315.200
   0
LINE
   5
541
 100
AcDbEntity
   8
LEVEL016
 100
AcDbLine
   6
CONTINUOUS
  62
3
  10
 555.038
  20
 662.032
  30
0.0
  11
 554.063
  21
 661.816
  31
0.0
   0
LINE
   5
542
 100
AcDbEntity
   8
LEVEL016
 100
AcDbLine
   6
CONTINUOUS
  62
3
  10
 554.063
  20
 661.816
  30
0.0
  11
 554.170
  21
 660.880
  31
0.0
   0
LINE
   5
543
 100
AcDbEntity
   8
LEVEL016
 100
AcDbLine
   6
CONTINUOUS
  62
3
  10
 551.606
  20
 654.022
  30
0.0
  11
 552.280
  21
 653.286
  31
0.0
   0
CIRCLE
   5
544
 100
AcDbEntity
   8
LEVEL019
 100
AcDbCircle
   6
CONTINUOUS
  62
3
  10
 545.187
  20
 540.330
  30
0.0
  40
 8.33100
   0
LINE
   5
545
 100
AcDbEntity
   8
LEVEL019
 100
AcDbLine
   6
DASHDOT
  62
1
  10
 545.187
  20
 528.999
  30
0.0
  11
 545.187
  21
 551.661
  31
0.0
   0
LINE
   5
546
 100
AcDbEntity
   8
LEVEL019
 100
AcDbLine
   6
DASHDOT
  62
1
  10
 556.518
  20
 540.330
  30
0.0
  11
 533.856
  21
 540.330
  31
0.0
   0
CIRCLE
   5
547
 100
AcDbEntity
   8
LEVEL019
 100
AcDbCircle
   6
CONTINUOUS
  62
3
  10
 545.187
  20
 540.330
  30
0.0
  40
 7.47500
   0
LINE
   5
548
 100
AcDbEntity
   8
LEVEL019
 100
AcDbLine
   6
CONTINUOUS
  62
3
  10
 549.805
  20
 540.330
  30
0.0
  11
 547.496
  21
 536.330
  31
0.0
   0
LINE
   5
549
 100
AcDbEntity
   8
LEVEL019
 100
AcDbLine
   6
CONTINUOUS
  62
3
  10
 547.496
  20
 536.330
  30
0.0
  11
 542.877
  21
 536.330
  31
0.0
   0
LINE
   5
54A
 100
AcDbEntity
   8
LEVEL019
 100
AcDbLine
   6
CONTINUOUS
  62
3
  10
 542.877
  20
 536.330
  30
0.0
  11
 540.568
  21
 540.330
  31
0.0
   0
LINE
   5
54B
 100
AcDbEntity
   8
LEVEL019
 100
AcDbLine
   6
CONTINUOUS
  62
3
  10
 540.568
  20
 540.330
  30
0.0
  11
 542.877
  21
 544.330
  31
0.0
   0
LINE
   5
54C
 100
AcDbEntity
   8
LEVEL019
 100
AcDbLine
   6
CONTINUOUS
  62
3
  10
 542.877
  20
 544.330
  30
0.0
  11
 547.496
  21
 544.330
  31
0.0
   0
LINE
   5
54D
 100
AcDbEntity
   8
LEVEL019
 100
AcDbLine
   6
CONTINUOUS
  62
3
  10
 547.496
  20
 544.330
  30
0.0
  11
 549.805
  21
 540.330
  31
0.0
   0
CIRCLE
   5
54E
 100
AcDbEntity
   8
0
 100
AcDbCircle
   6
CONTINUOUS
  62
3
  10
 623.997
  20
 619.712
  30
0.0
  40
 1.65000
   0
LINE
   5
54F
 100
AcDbEntity
   8
0
 100
AcDbLine
   6
CONTINUOUS
  62
3
  10
 628.038
  20
 619.712
  30
0.0
  11
 626.017
  21
 616.212
  31
0.0
   0
LINE
   5
550
 100
AcDbEntity
   8
0
 100
AcDbLine
   6
CONTINUOUS
  62
3
  10
 626.017
  20
 616.212
  30
0.0
  11
 621.976
  21
 616.212
  31
0.0
   0
LINE
   5
551
 100
AcDbEntity
   8
0
 100
AcDbLine
   6
CONTINUOUS
  62
3
  10
 621.976
  20
 616.212
  30
0.0
  11
 619.955
  21
 619.712
  31
0.0
   0
LINE
   5
552
 100
AcDbEntity
   8
0
 100
AcDbLine
   6
CONTINUOUS
  62
3
  10
 619.955
  20
 619.712
  30
0.0
  11
 621.976
  21
 623.212
  31
0.0
   0
LINE
   5
553
 100
AcDbEntity
   8
0
 100
AcDbLine
   6
CONTINUOUS
  62
3
  10
 621.976
  20
 623.212
  30
0.0
  11
 626.017
  21
 623.212
  31
0.0
   0
LINE
   5
554
 100
AcDbEntity
   8
0
 100
AcDbLine
   6
CONTINUOUS
  62
3
  10
 626.017
  20
 623.212
  30
0.0
  11
 628.038
  21
 619.712
  31
0.0
   0
CIRCLE
   5
555
 100
AcDbEntity
   8
0
 100
AcDbCircle
   6
CONTINUOUS
  62
3
  10
 623.997
  20
 619.712
  30
0.0
  40
 3.50000
   0
CIRCLE
   5
556
 100
AcDbEntity
   8
0
 100
AcDbCircle
   6
CONTINUOUS
  62
3
  10
 623.997
  20
 619.712
  30
0.0
  40
 2.00000
   0
LINE
   5
557
 100
AcDbEntity
   8
0
 100
AcDbLine
   6
DASHDOT
  62
1
  10
 629.997
  20
 619.712
  30
0.0
  11
 617.997
  21
 619.712
  31
0.0
   0
LINE
   5
558
 100
AcDbEntity
   8
LEVEL019
 100
AcDbLine
   6
DASHDOT
  62
1
  10
 623.997
  20
 613.712
  30
0.0
  11
 623.997
  21
 625.712
  31
0.0
   0
CIRCLE
   5
559
 100
AcDbEntity
   8
LEVEL014
 100
AcDbCircle
   6
DASHDOT
  62
1
  10
 680.187
  20
 600.330
  30
0.0
  40
 50.0000
   0
LINE
   5
55A
 100
AcDbEntity
   8
LEVEL014
 100
AcDbLine
   6
DASHDOT
  62
1
  10
 640.323
  20
 560.467
  30
0.0
  11
 649.339
  21
 569.483
  31
0.0
   0
LINE
   5
55B
 100
AcDbEntity
   8
LEVEL014
 100
AcDbLine
   6
DASHDOT
  62
1
  10
 640.323
  20
 640.193
  30
0.0
  11
 649.339
  21
 631.178
  31
0.0
   0
LINE
   5
55C
 100
AcDbEntity
   8
LEVEL016
 100
AcDbLine
   6
DASHDOT
  62
1
  10
 545.187
  20
 645.330
  30
0.0
  11
 545.187
  21
 675.330
  31
0.0
   0
LINE
   5
55D
 100
AcDbEntity
   8
LEVEL014
 100
AcDbLine
   6
DOT
  62
3
  10
 637.687
  20
 557.830
  30
0.0
  11
 637.687
  21
 642.830
  31
0.0
   0
LINE
   5
55E
 100
AcDbEntity
   8
LEVEL014
 100
AcDbLine
   6
DOT
  62
3
  10
 637.687
  20
 642.830
  30
0.0
  11
 722.687
  21
 642.830
  31
0.0
   0
LINE
   5
55F
 100
AcDbEntity
   8
LEVEL014
 100
AcDbLine
   6
DOT
  62
3
  10
 722.687
  20
 642.830
  30
0.0
  11
 722.687
  21
 557.830
  31
0.0
   0
LINE
   5
560
 100
AcDbEntity
   8
LEVEL014
 100
AcDbLine
   6
DOT
  62
3
  10
 722.687
  20
 557.830
  30
0.0
  11
 637.687
  21
 557.830
  31
0.0
   0
CIRCLE
   5
561
 100
AcDbEntity
   8
LEVEL014
 100
AcDbCircle
   6
DOT
  62
3
  10
 680.187
  20
 600.330
  30
0.0
  40
 40.0000
   0
LINE
   5
562
 100
AcDbEntity
   8
LEVEL014
 100
AcDbLine
   6
DOT
  62
3
  10
 660.187
  20
 634.971
  30
0.0
  11
 660.187
  21
 668.330
  31
0.0
   0
ARC
   5
563
 100
AcDbEntity
   8
LEVEL014
   6
DOT
  62
3
 100
AcDbCircle
  10
 662.187
  20
 668.330
  30
0.0
  40
 2.00000
 100
AcDbArc
  50
 90.0000
  51
 180.000
   0
LINE
   5
564
 100
AcDbEntity
   8
LEVEL014
 100
AcDbLine
   6
DOT
  62
3
  10
 698.187
  20
 670.330
  30
0.0
  11
 662.187
  21
 670.330
  31
0.0
   0
CIRCLE
   5
565
 100
AcDbEntity
   8
LEVEL014
 100
AcDbCircle
   6
DOT
  62
3
  10
 644.831
  20
 635.686
  30
0.0
  40
 4.25000
   0
CIRCLE
   5
566
 100
AcDbEntity
   8
LEVEL014
 100
AcDbCircle
   6
DOT
  62
3
  10
 644.831
  20
 635.686
  30
0.0
  40
 3.81699
   0
LINE
   5
567
 100
AcDbEntity
   8
LEVEL014
 100
AcDbLine
   6
DOT
  62
3
  10
 643.198
  20
 637.319
  30
0.0
  11
 645.429
  21
 637.916
  31
0.0
   0
LINE
   5
568
 100
AcDbEntity
   8
LEVEL014
 100
AcDbLine
   6
DOT
  62
3
  10
 645.429
  20
 637.916
  30
0.0
  11
 647.062
  21
 636.283
  31
0.0
   0
LINE
   5
569
 100
AcDbEntity
   8
LEVEL014
 100
AcDbLine
   6
DOT
  62
3
  10
 647.062
  20
 636.283
  30
0.0
  11
 646.464
  21
 634.053
  31
0.0
   0
LINE
   5
56A
 100
AcDbEntity
   8
LEVEL014
 100
AcDbLine
   6
DOT
  62
3
  10
 646.464
  20
 634.053
  30
0.0
  11
 644.234
  21
 633.455
  31
0.0
   0
LINE
   5
56B
 100
AcDbEntity
   8
LEVEL014
 100
AcDbLine
   6
DOT
  62
3
  10
 644.234
  20
 633.455
  30
0.0
  11
 642.601
  21
 635.088
  31
0.0
   0
LINE
   5
56C
 100
AcDbEntity
   8
LEVEL014
 100
AcDbLine
   6
DOT
  62
3
  10
 642.601
  20
 635.088
  30
0.0
  11
 643.198
  21
 637.319
  31
0.0
   0
CIRCLE
   5
56D
 100
AcDbEntity
   8
LEVEL014
 100
AcDbCircle
   6
DOT
  62
3
  10
 644.831
  20
 564.975
  30
0.0
  40
 4.25000
   0
CIRCLE
   5
56E
 100
AcDbEntity
   8
LEVEL014
 100
AcDbCircle
   6
DOT
  62
3
  10
 644.831
  20
 564.975
  30
0.0
  40
 3.81699
   0
LINE
   5
56F
 100
AcDbEntity
   8
LEVEL014
 100
AcDbLine
   6
DOT
  62
3
  10
 643.198
  20
 563.342
  30
0.0
  11
 642.601
  21
 565.573
  31
0.0
   0
LINE
   5
570
 100
AcDbEntity
   8
LEVEL014
 100
AcDbLine
   6
DOT
  62
3
  10
 642.601
  20
 565.573
  30
0.0
  11
 644.234
  21
 567.206
  31
0.0
   0
LINE
   5
571
 100
AcDbEntity
   8
LEVEL014
 100
AcDbLine
   6
DOT
  62
3
  10
 644.234
  20
 567.206
  30
0.0
  11
 646.464
  21
 566.608
  31
0.0
   0
LINE
   5
572
 100
AcDbEntity
   8
LEVEL014
 100
AcDbLine
   6
DOT
  62
3
  10
 646.464
  20
 566.608
  30
0.0
  11
 647.062
  21
 564.377
  31
0.0
   0
LINE
   5
573
 100
AcDbEntity
   8
LEVEL014
 100
AcDbLine
   6
DOT
  62
3
  10
 647.062
  20
 564.377
  30
0.0
  11
 645.429
  21
 562.744
  31
0.0
   0
LINE
   5
574
 100
AcDbEntity
   8
LEVEL014
 100
AcDbLine
   6
DOT
  62
3
  10
 645.429
  20
 562.744
  30
0.0
  11
 643.198
  21
 563.342
  31
0.0
   0
LINE
   5
575
 100
AcDbEntity
   8
LEVEL026
 100
AcDbLine
   6
CONTINUOUS
  62
3
  10
 560.746
  20
 582.712
  30
0.0
  11
 560.746
  21
 582.212
  31
0.0
   0
LINE
   5
576
 100
AcDbEntity
   8
LEVEL026
 100
AcDbLine
   6
CONTINUOUS
  62
3
  10
 552.246
  20
 582.712
  30
0.0
  11
 552.246
  21
 582.212
  31
0.0
   0
LINE
   5
577
 100
AcDbEntity
   8
LEVEL026
 100
AcDbLine
   6
CONTINUOUS
  62
3
  10
 549.747
  20
 582.212
  30
0.0
  11
 549.747
  21
 582.712
  31
0.0
   0
LINE
   5
578
 100
AcDbEntity
   8
LEVEL026
 100
AcDbLine
   6
DASHDOT
  62
1
  10
 596.997
  20
 582.712
  30
0.0
  11
 596.997
  21
 571.212
  31
0.0
   0
LINE
   5
579
 100
AcDbEntity
   8
LEVEL026
 100
AcDbLine
   6
CONTINUOUS
  62
3
  10
 604.487
  20
 582.212
  30
0.0
  11
 604.690
  21
 575.712
  31
0.0
   0
LINE
   5
57A
 100
AcDbEntity
   8
LEVEL026
 100
AcDbLine
   6
CONTINUOUS
  62
3
  10
 604.690
  20
 575.712
  30
0.0
  11
 605.187
  21
 573.860
  31
0.0
   0
LINE
   5
57B
 100
AcDbEntity
   8
LEVEL026
 100
AcDbLine
   6
CONTINUOUS
  62
3
  10
 588.334
  20
 572.096
  30
0.0
  11
 605.187
  21
 572.095
  31
0.0
   0
LINE
   5
57C
 100
AcDbEntity
   8
LEVEL003
 100
AcDbLine
   6
DOT
  62
3
  10
 605.659
  20
 572.096
  30
0.0
  11
 605.187
  21
 572.095
  31
0.0
   0
LINE
   5
57D
 100
AcDbEntity
   8
LEVEL003
 100
AcDbLine
   6
DOT
  62
3
  10
 605.659
  20
 572.096
  30
0.0
  11
 605.187
  21
 573.860
  31
0.0
   0
LINE
   5
57E
 100
AcDbEntity
   8
LEVEL026
 100
AcDbLine
   6
DOT
  62
3
  10
 605.659
  20
 572.096
  30
0.0
  11
 605.659
  21
 563.122
  31
0.0
   0
LINE
   5
57F
 100
AcDbEntity
   8
LEVEL026
 100
AcDbLine
   6
DOT
  62
3
  10
 605.659
  20
 572.096
  30
0.0
  11
 605.343
  21
 582.212
  31
0.0
   0
LINE
   5
580
 100
AcDbEntity
   8
LEVEL018
 100
AcDbLine
   6
DASHDOT
  62
1
  10
 596.997
  20
 571.212
  30
0.0
  11
 596.997
  21
 521.212
  31
0.0
   0
LINE
   5
581
 100
AcDbEntity
   8
LEVEL018
 100
AcDbLine
   6
DASHDOT
  62
1
  10
 571.997
  20
 546.212
  30
0.0
  11
 666.997
  21
 546.212
  31
0.0
   0
LINE
   5
582
 100
AcDbEntity
   8
LEVEL018
 100
AcDbLine
   6
DOT
  62
3
  10
 607.244
  20
 530.212
  30
0.0
  11
 612.997
  21
 530.212
  31
0.0
   0
LINE
   5
583
 100
AcDbEntity
   8
LEVEL018
 100
AcDbLine
   6
DOT
  62
3
  10
 612.997
  20
 530.212
  30
0.0
  11
 612.997
  21
 535.965
  31
0.0
   0
LINE
   5
584
 100
AcDbEntity
   8
LEVEL018
 100
AcDbLine
   6
DOT
  62
3
  10
 628.997
  20
 531.462
  30
0.0
  11
 612.997
  21
 531.462
  31
0.0
   0
LINE
   5
585
 100
AcDbEntity
   8
LEVEL018
 100
AcDbLine
   6
DOT
  62
3
  10
 628.997
  20
 530.962
  30
0.0
  11
 631.997
  21
 530.962
  31
0.0
   0
ARC
   5
586
 100
AcDbEntity
   8
LEVEL018
   6
DOT
  62
3
 100
AcDbCircle
  10
 663.747
  20
 533.962
  30
0.0
  40
 1.50000
 100
AcDbArc
  50
 270.000
  51
 0.269236E-9
   0
LINE
   5
587
 100
AcDbEntity
   8
LEVEL018
 100
AcDbLine
   6
DOT
  62
3
  10
 631.997
  20
 532.462
  30
0.0
  11
 663.747
  21
 532.462
  31
0.0
   0
ARC
   5
588
 100
AcDbEntity
   8
LEVEL018
   6
DOT
  62
3
 100
AcDbCircle
  10
 596.997
  20
 546.212
  30
0.0
  40
 9.50000
 100
AcDbArc
  50
 329.554
  51
 30.4462
   0
LINE
   5
589
 100
AcDbEntity
   8
LEVEL018
 100
AcDbLine
   6
DOT
  62
3
  10
 607.244
  20
 562.212
  30
0.0
  11
 612.997
  21
 562.212
  31
0.0
   0
LINE
   5
58A
 100
AcDbEntity
   8
LEVEL018
 100
AcDbLine
   6
DOT
  62
3
  10
 612.997
  20
 562.212
  30
0.0
  11
 612.997
  21
 556.459
  31
0.0
   0
LINE
   5
58B
 100
AcDbEntity
   8
LEVEL018
 100
AcDbLine
   6
DOT
  62
3
  10
 612.997
  20
 560.962
  30
0.0
  11
 628.997
  21
 560.962
  31
0.0
   0
LINE
   5
58C
 100
AcDbEntity
   8
LEVEL018
 100
AcDbLine
   6
DOT
  62
3
  10
 628.997
  20
 561.462
  30
0.0
  11
 631.997
  21
 561.462
  31
0.0
   0
ARC
   5
58D
 100
AcDbEntity
   8
LEVEL018
   6
DOT
  62
3
 100
AcDbCircle
  10
 663.747
  20
 558.462
  30
0.0
  40
 1.50000
 100
AcDbArc
  50
0.0
  51
 90.0000
   0
LINE
   5
58E
 100
AcDbEntity
   8
LEVEL018
 100
AcDbLine
   6
DOT
  62
3
  10
 663.747
  20
 559.962
  30
0.0
  11
 631.997
  21
 559.962
  31
0.0
   0
LINE
   5
58F
 100
AcDbEntity
   8
LEVEL018
 100
AcDbLine
   6
DOT
  62
3
  10
 618.997
  20
 560.962
  30
0.0
  11
 618.997
  21
 531.462
  31
0.0
   0
LINE
   5
590
 100
AcDbEntity
   8
LEVEL018
 100
AcDbLine
   6
DOT
  62
3
  10
 619.997
  20
 531.462
  30
0.0
  11
 619.997
  21
 560.962
  31
0.0
   0
LINE
   5
591
 100
AcDbEntity
   8
LEVEL018
 100
AcDbLine
   6
DOT
  62
3
  10
 631.997
  20
 561.462
  30
0.0
  11
 631.997
  21
 530.962
  31
0.0
   0
LINE
   5
592
 100
AcDbEntity
   8
LEVEL018
 100
AcDbLine
   6
DOT
  62
3
  10
 665.247
  20
 558.462
  30
0.0
  11
 665.247
  21
 533.962
  31
0.0
   0
LINE
   5
593
 100
AcDbEntity
   8
LEVEL018
 100
AcDbLine
   6
DOT
  62
3
  10
 628.997
  20
 530.962
  30
0.0
  11
 628.997
  21
 561.462
  31
0.0
   0
ARC
   5
594
 100
AcDbEntity
   8
LEVEL018
   6
DOT
  62
3
 100
AcDbCircle
  10
 596.997
  20
 546.212
  30
0.0
  40
 19.0000
 100
AcDbArc
  50
 295.534
  51
 64.4656
   0
ARC
   5
595
 100
AcDbEntity
   8
LEVEL018
   6
DOT
  62
3
 100
AcDbCircle
  10
 596.997
  20
 546.212
  30
0.0
  40
 14.5000
 100
AcDbArc
  50
 304.390
  51
 55.6097
   0
ARC
   5
596
 100
AcDbEntity
   8
LEVEL018
   6
DOT
  62
3
 100
AcDbCircle
  10
 596.997
  20
 546.212
  30
0.0
  40
 10.0000
 100
AcDbArc
  50
 324.985
  51
 35.0152
   0
LINE
   5
597
 100
AcDbEntity
   8
LEVEL015
 100
AcDbLine
   6
DASHDOT
  62
1
  10
 603.997
  20
 625.512
  30
0.0
  11
 603.997
  21
 599.912
  31
0.0
   0
LINE
   5
598
 100
AcDbEntity
   8
LEVEL015
 100
AcDbLine
   6
DASHDOT
  62
1
  10
 579.997
  20
 612.712
  30
0.0
  11
 620.497
  21
 612.712
  31
0.0
   0
LINE
   5
599
 100
AcDbEntity
   8
LEVEL015
 100
AcDbLine
   6
DASHDOT
  62
1
  10
 601.997
  20
 647.712
  30
0.0
  11
 601.997
  21
 577.712
  31
0.0
   0
LINE
   5
59A
 100
AcDbEntity
   8
LEVEL015
 100
AcDbLine
   6
CONTINUOUS
  62
3
  10
 589.997
  20
 643.212
  30
0.0
  11
 605.187
  21
 643.212
  31
0.0
   0
CIRCLE
   5
59B
 100
AcDbEntity
   8
LEVEL015
 100
AcDbCircle
   6
CONTINUOUS
  62
3
  10
 603.997
  20
 612.712
  30
0.0
  40
 8.00000
   0
ARC
   5
59C
 100
AcDbEntity
   8
LEVEL015
   6
CONTINUOUS
  62
3
 100
AcDbCircle
  10
 586.997
  20
 644.712
  30
0.0
  40
 2.00000
 100
AcDbArc
  50
 90.0000
  51
 180.000
   0
LINE
   5
59D
 100
AcDbEntity
   8
LEVEL015
 100
AcDbLine
   6
CONTINUOUS
  62
3
  10
 584.997
  20
 644.712
  30
0.0
  11
 584.997
  21
 580.712
  31
0.0
   0
LINE
   5
59E
 100
AcDbEntity
   8
LEVEL015
 100
AcDbLine
   6
CONTINUOUS
  62
3
  10
 586.997
  20
 578.712
  30
0.0
  11
 589.997
  21
 578.712
  31
0.0
   0
LINE
   5
59F
 100
AcDbEntity
   8
LEVEL015
 100
AcDbLine
   6
CONTINUOUS
  62
3
  10
 589.997
  20
 578.712
  30
0.0
  11
 589.997
  21
 646.712
  31
0.0
   0
LINE
   5
5A0
 100
AcDbEntity
   8
LEVEL015
 100
AcDbLine
   6
CONTINUOUS
  62
3
  10
 589.997
  20
 646.712
  30
0.0
  11
 586.997
  21
 646.712
  31
0.0
   0
ARC
   5
5A1
 100
AcDbEntity
   8
LEVEL015
   6
CONTINUOUS
  62
3
 100
AcDbCircle
  10
 586.997
  20
 580.712
  30
0.0
  40
 2.00000
 100
AcDbArc
  50
 180.000
  51
 270.000
   0
LINE
   5
5A2
 100
AcDbEntity
   8
LEVEL015
 100
AcDbLine
   6
DOT
  62
3
  10
 615.997
  20
 640.212
  30
0.0
  11
 615.997
  21
 585.212
  31
0.0
   0
ARC
   5
5A3
 100
AcDbEntity
   8
LEVEL015
   6
DOT
  62
3
 100
AcDbCircle
  10
 612.997
  20
 640.212
  30
0.0
  40
 3.00000
 100
AcDbArc
  50
0.0
  51
 90.0000
   0
ARC
   5
5A4
 100
AcDbEntity
   8
LEVEL015
   6
DOT
  62
3
 100
AcDbCircle
  10
 612.997
  20
 585.212
  30
0.0
  40
 3.00000
 100
AcDbArc
  50
 270.000
  51
0.0
   0
LINE
   5
5A5
 100
AcDbEntity
   8
LEVEL026
 100
AcDbLine
   6
DOT
  62
3
  10
 614.655
  20
 582.712
  30
0.0
  11
 616.497
  21
 582.712
  31
0.0
   0
LINE
   5
5A6
 100
AcDbEntity
   8
LEVEL026
 100
AcDbLine
   6
DOT
  62
3
  10
 616.497
  20
 582.712
  30
0.0
  11
 616.497
  21
 642.712
  31
0.0
   0
LINE
   5
5A7
 100
AcDbEntity
   8
LEVEL026
 100
AcDbLine
   6
DOT
  62
3
  10
 616.497
  20
 642.712
  30
0.0
  11
 614.655
  21
 642.712
  31
0.0
   0
LINE
   5
5A8
 100
AcDbEntity
   8
LEVEL015
 100
AcDbLine
   6
DOT
  62
3
  10
 605.187
  20
 582.212
  30
0.0
  11
 612.997
  21
 582.212
  31
0.0
   0
LINE
   5
5A9
 100
AcDbEntity
   8
LEVEL015
 100
AcDbLine
   6
DOT
  62
3
  10
 605.187
  20
 643.212
  30
0.0
  11
 612.997
  21
 643.212
  31
0.0
   0
LINE
   5
5AA
 100
AcDbEntity
   8
LEVEL024
 100
AcDbLine
   6
CONTINUOUS
  62
3
  10
 605.187
  20
 680.330
  30
0.0
  11
 605.187
  21
 520.330
  31
0.0
   0
LINE
   5
5AB
 100
AcDbEntity
   8
LEVEL015
 100
AcDbLine
   6
CONTINUOUS
  62
3
  10
 589.997
  20
 582.212
  30
0.0
  11
 605.187
  21
 582.212
  31
0.0
   0
CIRCLE
   5
5AC
 100
AcDbEntity
   8
LEVEL018
 100
AcDbCircle
   6
CONTINUOUS
  62
3
  10
 596.997
  20
 546.212
  30
0.0
  40
 9.50000
   0
ARC
   5
5AD
 100
AcDbEntity
   8
LEVEL018
   6
CONTINUOUS
  62
3
 100
AcDbCircle
  10
 596.997
  20
 546.212
  30
0.0
  40
 10.0000
 100
AcDbArc
  50
 35.0152
  51
 324.985
   0
LINE
   5
5AE
 100
AcDbEntity
   8
LEVEL026
 100
AcDbLine
   6
CONTINUOUS
  62
3
  10
 588.334
  20
 572.096
  30
0.0
  11
 588.334
  21
 563.122
  31
0.0
   0
LINE
   5
5AF
 100
AcDbEntity
   8
LEVEL018
 100
AcDbLine
   6
CONTINUOUS
  62
3
  10
 580.997
  20
 556.459
  30
0.0
  11
 580.997
  21
 562.212
  31
0.0
   0
LINE
   5
5B0
 100
AcDbEntity
   8
LEVEL018
 100
AcDbLine
   6
CONTINUOUS
  62
3
  10
 580.997
  20
 562.212
  30
0.0
  11
 586.750
  21
 562.212
  31
0.0
   0
ARC
   5
5B1
 100
AcDbEntity
   8
LEVEL018
   6
CONTINUOUS
  62
3
 100
AcDbCircle
  10
 596.997
  20
 546.212
  30
0.0
  40
 14.5000
 100
AcDbArc
  50
 55.6097
  51
 304.390
   0
ARC
   5
5B2
 100
AcDbEntity
   8
LEVEL018
   6
CONTINUOUS
  62
3
 100
AcDbCircle
  10
 596.997
  20
 546.212
  30
0.0
  40
 19.0000
 100
AcDbArc
  50
 64.4656
  51
 295.534
   0
LINE
   5
5B3
 100
AcDbEntity
   8
LEVEL018
 100
AcDbLine
   6
CONTINUOUS
  62
3
  10
 580.997
  20
 535.965
  30
0.0
  11
 580.997
  21
 530.212
  31
0.0
   0
LINE
   5
5B4
 100
AcDbEntity
   8
LEVEL018
 100
AcDbLine
   6
CONTINUOUS
  62
3
  10
 580.997
  20
 530.212
  30
0.0
  11
 586.750
  21
 530.212
  31
0.0
   0
LINE
   5
5B5
 100
AcDbEntity
   8
LEVEL026
 100
AcDbLine
   6
CONTINUOUS
  62
3
  10
 589.303
  20
 575.712
  30
0.0
  11
 604.690
  21
 575.712
  31
0.0
   0
LINE
   5
5B6
 100
AcDbEntity
   8
LEVEL026
 100
AcDbLine
   6
CONTINUOUS
  62
3
  10
 589.397
  20
 578.712
  30
0.0
  11
 589.303
  21
 575.712
  31
0.0
   0
LINE
   5
5B7
 100
AcDbEntity
   8
LEVEL026
 100
AcDbLine
   6
CONTINUOUS
  62
3
  10
 589.303
  20
 575.712
  30
0.0
  11
 588.334
  21
 572.095
  31
0.0
   0
LINE
   5
5B8
 100
AcDbEntity
   8
LEVEL026
 100
AcDbLine
   6
CONTINUOUS
  62
3
  10
 588.334
  20
 572.096
  30
0.0
  11
 588.541
  21
 578.712
  31
0.0
   0
LINE
   5
5B9
 100
AcDbEntity
   8
LEVEL026
 100
AcDbLine
   6
DASHDOT
  62
1
  10
 576.497
  20
 589.712
  30
0.0
  11
 576.497
  21
 605.712
  31
0.0
   0
LINE
   5
5BA
 100
AcDbEntity
   8
LEVEL026
 100
AcDbLine
   6
DASHDOT
  62
1
  10
 584.497
  20
 597.712
  30
0.0
  11
 568.497
  21
 597.712
  31
0.0
   0
LINE
   5
5BB
 100
AcDbEntity
   8
LEVEL026
 100
AcDbLine
   6
DASHDOT
  62
1
  10
 576.497
  20
 619.712
  30
0.0
  11
 576.497
  21
 635.712
  31
0.0
   0
LINE
   5
5BC
 100
AcDbEntity
   8
LEVEL026
 100
AcDbLine
   6
DASHDOT
  62
1
  10
 584.497
  20
 627.712
  30
0.0
  11
 568.497
  21
 627.712
  31
0.0
   0
CIRCLE
   5
5BD
 100
AcDbEntity
   8
LEVEL026
 100
AcDbCircle
   6
CONTINUOUS
  62
3
  10
 576.497
  20
 627.712
  30
0.0
  40
 5.00000
   0
CIRCLE
   5
5BE
 100
AcDbEntity
   8
LEVEL026
 100
AcDbCircle
   6
CONTINUOUS
  62
3
  10
 576.497
  20
 627.712
  30
0.0
  40
 4.48038
   0
LINE
   5
5BF
 100
AcDbEntity
   8
LEVEL026
 100
AcDbLine
   6
CONTINUOUS
  62
3
  10
 579.383
  20
 627.712
  30
0.0
  11
 577.940
  21
 625.212
  31
0.0
   0
LINE
   5
5C0
 100
AcDbEntity
   8
LEVEL026
 100
AcDbLine
   6
CONTINUOUS
  62
3
  10
 577.940
  20
 625.212
  30
0.0
  11
 575.053
  21
 625.212
  31
0.0
   0
LINE
   5
5C1
 100
AcDbEntity
   8
LEVEL026
 100
AcDbLine
   6
CONTINUOUS
  62
3
  10
 575.053
  20
 625.212
  30
0.0
  11
 573.610
  21
 627.712
  31
0.0
   0
LINE
   5
5C2
 100
AcDbEntity
   8
LEVEL026
 100
AcDbLine
   6
CONTINUOUS
  62
3
  10
 573.610
  20
 627.712
  30
0.0
  11
 575.053
  21
 630.212
  31
0.0
   0
LINE
   5
5C3
 100
AcDbEntity
   8
LEVEL026
 100
AcDbLine
   6
CONTINUOUS
  62
3
  10
 575.053
  20
 630.212
  30
0.0
  11
 577.940
  21
 630.212
  31
0.0
   0
LINE
   5
5C4
 100
AcDbEntity
   8
LEVEL026
 100
AcDbLine
   6
CONTINUOUS
  62
3
  10
 577.940
  20
 630.212
  30
0.0
  11
 579.383
  21
 627.712
  31
0.0
   0
LINE
   5
5C5
 100
AcDbEntity
   8
LEVEL019
 100
AcDbLine
   6
DASHDOT
  62
1
  10
 517.187
  20
 530.330
  30
0.0
  11
 533.187
  21
 530.330
  31
0.0
   0
LINE
   5
5C6
 100
AcDbEntity
   8
LEVEL019
 100
AcDbLine
   6
DASHDOT
  62
1
  10
 525.187
  20
 522.330
  30
0.0
  11
 525.187
  21
 538.330
  31
0.0
   0
LINE
   5
5C7
 100
AcDbEntity
   8
LEVEL019
 100
AcDbLine
   6
DASHDOT
  62
1
  10
 525.187
  20
 678.330
  30
0.0
  11
 525.187
  21
 662.330
  31
0.0
   0
LINE
   5
5C8
 100
AcDbEntity
   8
LEVEL019
 100
AcDbLine
   6
DASHDOT
  62
1
  10
 517.187
  20
 670.330
  30
0.0
  11
 533.187
  21
 670.330
  31
0.0
   0
ARC
   5
5C9
 100
AcDbEntity
   8
LEVEL019
   6
CONTINUOUS
  62
3
 100
AcDbCircle
  10
 530.187
  20
 535.330
  30
0.0
  40
 15.0000
 100
AcDbArc
  50
 180.000
  51
 270.000
   0
ARC
   5
5CA
 100
AcDbEntity
   8
LEVEL019
   6
CONTINUOUS
  62
3
 100
AcDbCircle
  10
 530.187
  20
 665.330
  30
0.0
  40
 15.0000
 100
AcDbArc
  50
 90.0000
  51
 180.000
   0
LINE
   5
5CB
 100
AcDbEntity
   8
LEVEL019
 100
AcDbLine
   6
CONTINUOUS
  62
3
  10
 528.073
  20
 670.330
  30
0.0
  11
 526.630
  21
 667.830
  31
0.0
   0
LINE
   5
5CC
 100
AcDbEntity
   8
LEVEL019
 100
AcDbLine
   6
CONTINUOUS
  62
3
  10
 526.630
  20
 667.830
  30
0.0
  11
 523.743
  21
 667.830
  31
0.0
   0
LINE
   5
5CD
 100
AcDbEntity
   8
LEVEL019
 100
AcDbLine
   6
CONTINUOUS
  62
3
  10
 523.743
  20
 667.830
  30
0.0
  11
 522.300
  21
 670.330
  31
0.0
   0
LINE
   5
5CE
 100
AcDbEntity
   8
LEVEL019
 100
AcDbLine
   6
CONTINUOUS
  62
3
  10
 522.300
  20
 670.330
  30
0.0
  11
 523.743
  21
 672.830
  31
0.0
   0
LINE
   5
5CF
 100
AcDbEntity
   8
LEVEL019
 100
AcDbLine
   6
CONTINUOUS
  62
3
  10
 523.743
  20
 672.830
  30
0.0
  11
 526.630
  21
 672.830
  31
0.0
   0
LINE
   5
5D0
 100
AcDbEntity
   8
LEVEL019
 100
AcDbLine
   6
CONTINUOUS
  62
3
  10
 526.630
  20
 672.830
  30
0.0
  11
 528.073
  21
 670.330
  31
0.0
   0
CIRCLE
   5
5D1
 100
AcDbEntity
   8
LEVEL019
 100
AcDbCircle
   6
CONTINUOUS
  62
3
  10
 525.187
  20
 670.330
  30
0.0
  40
 5.00000
   0
CIRCLE
   5
5D2
 100
AcDbEntity
   8
LEVEL019
 100
AcDbCircle
   6
CONTINUOUS
  62
3
  10
 525.187
  20
 670.330
  30
0.0
  40
 4.48038
   0
LINE
   5
5D3
 100
AcDbEntity
   8
LEVEL019
 100
AcDbLine
   6
CONTINUOUS
  62
3
  10
 528.073
  20
 530.330
  30
0.0
  11
 526.630
  21
 527.830
  31
0.0
   0
LINE
   5
5D4
 100
AcDbEntity
   8
LEVEL019
 100
AcDbLine
   6
CONTINUOUS
  62
3
  10
 526.630
  20
 527.830
  30
0.0
  11
 523.743
  21
 527.830
  31
0.0
   0
LINE
   5
5D5
 100
AcDbEntity
   8
LEVEL019
 100
AcDbLine
   6
CONTINUOUS
  62
3
  10
 523.743
  20
 527.830
  30
0.0
  11
 522.300
  21
 530.330
  31
0.0
   0
LINE
   5
5D6
 100
AcDbEntity
   8
LEVEL019
 100
AcDbLine
   6
CONTINUOUS
  62
3
  10
 522.300
  20
 530.330
  30
0.0
  11
 523.743
  21
 532.830
  31
0.0
   0
LINE
   5
5D7
 100
AcDbEntity
   8
LEVEL019
 100
AcDbLine
   6
CONTINUOUS
  62
3
  10
 523.743
  20
 532.830
  30
0.0
  11
 526.630
  21
 532.830
  31
0.0
   0
LINE
   5
5D8
 100
AcDbEntity
   8
LEVEL019
 100
AcDbLine
   6
CONTINUOUS
  62
3
  10
 526.630
  20
 532.830
  30
0.0
  11
 528.073
  21
 530.330
  31
0.0
   0
CIRCLE
   5
5D9
 100
AcDbEntity
   8
LEVEL019
 100
AcDbCircle
   6
CONTINUOUS
  62
3
  10
 525.187
  20
 530.330
  30
0.0
  40
 5.00000
   0
CIRCLE
   5
5DA
 100
AcDbEntity
   8
LEVEL019
 100
AcDbCircle
   6
CONTINUOUS
  62
3
  10
 525.187
  20
 530.330
  30
0.0
  40
 4.48038
   0
LINE
   5
5DB
 100
AcDbEntity
   8
LEVEL019
 100
AcDbLine
   6
CONTINUOUS
  62
3
  10
 515.187
  20
 537.712
  30
0.0
  11
 515.187
  21
 535.330
  31
0.0
   0
LINE
   5
5DC
 100
AcDbEntity
   8
LEVEL019
 100
AcDbLine
   6
CONTINUOUS
  62
3
  10
 515.187
  20
 665.330
  30
0.0
  11
 515.187
  21
 642.712
  31
0.0
   0
LINE
   5
5DD
 100
AcDbEntity
   8
LEVEL026
 100
AcDbLine
   6
CONTINUOUS
  62
3
  10
 541.247
  20
 582.212
  30
0.0
  11
 541.247
  21
 582.712
  31
0.0
   0
ARC
   5
5DE
 100
AcDbEntity
   8
LEVEL013
   6
CONTINUOUS
  62
3
 100
AcDbCircle
  10
 540.497
  20
 612.712
  30
0.0
  40
 20.0000
 100
AcDbArc
  50
 65.3756
  51
 114.624
   0
ARC
   5
5DF
 100
AcDbEntity
   8
LEVEL013
   6
CONTINUOUS
  62
3
 100
AcDbCircle
  10
 540.497
  20
 612.712
  30
0.0
  40
 20.0000
 100
AcDbArc
  50
 245.376
  51
 294.624
   0
ARC
   5
5E0
 100
AcDbEntity
   8
LEVEL013
   6
CONTINUOUS
  62
3
 100
AcDbCircle
  10
 564.497
  20
 612.712
  30
0.0
  40
 10.0000
 100
AcDbArc
  50
 294.624
  51
 65.3760
   0
ARC
   5
5E1
 100
AcDbEntity
   8
LEVEL013
   6
CONTINUOUS
  62
3
 100
AcDbCircle
  10
 552.803
  20
 634.572
  30
0.0
  40
 5.00000
 100
AcDbArc
  50
 187.125
  51
 245.376
   0
ARC
   5
5E2
 100
AcDbEntity
   8
LEVEL013
   6
CONTINUOUS
  62
3
 100
AcDbCircle
  10
 546.114
  20
 639.712
  30
0.0
  40
 1.00000
 100
AcDbArc
  50
 7.12436
  51
 90.0000
   0
ARC
   5
5E3
 100
AcDbEntity
   8
LEVEL013
   6
CONTINUOUS
  62
3
 100
AcDbCircle
  10
 534.879
  20
 639.712
  30
0.0
  40
 1.00000
 100
AcDbArc
  50
 90.0000
  51
 172.876
   0
ARC
   5
5E4
 100
AcDbEntity
   8
LEVEL013
   6
CONTINUOUS
  62
3
 100
AcDbCircle
  10
 528.190
  20
 634.572
  30
0.0
  40
 5.00000
 100
AcDbArc
  50
 294.624
  51
 352.875
   0
ARC
   5
5E5
 100
AcDbEntity
   8
LEVEL013
   6
CONTINUOUS
  62
3
 100
AcDbCircle
  10
 540.497
  20
 612.712
  30
0.0
  40
 20.5000
 100
AcDbArc
  50
 245.376
  51
 294.624
   0
ARC
   5
5E6
 100
AcDbEntity
   8
LEVEL013
   6
CONTINUOUS
  62
3
 100
AcDbCircle
  10
 564.497
  20
 612.712
  30
0.0
  40
 11.0000
 100
AcDbArc
  50
 294.624
  51
 65.3755
   0
ARC
   5
5E7
 100
AcDbEntity
   8
LEVEL013
   6
CONTINUOUS
  62
3
 100
AcDbCircle
  10
 540.497
  20
 612.712
  30
0.0
  40
 21.0000
 100
AcDbArc
  50
 245.376
  51
 294.624
   0
ARC
   5
5E8
 100
AcDbEntity
   8
LEVEL013
   6
CONTINUOUS
  62
3
 100
AcDbCircle
  10
 510.997
  20
 587.712
  30
0.0
  40
 1.00000
 100
AcDbArc
  50
 180.000
  51
 270.000
   0
ARC
   5
5E9
 100
AcDbEntity
   8
LEVEL013
   6
CONTINUOUS
  62
3
 100
AcDbCircle
  10
 573.997
  20
 602.428
  30
0.0
  40
 3.00000
 100
AcDbArc
  50
 132.732
  51
 180.000
   0
ARC
   5
5EA
 100
AcDbEntity
   8
LEVEL013
   6
CONTINUOUS
  62
3
 100
AcDbCircle
  10
 528.497
  20
 643.712
  30
0.0
  40
 1.00000
 100
AcDbArc
  50
 90.0000
  51
 180.000
   0
ARC
   5
5EB
 100
AcDbEntity
   8
LEVEL013
   6
CONTINUOUS
  62
3
 100
AcDbCircle
  10
 552.497
  20
 643.712
  30
0.0
  40
 1.00000
 100
AcDbArc
  50
0.0
  51
 90.0000
   0
ARC
   5
5EC
 100
AcDbEntity
   8
LEVEL013
   6
CONTINUOUS
  62
3
 100
AcDbCircle
  10
 510.997
  20
 635.712
  30
0.0
  40
 1.00000
 100
AcDbArc
  50
 90.0000
  51
 180.000
   0
ARC
   5
5ED
 100
AcDbEntity
   8
LEVEL013
   6
CONTINUOUS
  62
3
 100
AcDbCircle
  10
 525.497
  20
 638.712
  30
0.0
  40
 2.00000
 100
AcDbArc
  50
 270.000
  51
0.0
   0
ARC
   5
5EE
 100
AcDbEntity
   8
LEVEL013
   6
CONTINUOUS
  62
3
 100
AcDbCircle
  10
 556.497
  20
 631.779
  30
0.0
  40
 3.00000
 100
AcDbArc
  50
 180.000
  51
 245.376
   0
ARC
   5
5EF
 100
AcDbEntity
   8
LEVEL013
   6
CONTINUOUS
  62
3
 100
AcDbCircle
  10
 528.763
  20
 631.910
  30
0.0
  40
 10.0000
 100
AcDbArc
  50
 273.017
  51
 301.431
   0
ARC
   5
5F0
 100
AcDbEntity
   8
LEVEL013
   6
CONTINUOUS
  62
3
 100
AcDbCircle
  10
 528.763
  20
 593.513
  30
0.0
  40
 10.0000
 100
AcDbArc
  50
 58.5689
  51
 86.9831
   0
ARC
   5
5F1
 100
AcDbEntity
   8
LEVEL013
   6
CONTINUOUS
  62
3
 100
AcDbCircle
  10
 540.497
  20
 612.712
  30
0.0
  40
 14.0000
 100
AcDbArc
  50
 106.602
  51
 138.499
   0
ARC
   5
5F2
 100
AcDbEntity
   8
LEVEL013
   6
CONTINUOUS
  62
3
 100
AcDbCircle
  10
 540.497
  20
 612.712
  30
0.0
  40
 14.0000
 100
AcDbArc
  50
 221.500
  51
 253.399
   0
ARC
   5
5F3
 100
AcDbEntity
   8
LEVEL013
   6
CONTINUOUS
  62
3
 100
AcDbCircle
  10
 545.497
  20
 600.172
  30
0.0
  40
 1.00000
 100
AcDbArc
  50
 111.738
  51
 180.000
   0
ARC
   5
5F4
 100
AcDbEntity
   8
LEVEL013
   6
CONTINUOUS
  62
3
 100
AcDbCircle
  10
 535.497
  20
 600.172
  30
0.0
  40
 1.00000
 100
AcDbArc
  50
0.0
  51
 68.2621
   0
ARC
   5
5F5
 100
AcDbEntity
   8
LEVEL013
   6
CONTINUOUS
  62
3
 100
AcDbCircle
  10
 535.497
  20
 625.252
  30
0.0
  40
 1.00000
 100
AcDbArc
  50
 291.738
  51
 0.359496E-3
   0
ARC
   5
5F6
 100
AcDbEntity
   8
LEVEL013
   6
CONTINUOUS
  62
3
 100
AcDbCircle
  10
 545.497
  20
 625.252
  30
0.0
  40
 1.00000
 100
AcDbArc
  50
 180.000
  51
 248.262
   0
ARC
   5
5F7
 100
AcDbEntity
   8
LEVEL013
   6
CONTINUOUS
  62
3
 100
AcDbCircle
  10
 555.282
  20
 603.351
  30
0.0
  40
 5.00000
 100
AcDbArc
  50
 120.000
  51
 147.661
   0
ARC
   5
5F8
 100
AcDbEntity
   8
LEVEL013
   6
CONTINUOUS
  62
3
 100
AcDbCircle
  10
 555.282
  20
 622.073
  30
0.0
  40
 5.00000
 100
AcDbArc
  50
 212.339
  51
 240.000
   0
ARC
   5
5F9
 100
AcDbEntity
   8
LEVEL013
   6
CONTINUOUS
  62
3
 100
AcDbCircle
  10
 557.497
  20
 612.712
  30
0.0
  40
 2.00000
 100
AcDbArc
  50
 300.000
  51
 60.0003
   0
ARC
   5
5FA
 100
AcDbEntity
   8
LEVEL013
   6
CONTINUOUS
  62
3
 100
AcDbCircle
  10
 564.497
  20
 612.712
  30
0.0
  40
 8.00000
 100
AcDbArc
  50
 199.193
  51
 160.807
   0
ARC
   5
5FB
 100
AcDbEntity
   8
LEVEL013
   6
CONTINUOUS
  62
3
 100
AcDbCircle
  10
 564.497
  20
 612.712
  30
0.0
  40
 7.13397
 100
AcDbArc
  50
 197.862
  51
 162.138
   0
ARC
   5
5FC
 100
AcDbEntity
   8
LEVEL013
   6
CONTINUOUS
  62
3
 100
AcDbCircle
  10
 540.497
  20
 612.712
  30
0.0
  40
 14.0000
 100
AcDbArc
  50
 286.602
  51
 341.410
   0
ARC
   5
5FD
 100
AcDbEntity
   8
LEVEL013
   6
CONTINUOUS
  62
3
 100
AcDbCircle
  10
 540.497
  20
 612.712
  30
0.0
  40
 14.0000
 100
AcDbArc
  50
 18.5901
  51
 73.3985
   0
ARC
   5
5FE
 100
AcDbEntity
   8
LEVEL013
   6
CONTINUOUS
  62
3
 100
AcDbCircle
  10
 540.497
  20
 612.712
  30
0.0
  40
 15.0000
 100
AcDbArc
  50
 217.723
  51
 345.573
   0
ARC
   5
5FF
 100
AcDbEntity
   8
LEVEL013
   6
CONTINUOUS
  62
3
 100
AcDbCircle
  10
 540.497
  20
 612.712
  30
0.0
  40
 15.0000
 100
AcDbArc
  50
 14.4269
  51
 142.277
   0
ARC
   5
600
 100
AcDbEntity
   8
LEVEL013
   6
CONTINUOUS
  62
3
 100
AcDbCircle
  10
 540.497
  20
 612.712
  30
0.0
  40
 12.5000
 100
AcDbArc
  50
 336.266
  51
 23.7342
   0
ARC
   5
601
 100
AcDbEntity
   8
LEVEL013
   6
CONTINUOUS
  62
3
 100
AcDbCircle
  10
 540.497
  20
 612.712
  30
0.0
  40
 12.5000
 100
AcDbArc
  50
 291.738
  51
 327.661
   0
ARC
   5
602
 100
AcDbEntity
   8
LEVEL013
   6
CONTINUOUS
  62
3
 100
AcDbCircle
  10
 540.497
  20
 612.712
  30
0.0
  40
 12.5000
 100
AcDbArc
  50
 238.569
  51
 248.262
   0
ARC
   5
603
 100
AcDbEntity
   8
LEVEL013
   6
CONTINUOUS
  62
3
 100
AcDbCircle
  10
 540.497
  20
 612.712
  30
0.0
  40
 12.5000
 100
AcDbArc
  50
 256.216
  51
 283.784
   0
ARC
   5
604
 100
AcDbEntity
   8
LEVEL013
   6
CONTINUOUS
  62
3
 100
AcDbCircle
  10
 540.497
  20
 612.712
  30
0.0
  40
 12.5000
 100
AcDbArc
  50
 111.738
  51
 121.431
   0
ARC
   5
605
 100
AcDbEntity
   8
LEVEL013
   6
CONTINUOUS
  62
3
 100
AcDbCircle
  10
 540.497
  20
 612.712
  30
0.0
  40
 12.5000
 100
AcDbArc
  50
 32.3393
  51
 68.2615
   0
ARC
   5
606
 100
AcDbEntity
   8
LEVEL013
   6
CONTINUOUS
  62
3
 100
AcDbCircle
  10
 540.497
  20
 612.712
  30
0.0
  40
 12.5000
 100
AcDbArc
  50
 76.2157
  51
 103.784
   0
ARC
   5
607
 100
AcDbEntity
   8
LEVEL013
   6
CONTINUOUS
  62
3
 100
AcDbCircle
  10
 516.497
  20
 612.712
  30
0.0
  40
 10.0000
 100
AcDbArc
  50
 114.625
  51
 124.519
   0
ARC
   5
608
 100
AcDbEntity
   8
LEVEL013
   6
CONTINUOUS
  62
3
 100
AcDbCircle
  10
 516.496
  20
 612.712
  30
0.0
  40
 10.0000
 100
AcDbArc
  50
 235.483
  51
 245.376
   0
ARC
   5
609
 100
AcDbEntity
   8
LEVEL013
   6
CONTINUOUS
  62
3
 100
AcDbCircle
  10
 516.497
  20
 612.712
  30
0.0
  40
 11.0000
 100
AcDbArc
  50
 114.625
  51
 132.733
   0
ARC
   5
60A
 100
AcDbEntity
   8
LEVEL013
   6
CONTINUOUS
  62
3
 100
AcDbCircle
  10
 516.497
  20
 612.712
  30
0.0
  40
 11.0000
 100
AcDbArc
  50
 114.625
  51
 132.733
   0
ARC
   5
60B
 100
AcDbEntity
   8
LEVEL013
   6
CONTINUOUS
  62
3
 100
AcDbCircle
  10
 516.497
  20
 612.712
  30
0.0
  40
 11.0000
 100
AcDbArc
  50
 114.625
  51
 132.201
   0
ARC
   5
60C
 100
AcDbEntity
   8
LEVEL013
   6
CONTINUOUS
  62
3
 100
AcDbCircle
  10
 506.997
  20
 602.428
  30
0.0
  40
 3.00000
 100
AcDbArc
  50
 0.173701E-10
  51
 45.3697
   0
ARC
   5
60D
 100
AcDbEntity
   8
LEVEL013
   6
CONTINUOUS
  62
3
 100
AcDbCircle
  10
 516.497
  20
 612.712
  30
0.0
  40
 11.0000
 100
AcDbArc
  50
 227.799
  51
 245.376
   0
ARC
   5
60E
 100
AcDbEntity
   8
LEVEL013
   6
CONTINUOUS
  62
3
 100
AcDbCircle
  10
 516.497
  20
 612.712
  30
0.0
  40
 11.0000
 100
AcDbArc
  50
 114.625
  51
 132.201
   0
ARC
   5
60F
 100
AcDbEntity
   8
LEVEL013
   6
CONTINUOUS
  62
3
 100
AcDbCircle
  10
 516.497
  20
 612.712
  30
0.0
  40
 11.0000
 100
AcDbArc
  50
 114.625
  51
 132.201
   0
ARC
   5
610
 100
AcDbEntity
   8
LEVEL013
   6
CONTINUOUS
  62
3
 100
AcDbCircle
  10
 516.497
  20
 612.712
  30
0.0
  40
 11.0000
 100
AcDbArc
  50
 114.625
  51
 132.201
   0
ARC
   5
611
 100
AcDbEntity
   8
LEVEL013
   6
CONTINUOUS
  62
3
 100
AcDbCircle
  10
 516.497
  20
 612.712
  30
0.0
  40
 11.0000
 100
AcDbArc
  50
 114.625
  51
 132.201
   0
ARC
   5
612
 100
AcDbEntity
   8
LEVEL013
   6
CONTINUOUS
  62
3
 100
AcDbCircle
  10
 506.997
  20
 622.995
  30
0.0
  40
 3.00000
 100
AcDbArc
  50
 314.630
  51
 0.253625E-4
   0
ARC
   5
613
 100
AcDbEntity
   8
LEVEL013
   6
CONTINUOUS
  62
3
 100
AcDbCircle
  10
 569.997
  20
 587.712
  30
0.0
  40
 1.00000
 100
AcDbArc
  50
 270.000
  51
 0.846791E-9
   0
LINE
   5
614
 100
AcDbEntity
   8
LEVEL013
 100
AcDbLine
   6
CONTINUOUS
  62
3
  10
 532.163
  20
 630.893
  30
0.0
  11
 512.330
  21
 621.802
  31
0.0
   0
LINE
   5
615
 100
AcDbEntity
   8
LEVEL013
 100
AcDbLine
   6
CONTINUOUS
  62
3
  10
 548.830
  20
 594.531
  30
0.0
  11
 568.663
  21
 603.621
  31
0.0
   0
LINE
   5
616
 100
AcDbEntity
   8
LEVEL013
 100
AcDbLine
   6
CONTINUOUS
  62
3
  10
 532.163
  20
 594.531
  30
0.0
  11
 512.330
  21
 603.621
  31
0.0
   0
LINE
   5
617
 100
AcDbEntity
   8
LEVEL013
 100
AcDbLine
   6
CONTINUOUS
  62
3
  10
 547.106
  20
 639.836
  30
0.0
  11
 547.842
  21
 633.952
  31
0.0
   0
LINE
   5
618
 100
AcDbEntity
   8
LEVEL013
 100
AcDbLine
   6
CONTINUOUS
  62
3
  10
 548.830
  20
 630.893
  30
0.0
  11
 568.663
  21
 621.802
  31
0.0
   0
LINE
   5
619
 100
AcDbEntity
   8
LEVEL013
 100
AcDbLine
   6
CONTINUOUS
  62
3
  10
 533.887
  20
 639.836
  30
0.0
  11
 533.152
  21
 633.952
  31
0.0
   0
LINE
   5
61A
 100
AcDbEntity
   8
LEVEL013
 100
AcDbLine
   6
CONTINUOUS
  62
3
  10
 569.080
  20
 602.712
  30
0.0
  11
 549.247
  21
 593.622
  31
0.0
   0
LINE
   5
61B
 100
AcDbEntity
   8
LEVEL013
 100
AcDbLine
   6
CONTINUOUS
  62
3
  10
 531.747
  20
 593.622
  30
0.0
  11
 511.913
  21
 602.712
  31
0.0
   0
LINE
   5
61C
 100
AcDbEntity
   8
LEVEL013
 100
AcDbLine
   6
CONTINUOUS
  62
3
  10
 511.913
  20
 622.712
  30
0.0
  11
 531.747
  21
 631.802
  31
0.0
   0
LINE
   5
61D
 100
AcDbEntity
   8
LEVEL013
 100
AcDbLine
   6
CONTINUOUS
  62
3
  10
 509.997
  20
 602.428
  30
0.0
  11
 509.997
  21
 587.712
  31
0.0
   0
LINE
   5
61E
 100
AcDbEntity
   8
LEVEL013
 100
AcDbLine
   6
CONTINUOUS
  62
3
  10
 528.497
  20
 644.712
  30
0.0
  11
 552.497
  21
 644.712
  31
0.0
   0
LINE
   5
61F
 100
AcDbEntity
   8
LEVEL013
 100
AcDbLine
   6
CONTINUOUS
  62
3
  10
 509.997
  20
 622.995
  30
0.0
  11
 509.997
  21
 635.712
  31
0.0
   0
LINE
   5
620
 100
AcDbEntity
   8
LEVEL013
 100
AcDbLine
   6
CONTINUOUS
  62
3
  10
 527.497
  20
 638.712
  30
0.0
  11
 527.497
  21
 643.712
  31
0.0
   0
LINE
   5
621
 100
AcDbEntity
   8
LEVEL013
 100
AcDbLine
   6
CONTINUOUS
  62
3
  10
 510.997
  20
 636.712
  30
0.0
  11
 525.497
  21
 636.712
  31
0.0
   0
LINE
   5
622
 100
AcDbEntity
   8
LEVEL013
 100
AcDbLine
   6
CONTINUOUS
  62
3
  10
 553.497
  20
 631.779
  30
0.0
  11
 553.497
  21
 643.712
  31
0.0
   0
LINE
   5
623
 100
AcDbEntity
   8
LEVEL013
 100
AcDbLine
   6
CONTINUOUS
  62
3
  10
 555.247
  20
 629.052
  30
0.0
  11
 569.080
  21
 622.712
  31
0.0
   0
LINE
   5
624
 100
AcDbEntity
   8
LEVEL013
 100
AcDbLine
   6
CONTINUOUS
  62
3
  10
 525.497
  20
 627.837
  30
0.0
  11
 525.497
  21
 621.724
  31
0.0
   0
LINE
   5
625
 100
AcDbEntity
   8
LEVEL013
 100
AcDbLine
   6
CONTINUOUS
  62
3
  10
 525.497
  20
 603.699
  30
0.0
  11
 525.497
  21
 597.586
  31
0.0
   0
LINE
   5
626
 100
AcDbEntity
   8
LEVEL013
 100
AcDbLine
   6
CONTINUOUS
  62
3
  10
 558.497
  20
 610.980
  30
0.0
  11
 552.782
  21
 607.681
  31
0.0
   0
LINE
   5
627
 100
AcDbEntity
   8
LEVEL013
 100
AcDbLine
   6
CONTINUOUS
  62
3
  10
 558.497
  20
 614.444
  30
0.0
  11
 552.782
  21
 617.743
  31
0.0
   0
LINE
   5
628
 100
AcDbEntity
   8
LEVEL013
 100
AcDbLine
   6
CONTINUOUS
  62
3
  10
 555.497
  20
 627.837
  30
0.0
  11
 555.497
  21
 616.176
  31
0.0
   0
LINE
   5
629
 100
AcDbEntity
   8
LEVEL013
 100
AcDbLine
   6
CONTINUOUS
  62
3
  10
 555.497
  20
 609.248
  30
0.0
  11
 555.497
  21
 597.586
  31
0.0
   0
LINE
   5
62A
 100
AcDbEntity
   8
LEVEL013
 100
AcDbLine
   6
CONTINUOUS
  62
3
  10
 566.806
  20
 608.712
  30
0.0
  11
 562.187
  21
 608.712
  31
0.0
   0
LINE
   5
62B
 100
AcDbEntity
   8
LEVEL013
 100
AcDbLine
   6
CONTINUOUS
  62
3
  10
 562.187
  20
 608.712
  30
0.0
  11
 559.878
  21
 612.712
  31
0.0
   0
LINE
   5
62C
 100
AcDbEntity
   8
LEVEL013
 100
AcDbLine
   6
CONTINUOUS
  62
3
  10
 559.878
  20
 612.712
  30
0.0
  11
 562.187
  21
 616.712
  31
0.0
   0
LINE
   5
62D
 100
AcDbEntity
   8
LEVEL013
 100
AcDbLine
   6
CONTINUOUS
  62
3
  10
 562.187
  20
 616.712
  30
0.0
  11
 566.806
  21
 616.712
  31
0.0
   0
LINE
   5
62E
 100
AcDbEntity
   8
LEVEL013
 100
AcDbLine
   6
CONTINUOUS
  62
3
  10
 566.806
  20
 616.712
  30
0.0
  11
 569.115
  21
 612.712
  31
0.0
   0
LINE
   5
62F
 100
AcDbEntity
   8
LEVEL013
 100
AcDbLine
   6
CONTINUOUS
  62
3
  10
 569.115
  20
 612.712
  30
0.0
  11
 566.806
  21
 608.712
  31
0.0
   0
LINE
   5
630
 100
AcDbEntity
   8
LEVEL013
 100
AcDbLine
   6
CONTINUOUS
  62
3
  10
 536.497
  20
 600.172
  30
0.0
  11
 536.497
  21
 598.712
  31
0.0
   0
LINE
   5
631
 100
AcDbEntity
   8
LEVEL013
 100
AcDbLine
   6
CONTINUOUS
  62
3
  10
 536.497
  20
 598.712
  30
0.0
  11
 544.497
  21
 598.712
  31
0.0
   0
LINE
   5
632
 100
AcDbEntity
   8
LEVEL013
 100
AcDbLine
   6
CONTINUOUS
  62
3
  10
 544.497
  20
 598.712
  30
0.0
  11
 544.497
  21
 600.172
  31
0.0
   0
LINE
   5
633
 100
AcDbEntity
   8
LEVEL013
 100
AcDbLine
   6
CONTINUOUS
  62
3
  10
 530.259
  20
 595.403
  30
0.0
  11
 532.568
  21
 597.712
  31
0.0
   0
LINE
   5
634
 100
AcDbEntity
   8
LEVEL013
 100
AcDbLine
   6
CONTINUOUS
  62
3
  10
 532.568
  20
 597.712
  30
0.0
  11
 537.078
  21
 598.107
  31
0.0
   0
LINE
   5
635
 100
AcDbEntity
   8
LEVEL013
 100
AcDbLine
   6
CONTINUOUS
  62
3
  10
 543.915
  20
 598.107
  30
0.0
  11
 548.425
  21
 597.712
  31
0.0
   0
LINE
   5
636
 100
AcDbEntity
   8
LEVEL013
 100
AcDbLine
   6
CONTINUOUS
  62
3
  10
 548.425
  20
 597.712
  30
0.0
  11
 550.734
  21
 595.403
  31
0.0
   0
LINE
   5
637
 100
AcDbEntity
   8
LEVEL013
 100
AcDbLine
   6
CONTINUOUS
  62
3
  10
 536.497
  20
 625.252
  30
0.0
  11
 536.497
  21
 626.712
  31
0.0
   0
LINE
   5
638
 100
AcDbEntity
   8
LEVEL013
 100
AcDbLine
   6
CONTINUOUS
  62
3
  10
 536.497
  20
 626.712
  30
0.0
  11
 544.497
  21
 626.712
  31
0.0
   0
LINE
   5
639
 100
AcDbEntity
   8
LEVEL013
 100
AcDbLine
   6
CONTINUOUS
  62
3
  10
 544.497
  20
 626.712
  30
0.0
  11
 544.497
  21
 625.252
  31
0.0
   0
LINE
   5
63A
 100
AcDbEntity
   8
LEVEL013
 100
AcDbLine
   6
CONTINUOUS
  62
3
  10
 530.259
  20
 630.020
  30
0.0
  11
 532.568
  21
 627.712
  31
0.0
   0
LINE
   5
63B
 100
AcDbEntity
   8
LEVEL013
 100
AcDbLine
   6
CONTINUOUS
  62
3
  10
 532.568
  20
 627.712
  30
0.0
  11
 537.078
  21
 627.317
  31
0.0
   0
LINE
   5
63C
 100
AcDbEntity
   8
LEVEL013
 100
AcDbLine
   6
CONTINUOUS
  62
3
  10
 543.915
  20
 627.317
  30
0.0
  11
 548.425
  21
 627.712
  31
0.0
   0
LINE
   5
63D
 100
AcDbEntity
   8
LEVEL013
 100
AcDbLine
   6
CONTINUOUS
  62
3
  10
 548.425
  20
 627.712
  30
0.0
  11
 550.734
  21
 630.020
  31
0.0
   0
LINE
   5
63E
 100
AcDbEntity
   8
LEVEL013
 100
AcDbLine
   6
CONTINUOUS
  62
3
  10
 546.114
  20
 640.712
  30
0.0
  11
 534.879
  21
 640.712
  31
0.0
   0
LINE
   5
63F
 100
AcDbEntity
   8
LEVEL013
 100
AcDbLine
   6
CONTINUOUS
  62
3
  10
 521.032
  20
 599.633
  30
0.0
  11
 521.032
  21
 599.083
  31
0.0
   0
LINE
   5
640
 100
AcDbEntity
   8
LEVEL013
 100
AcDbLine
   6
CONTINUOUS
  62
3
  10
 521.032
  20
 599.083
  30
0.0
  11
 531.955
  21
 594.076
  31
0.0
   0
LINE
   5
641
 100
AcDbEntity
   8
LEVEL013
 100
AcDbLine
   6
CONTINUOUS
  62
3
  10
 559.961
  20
 599.633
  30
0.0
  11
 559.961
  21
 599.083
  31
0.0
   0
LINE
   5
642
 100
AcDbEntity
   8
LEVEL013
 100
AcDbLine
   6
CONTINUOUS
  62
3
  10
 559.961
  20
 599.083
  30
0.0
  11
 549.038
  21
 594.076
  31
0.0
   0
LINE
   5
643
 100
AcDbEntity
   8
LEVEL013
 100
AcDbLine
   6
CONTINUOUS
  62
3
  10
 510.997
  20
 586.712
  30
0.0
  11
 569.997
  21
 586.712
  31
0.0
   0
LINE
   5
644
 100
AcDbEntity
   8
LEVEL013
 100
AcDbLine
   6
CONTINUOUS
  62
3
  10
 570.997
  20
 602.428
  30
0.0
  11
 570.997
  21
 587.712
  31
0.0
   0
ARC
   5
645
 100
AcDbEntity
   8
LEVEL013
   6
CONTINUOUS
  62
3
 100
AcDbCircle
  10
 470.336
  20
 628.831
  30
0.0
  40
 10.0000
 100
AcDbArc
  50
 233.703
  51
 273.017
   0
ARC
   5
646
 100
AcDbEntity
   8
LEVEL013
   6
CONTINUOUS
  62
3
 100
AcDbCircle
  10
 470.336
  20
 596.593
  30
0.0
  40
 10.0000
 100
AcDbArc
  50
 86.9830
  51
 126.297
   0
ARC
   5
647
 100
AcDbEntity
   8
LEVEL013
   6
CONTINUOUS
  62
3
 100
AcDbCircle
  10
 458.497
  20
 612.712
  30
0.0
  40
 10.0000
 100
AcDbArc
  50
 329.793
  51
 30.2066
   0
ARC
   5
648
 100
AcDbEntity
   8
LEVEL013
   6
CONTINUOUS
  62
3
 100
AcDbCircle
  10
 458.497
  20
 612.712
  30
0.0
  40
 10.0000
 100
AcDbArc
  50
 53.7027
  51
 306.297
   0
LINE
   5
649
 100
AcDbEntity
   8
LEVEL013
 100
AcDbLine
   6
CONTINUOUS
  62
3
  10
 529.290
  20
 603.499
  30
0.0
  11
 470.862
  21
 606.579
  31
0.0
   0
LINE
   5
64A
 100
AcDbEntity
   8
LEVEL013
 100
AcDbLine
   6
CONTINUOUS
  62
3
  10
 470.862
  20
 618.845
  30
0.0
  11
 529.290
  21
 621.924
  31
0.0
   0
LINE
   5
64B
 100
AcDbEntity
   8
LEVEL013
 100
AcDbLine
   6
DASHDOT
  62
1
  10
 458.497
  20
 626.712
  30
0.0
  11
 458.497
  21
 598.712
  31
0.0
   0
LINE
   5
64C
 100
AcDbEntity
   8
LEVEL013
 100
AcDbLine
   6
DASHDOT
  62
1
  10
 580.497
  20
 612.712
  30
0.0
  11
 445.497
  21
 612.712
  31
0.0
   0
LINE
   5
64D
 100
AcDbEntity
   8
LEVEL013
 100
AcDbLine
   6
DASHDOT
  62
1
  10
 518.497
  20
 636.712
  30
0.0
  11
 518.497
  21
 621.989
  31
0.0
   0
LINE
   5
64E
 100
AcDbEntity
   8
LEVEL013
 100
AcDbLine
   6
DASHDOT
  62
1
  10
 516.497
  20
 601.712
  30
0.0
  11
 516.497
  21
 623.712
  31
0.0
   0
LINE
   5
64F
 100
AcDbEntity
   8
LEVEL013
 100
AcDbLine
   6
DASHDOT
  62
1
  10
 522.997
  20
 586.712
  30
0.0
  11
 522.997
  21
 601.712
  31
0.0
   0
LINE
   5
650
 100
AcDbEntity
   8
LEVEL013
 100
AcDbLine
   6
DASHDOT
  62
1
  10
 557.997
  20
 586.712
  30
0.0
  11
 557.997
  21
 601.712
  31
0.0
   0
LINE
   5
651
 100
AcDbEntity
   8
LEVEL013
 100
AcDbLine
   6
DASHDOT
  62
1
  10
 564.497
  20
 601.712
  30
0.0
  11
 564.497
  21
 623.712
  31
0.0
   0
LINE
   5
652
 100
AcDbEntity
   8
LEVEL013
 100
AcDbLine
   6
DASHDOT
  62
1
  10
 540.497
  20
 644.712
  30
0.0
  11
 540.497
  21
 582.712
  31
0.0
   0
LINE
   5
653
 100
AcDbEntity
   8
LEVEL026
 100
AcDbLine
   6
DOT
  62
3
  10
 506.497
  20
 638.543
  30
0.0
  11
 507.380
  21
 637.659
  31
0.0
   0
LINE
   5
654
 100
AcDbEntity
   8
LEVEL026
 100
AcDbLine
   6
DOT
  62
3
  10
 527.497
  20
 637.031
  30
0.0
  11
 523.880
  21
 638.000
  31
0.0
   0
LINE
   5
655
 100
AcDbEntity
   8
LEVEL026
 100
AcDbLine
   6
DOT
  62
3
  10
 523.880
  20
 638.000
  30
0.0
  11
 506.497
  21
 638.543
  31
0.0
   0
LINE
   5
656
 100
AcDbEntity
   8
LEVEL026
 100
AcDbLine
   6
DOT
  62
3
  10
 523.880
  20
 638.000
  30
0.0
  11
 523.880
  21
 622.424
  31
0.0
   0
LINE
   5
657
 100
AcDbEntity
   8
LEVEL026
 100
AcDbLine
   6
DOT
  62
3
  10
 527.497
  20
 623.393
  30
0.0
  11
 531.433
  21
 630.212
  31
0.0
   0
LINE
   5
658
 100
AcDbEntity
   8
LEVEL026
 100
AcDbLine
   6
DOT
  62
3
  10
 531.433
  20
 630.212
  30
0.0
  11
 527.497
  21
 637.031
  31
0.0
   0
LINE
   5
659
 100
AcDbEntity
   8
LEVEL026
 100
AcDbLine
   6
DOT
  62
3
  10
 507.380
  20
 637.659
  30
0.0
  11
 507.380
  21
 622.764
  31
0.0
   0
LINE
   5
65A
 100
AcDbEntity
   8
LEVEL026
 100
AcDbLine
   6
DOT
  62
3
  10
 507.380
  20
 622.764
  30
0.0
  11
 527.497
  21
 623.393
  31
0.0
   0
LINE
   5
65B
 100
AcDbEntity
   8
LEVEL026
 100
AcDbLine
   6
DOT
  62
3
  10
 527.497
  20
 623.393
  30
0.0
  11
 527.497
  21
 637.031
  31
0.0
   0
LINE
   5
65C
 100
AcDbEntity
   8
LEVEL026
 100
AcDbLine
   6
DOT
  62
3
  10
 527.497
  20
 637.031
  30
0.0
  11
 507.380
  21
 637.659
  31
0.0
   0
LINE
   5
65D
 100
AcDbEntity
   8
LEVEL026
 100
AcDbLine
   6
DOT
  62
3
  10
 506.497
  20
 621.881
  30
0.0
  11
 507.380
  21
 622.764
  31
0.0
   0
LINE
   5
65E
 100
AcDbEntity
   8
LEVEL026
 100
AcDbLine
   6
DOT
  62
3
  10
 506.497
  20
 621.881
  30
0.0
  11
 523.880
  21
 622.424
  31
0.0
   0
LINE
   5
65F
 100
AcDbEntity
   8
LEVEL026
 100
AcDbLine
   6
DOT
  62
3
  10
 523.880
  20
 622.424
  30
0.0
  11
 527.497
  21
 623.393
  31
0.0
   0
LINE
   5
660
 100
AcDbEntity
   8
LEVEL026
 100
AcDbLine
   6
CONTINUOUS
  62
3
  10
 527.497
  20
 642.712
  30
0.0
  11
 506.497
  21
 642.712
  31
0.0
   0
LINE
   5
661
 100
AcDbEntity
   8
LEVEL026
 100
AcDbLine
   6
CONTINUOUS
  62
3
  10
 506.497
  20
 642.712
  30
0.0
  11
 506.497
  21
 620.723
  31
0.0
   0
LINE
   5
662
 100
AcDbEntity
   8
LEVEL026
 100
AcDbLine
   6
CONTINUOUS
  62
3
  10
 506.497
  20
 604.701
  30
0.0
  11
 506.497
  21
 582.712
  31
0.0
   0
LINE
   5
663
 100
AcDbEntity
   8
LEVEL026
 100
AcDbLine
   6
CONTINUOUS
  62
3
  10
 506.497
  20
 582.712
  30
0.0
  11
 514.541
  21
 582.712
  31
0.0
   0
LINE
   5
664
 100
AcDbEntity
   8
LEVEL026
 100
AcDbLine
   6
DOT
  62
3
  10
 497.497
  20
 558.543
  30
0.0
  11
 498.380
  21
 557.659
  31
0.0
   0
LINE
   5
665
 100
AcDbEntity
   8
LEVEL026
 100
AcDbLine
   6
DOT
  62
3
  10
 518.497
  20
 557.031
  30
0.0
  11
 514.880
  21
 558.000
  31
0.0
   0
LINE
   5
666
 100
AcDbEntity
   8
LEVEL026
 100
AcDbLine
   6
DOT
  62
3
  10
 514.880
  20
 558.000
  30
0.0
  11
 497.497
  21
 558.543
  31
0.0
   0
LINE
   5
667
 100
AcDbEntity
   8
LEVEL026
 100
AcDbLine
   6
DOT
  62
3
  10
 514.880
  20
 558.000
  30
0.0
  11
 514.880
  21
 542.424
  31
0.0
   0
LINE
   5
668
 100
AcDbEntity
   8
LEVEL026
 100
AcDbLine
   6
DOT
  62
3
  10
 518.497
  20
 543.393
  30
0.0
  11
 522.433
  21
 550.212
  31
0.0
   0
LINE
   5
669
 100
AcDbEntity
   8
LEVEL026
 100
AcDbLine
   6
DOT
  62
3
  10
 522.433
  20
 550.212
  30
0.0
  11
 518.497
  21
 557.031
  31
0.0
   0
LINE
   5
66A
 100
AcDbEntity
   8
LEVEL026
 100
AcDbLine
   6
DOT
  62
3
  10
 498.380
  20
 557.659
  30
0.0
  11
 498.380
  21
 542.765
  31
0.0
   0
LINE
   5
66B
 100
AcDbEntity
   8
LEVEL026
 100
AcDbLine
   6
DOT
  62
3
  10
 498.380
  20
 542.765
  30
0.0
  11
 518.497
  21
 543.393
  31
0.0
   0
LINE
   5
66C
 100
AcDbEntity
   8
LEVEL026
 100
AcDbLine
   6
DOT
  62
3
  10
 518.497
  20
 543.393
  30
0.0
  11
 518.497
  21
 557.031
  31
0.0
   0
LINE
   5
66D
 100
AcDbEntity
   8
LEVEL026
 100
AcDbLine
   6
DOT
  62
3
  10
 518.497
  20
 557.031
  30
0.0
  11
 498.380
  21
 557.659
  31
0.0
   0
LINE
   5
66E
 100
AcDbEntity
   8
LEVEL026
 100
AcDbLine
   6
DOT
  62
3
  10
 497.497
  20
 541.881
  30
0.0
  11
 498.380
  21
 542.765
  31
0.0
   0
LINE
   5
66F
 100
AcDbEntity
   8
LEVEL026
 100
AcDbLine
   6
DOT
  62
3
  10
 497.497
  20
 541.881
  30
0.0
  11
 514.880
  21
 542.424
  31
0.0
   0
LINE
   5
670
 100
AcDbEntity
   8
LEVEL026
 100
AcDbLine
   6
DOT
  62
3
  10
 514.880
  20
 542.424
  30
0.0
  11
 518.497
  21
 543.393
  31
0.0
   0
LINE
   5
671
 100
AcDbEntity
   8
LEVEL026
 100
AcDbLine
   6
CONTINUOUS
  62
3
  10
 531.497
  20
 537.712
  30
0.0
  11
 531.497
  21
 562.712
  31
0.0
   0
LINE
   5
672
 100
AcDbEntity
   8
LEVEL026
 100
AcDbLine
   6
CONTINUOUS
  62
3
  10
 531.497
  20
 562.712
  30
0.0
  11
 498.497
  21
 562.712
  31
0.0
   0
LINE
   5
673
 100
AcDbEntity
   8
LEVEL026
 100
AcDbLine
   6
CONTINUOUS
  62
3
  10
 498.497
  20
 562.712
  30
0.0
  11
 497.497
  21
 561.712
  31
0.0
   0
LINE
   5
674
 100
AcDbEntity
   8
LEVEL026
 100
AcDbLine
   6
CONTINUOUS
  62
3
  10
 497.497
  20
 561.712
  30
0.0
  11
 497.497
  21
 538.712
  31
0.0
   0
LINE
   5
675
 100
AcDbEntity
   8
LEVEL026
 100
AcDbLine
   6
CONTINUOUS
  62
3
  10
 497.497
  20
 538.712
  30
0.0
  11
 498.497
  21
 537.712
  31
0.0
   0
LINE
   5
676
 100
AcDbEntity
   8
LEVEL026
 100
AcDbLine
   6
CONTINUOUS
  62
3
  10
 498.497
  20
 537.712
  30
0.0
  11
 531.497
  21
 537.712
  31
0.0
   0
LINE
   5
677
 100
AcDbEntity
   8
LEVEL026
 100
AcDbLine
   6
CONTINUOUS
  62
3
  10
 531.659
  20
 576.095
  30
0.0
  11
 531.659
  21
 562.712
  31
0.0
   0
LINE
   5
678
 100
AcDbEntity
   8
LEVEL026
 100
AcDbLine
   6
CONTINUOUS
  62
3
  10
 515.303
  20
 579.712
  30
0.0
  11
 530.690
  21
 579.712
  31
0.0
   0
LINE
   5
679
 100
AcDbEntity
   8
LEVEL026
 100
AcDbLine
   6
CONTINUOUS
  62
3
  10
 531.659
  20
 576.095
  30
0.0
  11
 531.328
  21
 586.712
  31
0.0
   0
LINE
   5
67A
 100
AcDbEntity
   8
LEVEL026
 100
AcDbLine
   6
CONTINUOUS
  62
3
  10
 531.659
  20
 576.095
  30
0.0
  11
 530.690
  21
 579.712
  31
0.0
   0
LINE
   5
67B
 100
AcDbEntity
   8
LEVEL026
 100
AcDbLine
   6
CONTINUOUS
  62
3
  10
 530.690
  20
 579.712
  30
0.0
  11
 530.472
  21
 586.712
  31
0.0
   0
LINE
   5
67C
 100
AcDbEntity
   8
LEVEL026
 100
AcDbLine
   6
CONTINUOUS
  62
3
  10
 514.334
  20
 576.096
  30
0.0
  11
 531.659
  21
 576.095
  31
0.0
   0
LINE
   5
67D
 100
AcDbEntity
   8
LEVEL026
 100
AcDbLine
   6
CONTINUOUS
  62
3
  10
 514.334
  20
 576.096
  30
0.0
  11
 514.666
  21
 586.712
  31
0.0
   0
LINE
   5
67E
 100
AcDbEntity
   8
LEVEL026
 100
AcDbLine
   6
CONTINUOUS
  62
3
  10
 515.522
  20
 586.712
  30
0.0
  11
 515.303
  21
 579.712
  31
0.0
   0
LINE
   5
67F
 100
AcDbEntity
   8
LEVEL026
 100
AcDbLine
   6
CONTINUOUS
  62
3
  10
 515.303
  20
 579.712
  30
0.0
  11
 514.334
  21
 576.095
  31
0.0
   0
LINE
   5
680
 100
AcDbEntity
   8
LEVEL026
 100
AcDbLine
   6
CONTINUOUS
  62
3
  10
 514.334
  20
 576.096
  30
0.0
  11
 514.334
  21
 562.712
  31
0.0
   0
LINE
   5
681
 100
AcDbEntity
   8
LEVEL026
 100
AcDbLine
   6
DASHDOT
  62
1
  10
 532.997
  20
 550.212
  30
0.0
  11
 492.497
  21
 550.212
  31
0.0
   0
LINE
   5
682
 100
AcDbEntity
   8
LEVEL026
 100
AcDbLine
   6
CONTINUOUS
  62
3
  10
 544.747
  20
 582.212
  30
0.0
  11
 536.247
  21
 582.212
  31
0.0
   0
LINE
   5
683
 100
AcDbEntity
   8
LEVEL026
 100
AcDbLine
   6
CONTINUOUS
  62
3
  10
 536.247
  20
 582.212
  30
0.0
  11
 536.247
  21
 577.462
  31
0.0
   0
LINE
   5
684
 100
AcDbEntity
   8
LEVEL026
 100
AcDbLine
   6
CONTINUOUS
  62
3
  10
 536.247
  20
 577.462
  30
0.0
  11
 536.680
  21
 577.212
  31
0.0
   0
LINE
   5
685
 100
AcDbEntity
   8
LEVEL026
 100
AcDbLine
   6
CONTINUOUS
  62
3
  10
 536.680
  20
 577.212
  30
0.0
  11
 544.314
  21
 577.212
  31
0.0
   0
LINE
   5
686
 100
AcDbEntity
   8
LEVEL026
 100
AcDbLine
   6
CONTINUOUS
  62
3
  10
 544.314
  20
 577.212
  30
0.0
  11
 544.747
  21
 577.462
  31
0.0
   0
LINE
   5
687
 100
AcDbEntity
   8
LEVEL026
 100
AcDbLine
   6
CONTINUOUS
  62
3
  10
 544.747
  20
 577.462
  30
0.0
  11
 544.747
  21
 582.212
  31
0.0
   0
LINE
   5
688
 100
AcDbEntity
   8
LEVEL026
 100
AcDbLine
   6
CONTINUOUS
  62
3
  10
 544.747
  20
 577.462
  30
0.0
  11
 536.247
  21
 577.462
  31
0.0
   0
LINE
   5
689
 100
AcDbEntity
   8
LEVEL026
 100
AcDbLine
   6
CONTINUOUS
  62
3
  10
 555.746
  20
 577.462
  30
0.0
  11
 547.246
  21
 577.462
  31
0.0
   0
LINE
   5
68A
 100
AcDbEntity
   8
LEVEL026
 100
AcDbLine
   6
CONTINUOUS
  62
3
  10
 555.746
  20
 582.212
  30
0.0
  11
 547.246
  21
 582.212
  31
0.0
   0
LINE
   5
68B
 100
AcDbEntity
   8
LEVEL026
 100
AcDbLine
   6
CONTINUOUS
  62
3
  10
 547.246
  20
 582.212
  30
0.0
  11
 547.246
  21
 577.462
  31
0.0
   0
LINE
   5
68C
 100
AcDbEntity
   8
LEVEL026
 100
AcDbLine
   6
CONTINUOUS
  62
3
  10
 547.246
  20
 577.462
  30
0.0
  11
 547.679
  21
 577.212
  31
0.0
   0
LINE
   5
68D
 100
AcDbEntity
   8
LEVEL026
 100
AcDbLine
   6
CONTINUOUS
  62
3
  10
 547.679
  20
 577.212
  30
0.0
  11
 555.313
  21
 577.212
  31
0.0
   0
LINE
   5
68E
 100
AcDbEntity
   8
LEVEL026
 100
AcDbLine
   6
CONTINUOUS
  62
3
  10
 555.313
  20
 577.212
  30
0.0
  11
 555.746
  21
 577.462
  31
0.0
   0
LINE
   5
68F
 100
AcDbEntity
   8
LEVEL026
 100
AcDbLine
   6
CONTINUOUS
  62
3
  10
 555.746
  20
 577.462
  30
0.0
  11
 555.746
  21
 582.212
  31
0.0
   0
LINE
   5
690
 100
AcDbEntity
   8
LEVEL026
 100
AcDbLine
   6
DOT
  62
3
  10
 553.806
  20
 577.212
  30
0.0
  11
 553.806
  21
 579.712
  31
0.0
   0
LINE
   5
691
 100
AcDbEntity
   8
LEVEL026
 100
AcDbLine
   6
DOT
  62
3
  10
 553.806
  20
 579.712
  30
0.0
  11
 551.496
  21
 581.045
  31
0.0
   0
LINE
   5
692
 100
AcDbEntity
   8
LEVEL026
 100
AcDbLine
   6
DOT
  62
3
  10
 551.496
  20
 581.045
  30
0.0
  11
 549.187
  21
 579.712
  31
0.0
   0
LINE
   5
693
 100
AcDbEntity
   8
LEVEL026
 100
AcDbLine
   6
DOT
  62
3
  10
 549.187
  20
 579.712
  30
0.0
  11
 549.187
  21
 577.212
  31
0.0
   0
LINE
   5
694
 100
AcDbEntity
   8
LEVEL026
 100
AcDbLine
   6
DOT
  62
3
  10
 552.651
  20
 577.212
  30
0.0
  11
 552.651
  21
 579.712
  31
0.0
   0
LINE
   5
695
 100
AcDbEntity
   8
LEVEL026
 100
AcDbLine
   6
DOT
  62
3
  10
 553.806
  20
 579.712
  30
0.0
  11
 549.187
  21
 579.712
  31
0.0
   0
LINE
   5
696
 100
AcDbEntity
   8
LEVEL026
 100
AcDbLine
   6
DOT
  62
3
  10
 550.342
  20
 577.212
  30
0.0
  11
 550.342
  21
 579.712
  31
0.0
   0
LINE
   5
697
 100
AcDbEntity
   8
LEVEL026
 100
AcDbLine
   6
DOT
  62
3
  10
 542.806
  20
 577.212
  30
0.0
  11
 542.806
  21
 579.712
  31
0.0
   0
LINE
   5
698
 100
AcDbEntity
   8
LEVEL026
 100
AcDbLine
   6
DOT
  62
3
  10
 542.806
  20
 579.712
  30
0.0
  11
 540.497
  21
 581.045
  31
0.0
   0
LINE
   5
699
 100
AcDbEntity
   8
LEVEL026
 100
AcDbLine
   6
DOT
  62
3
  10
 540.497
  20
 581.045
  30
0.0
  11
 538.187
  21
 579.712
  31
0.0
   0
LINE
   5
69A
 100
AcDbEntity
   8
LEVEL026
 100
AcDbLine
   6
DOT
  62
3
  10
 538.187
  20
 579.712
  30
0.0
  11
 538.187
  21
 577.212
  31
0.0
   0
LINE
   5
69B
 100
AcDbEntity
   8
LEVEL026
 100
AcDbLine
   6
DOT
  62
3
  10
 541.651
  20
 577.212
  30
0.0
  11
 541.651
  21
 579.712
  31
0.0
   0
LINE
   5
69C
 100
AcDbEntity
   8
LEVEL026
 100
AcDbLine
   6
DOT
  62
3
  10
 539.342
  20
 577.212
  30
0.0
  11
 539.342
  21
 579.712
  31
0.0
   0
LINE
   5
69D
 100
AcDbEntity
   8
LEVEL026
 100
AcDbLine
   6
DOT
  62
3
  10
 542.806
  20
 579.712
  30
0.0
  11
 538.187
  21
 579.712
  31
0.0
   0
LINE
   5
69E
 100
AcDbEntity
   8
LEVEL026
 100
AcDbLine
   6
DASHDOT
  62
1
  10
 551.496
  20
 574.212
  30
0.0
  11
 551.496
  21
 585.212
  31
0.0
   0
LINE
   5
69F
 100
AcDbEntity
   8
LEVEL026
 100
AcDbLine
   6
DASHDOT
  62
1
  10
 540.497
  20
 574.212
  30
0.0
  11
 540.497
  21
 585.212
  31
0.0
   0
LINE
   5
6A0
 100
AcDbEntity
   8
LEVEL026
 100
AcDbLine
   6
DASHDOT
  62
1
  10
 503.497
  20
 630.212
  30
0.0
  11
 534.433
  21
 630.212
  31
0.0
   0
LINE
   5
6A1
 100
AcDbEntity
   8
LEVEL026
 100
AcDbLine
   6
DASHDOT
  62
1
  10
 522.997
  20
 586.712
  30
0.0
  11
 522.997
  21
 536.703
  31
0.0
   0
CIRCLE
   5
6A2
 100
AcDbEntity
   8
LEVEL026
 100
AcDbCircle
   6
CONTINUOUS
  62
3
  10
 576.497
  20
 597.712
  30
0.0
  40
 5.00000
   0
CIRCLE
   5
6A3
 100
AcDbEntity
   8
LEVEL026
 100
AcDbCircle
   6
CONTINUOUS
  62
3
  10
 576.497
  20
 597.712
  30
0.0
  40
 4.48038
   0
LINE
   5
6A4
 100
AcDbEntity
   8
LEVEL026
 100
AcDbLine
   6
CONTINUOUS
  62
3
  10
 579.383
  20
 597.712
  30
0.0
  11
 577.940
  21
 595.212
  31
0.0
   0
LINE
   5
6A5
 100
AcDbEntity
   8
LEVEL026
 100
AcDbLine
   6
CONTINUOUS
  62
3
  10
 577.940
  20
 595.212
  30
0.0
  11
 575.053
  21
 595.212
  31
0.0
   0
LINE
   5
6A6
 100
AcDbEntity
   8
LEVEL026
 100
AcDbLine
   6
CONTINUOUS
  62
3
  10
 575.053
  20
 595.212
  30
0.0
  11
 573.610
  21
 597.712
  31
0.0
   0
LINE
   5
6A7
 100
AcDbEntity
   8
LEVEL026
 100
AcDbLine
   6
CONTINUOUS
  62
3
  10
 573.610
  20
 597.712
  30
0.0
  11
 575.053
  21
 600.212
  31
0.0
   0
LINE
   5
6A8
 100
AcDbEntity
   8
LEVEL026
 100
AcDbLine
   6
CONTINUOUS
  62
3
  10
 575.053
  20
 600.212
  30
0.0
  11
 577.940
  21
 600.212
  31
0.0
   0
LINE
   5
6A9
 100
AcDbEntity
   8
LEVEL026
 100
AcDbLine
   6
CONTINUOUS
  62
3
  10
 577.940
  20
 600.212
  30
0.0
  11
 579.383
  21
 597.712
  31
0.0
   0
LINE
   5
6AA
 100
AcDbEntity
   8
LEVEL026
 100
AcDbLine
   6
CONTINUOUS
  62
3
  10
 531.453
  20
 582.712
  30
0.0
  11
 584.997
  21
 582.712
  31
0.0
   0
LINE
   5
6AB
 100
AcDbEntity
   8
LEVEL026
 100
AcDbLine
   6
CONTINUOUS
  62
3
  10
 584.997
  20
 642.712
  30
0.0
  11
 553.497
  21
 642.712
  31
0.0
   0
LINE
   5
6AC
 100
AcDbEntity
   8
0
 100
AcDbLine
   6
DASHDOT
  62
1
  10
 689.687
  20
 527.530
  30
0.0
  11
 689.687
  21
 553.130
  31
0.0
   0
LINE
   5
6AD
 100
AcDbEntity
   8
0
 100
AcDbLine
   6
DASHDOT
  62
1
  10
 702.487
  20
 540.330
  30
0.0
  11
 676.887
  21
 540.330
  31
0.0
   0
LINE
   5
6AE
 100
AcDbEntity
   8
0
 100
AcDbLine
   6
DASHDOT
  62
1
  10
 650.687
  20
 527.530
  30
0.0
  11
 650.687
  21
 553.130
  31
0.0
   0
LINE
   5
6AF
 100
AcDbEntity
   8
0
 100
AcDbLine
   6
DASHDOT
  62
1
  10
 637.887
  20
 540.330
  30
0.0
  11
 663.487
  21
 540.330
  31
0.0
   0
LINE
   5
6B0
 100
AcDbEntity
   8
0
 100
AcDbLine
   6
DOT
  62
3
  10
 647.687
  20
 547.330
  30
0.0
  11
 647.687
  21
 533.330
  31
0.0
   0
LINE
   5
6B1
 100
AcDbEntity
   8
0
 100
AcDbLine
   6
DOT
  62
3
  10
 647.687
  20
 533.330
  30
0.0
  11
 692.687
  21
 533.330
  31
0.0
   0
LINE
   5
6B2
 100
AcDbEntity
   8
0
 100
AcDbLine
   6
DOT
  62
3
  10
 692.687
  20
 533.330
  30
0.0
  11
 692.687
  21
 547.330
  31
0.0
   0
LINE
   5
6B3
 100
AcDbEntity
   8
0
 100
AcDbLine
   6
DOT
  62
3
  10
 692.687
  20
 547.330
  30
0.0
  11
 647.687
  21
 547.330
  31
0.0
   0
LINE
   5
6B4
 100
AcDbEntity
   8
0
 100
AcDbLine
   6
DOT
  62
3
  10
 646.687
  20
 547.830
  30
0.0
  11
 646.687
  21
 532.830
  31
0.0
   0
LINE
   5
6B5
 100
AcDbEntity
   8
0
 100
AcDbLine
   6
DOT
  62
3
  10
 646.687
  20
 532.830
  30
0.0
  11
 693.687
  21
 532.830
  31
0.0
   0
LINE
   5
6B6
 100
AcDbEntity
   8
0
 100
AcDbLine
   6
DOT
  62
3
  10
 646.687
  20
 547.830
  30
0.0
  11
 693.687
  21
 547.830
  31
0.0
   0
LINE
   5
6B7
 100
AcDbEntity
   8
0
 100
AcDbLine
   6
DOT
  62
3
  10
 693.687
  20
 547.830
  30
0.0
  11
 693.687
  21
 532.830
  31
0.0
   0
LINE
   5
6B8
 100
AcDbEntity
   8
0
 100
AcDbLine
   6
DOT
  62
3
  10
 685.437
  20
 533.330
  30
0.0
  11
 685.437
  21
 547.330
  31
0.0
   0
LINE
   5
6B9
 100
AcDbEntity
   8
0
 100
AcDbLine
   6
DOT
  62
3
  10
 654.937
  20
 547.330
  30
0.0
  11
 654.937
  21
 533.330
  31
0.0
   0
POINT
   5
6BA
 100
AcDbEntity
   8
0
 100
AcDbPoint
  62
3
  10
 689.687
  20
 540.330
  30
0.0
   0
POINT
   5
6BB
 100
AcDbEntity
   8
0
 100
AcDbPoint
  62
3
  10
 650.687
  20
 540.330
  30
0.0
   0
POINT
   5
6BC
 100
AcDbEntity
   8
0
 100
AcDbPoint
  62
3
  10
 689.687
  20
 540.330
  30
0.0
   0
CIRCLE
   5
6BD
 100
AcDbEntity
   8
0
 100
AcDbCircle
   6
DOT
  62
3
  10
 689.687
  20
 540.330
  30
0.0
  40
 2.80000
   0
LINE
   5
6BE
 100
AcDbEntity
   8
0
 100
AcDbLine
   6
DOT
  62
3
  10
 689.947
  20
 538.830
  30
0.0
  11
 689.947
  21
 539.755
  31
0.0
   0
LINE
   5
6BF
 100
AcDbEntity
   8
0
 100
AcDbLine
   6
DOT
  62
3
  10
 689.947
  20
 539.755
  30
0.0
  11
 690.262
  21
 540.070
  31
0.0
   0
LINE
   5
6C0
 100
AcDbEntity
   8
0
 100
AcDbLine
   6
DOT
  62
3
  10
 690.262
  20
 540.070
  30
0.0
  11
 691.187
  21
 540.070
  31
0.0
   0
LINE
   5
6C1
 100
AcDbEntity
   8
0
 100
AcDbLine
   6
DOT
  62
3
  10
 691.187
  20
 540.070
  30
0.0
  11
 691.187
  21
 540.590
  31
0.0
   0
LINE
   5
6C2
 100
AcDbEntity
   8
0
 100
AcDbLine
   6
DOT
  62
3
  10
 691.187
  20
 540.590
  30
0.0
  11
 690.262
  21
 540.590
  31
0.0
   0
LINE
   5
6C3
 100
AcDbEntity
   8
0
 100
AcDbLine
   6
DOT
  62
3
  10
 690.262
  20
 540.590
  30
0.0
  11
 689.947
  21
 540.906
  31
0.0
   0
LINE
   5
6C4
 100
AcDbEntity
   8
0
 100
AcDbLine
   6
DOT
  62
3
  10
 689.947
  20
 540.906
  30
0.0
  11
 689.947
  21
 541.830
  31
0.0
   0
LINE
   5
6C5
 100
AcDbEntity
   8
0
 100
AcDbLine
   6
DOT
  62
3
  10
 689.947
  20
 541.830
  30
0.0
  11
 689.427
  21
 541.830
  31
0.0
   0
LINE
   5
6C6
 100
AcDbEntity
   8
0
 100
AcDbLine
   6
DOT
  62
3
  10
 689.427
  20
 541.830
  30
0.0
  11
 689.427
  21
 540.906
  31
0.0
   0
LINE
   5
6C7
 100
AcDbEntity
   8
0
 100
AcDbLine
   6
DOT
  62
3
  10
 689.427
  20
 540.906
  30
0.0
  11
 689.111
  21
 540.590
  31
0.0
   0
LINE
   5
6C8
 100
AcDbEntity
   8
0
 100
AcDbLine
   6
DOT
  62
3
  10
 689.111
  20
 540.590
  30
0.0
  11
 688.187
  21
 540.590
  31
0.0
   0
LINE
   5
6C9
 100
AcDbEntity
   8
0
 100
AcDbLine
   6
DOT
  62
3
  10
 688.187
  20
 540.590
  30
0.0
  11
 688.187
  21
 540.070
  31
0.0
   0
LINE
   5
6CA
 100
AcDbEntity
   8
0
 100
AcDbLine
   6
DOT
  62
3
  10
 688.187
  20
 540.070
  30
0.0
  11
 689.111
  21
 540.070
  31
0.0
   0
LINE
   5
6CB
 100
AcDbEntity
   8
0
 100
AcDbLine
   6
DOT
  62
3
  10
 689.111
  20
 540.070
  30
0.0
  11
 689.427
  21
 539.755
  31
0.0
   0
LINE
   5
6CC
 100
AcDbEntity
   8
0
 100
AcDbLine
   6
DOT
  62
3
  10
 689.427
  20
 539.755
  30
0.0
  11
 689.427
  21
 538.830
  31
0.0
   0
LINE
   5
6CD
 100
AcDbEntity
   8
0
 100
AcDbLine
   6
DOT
  62
3
  10
 689.427
  20
 538.830
  30
0.0
  11
 689.947
  21
 538.830
  31
0.0
   0
POINT
   5
6CE
 100
AcDbEntity
   8
0
 100
AcDbPoint
  62
3
  10
 650.687
  20
 540.330
  30
0.0
   0
CIRCLE
   5
6CF
 100
AcDbEntity
   8
0
 100
AcDbCircle
   6
DOT
  62
3
  10
 650.687
  20
 540.330
  30
0.0
  40
 2.80000
   0
LINE
   5
6D0
 100
AcDbEntity
   8
0
 100
AcDbLine
   6
DOT
  62
3
  10
 650.427
  20
 538.830
  30
0.0
  11
 650.427
  21
 539.755
  31
0.0
   0
LINE
   5
6D1
 100
AcDbEntity
   8
0
 100
AcDbLine
   6
DOT
  62
3
  10
 650.427
  20
 539.755
  30
0.0
  11
 650.111
  21
 540.070
  31
0.0
   0
LINE
   5
6D2
 100
AcDbEntity
   8
0
 100
AcDbLine
   6
DOT
  62
3
  10
 650.111
  20
 540.070
  30
0.0
  11
 649.187
  21
 540.070
  31
0.0
   0
LINE
   5
6D3
 100
AcDbEntity
   8
0
 100
AcDbLine
   6
DOT
  62
3
  10
 649.187
  20
 540.070
  30
0.0
  11
 649.187
  21
 540.590
  31
0.0
   0
LINE
   5
6D4
 100
AcDbEntity
   8
0
 100
AcDbLine
   6
DOT
  62
3
  10
 649.187
  20
 540.590
  30
0.0
  11
 650.111
  21
 540.590
  31
0.0
   0
LINE
   5
6D5
 100
AcDbEntity
   8
0
 100
AcDbLine
   6
DOT
  62
3
  10
 650.111
  20
 540.590
  30
0.0
  11
 650.427
  21
 540.906
  31
0.0
   0
LINE
   5
6D6
 100
AcDbEntity
   8
0
 100
AcDbLine
   6
DOT
  62
3
  10
 650.427
  20
 540.906
  30
0.0
  11
 650.427
  21
 541.830
  31
0.0
   0
LINE
   5
6D7
 100
AcDbEntity
   8
0
 100
AcDbLine
   6
DOT
  62
3
  10
 650.427
  20
 541.830
  30
0.0
  11
 650.947
  21
 541.830
  31
0.0
   0
LINE
   5
6D8
 100
AcDbEntity
   8
0
 100
AcDbLine
   6
DOT
  62
3
  10
 650.947
  20
 541.830
  30
0.0
  11
 650.947
  21
 540.906
  31
0.0
   0
LINE
   5
6D9
 100
AcDbEntity
   8
0
 100
AcDbLine
   6
DOT
  62
3
  10
 650.947
  20
 540.906
  30
0.0
  11
 651.262
  21
 540.590
  31
0.0
   0
LINE
   5
6DA
 100
AcDbEntity
   8
0
 100
AcDbLine
   6
DOT
  62
3
  10
 651.262
  20
 540.590
  30
0.0
  11
 652.187
  21
 540.590
  31
0.0
   0
LINE
   5
6DB
 100
AcDbEntity
   8
0
 100
AcDbLine
   6
DOT
  62
3
  10
 652.187
  20
 540.590
  30
0.0
  11
 652.187
  21
 540.070
  31
0.0
   0
LINE
   5
6DC
 100
AcDbEntity
   8
0
 100
AcDbLine
   6
DOT
  62
3
  10
 652.187
  20
 540.070
  30
0.0
  11
 651.262
  21
 540.070
  31
0.0
   0
LINE
   5
6DD
 100
AcDbEntity
   8
0
 100
AcDbLine
   6
DOT
  62
3
  10
 651.262
  20
 540.070
  30
0.0
  11
 650.947
  21
 539.755
  31
0.0
   0
LINE
   5
6DE
 100
AcDbEntity
   8
0
 100
AcDbLine
   6
DOT
  62
3
  10
 650.947
  20
 539.755
  30
0.0
  11
 650.947
  21
 538.830
  31
0.0
   0
LINE
   5
6DF
 100
AcDbEntity
   8
0
 100
AcDbLine
   6
DOT
  62
3
  10
 650.947
  20
 538.830
  30
0.0
  11
 650.427
  21
 538.830
  31
0.0
   0
LINE
   5
6E0
 100
AcDbEntity
   8
LEVEL019
 100
AcDbLine
   6
DASHDOT
  62
1
  10
 740.187
  20
 600.330
  30
0.0
  11
 510.187
  21
 600.330
  31
0.0
   0
LINE
   5
6E1
 100
AcDbEntity
   8
LEVEL019
 100
AcDbLine
   6
DASHDOT
  62
1
  10
 725.187
  20
 522.330
  30
0.0
  11
 725.187
  21
 538.330
  31
0.0
   0
LINE
   5
6E2
 100
AcDbEntity
   8
LEVEL019
 100
AcDbLine
   6
DASHDOT
  62
1
  10
 733.187
  20
 530.330
  30
0.0
  11
 717.187
  21
 530.330
  31
0.0
   0
LINE
   5
6E3
 100
AcDbEntity
   8
LEVEL019
 100
AcDbLine
   6
DASHDOT
  62
1
  10
 725.187
  20
 678.330
  30
0.0
  11
 725.187
  21
 662.330
  31
0.0
   0
LINE
   5
6E4
 100
AcDbEntity
   8
LEVEL019
 100
AcDbLine
   6
DASHDOT
  62
1
  10
 733.187
  20
 670.330
  30
0.0
  11
 717.187
  21
 670.330
  31
0.0
   0
ARC
   5
6E5
 100
AcDbEntity
   8
LEVEL019
   6
CONTINUOUS
  62
3
 100
AcDbCircle
  10
 720.187
  20
 535.330
  30
0.0
  40
 15.0000
 100
AcDbArc
  50
 270.000
  51
0.0
   0
LINE
   5
6E6
 100
AcDbEntity
   8
LEVEL019
 100
AcDbLine
   6
CONTINUOUS
  62
3
  10
 735.187
  20
 535.330
  30
0.0
  11
 735.187
  21
 665.330
  31
0.0
   0
ARC
   5
6E7
 100
AcDbEntity
   8
LEVEL019
   6
CONTINUOUS
  62
3
 100
AcDbCircle
  10
 720.187
  20
 665.330
  30
0.0
  40
 15.0000
 100
AcDbArc
  50
0.0
  51
 90.0000
   0
LINE
   5
6E8
 100
AcDbEntity
   8
LEVEL014
 100
AcDbLine
   6
DASHDOT
  62
1
  10
 720.050
  20
 640.193
  30
0.0
  11
 711.034
  21
 631.178
  31
0.0
   0
LINE
   5
6E9
 100
AcDbEntity
   8
LEVEL014
 100
AcDbLine
   6
DASHDOT
  62
1
  10
 720.050
  20
 560.467
  30
0.0
  11
 711.034
  21
 569.483
  31
0.0
   0
CIRCLE
   5
6EA
 100
AcDbEntity
   8
LEVEL014
 100
AcDbCircle
   6
DOT
  62
3
  10
 715.542
  20
 635.686
  30
0.0
  40
 4.25000
   0
CIRCLE
   5
6EB
 100
AcDbEntity
   8
LEVEL014
 100
AcDbCircle
   6
DOT
  62
3
  10
 715.542
  20
 635.686
  30
0.0
  40
 3.81699
   0
LINE
   5
6EC
 100
AcDbEntity
   8
LEVEL014
 100
AcDbLine
   6
DOT
  62
3
  10
 717.175
  20
 637.319
  30
0.0
  11
 717.773
  21
 635.088
  31
0.0
   0
LINE
   5
6ED
 100
AcDbEntity
   8
LEVEL014
 100
AcDbLine
   6
DOT
  62
3
  10
 717.773
  20
 635.088
  30
0.0
  11
 716.140
  21
 633.455
  31
0.0
   0
LINE
   5
6EE
 100
AcDbEntity
   8
LEVEL014
 100
AcDbLine
   6
DOT
  62
3
  10
 716.140
  20
 633.455
  30
0.0
  11
 713.909
  21
 634.053
  31
0.0
   0
LINE
   5
6EF
 100
AcDbEntity
   8
LEVEL014
 100
AcDbLine
   6
DOT
  62
3
  10
 713.909
  20
 634.053
  30
0.0
  11
 713.311
  21
 636.283
  31
0.0
   0
LINE
   5
6F0
 100
AcDbEntity
   8
LEVEL014
 100
AcDbLine
   6
DOT
  62
3
  10
 713.311
  20
 636.283
  30
0.0
  11
 714.944
  21
 637.916
  31
0.0
   0
LINE
   5
6F1
 100
AcDbEntity
   8
LEVEL014
 100
AcDbLine
   6
DOT
  62
3
  10
 714.944
  20
 637.916
  30
0.0
  11
 717.175
  21
 637.319
  31
0.0
   0
ARC
   5
6F2
 100
AcDbEntity
   8
LEVEL014
   6
DOT
  62
3
 100
AcDbCircle
  10
 698.187
  20
 668.330
  30
0.0
  40
 2.00000
 100
AcDbArc
  50
0.0
  51
 90.0000
   0
LINE
   5
6F3
 100
AcDbEntity
   8
LEVEL014
 100
AcDbLine
   6
DOT
  62
3
  10
 700.187
  20
 634.971
  30
0.0
  11
 700.187
  21
 668.330
  31
0.0
   0
CIRCLE
   5
6F4
 100
AcDbEntity
   8
LEVEL014
 100
AcDbCircle
   6
DOT
  62
3
  10
 715.542
  20
 564.975
  30
0.0
  40
 4.25000
   0
CIRCLE
   5
6F5
 100
AcDbEntity
   8
LEVEL014
 100
AcDbCircle
   6
DOT
  62
3
  10
 715.542
  20
 564.975
  30
0.0
  40
 3.81699
   0
LINE
   5
6F6
 100
AcDbEntity
   8
LEVEL014
 100
AcDbLine
   6
DOT
  62
3
  10
 717.175
  20
 563.342
  30
0.0
  11
 714.944
  21
 562.744
  31
0.0
   0
LINE
   5
6F7
 100
AcDbEntity
   8
LEVEL014
 100
AcDbLine
   6
DOT
  62
3
  10
 714.944
  20
 562.744
  30
0.0
  11
 713.311
  21
 564.377
  31
0.0
   0
LINE
   5
6F8
 100
AcDbEntity
   8
LEVEL014
 100
AcDbLine
   6
DOT
  62
3
  10
 713.311
  20
 564.377
  30
0.0
  11
 713.909
  21
 566.608
  31
0.0
   0
LINE
   5
6F9
 100
AcDbEntity
   8
LEVEL014
 100
AcDbLine
   6
DOT
  62
3
  10
 713.909
  20
 566.608
  30
0.0
  11
 716.140
  21
 567.206
  31
0.0
   0
LINE
   5
6FA
 100
AcDbEntity
   8
LEVEL014
 100
AcDbLine
   6
DOT
  62
3
  10
 716.140
  20
 567.206
  30
0.0
  11
 717.773
  21
 565.573
  31
0.0
   0
LINE
   5
6FB
 100
AcDbEntity
   8
LEVEL014
 100
AcDbLine
   6
DOT
  62
3
  10
 717.773
  20
 565.573
  30
0.0
  11
 717.175
  21
 563.342
  31
0.0
   0
LINE
   5
6FC
 100
AcDbEntity
   8
LEVEL019
 100
AcDbLine
   6
DOT
  62
3
  10
 728.073
  20
 670.330
  30
0.0
  11
 726.630
  21
 667.830
  31
0.0
   0
LINE
   5
6FD
 100
AcDbEntity
   8
LEVEL019
 100
AcDbLine
   6
DOT
  62
3
  10
 726.630
  20
 667.830
  30
0.0
  11
 723.743
  21
 667.830
  31
0.0
   0
LINE
   5
6FE
 100
AcDbEntity
   8
LEVEL019
 100
AcDbLine
   6
DOT
  62
3
  10
 723.743
  20
 667.830
  30
0.0
  11
 722.300
  21
 670.330
  31
0.0
   0
LINE
   5
6FF
 100
AcDbEntity
   8
LEVEL019
 100
AcDbLine
   6
DOT
  62
3
  10
 722.300
  20
 670.330
  30
0.0
  11
 723.743
  21
 672.830
  31
0.0
   0
LINE
   5
700
 100
AcDbEntity
   8
LEVEL019
 100
AcDbLine
   6
DOT
  62
3
  10
 723.743
  20
 672.830
  30
0.0
  11
 726.630
  21
 672.830
  31
0.0
   0
LINE
   5
701
 100
AcDbEntity
   8
LEVEL019
 100
AcDbLine
   6
DOT
  62
3
  10
 726.630
  20
 672.830
  30
0.0
  11
 728.073
  21
 670.330
  31
0.0
   0
CIRCLE
   5
702
 100
AcDbEntity
   8
LEVEL019
 100
AcDbCircle
   6
DOT
  62
3
  10
 725.187
  20
 670.330
  30
0.0
  40
 5.00000
   0
CIRCLE
   5
703
 100
AcDbEntity
   8
LEVEL019
 100
AcDbCircle
   6
DOT
  62
3
  10
 725.187
  20
 670.330
  30
0.0
  40
 4.48038
   0
LINE
   5
704
 100
AcDbEntity
   8
LEVEL019
 100
AcDbLine
   6
DOT
  62
3
  10
 728.073
  20
 530.330
  30
0.0
  11
 726.630
  21
 527.830
  31
0.0
   0
LINE
   5
705
 100
AcDbEntity
   8
LEVEL019
 100
AcDbLine
   6
DOT
  62
3
  10
 726.630
  20
 527.830
  30
0.0
  11
 723.743
  21
 527.830
  31
0.0
   0
LINE
   5
706
 100
AcDbEntity
   8
LEVEL019
 100
AcDbLine
   6
DOT
  62
3
  10
 723.743
  20
 527.830
  30
0.0
  11
 722.300
  21
 530.330
  31
0.0
   0
LINE
   5
707
 100
AcDbEntity
   8
LEVEL019
 100
AcDbLine
   6
DOT
  62
3
  10
 722.300
  20
 530.330
  30
0.0
  11
 723.743
  21
 532.830
  31
0.0
   0
LINE
   5
708
 100
AcDbEntity
   8
LEVEL019
 100
AcDbLine
   6
DOT
  62
3
  10
 723.743
  20
 532.830
  30
0.0
  11
 726.630
  21
 532.830
  31
0.0
   0
LINE
   5
709
 100
AcDbEntity
   8
LEVEL019
 100
AcDbLine
   6
DOT
  62
3
  10
 726.630
  20
 532.830
  30
0.0
  11
 728.073
  21
 530.330
  31
0.0
   0
CIRCLE
   5
70A
 100
AcDbEntity
   8
LEVEL019
 100
AcDbCircle
   6
DOT
  62
3
  10
 725.187
  20
 530.330
  30
0.0
  40
 5.00000
   0
CIRCLE
   5
70B
 100
AcDbEntity
   8
LEVEL019
 100
AcDbCircle
   6
DOT
  62
3
  10
 725.187
  20
 530.330
  30
0.0
  40
 4.48038
   0
LINE
   5
70C
 100
AcDbEntity
   8
LEVEL014
 100
AcDbLine
   6
DASHDOT
  62
1
  10
 680.187
  20
 675.330
  30
0.0
  11
 680.187
  21
 531.830
  31
0.0
   0
TEXT
   5
70D
 100
AcDbEntity
   8
LEVEL003
  62
3
 100
AcDbText
  10
 365.187
  20
 495.330
  30
0.0
  40
 12.0000
   1
タンクポート
   7
STANDARD
 100
AcDbText
   0
TEXT
   5
70E
 100
AcDbEntity
   8
LEVEL003
  62
3
 100
AcDbText
  10
 365.187
  20
 479.330
  30
0.0
  40
 12.0000
   1
Ｒｃ３／８
   7
STANDARD
 100
AcDbText
   0
LEADER
   5
70F
 100
AcDbEntity
   8
LEVEL003
   6
CONTINUOUS
  62
3
 100
AcDbLeader
   3
GMM010
  73
0
  74
1
  75
0
  40
 12.0000
  41
0.0
  76
3
  10
 539.296
  20
 534.439
  30
0.0
  10
 500.187
  20
 495.330
  30
0.0
  10
 365.187
  20
 495.330
  30
0.0
  77
3
   0
DIMENSION
   5
710
 100
AcDbEntity
   8
LEVEL003
   6
CONTINUOUS
  62
3
 100
AcDbDimension
   2
*D21
  10
 515.187
  20
 465.330
  30
0.0
  11
 481.842
  21
 465.330
  31
0.0
  70
0
   1
\A1;約67
   3
GMM011
 100
AcDbAlignedDimension
  13
 448.497
  23
 612.712
  33
0.0
  14
 515.187
  24
 535.330
  34
0.0
 100
AcDbRotatedDimension
   0
DIMENSION
   5
711
 100
AcDbEntity
   8
LEVEL003
   6
CONTINUOUS
  62
3
 100
AcDbDimension
   2
*D22
  10
 735.187
  20
 465.330
  30
0.0
  11
 625.187
  21
 465.330
  31
0.0
  70
0
   1
\A1;220
   3
GMM012
 100
AcDbAlignedDimension
  13
 515.187
  23
 535.330
  33
0.0
  14
 735.187
  24
 535.330
  34
0.0
 100
AcDbRotatedDimension
   0
DIMENSION
   5
713
 100
AcDbEntity
   8
LEVEL003
   6
CONTINUOUS
  62
3
 100
AcDbDimension
   2
*D23
  10
 790.187
  20
 680.330
  30
0.0
  11
 790.187
  21
 600.330
  31
0.0
  70
0
   1
\A1;160
   3
GMM012
 100
AcDbAlignedDimension
  13
 720.187
  23
 520.330
  33
0.0
  14
 720.187
  24
 680.330
  34
0.0
  50
 90.0000
 100
AcDbRotatedDimension
   0
TEXT
   5
715
 100
AcDbEntity
   8
LEVEL042
  62
3
 100
AcDbText
  10
 1135.19
  20
 705.330
  30
0.0
  40
 12.0000
   1
タンクポート
   7
STANDARD
 100
AcDbText
   0
TEXT
   5
716
 100
AcDbEntity
   8
LEVEL042
  62
3
 100
AcDbText
  10
 1135.19
  20
 689.330
  30
0.0
  40
 12.0000
   1
　Ｒｃ３／８
   7
STANDARD
 100
AcDbText
   0
LINE
   5
717
 100
AcDbEntity
   8
LEVEL013
 100
AcDbLine
   6
CONTINUOUS
  62
3
  10
 506.389
  20
 253.830
  30
0.0
  11
 506.497
  21
 252.330
  31
0.0
   0
LINE
   5
718
 100
AcDbEntity
   8
LEVEL013
 100
AcDbLine
   6
CONTINUOUS
  62
3
  10
 506.497
  20
 252.330
  30
0.0
  11
 584.497
  21
 252.330
  31
0.0
   0
CIRCLE
   5
719
 100
AcDbEntity
   8
LEVEL042
 100
AcDbCircle
   6
CONTINUOUS
  62
25
  10
 1071.20
  20
 570.330
  30
0.0
  40
 0.900000
   0
LINE
   5
71A
 100
AcDbEntity
   8
LEVEL042
 100
AcDbLine
   6
CONTINUOUS
  62
25
  10
 1103.60
  20
 561.330
  30
0.0
  11
 1100.00
  21
 559.530
  31
0.0
   0
LINE
   5
71B
 100
AcDbEntity
   8
LEVEL042
 100
AcDbLine
   6
CONTINUOUS
  62
25
  10
 1100.00
  20
 563.130
  30
0.0
  11
 1103.60
  21
 561.330
  31
0.0
   0
LINE
   5
71C
 100
AcDbEntity
   8
LEVEL042
 100
AcDbLine
   6
CONTINUOUS
  62
25
  10
 1103.60
  20
 564.930
  30
0.0
  11
 1100.00
  21
 563.130
  31
0.0
   0
LINE
   5
71D
 100
AcDbEntity
   8
LEVEL042
 100
AcDbLine
   6
CONTINUOUS
  62
25
  10
 1100.00
  20
 566.730
  30
0.0
  11
 1103.60
  21
 564.930
  31
0.0
   0
LINE
   5
71E
 100
AcDbEntity
   8
LEVEL042
 100
AcDbLine
   6
CONTINUOUS
  62
25
  10
 1096.40
  20
 573.930
  30
0.0
  11
 1107.20
  21
 573.930
  31
0.0
   0
LINE
   5
71F
 100
AcDbEntity
   8
LEVEL042
 100
AcDbLine
   6
CONTINUOUS
  62
25
  10
 1096.40
  20
 566.730
  30
0.0
  11
 1107.20
  21
 566.730
  31
0.0
   0
LINE
   5
720
 100
AcDbEntity
   8
LEVEL042
 100
AcDbLine
   6
CONTINUOUS
  62
25
  10
 1096.40
  20
 577.530
  30
0.0
  11
 1107.20
  21
 577.530
  31
0.0
   0
LINE
   5
721
 100
AcDbEntity
   8
LEVEL042
 100
AcDbLine
   6
CONTINUOUS
  62
25
  10
 1096.40
  20
 566.730
  30
0.0
  11
 1096.40
  21
 577.530
  31
0.0
   0
LINE
   5
722
 100
AcDbEntity
   8
LEVEL042
 100
AcDbLine
   6
CONTINUOUS
  62
25
  10
 1107.20
  20
 566.730
  30
0.0
  11
 1107.20
  21
 577.530
  31
0.0
   0
LINE
   5
723
 100
AcDbEntity
   8
LEVEL042
 100
AcDbLine
   6
DOT
  62
3
  10
 1101.80
  20
 577.530
  30
0.0
  11
 1101.80
  21
 581.130
  31
0.0
   0
LINE
   5
724
 100
AcDbEntity
   8
LEVEL042
 100
AcDbLine
   6
DOT
  62
3
  10
 1089.20
  20
 581.130
  30
0.0
  11
 1101.80
  21
 581.130
  31
0.0
   0
LINE
   5
725
 100
AcDbEntity
   8
LEVEL042
 100
AcDbLine
   6
CONTINUOUS
  62
3
  10
 1107.20
  20
 573.930
  30
0.0
  11
 1101.80
  21
 572.580
  31
0.0
   0
LINE
   5
726
 100
AcDbEntity
   8
LEVEL042
 100
AcDbLine
   6
CONTINUOUS
  62
3
  10
 1101.80
  20
 575.280
  30
0.0
  11
 1107.20
  21
 573.930
  31
0.0
   0
LINE
   5
727
 100
AcDbEntity
   8
LEVEL042
 100
AcDbLine
   6
DOT
  62
3
  10
 1089.20
  20
 574.487
  30
0.0
  11
 1096.40
  21
 570.330
  31
0.0
   0
LINE
   5
728
 100
AcDbEntity
   8
LEVEL042
 100
AcDbLine
   6
DOT
  62
3
  10
 1089.20
  20
 574.487
  30
0.0
  11
 1089.20
  21
 581.130
  31
0.0
   0
LINE
   5
729
 100
AcDbEntity
   8
LEVEL042
 100
AcDbLine
   6
CONTINUOUS
  62
25
  10
 1070.30
  20
 570.330
  30
0.0
  11
 1096.40
  21
 570.330
  31
0.0
   0
LINE
   5
72A
 100
AcDbEntity
   8
LEVEL042
 100
AcDbLine
   6
CONTINUOUS
  62
25
  10
 1065.80
  20
 585.639
  30
0.0
  11
 1071.20
  21
 580.239
  31
0.0
   0
CIRCLE
   5
72B
 100
AcDbEntity
   8
LEVEL042
 100
AcDbCircle
   6
CONTINUOUS
  62
25
  10
 1071.20
  20
 585.330
  30
0.0
  40
 3.60000
   0
LINE
   5
72C
 100
AcDbEntity
   8
LEVEL042
 100
AcDbLine
   6
CONTINUOUS
  62
25
  10
 1076.60
  20
 585.639
  30
0.0
  11
 1071.20
  21
 580.239
  31
0.0
   0
LINE
   5
72D
 100
AcDbEntity
   8
LEVEL042
 100
AcDbLine
   6
CONTINUOUS
  62
25
  10
 1107.20
  20
 570.330
  30
0.0
  11
 1120.19
  21
 570.330
  31
0.0
   0
LINE
   5
72E
 100
AcDbEntity
   8
LEVEL042
 100
AcDbLine
   6
DASHDOT
  62
1
  10
 1083.80
  20
 555.330
  30
0.0
  11
 1127.69
  21
 555.330
  31
0.0
   0
LINE
   5
72F
 100
AcDbEntity
   8
LEVEL042
 100
AcDbLine
   6
DASHDOT
  62
1
  10
 1127.69
  20
 555.330
  30
0.0
  11
 1127.69
  21
 600.330
  31
0.0
   0
LINE
   5
730
 100
AcDbEntity
   8
LEVEL042
 100
AcDbLine
   6
CONTINUOUS
  62
25
  10
 1053.20
  20
 495.330
  30
0.0
  11
 1044.20
  21
 500.526
  31
0.0
   0
LINE
   5
731
 100
AcDbEntity
   8
LEVEL042
 100
AcDbLine
   6
CONTINUOUS
  62
25
  10
 1035.20
  20
 495.330
  30
0.0
  11
 1044.20
  21
 500.526
  31
0.0
   0
LINE
   5
732
 100
AcDbEntity
   8
LEVEL042
 100
AcDbLine
   6
DOT
  62
3
  10
 1035.20
  20
 495.330
  30
0.0
  11
 1053.20
  21
 495.330
  31
0.0
   0
ARC
   5
733
 100
AcDbEntity
   8
LEVEL042
   6
CONTINUOUS
  62
3
 100
AcDbCircle
  10
 1044.20
  20
 514.017
  30
0.0
  40
 3.00000
 100
AcDbArc
  50
 180.000
  51
0.0
   0
LINE
   5
734
 100
AcDbEntity
   8
LEVEL042
 100
AcDbLine
   6
CONTINUOUS
  62
3
  10
 1030.19
  20
 514.017
  30
0.0
  11
 1041.20
  21
 514.017
  31
0.0
   0
LINE
   5
735
 100
AcDbEntity
   8
LEVEL042
 100
AcDbLine
   6
CONTINUOUS
  62
3
  10
 1047.20
  20
 514.017
  30
0.0
  11
 1071.20
  21
 514.017
  31
0.0
   0
LINE
   5
736
 100
AcDbEntity
   8
LEVEL042
 100
AcDbLine
   6
DASHDOT
  62
1
  10
 1127.69
  20
 600.330
  30
0.0
  11
 985.187
  21
 600.330
  31
0.0
   0
LINE
   5
737
 100
AcDbEntity
   8
LEVEL042
 100
AcDbLine
   6
DASHDOT
  62
1
  10
 985.187
  20
 600.330
  30
0.0
  11
 985.187
  21
 506.580
  31
0.0
   0
LINE
   5
738
 100
AcDbEntity
   8
LEVEL042
 100
AcDbLine
   6
DASHDOT
  62
1
  10
 985.187
  20
 506.580
  30
0.0
  11
 1083.80
  21
 506.580
  31
0.0
   0
LINE
   5
739
 100
AcDbEntity
   8
LEVEL042
 100
AcDbLine
   6
DASHDOT
  62
1
  10
 1083.80
  20
 506.580
  30
0.0
  11
 1083.80
  21
 555.330
  31
0.0
   0
LINE
   5
73A
 100
AcDbEntity
   8
LEVEL042
 100
AcDbLine
   6
CONTINUOUS
  62
25
  10
 1120.19
  20
 495.330
  30
0.0
  11
 1120.19
  21
 570.330
  31
0.0
   0
LINE
   5
73B
 100
AcDbEntity
   8
LEVEL042
 100
AcDbLine
   6
CONTINUOUS
  62
25
  10
 1010.99
  20
 561.330
  30
0.0
  11
 1007.39
  21
 559.530
  31
0.0
   0
LINE
   5
73C
 100
AcDbEntity
   8
LEVEL042
 100
AcDbLine
   6
CONTINUOUS
  62
25
  10
 1007.39
  20
 563.130
  30
0.0
  11
 1010.99
  21
 561.330
  31
0.0
   0
LINE
   5
73D
 100
AcDbEntity
   8
LEVEL042
 100
AcDbLine
   6
CONTINUOUS
  62
25
  10
 1010.99
  20
 564.930
  30
0.0
  11
 1007.39
  21
 563.130
  31
0.0
   0
LINE
   5
73E
 100
AcDbEntity
   8
LEVEL042
 100
AcDbLine
   6
CONTINUOUS
  62
25
  10
 1007.39
  20
 566.730
  30
0.0
  11
 1010.99
  21
 564.930
  31
0.0
   0
LINE
   5
73F
 100
AcDbEntity
   8
LEVEL042
 100
AcDbLine
   6
CONTINUOUS
  62
25
  10
 1014.59
  20
 566.730
  30
0.0
  11
 1003.79
  21
 566.730
  31
0.0
   0
LINE
   5
740
 100
AcDbEntity
   8
LEVEL042
 100
AcDbLine
   6
CONTINUOUS
  62
25
  10
 1014.59
  20
 573.930
  30
0.0
  11
 1003.79
  21
 573.930
  31
0.0
   0
LINE
   5
741
 100
AcDbEntity
   8
LEVEL042
 100
AcDbLine
   6
CONTINUOUS
  62
25
  10
 1014.59
  20
 577.530
  30
0.0
  11
 1003.79
  21
 577.530
  31
0.0
   0
LINE
   5
742
 100
AcDbEntity
   8
LEVEL042
 100
AcDbLine
   6
CONTINUOUS
  62
25
  10
 1014.59
  20
 566.730
  30
0.0
  11
 1014.59
  21
 577.530
  31
0.0
   0
LINE
   5
743
 100
AcDbEntity
   8
LEVEL042
 100
AcDbLine
   6
CONTINUOUS
  62
25
  10
 1003.79
  20
 566.730
  30
0.0
  11
 1003.79
  21
 577.530
  31
0.0
   0
LINE
   5
744
 100
AcDbEntity
   8
LEVEL042
 100
AcDbLine
   6
DOT
  62
3
  10
 1009.19
  20
 577.530
  30
0.0
  11
 1009.19
  21
 581.130
  31
0.0
   0
LINE
   5
745
 100
AcDbEntity
   8
LEVEL042
 100
AcDbLine
   6
DOT
  62
3
  10
 1021.79
  20
 581.130
  30
0.0
  11
 1009.19
  21
 581.130
  31
0.0
   0
LINE
   5
746
 100
AcDbEntity
   8
LEVEL042
 100
AcDbLine
   6
CONTINUOUS
  62
3
  10
 1003.79
  20
 573.930
  30
0.0
  11
 1009.19
  21
 572.580
  31
0.0
   0
LINE
   5
747
 100
AcDbEntity
   8
LEVEL042
 100
AcDbLine
   6
CONTINUOUS
  62
3
  10
 1009.19
  20
 575.280
  30
0.0
  11
 1003.79
  21
 573.930
  31
0.0
   0
MTEXT
   5
748
 100
AcDbEntity
   8
LEVEL042
  62
25
 100
AcDbMText
  10
 985.444
  20
 577.786
  30
0.0
  40
 12.0960
  41
0.0
  71
7
  72
1
   1
1MPa
   7
GMM003
   0
LINE
   5
749
 100
AcDbEntity
   8
LEVEL042
 100
AcDbLine
   6
DOT
  62
3
  10
 1014.59
  20
 570.330
  30
0.0
  11
 1021.79
  21
 574.487
  31
0.0
   0
LINE
   5
74A
 100
AcDbEntity
   8
LEVEL042
 100
AcDbLine
   6
DOT
  62
3
  10
 1021.79
  20
 574.487
  30
0.0
  11
 1021.79
  21
 581.130
  31
0.0
   0
LINE
   5
74B
 100
AcDbEntity
   8
LEVEL042
 100
AcDbLine
   6
CONTINUOUS
  62
25
  10
 1003.79
  20
 570.330
  30
0.0
  11
 1000.19
  21
 570.330
  31
0.0
   0
LINE
   5
74C
 100
AcDbEntity
   8
LEVEL042
 100
AcDbLine
   6
CONTINUOUS
  62
25
  10
 1000.19
  20
 570.330
  30
0.0
  11
 1000.19
  21
 495.330
  31
0.0
   0
LINE
   5
74D
 100
AcDbEntity
   8
LEVEL042
 100
AcDbLine
   6
CONTINUOUS
  62
25
  10
 1014.59
  20
 570.330
  30
0.0
  11
 1044.20
  21
 570.330
  31
0.0
   0
CIRCLE
   5
74E
 100
AcDbEntity
   8
LEVEL042
 100
AcDbCircle
   6
CONTINUOUS
  62
25
  10
 1030.19
  20
 570.330
  30
0.0
  40
 0.900000
   0
LINE
   5
74F
 100
AcDbEntity
   8
LEVEL042
 100
AcDbLine
   6
CONTINUOUS
  62
25
  10
 1030.19
  20
 570.330
  30
0.0
  11
 1030.19
  21
 514.017
  31
0.0
   0
MTEXT
   5
750
 100
AcDbEntity
   8
LEVEL042
  62
25
 100
AcDbMText
  10
 1037.69
  20
 535.515
  30
0.0
  40
 7.56000
  41
0.0
  71
7
  72
1
   1
L.P
   7
GMM004
   0
MTEXT
   5
751
 100
AcDbEntity
   8
LEVEL042
  62
25
 100
AcDbMText
  10
 1064.05
  20
 535.632
  30
0.0
  40
 7.56000
  41
0.0
  71
7
  72
1
   1
H.P
   7
GMM004
   0
MTEXT
   5
752
 100
AcDbEntity
   8
LEVEL042
  62
25
 100
AcDbMText
  10
 1094.68
  20
 536.728
  30
0.0
  40
 7.56000
  41
0.0
  71
7
  72
1
   1
M
   7
GMM005
   0
LINE
   5
753
 100
AcDbEntity
   8
LEVEL042
 100
AcDbLine
   6
CONTINUOUS
  62
25
  10
 1055.00
  20
 542.130
  30
0.0
  11
 1060.40
  21
 542.130
  31
0.0
   0
LINE
   5
754
 100
AcDbEntity
   8
LEVEL042
 100
AcDbLine
   6
CONTINUOUS
  62
25
  10
 1055.00
  20
 538.530
  30
0.0
  11
 1060.40
  21
 538.530
  31
0.0
   0
LINE
   5
755
 100
AcDbEntity
   8
LEVEL042
 100
AcDbLine
   6
CONTINUOUS
  62
25
  10
 1082.00
  20
 538.530
  30
0.0
  11
 1085.60
  21
 538.530
  31
0.0
   0
LINE
   5
756
 100
AcDbEntity
   8
LEVEL042
 100
AcDbLine
   6
CONTINUOUS
  62
25
  10
 1082.00
  20
 542.130
  30
0.0
  11
 1085.60
  21
 542.130
  31
0.0
   0
CIRCLE
   5
757
 100
AcDbEntity
   8
LEVEL042
 100
AcDbCircle
   6
CONTINUOUS
  62
25
  10
 1096.40
  20
 540.330
  30
0.0
  40
 9.00000
   0
CIRCLE
   5
758
 100
AcDbEntity
   8
LEVEL042
 100
AcDbCircle
   6
CONTINUOUS
  62
25
  10
 1071.20
  20
 540.330
  30
0.0
  40
 9.00000
   0
CIRCLE
   5
759
 100
AcDbEntity
   8
LEVEL042
 100
AcDbCircle
   6
CONTINUOUS
  62
25
  10
 1044.20
  20
 540.330
  30
0.0
  40
 9.00000
   0
LINE
   5
75A
 100
AcDbEntity
   8
LEVEL042
 100
AcDbLine
   6
CONTINUOUS
  62
25
  10
 1071.20
  20
 549.330
  30
0.0
  11
 1069.40
  21
 546.213
  31
0.0
   0
LINE
   5
75B
 100
AcDbEntity
   8
LEVEL042
 100
AcDbLine
   6
CONTINUOUS
  62
25
  10
 1069.40
  20
 546.213
  30
0.0
  11
 1072.98
  21
 546.225
  31
0.0
   0
LINE
   5
75C
 100
AcDbEntity
   8
LEVEL042
 100
AcDbLine
   6
CONTINUOUS
  62
25
  10
 1072.98
  20
 546.225
  30
0.0
  11
 1071.20
  21
 549.330
  31
0.0
   0
LINE
   5
75D
 100
AcDbEntity
   8
LEVEL042
 100
AcDbLine
   6
CONTINUOUS
  62
25
  10
 1044.18
  20
 549.160
  30
0.0
  11
 1042.38
  21
 546.042
  31
0.0
   0
LINE
   5
75E
 100
AcDbEntity
   8
LEVEL042
 100
AcDbLine
   6
CONTINUOUS
  62
25
  10
 1042.38
  20
 546.042
  30
0.0
  11
 1045.96
  21
 546.054
  31
0.0
   0
LINE
   5
75F
 100
AcDbEntity
   8
LEVEL042
 100
AcDbLine
   6
CONTINUOUS
  62
25
  10
 1045.96
  20
 546.054
  30
0.0
  11
 1044.18
  21
 549.160
  31
0.0
   0
LINE
   5
760
 100
AcDbEntity
   8
LEVEL042
 100
AcDbLine
   6
CONTINUOUS
  62
25
  10
 1071.20
  20
 549.330
  30
0.0
  11
 1071.20
  21
 580.239
  31
0.0
   0
LINE
   5
761
 100
AcDbEntity
   8
LEVEL042
 100
AcDbLine
   6
CONTINUOUS
  62
25
  10
 1044.20
  20
 549.330
  30
0.0
  11
 1044.20
  21
 570.330
  31
0.0
   0
LINE
   5
762
 100
AcDbEntity
   8
LEVEL042
 100
AcDbLine
   6
CONTINUOUS
  62
25
  10
 1038.80
  20
 522.982
  30
0.0
  11
 1044.20
  21
 517.582
  31
0.0
   0
CIRCLE
   5
763
 100
AcDbEntity
   8
LEVEL042
 100
AcDbCircle
   6
CONTINUOUS
  62
25
  10
 1044.20
  20
 522.674
  30
0.0
  40
 3.60000
   0
LINE
   5
764
 100
AcDbEntity
   8
LEVEL042
 100
AcDbLine
   6
CONTINUOUS
  62
25
  10
 1049.60
  20
 522.982
  30
0.0
  11
 1044.20
  21
 517.582
  31
0.0
   0
LINE
   5
765
 100
AcDbEntity
   8
LEVEL042
 100
AcDbLine
   6
CONTINUOUS
  62
3
  10
 1044.20
  20
 500.526
  30
0.0
  11
 1044.20
  21
 517.582
  31
0.0
   0
LINE
   5
766
 100
AcDbEntity
   8
LEVEL042
 100
AcDbLine
   6
CONTINUOUS
  62
25
  10
 1065.80
  20
 522.982
  30
0.0
  11
 1071.20
  21
 517.582
  31
0.0
   0
CIRCLE
   5
767
 100
AcDbEntity
   8
LEVEL042
 100
AcDbCircle
   6
CONTINUOUS
  62
25
  10
 1071.20
  20
 522.674
  30
0.0
  40
 3.60000
   0
LINE
   5
768
 100
AcDbEntity
   8
LEVEL042
 100
AcDbLine
   6
CONTINUOUS
  62
25
  10
 1076.60
  20
 522.982
  30
0.0
  11
 1071.20
  21
 517.582
  31
0.0
   0
LINE
   5
769
 100
AcDbEntity
   8
LEVEL042
 100
AcDbLine
   6
CONTINUOUS
  62
25
  10
 1071.20
  20
 514.017
  30
0.0
  11
 1071.20
  21
 517.582
  31
0.0
   0
LINE
   5
76A
 100
AcDbEntity
   8
LEVEL042
 100
AcDbLine
   6
CONTINUOUS
  62
3
  10
 1044.20
  20
 526.274
  30
0.0
  11
 1044.20
  21
 531.330
  31
0.0
   0
LINE
   5
76B
 100
AcDbEntity
   8
LEVEL042
 100
AcDbLine
   6
CONTINUOUS
  62
25
  10
 1071.20
  20
 526.274
  30
0.0
  11
 1071.20
  21
 531.330
  31
0.0
   0
LINE
   5
76C
 100
AcDbEntity
   8
LEVEL042
 100
AcDbLine
   6
CONTINUOUS
  62
3
  10
 1071.20
  20
 588.930
  30
0.0
  11
 1071.20
  21
 652.663
  31
0.0
   0
LINE
   5
76D
 100
AcDbEntity
   8
LEVEL042
 100
AcDbLine
   6
CONTINUOUS
  62
3
  10
 1071.20
  20
 652.663
  30
0.0
  11
 1082.40
  21
 652.663
  31
0.0
   0
LINE
   5
76E
 100
AcDbEntity
   8
LEVEL042
 100
AcDbLine
   6
CONTINUOUS
  62
3
  10
 1082.40
  20
 652.663
  30
0.0
  11
 1082.40
  21
 638.797
  31
0.0
   0
MTEXT
   5
76F
 100
AcDbEntity
   8
LEVEL042
  62
25
 100
AcDbMText
  10
 1083.57
  20
 580.932
  30
0.0
  40
 12.0960
  41
0.0
  71
7
  72
1
   1
77MPa
   7
GMM002
   0
TEXT
   5
770
 100
AcDbEntity
   8
LEVEL044
  62
3
 100
AcDbText
  10
 179.778
  20
 681.891
  30
0.0
  40
 6.00000
   1
ＡＣ１００Ｖ
   7
STANDARD
  72
1
  11
 197.778
  21
 681.891
  31
0.0
 100
AcDbText
   0
LEADER
   5
771
 100
AcDbEntity
   8
LEVEL044
   6
CONTINUOUS
  62
3
 100
AcDbLeader
   3
GMM013
  73
0
  74
1
  75
0
  40
 9.45000
  41
0.0
  76
2
  10
 155.278
  20
 683.953
  30
0.0
  10
 170.278
  20
 683.953
  30
0.0
  77
3
   0
CIRCLE
   5
772
 100
AcDbEntity
   8
LEVEL044
 100
AcDbCircle
   6
CONTINUOUS
  62
3
  10
 147.778
  20
 683.953
  30
0.0
  40
 1.68750
   0
CIRCLE
   5
773
 100
AcDbEntity
   8
LEVEL044
 100
AcDbCircle
   6
CONTINUOUS
  62
3
  10
 262.778
  20
 683.953
  30
0.0
  40
 1.68750
   0
LEADER
   5
774
 100
AcDbEntity
   8
LEVEL044
   6
CONTINUOUS
  62
3
 100
AcDbLeader
   3
GMM005
  73
0
  74
1
  75
0
  40
 9.45000
  41
0.0
  76
2
  10
 255.278
  20
 683.953
  30
0.0
  10
 240.278
  20
 683.953
  30
0.0
  77
3
   0
LINE
   5
775
 100
AcDbEntity
   8
LEVEL044
 100
AcDbLine
   6
DASHDOT
  62
1
  10
 137.778
  20
 578.953
  30
0.0
  11
 137.778
  21
 698.953
  31
0.0
   0
LINE
   5
776
 100
AcDbEntity
   8
LEVEL044
 100
AcDbLine
   6
DASHDOT
  62
1
  10
 137.778
  20
 698.953
  30
0.0
  11
 272.778
  21
 698.953
  31
0.0
   0
LINE
   5
777
 100
AcDbEntity
   8
LEVEL044
 100
AcDbLine
   6
DASHDOT
  62
1
  10
 272.778
  20
 698.953
  30
0.0
  11
 272.778
  21
 578.953
  31
0.0
   0
LINE
   5
778
 100
AcDbEntity
   8
LEVEL044
 100
AcDbLine
   6
DASHDOT
  62
1
  10
 272.778
  20
 578.953
  30
0.0
  11
 137.778
  21
 578.953
  31
0.0
   0
CIRCLE
   5
779
 100
AcDbEntity
   8
LEVEL044
 100
AcDbCircle
   6
CONTINUOUS
  62
25
  10
 147.778
  20
 661.453
  30
0.0
  40
 0.900000
   0
CIRCLE
   5
77A
 100
AcDbEntity
   8
LEVEL044
 100
AcDbCircle
   6
CONTINUOUS
  62
3
  10
 169.610
  20
 661.453
  30
0.0
  40
 1.68750
   0
CIRCLE
   5
77B
 100
AcDbEntity
   8
LEVEL044
 100
AcDbCircle
   6
CONTINUOUS
  62
3
  10
 158.360
  20
 661.453
  30
0.0
  40
 1.68750
   0
LINE
   5
77C
 100
AcDbEntity
   8
LEVEL044
 100
AcDbLine
   6
CONTINUOUS
  62
3
  10
 156.736
  20
 665.136
  30
0.0
  11
 171.233
  21
 665.136
  31
0.0
   0
TEXT
   5
77D
 100
AcDbEntity
   8
LEVEL044
  62
3
 100
AcDbText
  10
 153.736
  20
 667.933
  30
0.0
  40
 6.00000
   1
Ａ
   7
STANDARD
  72
1
  11
 156.736
  21
 667.933
  31
0.0
 100
AcDbText
   0
LINE
   5
77E
 100
AcDbEntity
   8
LEVEL044
 100
AcDbLine
   6
CONTINUOUS
  62
3
  10
 163.985
  20
 665.136
  30
0.0
  11
 163.985
  21
 671.136
  31
0.0
   0
LINE
   5
77F
 100
AcDbEntity
   8
LEVEL044
 100
AcDbLine
   6
DOT
  62
3
  10
 163.985
  20
 671.136
  30
0.0
  11
 179.027
  21
 667.363
  31
0.0
   0
LINE
   5
780
 100
AcDbEntity
   8
LEVEL044
 100
AcDbLine
   6
CONTINUOUS
  62
3
  10
 156.672
  20
 661.453
  30
0.0
  11
 147.778
  21
 661.453
  31
0.0
   0
CIRCLE
   5
781
 100
AcDbEntity
   8
LEVEL044
 100
AcDbCircle
   6
CONTINUOUS
  62
25
  10
 262.778
  20
 661.453
  30
0.0
  40
 0.900000
   0
CIRCLE
   5
782
 100
AcDbEntity
   8
LEVEL044
 100
AcDbCircle
   6
CONTINUOUS
  62
3
  10
 241.745
  20
 661.453
  30
0.0
  40
 11.2500
   0
LINE
   5
783
 100
AcDbEntity
   8
LEVEL044
 100
AcDbLine
   6
CONTINUOUS
  62
3
  10
 252.995
  20
 661.453
  30
0.0
  11
 262.778
  21
 661.453
  31
0.0
   0
TEXT
   5
784
 100
AcDbEntity
   8
LEVEL044
  62
3
 100
AcDbText
  10
 232.745
  20
 654.703
  30
0.0
  40
 13.5000
   1
ＣＲ１
  41
 0.444444
   7
STANDARD
  72
1
  11
 241.745
  21
 661.453
  31
0.0
 100
AcDbText
  73
2
   0
CIRCLE
   5
785
 100
AcDbEntity
   8
LEVEL044
 100
AcDbCircle
   6
CONTINUOUS
  62
3
  10
 214.694
  20
 661.453
  30
0.0
  40
 1.68750
   0
CIRCLE
   5
786
 100
AcDbEntity
   8
LEVEL044
 100
AcDbCircle
   6
CONTINUOUS
  62
3
  10
 203.444
  20
 661.453
  30
0.0
  40
 1.68750
   0
TEXT
   5
787
 100
AcDbEntity
   8
LEVEL044
  62
3
 100
AcDbText
  10
 203.069
  20
 667.933
  30
0.0
  40
 6.00000
   1
ＰＳ
   7
STANDARD
  72
1
  11
 209.069
  21
 667.933
  31
0.0
 100
AcDbText
   0
LINE
   5
788
 100
AcDbEntity
   8
LEVEL044
 100
AcDbLine
   6
CONTINUOUS
  62
3
  10
 171.297
  20
 661.453
  30
0.0
  11
 201.756
  21
 661.453
  31
0.0
   0
LINE
   5
789
 100
AcDbEntity
   8
LEVEL044
 100
AcDbLine
   6
CONTINUOUS
  62
3
  10
 216.381
  20
 661.453
  30
0.0
  11
 230.495
  21
 661.453
  31
0.0
   0
LINE
   5
78A
 100
AcDbEntity
   8
LEVEL044
 100
AcDbLine
   6
CONTINUOUS
  62
3
  10
 223.438
  20
 638.953
  30
0.0
  11
 223.438
  21
 661.453
  31
0.0
   0
CIRCLE
   5
78B
 100
AcDbEntity
   8
LEVEL044
 100
AcDbCircle
   6
CONTINUOUS
  62
25
  10
 223.438
  20
 661.453
  30
0.0
  40
 0.900000
   0
CIRCLE
   5
78C
 100
AcDbEntity
   8
LEVEL044
 100
AcDbCircle
   6
CONTINUOUS
  62
25
  10
 194.699
  20
 661.453
  30
0.0
  40
 0.900000
   0
LINE
   5
78D
 100
AcDbEntity
   8
LEVEL044
 100
AcDbLine
   6
CONTINUOUS
  62
3
  10
 206.256
  20
 633.328
  30
0.0
  11
 206.256
  21
 644.578
  31
0.0
   0
LINE
   5
78E
 100
AcDbEntity
   8
LEVEL044
 100
AcDbLine
   6
CONTINUOUS
  62
3
  10
 211.881
  20
 633.328
  30
0.0
  11
 211.881
  21
 644.578
  31
0.0
   0
LINE
   5
78F
 100
AcDbEntity
   8
LEVEL044
 100
AcDbLine
   6
CONTINUOUS
  62
3
  10
 211.881
  20
 638.953
  30
0.0
  11
 223.438
  21
 638.953
  31
0.0
   0
LINE
   5
790
 100
AcDbEntity
   8
LEVEL044
 100
AcDbLine
   6
CONTINUOUS
  62
3
  10
 206.256
  20
 638.953
  30
0.0
  11
 194.699
  21
 638.953
  31
0.0
   0
CIRCLE
   5
791
 100
AcDbEntity
   8
LEVEL044
 100
AcDbCircle
   6
CONTINUOUS
  62
25
  10
 194.699
  20
 638.953
  30
0.0
  40
 0.900000
   0
LINE
   5
792
 100
AcDbEntity
   8
LEVEL044
 100
AcDbLine
   6
CONTINUOUS
  62
3
  10
 205.043
  20
 661.992
  30
0.0
  11
 215.703
  21
 665.586
  31
0.0
   0
ARC
   5
793
 100
AcDbEntity
   8
LEVEL044
   6
CONTINUOUS
  62
3
 100
AcDbCircle
  10
 209.069
  20
 651.057
  30
0.0
  40
 6.75000
 100
AcDbArc
  50
0.0
  51
 180.000
   0
LINE
   5
794
 100
AcDbEntity
   8
LEVEL044
 100
AcDbLine
   6
CONTINUOUS
  62
3
  10
 202.319
  20
 651.057
  30
0.0
  11
 215.819
  21
 651.057
  31
0.0
   0
LINE
   5
795
 100
AcDbEntity
   8
LEVEL044
 100
AcDbLine
   6
CONTINUOUS
  62
3
  10
 209.069
  20
 657.807
  30
0.0
  11
 209.069
  21
 663.349
  31
0.0
   0
CIRCLE
   5
796
 100
AcDbEntity
   8
LEVEL044
 100
AcDbCircle
   6
CONTINUOUS
  62
3
  10
 169.610
  20
 593.953
  30
0.0
  40
 1.68750
   0
CIRCLE
   5
797
 100
AcDbEntity
   8
LEVEL044
 100
AcDbCircle
   6
CONTINUOUS
  62
3
  10
 158.360
  20
 593.953
  30
0.0
  40
 1.68750
   0
LINE
   5
798
 100
AcDbEntity
   8
LEVEL044
 100
AcDbLine
   6
CONTINUOUS
  62
3
  10
 156.736
  20
 597.636
  30
0.0
  11
 171.233
  21
 597.636
  31
0.0
   0
TEXT
   5
799
 100
AcDbEntity
   8
LEVEL044
  62
3
 100
AcDbText
  10
 153.736
  20
 600.433
  30
0.0
  40
 6.00000
   1
Ｂ
   7
STANDARD
  72
1
  11
 156.736
  21
 600.433
  31
0.0
 100
AcDbText
   0
LINE
   5
79A
 100
AcDbEntity
   8
LEVEL044
 100
AcDbLine
   6
CONTINUOUS
  62
3
  10
 163.985
  20
 597.636
  30
0.0
  11
 163.985
  21
 603.636
  31
0.0
   0
LINE
   5
79B
 100
AcDbEntity
   8
LEVEL044
 100
AcDbLine
   6
DOT
  62
3
  10
 179.027
  20
 599.863
  30
0.0
  11
 163.985
  21
 603.636
  31
0.0
   0
LINE
   5
79C
 100
AcDbEntity
   8
LEVEL044
 100
AcDbLine
   6
CONTINUOUS
  62
3
  10
 156.672
  20
 593.953
  30
0.0
  11
 147.778
  21
 593.953
  31
0.0
   0
LINE
   5
79D
 100
AcDbEntity
   8
LEVEL044
 100
AcDbLine
   6
DOT
  62
3
  10
 179.027
  20
 667.363
  30
0.0
  11
 179.027
  21
 599.863
  31
0.0
   0
LINE
   5
79E
 100
AcDbEntity
   8
LEVEL044
 100
AcDbLine
   6
CONTINUOUS
  62
3
  10
 147.778
  20
 682.266
  30
0.0
  11
 147.778
  21
 593.953
  31
0.0
   0
CIRCLE
   5
79F
 100
AcDbEntity
   8
LEVEL044
 100
AcDbCircle
   6
CONTINUOUS
  62
3
  10
 241.745
  20
 616.453
  30
0.0
  40
 11.2500
   0
LINE
   5
7A0
 100
AcDbEntity
   8
LEVEL044
 100
AcDbLine
   6
CONTINUOUS
  62
3
  10
 252.995
  20
 616.453
  30
0.0
  11
 262.778
  21
 616.453
  31
0.0
   0
LINE
   5
7A1
 100
AcDbEntity
   8
LEVEL044
 100
AcDbLine
   6
CONTINUOUS
  62
3
  10
 206.256
  20
 610.828
  30
0.0
  11
 206.256
  21
 622.078
  31
0.0
   0
LINE
   5
7A2
 100
AcDbEntity
   8
LEVEL044
 100
AcDbLine
   6
CONTINUOUS
  62
3
  10
 211.881
  20
 610.828
  30
0.0
  11
 211.881
  21
 622.078
  31
0.0
   0
LINE
   5
7A3
 100
AcDbEntity
   8
LEVEL044
 100
AcDbLine
   6
CONTINUOUS
  62
3
  10
 211.881
  20
 616.453
  30
0.0
  11
 230.495
  21
 616.453
  31
0.0
   0
LINE
   5
7A4
 100
AcDbEntity
   8
LEVEL044
 100
AcDbLine
   6
CONTINUOUS
  62
3
  10
 203.444
  20
 610.828
  30
0.0
  11
 214.694
  21
 622.078
  31
0.0
   0
LINE
   5
7A5
 100
AcDbEntity
   8
LEVEL044
 100
AcDbLine
   6
CONTINUOUS
  62
3
  10
 194.699
  20
 616.453
  30
0.0
  11
 206.256
  21
 616.453
  31
0.0
   0
LINE
   5
7A6
 100
AcDbEntity
   8
LEVEL044
 100
AcDbLine
   6
CONTINUOUS
  62
3
  10
 194.699
  20
 616.453
  30
0.0
  11
 194.699
  21
 661.453
  31
0.0
   0
TEXT
   5
7A7
 100
AcDbEntity
   8
LEVEL044
  62
3
 100
AcDbText
  10
 234.995
  20
 609.703
  30
0.0
  40
 13.5000
   1
Ｍ
   7
STANDARD
 100
AcDbText
   0
TEXT
   5
7A8
 100
AcDbEntity
   8
LEVEL044
  62
3
 100
AcDbText
  10
 202.881
  20
 644.578
  30
0.0
  40
 6.00000
   1
ＣＲ１
   7
STANDARD
  72
1
  11
 211.881
  21
 644.578
  31
0.0
 100
AcDbText
   0
TEXT
   5
7A9
 100
AcDbEntity
   8
LEVEL044
  62
3
 100
AcDbText
  10
 202.881
  20
 622.078
  30
0.0
  40
 6.00000
   1
ＣＲ１
   7
STANDARD
  72
1
  11
 211.881
  21
 622.078
  31
0.0
 100
AcDbText
   0
LINE
   5
7AA
 100
AcDbEntity
   8
LEVEL044
 100
AcDbLine
   6
CONTINUOUS
  62
3
  10
 182.027
  20
 636.613
  30
0.0
  11
 176.027
  21
 630.613
  31
0.0
   0
LINE
   5
7AB
 100
AcDbEntity
   8
LEVEL044
 100
AcDbLine
   6
CONTINUOUS
  62
3
  10
 182.027
  20
 630.613
  30
0.0
  11
 176.027
  21
 636.613
  31
0.0
   0
LINE
   5
7AC
 100
AcDbEntity
   8
LEVEL050
 100
AcDbLine
   6
CONTINUOUS
  62
3
  10
 232.728
  20
 645.162
  30
0.0
  11
 227.478
  21
 636.069
  31
0.0
   0
LINE
   5
7AD
 100
AcDbEntity
   8
LEVEL050
 100
AcDbLine
   6
CONTINUOUS
  62
3
  10
 227.478
  20
 636.069
  30
0.0
  11
 237.978
  21
 636.069
  31
0.0
   0
LINE
   5
7AE
 100
AcDbEntity
   8
LEVEL050
 100
AcDbLine
   6
CONTINUOUS
  62
3
  10
 237.978
  20
 636.069
  30
0.0
  11
 232.728
  21
 645.162
  31
0.0
   0
TEXT
   5
7AF
 100
AcDbEntity
   8
LEVEL050
  62
3
 100
AcDbText
  10
 229.728
  20
 636.069
  30
0.0
  40
 6.90000
   1
２
  41
 0.869565
   7
STANDARD
  72
1
  11
 232.728
  21
 636.069
  31
0.0
 100
AcDbText
   0
LINE
   5
7B0
 100
AcDbEntity
   8
LEVEL044
 100
AcDbLine
   6
CONTINUOUS
  62
3
  10
 190.187
  20
 593.953
  30
0.0
  11
 171.297
  21
 593.953
  31
0.0
   0
LINE
   5
7B1
 100
AcDbEntity
   8
LEVEL044
 100
AcDbLine
   6
CONTINUOUS
  62
3
  10
 262.778
  20
 682.266
  30
0.0
  11
 262.778
  21
 616.453
  31
0.0
   0
CIRCLE
   5
7B2
 100
AcDbEntity
   8
LEVEL003
 100
AcDbCircle
   6
CONTINUOUS
  62
7
  10
 972.925
  20
 47.5335
  30
0.0
  40
 6.75000
   0
LINE
   5
7B3
 100
AcDbEntity
   8
LEVEL003
 100
AcDbLine
   6
CONTINUOUS
  62
7
  10
 986.173
  20
 54.2835
  30
0.0
  11
 977.603
  21
 39.4335
  31
0.0
   0
LINE
   5
7B4
 100
AcDbEntity
   8
LEVEL003
 100
AcDbLine
   6
CONTINUOUS
  62
7
  10
 977.603
  20
 39.4335
  30
0.0
  11
 960.456
  21
 39.4335
  31
0.0
   0
LINE
   5
7B5
 100
AcDbEntity
   8
LEVEL003
 100
AcDbLine
   6
CONTINUOUS
  62
7
  10
 958.505
  20
 36.0585
  30
0.0
  11
 989.152
  21
 36.0585
  31
0.0
   0
LINE
   5
7B6
 100
AcDbEntity
   8
LEVEL003
 100
AcDbLine
   6
CONTINUOUS
  62
7
  10
 989.152
  20
 36.0585
  30
0.0
  11
 999.673
  21
 54.2835
  31
0.0
   0
LINE
   5
7B7
 100
AcDbEntity
   8
LEVEL003
 100
AcDbLine
   6
CONTINUOUS
  62
7
  10
 999.673
  20
 54.2835
  30
0.0
  11
 986.173
  21
 54.2835
  31
0.0
   0
LINE
   5
7B8
 100
AcDbEntity
   8
LEVEL003
 100
AcDbLine
   6
CONTINUOUS
  62
7
  10
 960.456
  20
 39.4335
  30
0.0
  11
 958.505
  21
 36.0585
  31
0.0
   0
TEXT
   5
7B9
 100
AcDbEntity
   8
LEVEL003
  62
7
 100
AcDbText
  10
 1018.93
  20
 32.4271
  30
0.0
  40
 22.5000
   1
ＯＳＡＫＡ ＪＡＣＫ
   7
STANDARD
 100
AcDbText
   0
TEXT
   5
7BA
 100
AcDbEntity
   8
LEVEL002
  62
7
 100
AcDbText
  10
 1011.78
  20
 72.1789
  30
0.0
  40
 14.8114
   1
Model : ＮＥＸ－２ＤＧＳ
   7
STANDARD
 100
AcDbText
   0
ENDSEC
  0
SECTION
  2
OBJECTS
  0
DICTIONARY
  5
C
100
AcDbDictionary
  3
ACAD_GROUP
350
D
  3
ACAD_MLINESTYLE
350
1B
  0
DICTIONARY
  5
D
102
{ACAD_REACTORS
330
C
102
}
100
AcDbDictionary
  0
DICTIONARY
  5
1B
102
{ACAD_REACTORS
330
C
102
}
100
AcDbDictionary
  3
STANDARD
350
1C
  0
MLINESTYLE
  5
1C
102
{ACAD_REACTORS
330
1B
102
}
100
AcDbMlineStyle
  2
STANDARD
 70
     0
  3

 62
   256
 51
90.0
 52
90.0
 71
     2
 49
0.5
 62
   256
  6
BYLAYER
 49
-0.5
 62
   256
  6
BYLAYER
  0
ENDSEC
   0
EOF
