   0
SECTION
   2
HEADER
   9
$ACADVER
   1
AC1014
   9
$LIMMIN
  10
0.0
  20
0.0
   9
$LIMMAX
  10
 1260.00
  20
 891.000
   9
$EXTMIN
  10
0.0
  20
0.0
  30
0.0
   9
$EXTMAX
  10
 1260.00
  20
 891.000
  30
0.0
   9
$LTSCALE
  40
 25.2000
   9
$HANDSEED
   5
6D2
   0
ENDSEC
   0
SECTION
   2
TABLES
  0
TABLE
  2
VPORT
  5
8
100
AcDbSymbolTable
 70
     1
  0
VPORT
  5
6D1
100
AcDbSymbolTableRecord
100
AcDbViewportTableRecord
  2
*ACTIVE
 70
     0
 10
0.0
 20
0.0
 11
1.0
 21
1.0
  12
 630.000
  22
 445.500
 13
0.0
 23
0.0
 14
1.0
 24
1.0
 15
0.0
 25
0.0
 16
0.0
 26
0.0
 36
1.0
 17
0.0
 27
0.0
 37
0.0
  40
 1260.00
  41
 1.47879
 42
50.0
 43
0.0
 44
0.0
 50
0.0
 51
0.0
 71
     0
 72
   100
 73
     1
 74
     1
 75
     0
 76
     0
 77
     0
 78
     0
  0
ENDTAB
  0
TABLE
  2
LTYPE
  5
5
100
AcDbSymbolTable
 70
    25
  0
LTYPE
  5
12
100
AcDbSymbolTableRecord
100
AcDbLinetypeTableRecord
  2
BYBLOCK
 70
     0
  3

 72
    65
 73
     0
 40
0.0
  0
LTYPE
  5
13
100
AcDbSymbolTableRecord
100
AcDbLinetypeTableRecord
  2
BYLAYER
 70
     0
  3

 72
    65
 73
     0
 40
0.0
  0
LTYPE
  5
14
100
AcDbSymbolTableRecord
100
AcDbLinetypeTableRecord
  2
CONTINUOUS
 70
     0
  3
Solid line
 72
    65
 73
     0
 40
0.0
  0
LTYPE
  5
20
100
AcDbSymbolTableRecord
100
AcDbLinetypeTableRecord
  2
BORDER
 70
     0
  3
__ __ . __ __ . __ __ . __ __ . __ __ . __ __ .
 72
    65
 73
     6
 40
1.75
 49
0.5
 74
     0
 49
-0.25
 74
     0
 49
0.5
 74
     0
 49
-0.25
 74
     0
 49
0.0
 74
     0
 49
-0.25
 74
     0
  0
LTYPE
  5
21
100
AcDbSymbolTableRecord
100
AcDbLinetypeTableRecord
  2
BORDER2
 70
     0
  3
__.__.__.__.__.__.__.__.__.__.__.__.__.__.__.__
 72
    65
 73
     6
 40
0.875
 49
0.25
 74
     0
 49
-0.125
 74
     0
 49
0.25
 74
     0
 49
-0.125
 74
     0
 49
0.0
 74
     0
 49
-0.125
 74
     0
  0
LTYPE
  5
22
100
AcDbSymbolTableRecord
100
AcDbLinetypeTableRecord
  2
BORDERX2
 70
     0
  3
____  ____  .  ____  ____  .  ____  ____  .  __
 72
    65
 73
     6
 40
3.5
 49
1.0
 74
     0
 49
-0.5
 74
     0
 49
1.0
 74
     0
 49
-0.5
 74
     0
 49
0.0
 74
     0
 49
-0.5
 74
     0
  0
LTYPE
  5
23
100
AcDbSymbolTableRecord
100
AcDbLinetypeTableRecord
  2
CENTER
 70
     0
  3
____ _ ____ _ ____ _ ____ _ ____ _ ____ _ ____ 
 72
    65
 73
     4
 40
2.0
 49
1.25
 74
     0
 49
-0.25
 74
     0
 49
0.25
 74
     0
 49
-0.25
 74
     0
  0
LTYPE
  5
24
100
AcDbSymbolTableRecord
100
AcDbLinetypeTableRecord
  2
CENTER2
 70
     0
  3
___ _ ___ _ ___ _ ___ _ ___ _ ___ _ ___ _ ___ _
 72
    65
 73
     4
 40
1.125
 49
0.75
 74
     0
 49
-0.125
 74
     0
 49
0.125
 74
     0
 49
-0.125
 74
     0
  0
LTYPE
  5
25
100
AcDbSymbolTableRecord
100
AcDbLinetypeTableRecord
  2
CENTERX2
 70
     0
  3
________  __  ________  __  ________  __  _____
 72
    65
 73
     4
 40
4.0
 49
2.5
 74
     0
 49
-0.5
 74
     0
 49
0.5
 74
     0
 49
-0.5
 74
     0
  0
LTYPE
  5
26
100
AcDbSymbolTableRecord
100
AcDbLinetypeTableRecord
  2
DASHDOT
 70
     0
  3
__ . __ . __ . __ . __ . __ . __ . __ . __ . __
 72
    65
 73
     4
 40
1.0
 49
0.5
 74
     0
 49
-0.25
 74
     0
 49
0.0
 74
     0
 49
-0.25
 74
     0
  0
LTYPE
  5
27
100
AcDbSymbolTableRecord
100
AcDbLinetypeTableRecord
  2
DASHDOT2
 70
     0
  3
_._._._._._._._._._._._._._._._._._._._._._._._
 72
    65
 73
     4
 40
0.5
 49
0.25
 74
     0
 49
-0.125
 74
     0
 49
0.0
 74
     0
 49
-0.125
 74
     0
  0
LTYPE
  5
28
100
AcDbSymbolTableRecord
100
AcDbLinetypeTableRecord
  2
DASHDOTX2
 70
     0
  3
____  .  ____  .  ____  .  ____  .  ____  .  __
 72
    65
 73
     4
 40
2.0
 49
1.0
 74
     0
 49
-0.5
 74
     0
 49
0.0
 74
     0
 49
-0.5
 74
     0
  0
LTYPE
  5
29
100
AcDbSymbolTableRecord
100
AcDbLinetypeTableRecord
  2
DASHED
 70
     0
  3
__ __ __ __ __ __ __ __ __ __ __ __ __ __ __ __
 72
    65
 73
     2
 40
0.75
 49
0.5
 74
     0
 49
-0.25
 74
     0
  0
LTYPE
  5
2A
100
AcDbSymbolTableRecord
100
AcDbLinetypeTableRecord
  2
DASHED2
 70
     0
  3
_ _ _ _ _ _ _ _ _ _ _ _ _ _ _ _ _ _ _ _ _ _ _ _
 72
    65
 73
     2
 40
0.375
 49
0.25
 74
     0
 49
-0.125
 74
     0
  0
LTYPE
  5
2B
100
AcDbSymbolTableRecord
100
AcDbLinetypeTableRecord
  2
DASHEDX2
 70
     0
  3
____  ____  ____  ____  ____  ____  ____  ____ 
 72
    65
 73
     2
 40
1.5
 49
1.0
 74
     0
 49
-0.5
 74
     0
  0
LTYPE
  5
2C
100
AcDbSymbolTableRecord
100
AcDbLinetypeTableRecord
  2
DIVIDE
 70
     0
  3
____ . . ____ . . ____ . . ____ . . ____ . . __
 72
    65
 73
     6
 40
1.25
 49
0.5
 74
     0
 49
-0.25
 74
     0
 49
0.0
 74
     0
 49
-0.25
 74
     0
 49
0.0
 74
     0
 49
-0.25
 74
     0
  0
LTYPE
  5
2D
100
AcDbSymbolTableRecord
100
AcDbLinetypeTableRecord
  2
DIVIDE2
 70
     0
  3
__..__..__..__..__..__..__..__..__..__..__..__.
 72
    65
 73
     6
 40
0.625
 49
0.25
 74
     0
 49
-0.125
 74
     0
 49
0.0
 74
     0
 49
-0.125
 74
     0
 49
0.0
 74
     0
 49
-0.125
 74
     0
  0
LTYPE
  5
2E
100
AcDbSymbolTableRecord
100
AcDbLinetypeTableRecord
  2
DIVIDEX2
 70
     0
  3
________  .  .  ________  .  .  ________  .  . 
 72
    65
 73
     6
 40
2.5
 49
1.0
 74
     0
 49
-0.5
 74
     0
 49
0.0
 74
     0
 49
-0.5
 74
     0
 49
0.0
 74
     0
 49
-0.5
 74
     0
  0
LTYPE
  5
2F
100
AcDbSymbolTableRecord
100
AcDbLinetypeTableRecord
  2
DOT
 70
     0
  3
. . . . . . . . . . . . . . . . . . . . . . . .
 72
    65
 73
     2
 40
0.25
 49
0.0
 74
     0
 49
-0.25
 74
     0
  0
LTYPE
  5
30
100
AcDbSymbolTableRecord
100
AcDbLinetypeTableRecord
  2
DOT2
 70
     0
  3
...............................................
 72
    65
 73
     2
 40
0.125
 49
0.0
 74
     0
 49
-0.125
 74
     0
  0
LTYPE
  5
31
100
AcDbSymbolTableRecord
100
AcDbLinetypeTableRecord
  2
DOTX2
 70
     0
  3
.  .  .  .  .  .  .  .  .  .  .  .  .  .  .  . 
 72
    65
 73
     2
 40
0.5
 49
0.0
 74
     0
 49
-0.5
 74
     0
  0
LTYPE
  5
32
100
AcDbSymbolTableRecord
100
AcDbLinetypeTableRecord
  2
HIDDEN
 70
     0
  3
__ __ __ __ __ __ __ __ __ __ __ __ __ __ __ __
 72
    65
 73
     2
 40
0.375
 49
0.25
 74
     0
 49
-0.125
 74
     0
  0
LTYPE
  5
33
100
AcDbSymbolTableRecord
100
AcDbLinetypeTableRecord
  2
HIDDEN2
 70
     0
  3
_ _ _ _ _ _ _ _ _ _ _ _ _ _ _ _ _ _ _ _ _ _ _ _
 72
    65
 73
     2
 40
0.1875
 49
0.125
 74
     0
 49
-0.0625
 74
     0
  0
LTYPE
  5
34
100
AcDbSymbolTableRecord
100
AcDbLinetypeTableRecord
  2
HIDDENX2
 70
     0
  3
____ ____ ____ ____ ____ ____ ____ ____ ____ __
 72
    65
 73
     2
 40
0.75
 49
0.5
 74
     0
 49
-0.25
 74
     0
  0
LTYPE
  5
35
100
AcDbSymbolTableRecord
100
AcDbLinetypeTableRecord
  2
PHANTOM
 70
     0
  3
______  __  __  ______  __  __  ______  __  __ 
 72
    65
 73
     6
 40
2.5
 49
1.25
 74
     0
 49
-0.25
 74
     0
 49
0.25
 74
     0
 49
-0.25
 74
     0
 49
0.25
 74
     0
 49
-0.25
 74
     0
  0
LTYPE
  5
36
100
AcDbSymbolTableRecord
100
AcDbLinetypeTableRecord
  2
PHANTOM2
 70
     0
  3
___ _ _ ___ _ _ ___ _ _ ___ _ _ ___ _ _ ___ _ _
 72
    65
 73
     6
 40
1.25
 49
0.625
 74
     0
 49
-0.125
 74
     0
 49
0.125
 74
     0
 49
-0.125
 74
     0
 49
0.125
 74
     0
 49
-0.125
 74
     0
  0
LTYPE
  5
37
100
AcDbSymbolTableRecord
100
AcDbLinetypeTableRecord
  2
PHANTOMX2
 70
     0
  3
____________    ____    ____    ____________   
 72
    65
 73
     6
 40
5.0
 49
2.5
 74
     0
 49
-0.5
 74
     0
 49
0.5
 74
     0
 49
-0.5
 74
     0
 49
0.5
 74
     0
 49
-0.5
 74
     0
  0
ENDTAB
   0
TABLE
   2
LAYER
   5
2
 100
AcDbSymbolTable
  70
19
   0
LAYER
   5
E
 100
AcDbSymbolTableRecord
 100
AcDbLayerTableRecord
   2
0
  70
0
  62
7
   6
CONTINUOUS
   0
LAYER
   5
39
 100
AcDbSymbolTableRecord
 100
AcDbLayerTableRecord
   2
LEVEL001
  70
0
  62
7
   6
CONTINUOUS
   0
LAYER
   5
3A
 100
AcDbSymbolTableRecord
 100
AcDbLayerTableRecord
   2
LEVEL003
  70
0
  62
7
   6
CONTINUOUS
   0
LAYER
   5
3B
 100
AcDbSymbolTableRecord
 100
AcDbLayerTableRecord
   2
LEVEL011
  70
0
  62
7
   6
CONTINUOUS
   0
LAYER
   5
3C
 100
AcDbSymbolTableRecord
 100
AcDbLayerTableRecord
   2
LEVEL013
  70
0
  62
7
   6
CONTINUOUS
   0
LAYER
   5
3D
 100
AcDbSymbolTableRecord
 100
AcDbLayerTableRecord
   2
LEVEL014
  70
0
  62
7
   6
CONTINUOUS
   0
LAYER
   5
3E
 100
AcDbSymbolTableRecord
 100
AcDbLayerTableRecord
   2
LEVEL015
  70
0
  62
7
   6
CONTINUOUS
   0
LAYER
   5
3F
 100
AcDbSymbolTableRecord
 100
AcDbLayerTableRecord
   2
LEVEL016
  70
0
  62
7
   6
CONTINUOUS
   0
LAYER
   5
40
 100
AcDbSymbolTableRecord
 100
AcDbLayerTableRecord
   2
LEVEL018
  70
0
  62
7
   6
CONTINUOUS
   0
LAYER
   5
41
 100
AcDbSymbolTableRecord
 100
AcDbLayerTableRecord
   2
LEVEL019
  70
0
  62
7
   6
CONTINUOUS
   0
LAYER
   5
42
 100
AcDbSymbolTableRecord
 100
AcDbLayerTableRecord
   2
LEVEL020
  70
0
  62
7
   6
CONTINUOUS
   0
LAYER
   5
43
 100
AcDbSymbolTableRecord
 100
AcDbLayerTableRecord
   2
LEVEL021
  70
0
  62
7
   6
CONTINUOUS
   0
LAYER
   5
44
 100
AcDbSymbolTableRecord
 100
AcDbLayerTableRecord
   2
LEVEL022
  70
0
  62
7
   6
CONTINUOUS
   0
LAYER
   5
45
 100
AcDbSymbolTableRecord
 100
AcDbLayerTableRecord
   2
LEVEL024
  70
0
  62
7
   6
CONTINUOUS
   0
LAYER
   5
46
 100
AcDbSymbolTableRecord
 100
AcDbLayerTableRecord
   2
LEVEL026
  70
0
  62
7
   6
CONTINUOUS
   0
LAYER
   5
47
 100
AcDbSymbolTableRecord
 100
AcDbLayerTableRecord
   2
LEVEL042
  70
0
  62
7
   6
CONTINUOUS
   0
LAYER
   5
48
 100
AcDbSymbolTableRecord
 100
AcDbLayerTableRecord
   2
LEVEL044
  70
0
  62
7
   6
CONTINUOUS
   0
LAYER
   5
49
 100
AcDbSymbolTableRecord
 100
AcDbLayerTableRecord
   2
LEVEL050
  70
0
  62
7
   6
CONTINUOUS
   0
LAYER
   5
4A
 100
AcDbSymbolTableRecord
 100
AcDbLayerTableRecord
   2
LEVEL100
  70
0
  62
-7
   6
CONTINUOUS
   0
ENDTAB
  0
TABLE
  2
STYLE
  5
3
100
AcDbSymbolTable
  70
7
  0
STYLE
  5
F
100
AcDbSymbolTableRecord
100
AcDbTextStyleTableRecord
  2
STANDARD
 70
     0
 40
0.0
 41
1.0
 50
0.0
 71
     0
 42
0.2
  3
TXT
  4
BIGFONT
  0
STYLE
  5
38
100
AcDbSymbolTableRecord
100
AcDbTextStyleTableRecord
  2
STANDARD1
 70
     4
 40
0.0
 41
1.0
 50
0.0
 71
     0
 42
0.2
  3
TXT
  4
BIGFONT
   0
STYLE
   5
4B
 100
AcDbSymbolTableRecord
 100
AcDbTextStyleTableRecord
   2
GMM001
  70
0
  40
0.0
  41
 1.00000
  50
0.0
  71
     0
  42
1.0
   3
txt.shx
   4
bigfont.shx
   0
STYLE
   5
4C
 100
AcDbSymbolTableRecord
 100
AcDbTextStyleTableRecord
   2
GMM002
  70
0
  40
0.0
  41
 0.479167
  50
0.0
  71
     0
  42
1.0
   3
txt.shx
   4
bigfont.shx
   0
STYLE
   5
4D
 100
AcDbSymbolTableRecord
 100
AcDbTextStyleTableRecord
   2
GMM003
  70
0
  40
0.0
  41
 0.440104
  50
0.0
  71
     0
  42
1.0
   3
txt.shx
   4
bigfont.shx
   0
STYLE
   5
4E
 100
AcDbSymbolTableRecord
 100
AcDbTextStyleTableRecord
   2
GMM004
  70
0
  40
0.0
  41
 0.557292
  50
0.0
  71
     0
  42
1.0
   3
txt.shx
   4
bigfont.shx
   0
STYLE
   5
4F
 100
AcDbSymbolTableRecord
 100
AcDbTextStyleTableRecord
   2
GMM005
  70
0
  40
0.0
  41
 0.718750
  50
0.0
  71
     0
  42
1.0
   3
txt.shx
   4
bigfont.shx
   0
ENDTAB
  0
TABLE
  2
VIEW
  5
6
100
AcDbSymbolTable
 70
     0
  0
ENDTAB
  0
TABLE
  2
UCS
  5
7
100
AcDbSymbolTable
 70
     0
  0
ENDTAB
  0
TABLE
  2
APPID
  5
9
100
AcDbSymbolTable
 70
     1
  0
APPID
  5
10
100
AcDbSymbolTableRecord
100
AcDbRegAppTableRecord
  2
ACAD
 70
     0
  0
ENDTAB
   0
TABLE
   2
DIMSTYLE
   5
A
 100
AcDbSymbolTable
  70
12
  0
DIMSTYLE
105
1D
100
AcDbSymbolTableRecord
100
AcDbDimStyleTableRecord
  2
STANDARD
 70
     0
  3

  4

  5

  6

  7

 40
1.0
 41
0.18
 42
0.0625
 43
0.38
 44
0.18
 45
0.0
 46
0.0
 47
0.0
 48
0.0
140
0.18
141
0.09
142
0.0
143
25.4
144
1.0
145
0.0
146
1.0
147
0.09
 71
     0
 72
     0
 73
     1
 74
     1
 75
     0
 76
     0
 77
     0
 78
     0
170
     0
171
     2
172
     0
173
     0
174
     0
175
     0
176
     0
177
     0
178
     0
270
     2
271
     4
272
     4
273
     2
274
     2
340
F
275
     0
280
     0
281
     0
282
     0
283
     1
284
     0
285
     0
286
     0
287
     3
288
     0
   0
DIMSTYLE
 105
50
 100
AcDbSymbolTableRecord
 100
AcDbDimStyleTableRecord
   2
GMM001
  70
0
   3

   4

   5

   6
_OPEN
   7
_OPEN
  40
 1.00000
  41
 9.00000
  42
 3.00000
  43
 24.0000
  44
 6.00000
  45
0.0
  46
0.0
  47
0.0
  48
0.0
 140
 12.0000
 141
 3.00000
 142
0.0
 143
 0.394000E-1
 144
 1.00000
 145
0.0
 146
 0.625000
 147
 2.40000
  71
0
  72
0
  73
0
  74
0
  75
0
  76
0
  77
3
  78
8
 170
0
 171
2
 172
1
 173
1
 174
0
 175
0
 176
3
 177
3
 178
3
 270
2
 271
2
 272
0
 273
2
 274
2
 340
4B
 275
0
 280
0
 281
0
 282
0
 283
1
 284
0
 285
0
 286
0
 287
3
 288
0
   0
DIMSTYLE
 105
51
 100
AcDbSymbolTableRecord
 100
AcDbDimStyleTableRecord
   2
GMM002
  70
0
   3

   4

   5

   6
_OPEN
   7
_OPEN
  40
 1.00000
  41
 9.00000
  42
 3.00000
  43
 24.0000
  44
 6.00000
  45
0.0
  46
0.0
  47
0.0
  48
0.0
 140
 12.0000
 141
 3.00000
 142
0.0
 143
 0.394000E-1
 144
 1.00000
 145
0.0
 146
 0.625000
 147
0.0
  71
0
  72
0
  73
0
  74
0
  75
0
  76
0
  77
1
  78
8
 170
0
 171
2
 172
1
 173
1
 174
0
 175
0
 176
3
 177
3
 178
7
 270
2
 271
2
 272
0
 273
2
 274
2
 340
F
 275
0
 280
0
 281
0
 282
0
 283
1
 284
0
 285
0
 286
0
 287
3
 288
1
   0
DIMSTYLE
 105
52
 100
AcDbSymbolTableRecord
 100
AcDbDimStyleTableRecord
   2
GMM003
  70
0
   3

   4

   5

   6
_OPEN
   7
_OPEN
  40
 1.00000
  41
 9.00000
  42
 3.00000
  43
 24.0000
  44
 6.00000
  45
0.0
  46
0.0
  47
0.0
  48
0.0
 140
 12.0000
 141
 3.00000
 142
0.0
 143
 0.394000E-1
 144
 1.00000
 145
0.0
 146
 0.625000
 147
 2.40000
  71
0
  72
0
  73
0
  74
0
  75
0
  76
0
  77
3
  78
8
 170
0
 171
2
 172
1
 173
1
 174
0
 175
0
 176
3
 177
3
 178
3
 270
2
 271
2
 272
0
 273
2
 274
2
 340
4B
 275
0
 280
0
 281
0
 282
0
 283
1
 284
0
 285
0
 286
0
 287
3
 288
0
   0
DIMSTYLE
 105
53
 100
AcDbSymbolTableRecord
 100
AcDbDimStyleTableRecord
   2
GMM004
  70
0
   3

   4

   5

   6
_OPEN
   7
_OPEN
  40
 1.00000
  41
 9.00000
  42
 1.50000
  43
 24.0000
  44
 6.00000
  45
0.0
  46
0.0
  47
0.0
  48
0.0
 140
 9.45000
 141
 3.00000
 142
0.0
 143
 0.394000E-1
 144
 1.00000
 145
0.0
 146
 0.625000
 147
0.0
  71
0
  72
0
  73
0
  74
0
  75
0
  76
0
  77
1
  78
8
 170
0
 171
2
 172
1
 173
1
 174
0
 175
0
 176
3
 177
3
 178
7
 270
2
 271
2
 272
0
 273
2
 274
2
 340
F
 275
0
 280
0
 281
0
 282
0
 283
1
 284
0
 285
0
 286
0
 287
3
 288
1
   0
DIMSTYLE
 105
54
 100
AcDbSymbolTableRecord
 100
AcDbDimStyleTableRecord
   2
GMM005
  70
0
   3

   4

   5

   6
_OPEN
   7
_OPEN
  40
 1.00000
  41
 9.00000
  42
 3.00000
  43
 24.0000
  44
 6.00000
  45
0.0
  46
0.0
  47
0.0
  48
0.0
 140
 12.0000
 141
 3.00000
 142
0.0
 143
 0.394000E-1
 144
 1.00000
 145
0.0
 146
 0.625000
 147
 2.40000
  71
0
  72
0
  73
0
  74
0
  75
0
  76
0
  77
3
  78
8
 170
0
 171
2
 172
1
 173
1
 174
0
 175
0
 176
3
 177
3
 178
3
 270
2
 271
2
 272
0
 273
2
 274
2
 340
4B
 275
0
 280
0
 281
0
 282
0
 283
1
 284
0
 285
0
 286
0
 287
3
 288
0
   0
DIMSTYLE
 105
55
 100
AcDbSymbolTableRecord
 100
AcDbDimStyleTableRecord
   2
GMM006
  70
0
   3

   4

   5

   6
_OPEN
   7
_OPEN
  40
 1.00000
  41
 9.00000
  42
 3.00000
  43
 24.0000
  44
 6.00000
  45
0.0
  46
0.0
  47
0.0
  48
0.0
 140
 12.0000
 141
 3.00000
 142
0.0
 143
 0.394000E-1
 144
 1.00000
 145
0.0
 146
 0.625000
 147
0.0
  71
0
  72
0
  73
0
  74
0
  75
0
  76
0
  77
1
  78
8
 170
0
 171
2
 172
1
 173
1
 174
0
 175
0
 176
3
 177
3
 178
7
 270
2
 271
2
 272
0
 273
2
 274
2
 340
F
 275
0
 280
0
 281
0
 282
0
 283
1
 284
0
 285
0
 286
0
 287
3
 288
1
   0
DIMSTYLE
 105
56
 100
AcDbSymbolTableRecord
 100
AcDbDimStyleTableRecord
   2
GMM007
  70
0
   3

   4

   5

   6
_OPEN
   7
_OPEN
  40
 1.00000
  41
 9.00000
  42
 3.00000
  43
 24.0000
  44
 6.00000
  45
0.0
  46
0.0
  47
0.0
  48
0.0
 140
 12.0000
 141
 3.00000
 142
0.0
 143
 0.394000E-1
 144
 1.00000
 145
0.0
 146
 0.625000
 147
0.0
  71
0
  72
0
  73
0
  74
0
  75
0
  76
0
  77
0
  78
8
 170
0
 171
2
 172
1
 173
1
 174
0
 175
0
 176
3
 177
3
 178
7
 270
2
 271
2
 272
0
 273
2
 274
2
 340
F
 275
0
 280
0
 281
0
 282
0
 283
1
 284
0
 285
0
 286
0
 287
3
 288
1
   0
DIMSTYLE
 105
57
 100
AcDbSymbolTableRecord
 100
AcDbDimStyleTableRecord
   2
GMM008
  70
0
   3

   4

   5

   6
_OPEN
   7
_OPEN
  40
 1.00000
  41
 5.04000
  42
0.0
  43
 0.100000E-5
  44
 3.36000
  45
0.0
  46
0.0
  47
0.0
  48
0.0
 140
 8.40000
 141
 3.00000
 142
0.0
 143
 0.394000E-1
 144
 1.00000
 145
0.0
 146
 0.625000
 147
0.0
  71
0
  72
0
  73
0
  74
0
  75
0
  76
0
  77
0
  78
0
 170
0
 171
2
 172
1
 173
1
 174
0
 175
0
 176
3
 177
3
 178
7
 270
2
 271
0
 272
0
 273
2
 274
2
 340
F
 275
1
 280
0
 281
0
 282
0
 283
1
 284
0
 285
0
 286
0
 287
3
 288
1
   0
DIMSTYLE
 105
58
 100
AcDbSymbolTableRecord
 100
AcDbDimStyleTableRecord
   2
GMM009
  70
0
   3

   4

   5

   6
_OPEN
   7
_OPEN
  40
 1.00000
  41
 9.00000
  42
 3.00000
  43
 24.0000
  44
 6.00000
  45
0.0
  46
0.0
  47
0.0
  48
0.0
 140
 12.0000
 141
 3.00000
 142
0.0
 143
 0.394000E-1
 144
 1.00000
 145
0.0
 146
 0.625000
 147
 2.40000
  71
0
  72
0
  73
0
  74
0
  75
0
  76
0
  77
3
  78
8
 170
0
 171
2
 172
1
 173
1
 174
0
 175
0
 176
3
 177
3
 178
3
 270
2
 271
2
 272
0
 273
2
 274
2
 340
4B
 275
0
 280
0
 281
0
 282
0
 283
1
 284
0
 285
0
 286
0
 287
3
 288
0
   0
DIMSTYLE
 105
59
 100
AcDbSymbolTableRecord
 100
AcDbDimStyleTableRecord
   2
GMM010
  70
0
   3

   4

   5

   6
_OPEN
   7
_OPEN
  40
 1.00000
  41
 7.50000
  42
 1.50000
  43
 24.0000
  44
 6.00000
  45
0.0
  46
0.0
  47
0.0
  48
0.0
 140
 9.45000
 141
 3.00000
 142
0.0
 143
 0.394000E-1
 144
 1.00000
 145
0.0
 146
 0.625000
 147
0.0
  71
0
  72
0
  73
0
  74
0
  75
0
  76
0
  77
0
  78
8
 170
0
 171
2
 172
1
 173
1
 174
0
 175
0
 176
3
 177
3
 178
7
 270
2
 271
2
 272
0
 273
2
 274
2
 340
F
 275
0
 280
0
 281
0
 282
0
 283
1
 284
0
 285
0
 286
0
 287
3
 288
1
   0
ENDTAB
  0
TABLE
  2
BLOCK_RECORD
  5
1
100
AcDbSymbolTable
 70
     0
  0
BLOCK_RECORD
  5
18
100
AcDbSymbolTableRecord
100
AcDbBlockTableRecord
  2
*MODEL_SPACE
  0
BLOCK_RECORD
  5
15
100
AcDbSymbolTableRecord
100
AcDbBlockTableRecord
  2
*PAPER_SPACE
   0
BLOCK_RECORD
   5
5A
 100
AcDbSymbolTableRecord
 100
AcDbBlockTableRecord
   2
*D1
   0
BLOCK_RECORD
   5
5B
 100
AcDbSymbolTableRecord
 100
AcDbBlockTableRecord
   2
*D3
   0
BLOCK_RECORD
   5
5C
 100
AcDbSymbolTableRecord
 100
AcDbBlockTableRecord
   2
*D4
   0
BLOCK_RECORD
   5
5D
 100
AcDbSymbolTableRecord
 100
AcDbBlockTableRecord
   2
*D5
   0
BLOCK_RECORD
   5
5E
 100
AcDbSymbolTableRecord
 100
AcDbBlockTableRecord
   2
*D7
   0
BLOCK_RECORD
   5
5F
 100
AcDbSymbolTableRecord
 100
AcDbBlockTableRecord
   2
*D8
   0
BLOCK_RECORD
   5
60
 100
AcDbSymbolTableRecord
 100
AcDbBlockTableRecord
   2
*D15
   0
BLOCK_RECORD
   5
61
 100
AcDbSymbolTableRecord
 100
AcDbBlockTableRecord
   2
_ARCHTICK
   0
BLOCK_RECORD
   5
62
 100
AcDbSymbolTableRecord
 100
AcDbBlockTableRecord
   2
_BOXBLANK
   0
BLOCK_RECORD
   5
63
 100
AcDbSymbolTableRecord
 100
AcDbBlockTableRecord
   2
_BOXFILLED
   0
BLOCK_RECORD
   5
64
 100
AcDbSymbolTableRecord
 100
AcDbBlockTableRecord
   2
_CLOSED
   0
BLOCK_RECORD
   5
65
 100
AcDbSymbolTableRecord
 100
AcDbBlockTableRecord
   2
_CLOSEDBLANK
   0
BLOCK_RECORD
   5
66
 100
AcDbSymbolTableRecord
 100
AcDbBlockTableRecord
   2
_DATUMBLANK
   0
BLOCK_RECORD
   5
67
 100
AcDbSymbolTableRecord
 100
AcDbBlockTableRecord
   2
_DATUMFILLED
   0
BLOCK_RECORD
   5
68
 100
AcDbSymbolTableRecord
 100
AcDbBlockTableRecord
   2
_DOT
   0
BLOCK_RECORD
   5
69
 100
AcDbSymbolTableRecord
 100
AcDbBlockTableRecord
   2
_DOTBLANK
   0
BLOCK_RECORD
   5
6A
 100
AcDbSymbolTableRecord
 100
AcDbBlockTableRecord
   2
_DOTSMALL
   0
BLOCK_RECORD
   5
6B
 100
AcDbSymbolTableRecord
 100
AcDbBlockTableRecord
   2
_INTEGRAL
   0
BLOCK_RECORD
   5
6C
 100
AcDbSymbolTableRecord
 100
AcDbBlockTableRecord
   2
_NONE
   0
BLOCK_RECORD
   5
6D
 100
AcDbSymbolTableRecord
 100
AcDbBlockTableRecord
   2
_OBLIQUE
   0
BLOCK_RECORD
   5
6E
 100
AcDbSymbolTableRecord
 100
AcDbBlockTableRecord
   2
_OPEN
   0
BLOCK_RECORD
   5
6F
 100
AcDbSymbolTableRecord
 100
AcDbBlockTableRecord
   2
_OPEN30
   0
BLOCK_RECORD
   5
70
 100
AcDbSymbolTableRecord
 100
AcDbBlockTableRecord
   2
_OPEN90
   0
BLOCK_RECORD
   5
71
 100
AcDbSymbolTableRecord
 100
AcDbBlockTableRecord
   2
_ORIGIN
   0
ENDTAB
   0
ENDSEC
  0
SECTION
  2
BLOCKS
  0
BLOCK
  5
19
100
AcDbEntity
  8
0
100
AcDbBlockBegin
  2
*MODEL_SPACE
 70
     0
 10
0.0
 20
0.0
 30
0.0
  3
*MODEL_SPACE
  1

  0
ENDBLK
  5
1A
100
AcDbEntity
  8
0
100
AcDbBlockEnd
  0
BLOCK
  5
16
100
AcDbEntity
 67
     1
  8
0
100
AcDbBlockBegin
  2
*PAPER_SPACE
 70
     0
 10
0.0
 20
0.0
 30
0.0
  3
*PAPER_SPACE
  1

  0
ENDBLK
  5
17
100
AcDbEntity
 67
     1
  8
0
100
AcDbBlockEnd
   0
BLOCK
   5
72
 100
AcDbEntity
   8
0
 100
AcDbBlockBegin
   2
_ARCHTICK
  70
0
  10
0.0
  20
0.0
  30
0.0
   3
_ARCHTICK
   0
POLYLINE
   5
73
 100
AcDbEntity
   8
0
   6
BYBLOCK
  62
0
 100
AcDb2dPolyline
  66
1
  10
0.0
  20
0.0
  30
0.0
  70
1
  40
 0.150000
  41
 0.150000
   0
VERTEX
   5
74
 100
AcDbEntity
   8
0
   6
BYBLOCK
  62
0
 100
AcDbVertex
 100
AcDb2dVertex
  10
-0.500000
  20
-0.500000
  30
0.0
  40
 0.150000
  41
 0.150000
   0
VERTEX
   5
75
 100
AcDbEntity
   8
0
   6
BYBLOCK
  62
0
 100
AcDbVertex
 100
AcDb2dVertex
  10
 0.500000
  20
 0.500000
  30
0.0
  40
 0.150000
  41
 0.150000
   0
SEQEND
   5
76
 100
AcDbEntity
   8
0
   6
BYBLOCK
  62
0
   0
ENDBLK
   5
77
 100
AcDbEntity
   8
0
 100
AcDbBlockEnd
   0
BLOCK
   5
78
 100
AcDbEntity
   8
0
 100
AcDbBlockBegin
   2
_OBLIQUE
  70
0
  10
0.0
  20
0.0
  30
0.0
   3
_OBLIQUE
   0
LINE
   5
79
 100
AcDbEntity
   8
0
 100
AcDbLine
   6
BYBLOCK
  62
0
  10
-0.500000
  20
-0.500000
  30
0.0
  11
 0.500000
  21
 0.500000
  31
0.0
   0
ENDBLK
   5
7A
 100
AcDbEntity
   8
0
 100
AcDbBlockEnd
   0
BLOCK
   5
7B
 100
AcDbEntity
   8
0
 100
AcDbBlockBegin
   2
_BOXBLANK
  70
0
  10
0.0
  20
0.0
  30
0.0
   3
_BOXBLANK
   0
LINE
   5
7C
 100
AcDbEntity
   8
0
 100
AcDbLine
   6
BYBLOCK
  62
0
  10
-0.500000
  20
-0.500000
  30
0.0
  11
 0.500000
  21
-0.500000
  31
0.0
   0
LINE
   5
7D
 100
AcDbEntity
   8
0
 100
AcDbLine
   6
BYBLOCK
  62
0
  10
 0.500000
  20
-0.500000
  30
0.0
  11
 0.500000
  21
 0.500000
  31
0.0
   0
LINE
   5
7E
 100
AcDbEntity
   8
0
 100
AcDbLine
   6
BYBLOCK
  62
0
  10
 0.500000
  20
 0.500000
  30
0.0
  11
-0.500000
  21
 0.500000
  31
0.0
   0
LINE
   5
7F
 100
AcDbEntity
   8
0
 100
AcDbLine
   6
BYBLOCK
  62
0
  10
-0.500000
  20
 0.500000
  30
0.0
  11
-0.500000
  21
-0.500000
  31
0.0
   0
LINE
   5
80
 100
AcDbEntity
   8
0
 100
AcDbLine
   6
BYBLOCK
  62
0
  10
-0.500000
  20
0.0
  30
0.0
  11
-1.00000
  21
0.0
  31
0.0
   0
ENDBLK
   5
81
 100
AcDbEntity
   8
0
 100
AcDbBlockEnd
   0
BLOCK
   5
82
 100
AcDbEntity
   8
0
 100
AcDbBlockBegin
   2
_BOXFILLED
  70
0
  10
0.0
  20
0.0
  30
0.0
   3
_BOXFILLED
   0
SOLID
   5
83
 100
AcDbEntity
   8
0
 100
AcDbTrace
   6
BYBLOCK
  62
0
  10
-0.500000
  20
 0.500000
  30
0.0
  11
 0.500000
  21
 0.500000
  31
0.0
  12
-0.500000
  22
-0.500000
  32
0.0
  13
 0.500000
  23
-0.500000
  33
0.0
   0
LINE
   5
84
 100
AcDbEntity
   8
0
 100
AcDbLine
   6
BYBLOCK
  62
0
  10
-0.500000
  20
0.0
  30
0.0
  11
-1.00000
  21
0.0
  31
0.0
   0
ENDBLK
   5
85
 100
AcDbEntity
   8
0
 100
AcDbBlockEnd
   0
BLOCK
   5
86
 100
AcDbEntity
   8
0
 100
AcDbBlockBegin
   2
_CLOSED
  70
0
  10
0.0
  20
0.0
  30
0.0
   3
_CLOSED
   0
LINE
   5
87
 100
AcDbEntity
   8
0
 100
AcDbLine
   6
BYBLOCK
  62
0
  10
-1.00000
  20
 0.166667
  30
0.0
  11
0.0
  21
0.0
  31
0.0
   0
LINE
   5
88
 100
AcDbEntity
   8
0
 100
AcDbLine
   6
BYBLOCK
  62
0
  10
0.0
  20
0.0
  30
0.0
  11
-1.00000
  21
-0.166667
  31
0.0
   0
LINE
   5
89
 100
AcDbEntity
   8
0
 100
AcDbLine
   6
BYBLOCK
  62
0
  10
-1.00000
  20
 0.166667
  30
0.0
  11
-1.00000
  21
-0.166667
  31
0.0
   0
LINE
   5
8A
 100
AcDbEntity
   8
0
 100
AcDbLine
   6
BYBLOCK
  62
0
  10
0.0
  20
0.0
  30
0.0
  11
-1.00000
  21
0.0
  31
0.0
   0
ENDBLK
   5
8B
 100
AcDbEntity
   8
0
 100
AcDbBlockEnd
   0
BLOCK
   5
8C
 100
AcDbEntity
   8
0
 100
AcDbBlockBegin
   2
_OPEN
  70
0
  10
0.0
  20
0.0
  30
0.0
   3
_OPEN
   0
LINE
   5
8D
 100
AcDbEntity
   8
0
 100
AcDbLine
   6
BYBLOCK
  62
0
  10
-1.00000
  20
 0.166667
  30
0.0
  11
0.0
  21
0.0
  31
0.0
   0
LINE
   5
8E
 100
AcDbEntity
   8
0
 100
AcDbLine
   6
BYBLOCK
  62
0
  10
0.0
  20
0.0
  30
0.0
  11
-1.00000
  21
-0.166667
  31
0.0
   0
LINE
   5
8F
 100
AcDbEntity
   8
0
 100
AcDbLine
   6
BYBLOCK
  62
0
  10
0.0
  20
0.0
  30
0.0
  11
-1.00000
  21
0.0
  31
0.0
   0
ENDBLK
   5
90
 100
AcDbEntity
   8
0
 100
AcDbBlockEnd
   0
BLOCK
   5
91
 100
AcDbEntity
   8
0
 100
AcDbBlockBegin
   2
_OPEN30
  70
0
  10
0.0
  20
0.0
  30
0.0
   3
_OPEN30
   0
LINE
   5
92
 100
AcDbEntity
   8
0
 100
AcDbLine
   6
BYBLOCK
  62
0
  10
-1.00000
  20
 0.267949
  30
0.0
  11
0.0
  21
0.0
  31
0.0
   0
LINE
   5
93
 100
AcDbEntity
   8
0
 100
AcDbLine
   6
BYBLOCK
  62
0
  10
0.0
  20
0.0
  30
0.0
  11
-1.00000
  21
-0.267949
  31
0.0
   0
LINE
   5
94
 100
AcDbEntity
   8
0
 100
AcDbLine
   6
BYBLOCK
  62
0
  10
0.0
  20
0.0
  30
0.0
  11
-1.00000
  21
0.0
  31
0.0
   0
ENDBLK
   5
95
 100
AcDbEntity
   8
0
 100
AcDbBlockEnd
   0
BLOCK
   5
96
 100
AcDbEntity
   8
0
 100
AcDbBlockBegin
   2
_OPEN90
  70
0
  10
0.0
  20
0.0
  30
0.0
   3
_OPEN90
   0
LINE
   5
97
 100
AcDbEntity
   8
0
 100
AcDbLine
   6
BYBLOCK
  62
0
  10
-0.500000
  20
 0.500000
  30
0.0
  11
0.0
  21
0.0
  31
0.0
   0
LINE
   5
98
 100
AcDbEntity
   8
0
 100
AcDbLine
   6
BYBLOCK
  62
0
  10
0.0
  20
0.0
  30
0.0
  11
-0.500000
  21
-0.500000
  31
0.0
   0
LINE
   5
99
 100
AcDbEntity
   8
0
 100
AcDbLine
   6
BYBLOCK
  62
0
  10
0.0
  20
0.0
  30
0.0
  11
-1.00000
  21
0.0
  31
0.0
   0
ENDBLK
   5
9A
 100
AcDbEntity
   8
0
 100
AcDbBlockEnd
   0
BLOCK
   5
9B
 100
AcDbEntity
   8
0
 100
AcDbBlockBegin
   2
_CLOSEDBLANK
  70
0
  10
0.0
  20
0.0
  30
0.0
   3
_CLOSEDBLANK
   0
LINE
   5
9C
 100
AcDbEntity
   8
0
 100
AcDbLine
   6
BYBLOCK
  62
0
  10
-1.00000
  20
 0.166667
  30
0.0
  11
0.0
  21
0.0
  31
0.0
   0
LINE
   5
9D
 100
AcDbEntity
   8
0
 100
AcDbLine
   6
BYBLOCK
  62
0
  10
0.0
  20
0.0
  30
0.0
  11
-1.00000
  21
-0.166667
  31
0.0
   0
LINE
   5
9E
 100
AcDbEntity
   8
0
 100
AcDbLine
   6
BYBLOCK
  62
0
  10
-1.00000
  20
 0.166667
  30
0.0
  11
-1.00000
  21
-0.166667
  31
0.0
   0
ENDBLK
   5
9F
 100
AcDbEntity
   8
0
 100
AcDbBlockEnd
   0
BLOCK
   5
A0
 100
AcDbEntity
   8
0
 100
AcDbBlockBegin
   2
_DOT
  70
0
  10
0.0
  20
0.0
  30
0.0
   3
_DOT
   0
POLYLINE
   5
A1
 100
AcDbEntity
   8
0
   6
BYBLOCK
  62
0
 100
AcDb2dPolyline
  66
1
  10
0.0
  20
0.0
  30
0.0
  70
1
  40
 0.500000
  41
 0.500000
   0
VERTEX
   5
A2
 100
AcDbEntity
   8
0
   6
BYBLOCK
  62
0
 100
AcDbVertex
 100
AcDb2dVertex
  10
-0.250000
  20
0.0
  30
0.0
  42
 1.00000
  40
 0.500000
  41
 0.500000
   0
VERTEX
   5
A3
 100
AcDbEntity
   8
0
   6
BYBLOCK
  62
0
 100
AcDbVertex
 100
AcDb2dVertex
  10
 0.250000
  20
0.0
  30
0.0
  42
 1.00000
  40
 0.500000
  41
 0.500000
   0
SEQEND
   5
A4
 100
AcDbEntity
   8
0
   6
BYBLOCK
  62
0
   0
LINE
   5
A5
 100
AcDbEntity
   8
0
 100
AcDbLine
   6
BYBLOCK
  62
0
  10
-0.500000
  20
0.0
  30
0.0
  11
-1.00000
  21
0.0
  31
0.0
   0
ENDBLK
   5
A6
 100
AcDbEntity
   8
0
 100
AcDbBlockEnd
   0
BLOCK
   5
A7
 100
AcDbEntity
   8
0
 100
AcDbBlockBegin
   2
_DOTSMALL
  70
0
  10
0.0
  20
0.0
  30
0.0
   3
_DOTSMALL
   0
POLYLINE
   5
A8
 100
AcDbEntity
   8
0
   6
BYBLOCK
  62
0
 100
AcDb2dPolyline
  66
1
  10
0.0
  20
0.0
  30
0.0
  70
1
  40
 0.500000
  41
 0.500000
   0
VERTEX
   5
A9
 100
AcDbEntity
   8
0
   6
BYBLOCK
  62
0
 100
AcDbVertex
 100
AcDb2dVertex
  10
-0.625000E-1
  20
0.0
  30
0.0
  42
 1.00000
  40
 0.500000
  41
 0.500000
   0
VERTEX
   5
AA
 100
AcDbEntity
   8
0
   6
BYBLOCK
  62
0
 100
AcDbVertex
 100
AcDb2dVertex
  10
 0.625000E-1
  20
0.0
  30
0.0
  42
 1.00000
  40
 0.500000
  41
 0.500000
   0
SEQEND
   5
AB
 100
AcDbEntity
   8
0
   6
BYBLOCK
  62
0
   0
ENDBLK
   5
AC
 100
AcDbEntity
   8
0
 100
AcDbBlockEnd
   0
BLOCK
   5
AD
 100
AcDbEntity
   8
0
 100
AcDbBlockBegin
   2
_DATUMBLANK
  70
0
  10
0.0
  20
0.0
  30
0.0
   3
_DATUMBLANK
   0
LINE
   5
AE
 100
AcDbEntity
   8
0
 100
AcDbLine
   6
BYBLOCK
  62
0
  10
0.0
  20
 0.577350
  30
0.0
  11
-1.00000
  21
0.0
  31
0.0
   0
LINE
   5
AF
 100
AcDbEntity
   8
0
 100
AcDbLine
   6
BYBLOCK
  62
0
  10
-1.00000
  20
0.0
  30
0.0
  11
0.0
  21
-0.577350
  31
0.0
   0
LINE
   5
B0
 100
AcDbEntity
   8
0
 100
AcDbLine
   6
BYBLOCK
  62
0
  10
0.0
  20
-0.577350
  30
0.0
  11
0.0
  21
 0.577350
  31
0.0
   0
ENDBLK
   5
B1
 100
AcDbEntity
   8
0
 100
AcDbBlockEnd
   0
BLOCK
   5
B2
 100
AcDbEntity
   8
0
 100
AcDbBlockBegin
   2
_DATUMFILLED
  70
0
  10
0.0
  20
0.0
  30
0.0
   3
_DATUMFILLED
   0
SOLID
   5
B3
 100
AcDbEntity
   8
0
 100
AcDbTrace
   6
BYBLOCK
  62
0
  10
0.0
  20
 0.577350
  30
0.0
  11
-1.00000
  21
0.0
  31
0.0
  12
0.0
  22
-0.577350
  32
0.0
  13
0.0
  23
-0.577350
  33
0.0
   0
ENDBLK
   5
B4
 100
AcDbEntity
   8
0
 100
AcDbBlockEnd
   0
BLOCK
   5
B5
 100
AcDbEntity
   8
0
 100
AcDbBlockBegin
   2
_ORIGIN
  70
0
  10
0.0
  20
0.0
  30
0.0
   3
_ORIGIN
   0
CIRCLE
   5
B6
 100
AcDbEntity
   8
0
 100
AcDbCircle
   6
BYBLOCK
  62
0
  10
0.0
  20
0.0
  30
0.0
  40
 0.500000
   0
LINE
   5
B7
 100
AcDbEntity
   8
0
 100
AcDbLine
   6
BYBLOCK
  62
0
  10
0.0
  20
0.0
  30
0.0
  11
-1.00000
  21
0.0
  31
0.0
   0
ENDBLK
   5
B8
 100
AcDbEntity
   8
0
 100
AcDbBlockEnd
   0
BLOCK
   5
B9
 100
AcDbEntity
   8
0
 100
AcDbBlockBegin
   2
_NONE
  70
0
  10
0.0
  20
0.0
  30
0.0
   3
_NONE
   0
CIRCLE
   5
BA
 100
AcDbEntity
   8
0
 100
AcDbCircle
   6
BYBLOCK
  62
0
  10
0.0
  20
0.0
  30
0.0
  40
 0.250000
   0
ENDBLK
   5
BB
 100
AcDbEntity
   8
0
 100
AcDbBlockEnd
   0
BLOCK
   5
BC
 100
AcDbEntity
   8
0
 100
AcDbBlockBegin
   2
_DOTBLANK
  70
0
  10
0.0
  20
0.0
  30
0.0
   3
_DOTBLANK
   0
CIRCLE
   5
BD
 100
AcDbEntity
   8
0
 100
AcDbCircle
   6
BYBLOCK
  62
0
  10
0.0
  20
0.0
  30
0.0
  40
 0.500000
   0
LINE
   5
BE
 100
AcDbEntity
   8
0
 100
AcDbLine
   6
BYBLOCK
  62
0
  10
-0.500000
  20
0.0
  30
0.0
  11
-1.00000
  21
0.0
  31
0.0
   0
ENDBLK
   5
BF
 100
AcDbEntity
   8
0
 100
AcDbBlockEnd
   0
BLOCK
   5
C0
 100
AcDbEntity
   8
0
 100
AcDbBlockBegin
   2
_INTEGRAL
  70
0
  10
0.0
  20
0.0
  30
0.0
   3
_INTEGRAL
   0
ARC
   5
C1
 100
AcDbEntity
   8
0
   6
BYBLOCK
  62
0
 100
AcDbCircle
  10
 0.444888
  20
-0.913350E-1
  30
0.0
  40
 0.454167
 100
AcDbArc
  50
 102.000
  51
 168.000
   0
ARC
   5
C2
 100
AcDbEntity
   8
0
   6
BYBLOCK
  62
0
 100
AcDbCircle
  10
-0.444888
  20
 0.913350E-1
  30
0.0
  40
 0.454167
 100
AcDbArc
  50
 282.000
  51
 348.000
   0
ENDBLK
   5
C3
 100
AcDbEntity
   8
0
 100
AcDbBlockEnd
   0
BLOCK
   5
C4
 100
AcDbEntity
   8
0
 100
AcDbBlockBegin
   2
*D1
  70
65
  10
0.0
  20
0.0
  30
0.0
   3
*D1
   0
LINE
   5
C5
 100
AcDbEntity
   8
LEVEL003
 100
AcDbLine
   6
CONTINUOUS
  62
3
  10
 532.500
  20
 84.0000
  30
0.0
  11
 532.500
  21
 61.5000
  31
0.0
   0
LINE
   5
C6
 100
AcDbEntity
   8
LEVEL003
 100
AcDbLine
   6
CONTINUOUS
  62
3
  10
 727.500
  20
 84.0000
  30
0.0
  11
 727.500
  21
 61.5000
  31
0.0
   0
LINE
   5
C7
 100
AcDbEntity
   8
LEVEL003
 100
AcDbLine
   6
CONTINUOUS
  62
3
  10
 532.500
  20
 67.5000
  30
0.0
  11
 613.856
  21
 67.5000
  31
0.0
   0
LINE
   5
C8
 100
AcDbEntity
   8
LEVEL003
 100
AcDbLine
   6
CONTINUOUS
  62
3
  10
 727.500
  20
 67.5000
  30
0.0
  11
 646.144
  21
 67.5000
  31
0.0
   0
INSERT
   5
C9
 100
AcDbEntity
   8
LEVEL003
   6
CONTINUOUS
  62
3
 100
AcDbBlockReference
   2
_OPEN
  10
 532.500
  20
 67.5000
  30
0.0
  41
 9.00000
  42
 9.00000
  43
 9.00000
  50
 180.000
   0
INSERT
   5
CA
 100
AcDbEntity
   8
LEVEL003
   6
CONTINUOUS
  62
3
 100
AcDbBlockReference
   2
_OPEN
  10
 727.500
  20
 67.5000
  30
0.0
  41
 9.00000
  42
 9.00000
  43
 9.00000
  50
0.0
   0
MTEXT
   5
CB
 100
AcDbEntity
   8
LEVEL003
  62
3
 100
AcDbMText
  10
 630.000
  20
 69.9000
  30
0.0
  40
 12.0000
  41
0.0
  71
8
  72
1
   1
\A1;195
   7
GMM001
   0
ENDBLK
   5
CC
 100
AcDbEntity
   8
0
 100
AcDbBlockEnd
   0
BLOCK
   5
CD
 100
AcDbEntity
   8
0
 100
AcDbBlockBegin
   2
*D3
  70
65
  10
0.0
  20
0.0
  30
0.0
   3
*D3
   0
LINE
   5
CE
 100
AcDbEntity
   8
LEVEL003
 100
AcDbLine
   6
CONTINUOUS
  62
3
  10
 175.000
  20
 502.000
  30
0.0
  11
 175.000
  21
 455.291
  31
0.0
   0
LINE
   5
CF
 100
AcDbEntity
   8
LEVEL003
 100
AcDbLine
   6
CONTINUOUS
  62
3
  10
 335.000
  20
 502.000
  30
0.0
  11
 335.000
  21
 455.291
  31
0.0
   0
LINE
   5
D0
 100
AcDbEntity
   8
LEVEL003
 100
AcDbLine
   6
CONTINUOUS
  62
3
  10
 175.000
  20
 461.291
  30
0.0
  11
 239.906
  21
 461.291
  31
0.0
   0
LINE
   5
D1
 100
AcDbEntity
   8
LEVEL003
 100
AcDbLine
   6
CONTINUOUS
  62
3
  10
 335.000
  20
 461.291
  30
0.0
  11
 270.094
  21
 461.291
  31
0.0
   0
INSERT
   5
D2
 100
AcDbEntity
   8
LEVEL003
   6
CONTINUOUS
  62
3
 100
AcDbBlockReference
   2
_OPEN
  10
 175.000
  20
 461.291
  30
0.0
  41
 9.00000
  42
 9.00000
  43
 9.00000
  50
 180.000
   0
INSERT
   5
D3
 100
AcDbEntity
   8
LEVEL003
   6
CONTINUOUS
  62
3
 100
AcDbBlockReference
   2
_OPEN
  10
 335.000
  20
 461.291
  30
0.0
  41
 9.00000
  42
 9.00000
  43
 9.00000
  50
0.0
   0
MTEXT
   5
D4
 100
AcDbEntity
   8
LEVEL003
  62
3
 100
AcDbMText
  10
 255.000
  20
 463.691
  30
0.0
  40
 12.0000
  41
0.0
  71
8
  72
1
   1
\A1;160
   7
GMM001
   0
ENDBLK
   5
D5
 100
AcDbEntity
   8
0
 100
AcDbBlockEnd
   0
BLOCK
   5
D6
 100
AcDbEntity
   8
0
 100
AcDbBlockBegin
   2
*D4
  70
65
  10
0.0
  20
0.0
  30
0.0
   3
*D4
   0
LINE
   5
D7
 100
AcDbEntity
   8
LEVEL003
 100
AcDbLine
   6
CONTINUOUS
  62
3
  10
 174.500
  20
 90.0000
  30
0.0
  11
 144.000
  21
 90.0000
  31
0.0
   0
LINE
   5
D8
 100
AcDbEntity
   8
LEVEL003
 100
AcDbLine
   6
CONTINUOUS
  62
3
  10
 172.000
  20
 222.000
  30
0.0
  11
 144.000
  21
 222.000
  31
0.0
   0
LINE
   5
D9
 100
AcDbEntity
   8
LEVEL003
 100
AcDbLine
   6
CONTINUOUS
  62
3
  10
 150.000
  20
 90.0000
  30
0.0
  11
 150.000
  21
 139.856
  31
0.0
   0
LINE
   5
DA
 100
AcDbEntity
   8
LEVEL003
 100
AcDbLine
   6
CONTINUOUS
  62
3
  10
 150.000
  20
 222.000
  30
0.0
  11
 150.000
  21
 172.144
  31
0.0
   0
INSERT
   5
DB
 100
AcDbEntity
   8
LEVEL003
   6
CONTINUOUS
  62
3
 100
AcDbBlockReference
   2
_OPEN
  10
 150.000
  20
 90.0000
  30
0.0
  41
 9.00000
  42
 9.00000
  43
 9.00000
  50
 270.000
   0
INSERT
   5
DC
 100
AcDbEntity
   8
LEVEL003
   6
CONTINUOUS
  62
3
 100
AcDbBlockReference
   2
_OPEN
  10
 150.000
  20
 222.000
  30
0.0
  41
 9.00000
  42
 9.00000
  43
 9.00000
  50
 90.0000
   0
MTEXT
   5
DD
 100
AcDbEntity
   8
LEVEL003
  62
3
 100
AcDbMText
  10
 147.600
  20
 156.000
  30
0.0
  40
 12.0000
  41
0.0
  71
8
  72
1
   1
\A1;132
   7
GMM001
  11
0.0
  21
 1.00000
  31
0.0
   0
ENDBLK
   5
DE
 100
AcDbEntity
   8
0
 100
AcDbBlockEnd
   0
BLOCK
   5
DF
 100
AcDbEntity
   8
0
 100
AcDbBlockBegin
   2
*D5
  70
65
  10
0.0
  20
0.0
  30
0.0
   3
*D5
   0
LINE
   5
E0
 100
AcDbEntity
   8
LEVEL003
 100
AcDbLine
   6
CONTINUOUS
  62
3
  10
 187.500
  20
 84.0000
  30
0.0
  11
 187.500
  21
 61.5000
  31
0.0
   0
LINE
   5
E1
 100
AcDbEntity
   8
LEVEL003
 100
AcDbLine
   6
CONTINUOUS
  62
3
  10
 322.500
  20
 84.0000
  30
0.0
  11
 322.500
  21
 61.5000
  31
0.0
   0
LINE
   5
E2
 100
AcDbEntity
   8
LEVEL003
 100
AcDbLine
   6
CONTINUOUS
  62
3
  10
 187.500
  20
 67.5000
  30
0.0
  11
 238.856
  21
 67.5000
  31
0.0
   0
LINE
   5
E3
 100
AcDbEntity
   8
LEVEL003
 100
AcDbLine
   6
CONTINUOUS
  62
3
  10
 322.500
  20
 67.5000
  30
0.0
  11
 271.144
  21
 67.5000
  31
0.0
   0
INSERT
   5
E4
 100
AcDbEntity
   8
LEVEL003
   6
CONTINUOUS
  62
3
 100
AcDbBlockReference
   2
_OPEN
  10
 187.500
  20
 67.5000
  30
0.0
  41
 9.00000
  42
 9.00000
  43
 9.00000
  50
 180.000
   0
INSERT
   5
E5
 100
AcDbEntity
   8
LEVEL003
   6
CONTINUOUS
  62
3
 100
AcDbBlockReference
   2
_OPEN
  10
 322.500
  20
 67.5000
  30
0.0
  41
 9.00000
  42
 9.00000
  43
 9.00000
  50
0.0
   0
MTEXT
   5
E6
 100
AcDbEntity
   8
LEVEL003
  62
3
 100
AcDbMText
  10
 255.000
  20
 69.9000
  30
0.0
  40
 12.0000
  41
0.0
  71
8
  72
1
   1
\A1;135
   7
GMM001
   0
ENDBLK
   5
E7
 100
AcDbEntity
   8
0
 100
AcDbBlockEnd
   0
BLOCK
   5
E8
 100
AcDbEntity
   8
0
 100
AcDbBlockBegin
   2
*D7
  70
65
  10
0.0
  20
0.0
  30
0.0
   3
*D7
   0
LINE
   5
E9
 100
AcDbEntity
   8
LEVEL003
 100
AcDbLine
   6
CONTINUOUS
  62
3
  10
 737.500
  20
 72.4000
  30
0.0
  11
 737.500
  21
 39.0000
  31
0.0
   0
LINE
   5
EA
 100
AcDbEntity
   8
LEVEL003
 100
AcDbLine
   6
CONTINUOUS
  62
3
  10
 522.500
  20
 72.4000
  30
0.0
  11
 522.500
  21
 39.0000
  31
0.0
   0
LINE
   5
EB
 100
AcDbEntity
   8
LEVEL003
 100
AcDbLine
   6
CONTINUOUS
  62
3
  10
 737.500
  20
 45.0000
  30
0.0
  11
 646.144
  21
 45.0000
  31
0.0
   0
LINE
   5
EC
 100
AcDbEntity
   8
LEVEL003
 100
AcDbLine
   6
CONTINUOUS
  62
3
  10
 522.500
  20
 45.0000
  30
0.0
  11
 613.856
  21
 45.0000
  31
0.0
   0
INSERT
   5
ED
 100
AcDbEntity
   8
LEVEL003
   6
CONTINUOUS
  62
3
 100
AcDbBlockReference
   2
_OPEN
  10
 737.500
  20
 45.0000
  30
0.0
  41
 9.00000
  42
 9.00000
  43
 9.00000
  50
0.0
   0
INSERT
   5
EE
 100
AcDbEntity
   8
LEVEL003
   6
CONTINUOUS
  62
3
 100
AcDbBlockReference
   2
_OPEN
  10
 522.500
  20
 45.0000
  30
0.0
  41
 9.00000
  42
 9.00000
  43
 9.00000
  50
 180.000
   0
MTEXT
   5
EF
 100
AcDbEntity
   8
LEVEL003
  62
3
 100
AcDbMText
  10
 630.000
  20
 47.4000
  30
0.0
  40
 12.0000
  41
0.0
  71
8
  72
1
   1
\A1;215
   7
GMM001
   0
ENDBLK
   5
F0
 100
AcDbEntity
   8
0
 100
AcDbBlockEnd
   0
BLOCK
   5
F1
 100
AcDbEntity
   8
0
 100
AcDbBlockBegin
   2
*D8
  70
65
  10
0.0
  20
0.0
  30
0.0
   3
*D8
   0
LINE
   5
F2
 100
AcDbEntity
   8
LEVEL003
 100
AcDbLine
   6
CONTINUOUS
  62
3
  10
 177.500
  20
 72.4000
  30
0.0
  11
 177.500
  21
 39.0000
  31
0.0
   0
LINE
   5
F3
 100
AcDbEntity
   8
LEVEL003
 100
AcDbLine
   6
CONTINUOUS
  62
3
  10
 332.500
  20
 72.4000
  30
0.0
  11
 332.500
  21
 39.0000
  31
0.0
   0
LINE
   5
F4
 100
AcDbEntity
   8
LEVEL003
 100
AcDbLine
   6
CONTINUOUS
  62
3
  10
 177.500
  20
 45.0000
  30
0.0
  11
 238.856
  21
 45.0000
  31
0.0
   0
LINE
   5
F5
 100
AcDbEntity
   8
LEVEL003
 100
AcDbLine
   6
CONTINUOUS
  62
3
  10
 332.500
  20
 45.0000
  30
0.0
  11
 271.144
  21
 45.0000
  31
0.0
   0
INSERT
   5
F6
 100
AcDbEntity
   8
LEVEL003
   6
CONTINUOUS
  62
3
 100
AcDbBlockReference
   2
_OPEN
  10
 177.500
  20
 45.0000
  30
0.0
  41
 9.00000
  42
 9.00000
  43
 9.00000
  50
 180.000
   0
INSERT
   5
F7
 100
AcDbEntity
   8
LEVEL003
   6
CONTINUOUS
  62
3
 100
AcDbBlockReference
   2
_OPEN
  10
 332.500
  20
 45.0000
  30
0.0
  41
 9.00000
  42
 9.00000
  43
 9.00000
  50
0.0
   0
MTEXT
   5
F8
 100
AcDbEntity
   8
LEVEL003
  62
3
 100
AcDbMText
  10
 255.000
  20
 47.4000
  30
0.0
  40
 12.0000
  41
0.0
  71
8
  72
1
   1
\A1;155
   7
GMM001
   0
ENDBLK
   5
F9
 100
AcDbEntity
   8
0
 100
AcDbBlockEnd
   0
BLOCK
   5
FA
 100
AcDbEntity
   8
0
 100
AcDbBlockBegin
   2
*D15
  70
65
  10
0.0
  20
0.0
  30
0.0
   3
*D15
   0
LINE
   5
FB
 100
AcDbEntity
   8
LEVEL003
 100
AcDbLine
   6
CONTINUOUS
  62
3
  10
 174.500
  20
 75.4000
  30
0.0
  11
 114.000
  21
 75.4000
  31
0.0
   0
LINE
   5
FC
 100
AcDbEntity
   8
LEVEL003
 100
AcDbLine
   6
CONTINUOUS
  62
3
  10
 206.700
  20
 443.000
  30
0.0
  11
 114.000
  21
 443.000
  31
0.0
   0
LINE
   5
FD
 100
AcDbEntity
   8
LEVEL003
 100
AcDbLine
   6
CONTINUOUS
  62
3
  10
 120.000
  20
 75.4000
  30
0.0
  11
 120.000
  21
 259.200
  31
0.0
   0
LINE
   5
FE
 100
AcDbEntity
   8
LEVEL003
 100
AcDbLine
   6
CONTINUOUS
  62
3
  10
 120.000
  20
 443.000
  30
0.0
  11
 120.000
  21
 259.200
  31
0.0
   0
INSERT
   5
FF
 100
AcDbEntity
   8
LEVEL003
   6
CONTINUOUS
  62
3
 100
AcDbBlockReference
   2
_OPEN
  10
 120.000
  20
 75.4000
  30
0.0
  41
 9.00000
  42
 9.00000
  43
 9.00000
  50
 270.000
   0
INSERT
   5
100
 100
AcDbEntity
   8
LEVEL003
   6
CONTINUOUS
  62
3
 100
AcDbBlockReference
   2
_OPEN
  10
 120.000
  20
 443.000
  30
0.0
  41
 9.00000
  42
 9.00000
  43
 9.00000
  50
 90.0000
   0
MTEXT
   5
101
 100
AcDbEntity
   8
LEVEL003
  62
3
 100
AcDbMText
  10
 117.600
  20
 259.200
  30
0.0
  40
 12.0000
  41
0.0
  71
8
  72
1
   1
\A1;約370
   7
GMM001
  11
0.0
  21
 1.00000
  31
0.0
   0
ENDBLK
   5
102
 100
AcDbEntity
   8
0
 100
AcDbBlockEnd
   0
ENDSEC
   0
SECTION
   2
ENTITIES
   0
LINE
   5
103
 100
AcDbEntity
   8
LEVEL100
 100
AcDbLine
   6
CONTINUOUS
  62
7
  10
 933.750
  20
 192.000
  30
0.0
  11
 933.750
  21
 171.000
  31
0.0
   0
LINE
   5
104
 100
AcDbEntity
   8
LEVEL100
 100
AcDbLine
   6
CONTINUOUS
  62
7
  10
 1023.75
  20
 192.000
  30
0.0
  11
 1023.75
  21
 123.000
  31
0.0
   0
LINE
   5
105
 100
AcDbEntity
   8
LEVEL100
 100
AcDbLine
   6
CONTINUOUS
  62
7
  10
 1083.75
  20
 192.000
  30
0.0
  11
 1083.75
  21
 171.000
  31
0.0
   0
LINE
   5
106
 100
AcDbEntity
   8
LEVEL100
 100
AcDbLine
   6
CONTINUOUS
  62
7
  10
 1107.75
  20
 192.000
  30
0.0
  11
 1107.75
  21
 171.000
  31
0.0
   0
LINE
   5
107
 100
AcDbEntity
   8
LEVEL100
 100
AcDbLine
   6
CONTINUOUS
  62
7
  10
 1142.25
  20
 192.000
  30
0.0
  11
 1142.25
  21
 171.000
  31
0.0
   0
LINE
   5
108
 100
AcDbEntity
   8
LEVEL100
 100
AcDbLine
   6
CONTINUOUS
  62
7
  10
 995.250
  20
 171.000
  30
0.0
  11
 995.250
  21
 123.000
  31
0.0
   0
LINE
   5
109
 100
AcDbEntity
   8
LEVEL100
 100
AcDbLine
   6
CONTINUOUS
  62
7
  10
 945.750
  20
 79.5000
  30
0.0
  11
 960.750
  21
 94.5000
  31
0.0
   0
CIRCLE
   5
10A
 100
AcDbEntity
   8
LEVEL100
 100
AcDbCircle
   6
CONTINUOUS
  62
7
  10
 924.750
  20
 34.5000
  30
0.0
  40
 1.20000
   0
CIRCLE
   5
10B
 100
AcDbEntity
   8
LEVEL100
 100
AcDbCircle
   6
CONTINUOUS
  62
7
  10
 945.750
  20
 34.5000
  30
0.0
  40
 1.20000
   0
CIRCLE
   5
10C
 100
AcDbEntity
   8
LEVEL100
 100
AcDbCircle
   6
CONTINUOUS
  62
7
  10
 924.750
  20
 34.5000
  30
0.0
  40
 0.750000
   0
CIRCLE
   5
10D
 100
AcDbEntity
   8
LEVEL100
 100
AcDbCircle
   6
CONTINUOUS
  62
7
  10
 945.750
  20
 34.5000
  30
0.0
  40
 0.750000
   0
LINE
   5
10E
 100
AcDbEntity
   8
LEVEL100
 100
AcDbLine
   6
CONTINUOUS
  62
7
  10
 1038.00
  20
 46.5000
  30
0.0
  11
 1038.00
  21
 49.5000
  31
0.0
   0
LINE
   5
10F
 100
AcDbEntity
   8
LEVEL100
 100
AcDbLine
   6
CONTINUOUS
  62
7
  10
 1038.00
  20
 49.5000
  30
0.0
  11
 1047.00
  21
 49.5000
  31
0.0
   0
LINE
   5
110
 100
AcDbEntity
   8
LEVEL100
 100
AcDbLine
   6
CONTINUOUS
  62
7
  10
 1047.00
  20
 49.5000
  30
0.0
  11
 1047.00
  21
 46.5000
  31
0.0
   0
LINE
   5
111
 100
AcDbEntity
   8
LEVEL100
 100
AcDbLine
   6
CONTINUOUS
  62
7
  10
 1047.00
  20
 46.5000
  30
0.0
  11
 1038.00
  21
 46.5000
  31
0.0
   0
LINE
   5
112
 100
AcDbEntity
   8
LEVEL100
 100
AcDbLine
   6
CONTINUOUS
  62
7
  10
 903.750
  20
 30.0000
  30
0.0
  11
 903.750
  21
 192.000
  31
0.0
   0
LINE
   5
113
 100
AcDbEntity
   8
LEVEL100
 100
AcDbLine
   6
CONTINUOUS
  62
7
  10
 966.750
  20
 171.000
  30
0.0
  11
 966.750
  21
 30.0000
  31
0.0
   0
LINE
   5
114
 100
AcDbEntity
   8
LEVEL100
 100
AcDbLine
   6
CONTINUOUS
  62
7
  10
 903.750
  20
 99.0000
  30
0.0
  11
 966.750
  21
 99.0000
  31
0.0
   0
TEXT
   5
115
 100
AcDbEntity
   8
LEVEL100
  62
7
 100
AcDbText
  10
 977.250
  20
 40.5000
  30
0.0
  40
 15.0000
   1
ＯＪ
  41
 0.700000
   7
STANDARD
 100
AcDbText
   0
LINE
   5
116
 100
AcDbEntity
   8
LEVEL100
 100
AcDbLine
   6
CONTINUOUS
  62
7
  10
 903.750
  20
 171.000
  30
0.0
  11
 1224.45
  21
 171.000
  31
0.0
   0
LINE
   5
117
 100
AcDbEntity
   8
LEVEL100
 100
AcDbLine
   6
CONTINUOUS
  62
7
  10
 903.750
  20
 159.000
  30
0.0
  11
 1224.45
  21
 159.000
  31
0.0
   0
LINE
   5
118
 100
AcDbEntity
   8
LEVEL100
 100
AcDbLine
   6
CONTINUOUS
  62
7
  10
 903.750
  20
 192.000
  30
0.0
  11
 1224.45
  21
 192.000
  31
0.0
   0
LINE
   5
119
 100
AcDbEntity
   8
LEVEL100
 100
AcDbLine
   6
CONTINUOUS
  62
7
  10
 981.450
  20
 789.000
  30
0.0
  11
 981.450
  21
 864.000
  31
0.0
   0
LINE
   5
11A
 100
AcDbEntity
   8
LEVEL100
 100
AcDbLine
   6
CONTINUOUS
  62
7
  10
 981.450
  20
 849.000
  30
0.0
  11
 1224.45
  21
 849.000
  31
0.0
   0
LINE
   5
11B
 100
AcDbEntity
   8
LEVEL100
 100
AcDbLine
   6
CONTINUOUS
  62
7
  10
 981.450
  20
 834.000
  30
0.0
  11
 1224.45
  21
 834.000
  31
0.0
   0
LINE
   5
11C
 100
AcDbEntity
   8
LEVEL100
 100
AcDbLine
   6
CONTINUOUS
  62
7
  10
 1008.45
  20
 849.000
  30
0.0
  11
 1008.45
  21
 834.000
  31
0.0
   0
LINE
   5
11D
 100
AcDbEntity
   8
LEVEL100
 100
AcDbLine
   6
CONTINUOUS
  62
7
  10
 1164.45
  20
 849.000
  30
0.0
  11
 1164.45
  21
 834.000
  31
0.0
   0
LINE
   5
11E
 100
AcDbEntity
   8
LEVEL100
 100
AcDbLine
   6
CONTINUOUS
  62
7
  10
 1200.45
  20
 849.000
  30
0.0
  11
 1200.45
  21
 834.000
  31
0.0
   0
LINE
   5
11F
 100
AcDbEntity
   8
LEVEL100
 100
AcDbLine
   6
CONTINUOUS
  62
7
  10
 903.750
  20
 123.000
  30
0.0
  11
 1224.45
  21
 123.000
  31
0.0
   0
LINE
   5
120
 100
AcDbEntity
   8
LEVEL100
 100
AcDbLine
   6
CONTINUOUS
  62
7
  10
 903.750
  20
 75.0000
  30
0.0
  11
 1224.45
  21
 75.0000
  31
0.0
   0
LINE
   5
121
 100
AcDbEntity
   8
LEVEL100
 100
AcDbLine
   6
CONTINUOUS
  62
7
  10
 1140.45
  20
 75.0000
  30
0.0
  11
 1140.45
  21
 30.0000
  31
0.0
   0
LINE
   5
122
 100
AcDbEntity
   8
LEVEL100
 100
AcDbLine
   6
CONTINUOUS
  62
7
  10
 1152.45
  20
 30.0000
  30
0.0
  11
 1203.45
  21
 60.0000
  31
0.0
   0
LINE
   5
123
 100
AcDbEntity
   8
LEVEL100
 100
AcDbLine
   6
CONTINUOUS
  62
7
  10
 75.0000
  20
 864.000
  30
0.0
  11
 1224.45
  21
 864.000
  31
0.0
   0
LINE
   5
124
 100
AcDbEntity
   8
LEVEL100
 100
AcDbLine
   6
CONTINUOUS
  62
7
  10
 1224.45
  20
 864.000
  30
0.0
  11
 1224.45
  21
 30.0000
  31
0.0
   0
LINE
   5
125
 100
AcDbEntity
   8
LEVEL100
 100
AcDbLine
   6
CONTINUOUS
  62
7
  10
 1224.45
  20
 30.0000
  30
0.0
  11
 75.0000
  21
 30.0000
  31
0.0
   0
LINE
   5
126
 100
AcDbEntity
   8
LEVEL100
 100
AcDbLine
   6
CONTINUOUS
  62
7
  10
 75.0000
  20
 837.600
  30
0.0
  11
 225.450
  21
 837.600
  31
0.0
   0
LINE
   5
127
 100
AcDbEntity
   8
LEVEL100
 100
AcDbLine
   6
CONTINUOUS
  62
7
  10
 225.450
  20
 837.600
  30
0.0
  11
 225.450
  21
 864.000
  31
0.0
   0
TEXT
   5
128
 100
AcDbEntity
   8
LEVEL100
  62
7
 100
AcDbText
  10
 222.450
  20
 858.300
  30
0.0
  40
 15.0000
   1
ＯＪ．
  50
 180.000
  41
 0.900000
   7
STANDARD
 100
AcDbText
   0
LINE
   5
129
 100
AcDbEntity
   8
LEVEL100
 100
AcDbLine
   6
CONTINUOUS
  62
7
  10
 171.450
  20
 852.300
  30
0.0
  11
 162.450
  21
 852.300
  31
0.0
   0
LINE
   5
12A
 100
AcDbEntity
   8
LEVEL100
 100
AcDbLine
   6
CONTINUOUS
  62
7
  10
 162.450
  20
 852.300
  30
0.0
  11
 162.450
  21
 849.300
  31
0.0
   0
LINE
   5
12B
 100
AcDbEntity
   8
LEVEL100
 100
AcDbLine
   6
CONTINUOUS
  62
7
  10
 162.450
  20
 849.300
  30
0.0
  11
 171.450
  21
 849.300
  31
0.0
   0
LINE
   5
12C
 100
AcDbEntity
   8
LEVEL100
 100
AcDbLine
   6
CONTINUOUS
  62
7
  10
 171.450
  20
 849.300
  30
0.0
  11
 171.450
  21
 852.300
  31
0.0
   0
LINE
   5
12D
 100
AcDbEntity
   8
LEVEL020
 100
AcDbLine
   6
DASHDOT
  62
1
  10
 630.000
  20
 210.000
  30
0.0
  11
 630.000
  21
 90.0000
  31
0.0
   0
LINE
   5
12E
 100
AcDbEntity
   8
LEVEL020
 100
AcDbLine
   6
DASHDOT
  62
1
  10
 630.000
  20
 222.000
  30
0.0
  11
 630.000
  21
 210.000
  31
0.0
   0
LINE
   5
12F
 100
AcDbEntity
   8
LEVEL019
 100
AcDbLine
   6
CONTINUOUS
  62
3
  10
 740.000
  20
 210.000
  30
0.0
  11
 740.000
  21
 222.000
  31
0.0
   0
LINE
   5
130
 100
AcDbEntity
   8
LEVEL019
 100
AcDbLine
   6
CONTINUOUS
  62
3
  10
 520.000
  20
 210.000
  30
0.0
  11
 520.000
  21
 222.000
  31
0.0
   0
ARC
   5
131
 100
AcDbEntity
   8
LEVEL011
   6
CONTINUOUS
  62
3
 100
AcDbCircle
  10
 782.000
  20
 231.498
  30
0.0
  40
 2.50000
 100
AcDbArc
  50
 216.870
  51
 323.130
   0
ARC
   5
132
 100
AcDbEntity
   8
LEVEL011
   6
CONTINUOUS
  62
3
 100
AcDbCircle
  10
 782.000
  20
 228.498
  30
0.0
  40
 2.50000
 100
AcDbArc
  50
 36.8699
  51
 143.130
   0
ARC
   5
133
 100
AcDbEntity
   8
LEVEL011
   6
CONTINUOUS
  62
3
 100
AcDbCircle
  10
 778.000
  20
 228.498
  30
0.0
  40
 2.50000
 100
AcDbArc
  50
 36.8699
  51
 143.130
   0
ARC
   5
134
 100
AcDbEntity
   8
LEVEL011
   6
CONTINUOUS
  62
3
 100
AcDbCircle
  10
 778.000
  20
 233.498
  30
0.0
  40
 2.50000
 100
AcDbArc
  50
 36.8699
  51
 143.130
   0
ARC
   5
135
 100
AcDbEntity
   8
LEVEL011
   6
CONTINUOUS
  62
3
 100
AcDbCircle
  10
 782.000
  20
 236.498
  30
0.0
  40
 2.50000
 100
AcDbArc
  50
 216.870
  51
 323.130
   0
ARC
   5
136
 100
AcDbEntity
   8
LEVEL011
   6
CONTINUOUS
  62
3
 100
AcDbCircle
  10
 778.000
  20
 236.498
  30
0.0
  40
 2.50000
 100
AcDbArc
  50
 216.870
  51
 323.130
   0
LINE
   5
137
 100
AcDbEntity
   8
LEVEL011
 100
AcDbLine
   6
CONTINUOUS
  62
3
  10
 787.000
  20
 125.000
  30
0.0
  11
 787.000
  21
 135.000
  31
0.0
   0
LINE
   5
138
 100
AcDbEntity
   8
LEVEL011
 100
AcDbLine
   6
CONTINUOUS
  62
3
  10
 785.000
  20
 125.000
  30
0.0
  11
 787.000
  21
 125.000
  31
0.0
   0
LINE
   5
139
 100
AcDbEntity
   8
LEVEL011
 100
AcDbLine
   6
CONTINUOUS
  62
3
  10
 785.000
  20
 135.000
  30
0.0
  11
 785.000
  21
 125.000
  31
0.0
   0
LINE
   5
13A
 100
AcDbEntity
   8
LEVEL011
 100
AcDbLine
   6
CONTINUOUS
  62
3
  10
 775.000
  20
 125.000
  30
0.0
  11
 773.000
  21
 125.000
  31
0.0
   0
LINE
   5
13B
 100
AcDbEntity
   8
LEVEL011
 100
AcDbLine
   6
CONTINUOUS
  62
3
  10
 775.000
  20
 135.000
  30
0.0
  11
 775.000
  21
 125.000
  31
0.0
   0
LINE
   5
13C
 100
AcDbEntity
   8
LEVEL011
 100
AcDbLine
   6
CONTINUOUS
  62
3
  10
 770.000
  20
 160.000
  30
0.0
  11
 770.000
  21
 135.000
  31
0.0
   0
LINE
   5
13D
 100
AcDbEntity
   8
LEVEL011
 100
AcDbLine
   6
CONTINUOUS
  62
3
  10
 770.000
  20
 160.000
  30
0.0
  11
 775.000
  21
 165.000
  31
0.0
   0
LINE
   5
13E
 100
AcDbEntity
   8
LEVEL011
 100
AcDbLine
   6
CONTINUOUS
  62
3
  10
 784.000
  20
 165.000
  30
0.0
  11
 784.000
  21
 229.998
  31
0.0
   0
LINE
   5
13F
 100
AcDbEntity
   8
LEVEL011
 100
AcDbLine
   6
CONTINUOUS
  62
3
  10
 776.000
  20
 165.000
  30
0.0
  11
 776.000
  21
 229.998
  31
0.0
   0
LINE
   5
140
 100
AcDbEntity
   8
LEVEL011
 100
AcDbLine
   6
CONTINUOUS
  62
3
  10
 785.000
  20
 165.000
  30
0.0
  11
 775.000
  21
 165.000
  31
0.0
   0
LINE
   5
141
 100
AcDbEntity
   8
LEVEL011
 100
AcDbLine
   6
CONTINUOUS
  62
3
  10
 804.000
  20
 120.000
  30
0.0
  11
 804.000
  21
 125.000
  31
0.0
   0
LINE
   5
142
 100
AcDbEntity
   8
LEVEL011
 100
AcDbLine
   6
CONTINUOUS
  62
3
  10
 801.500
  20
 125.000
  30
0.0
  11
 806.500
  21
 125.000
  31
0.0
   0
LINE
   5
143
 100
AcDbEntity
   8
LEVEL011
 100
AcDbLine
   6
CONTINUOUS
  62
3
  10
 808.000
  20
 130.000
  30
0.0
  11
 806.000
  21
 145.000
  31
0.0
   0
LINE
   5
144
 100
AcDbEntity
   8
LEVEL011
 100
AcDbLine
   6
CONTINUOUS
  62
3
  10
 805.000
  20
 120.000
  30
0.0
  11
 808.000
  21
 130.000
  31
0.0
   0
LINE
   5
145
 100
AcDbEntity
   8
LEVEL011
 100
AcDbLine
   6
CONTINUOUS
  62
3
  10
 800.000
  20
 130.000
  30
0.0
  11
 803.000
  21
 120.000
  31
0.0
   0
LINE
   5
146
 100
AcDbEntity
   8
LEVEL011
 100
AcDbLine
   6
CONTINUOUS
  62
3
  10
 802.000
  20
 145.000
  30
0.0
  11
 800.000
  21
 130.000
  31
0.0
   0
LINE
   5
147
 100
AcDbEntity
   8
LEVEL011
 100
AcDbLine
   6
CONTINUOUS
  62
3
  10
 802.000
  20
 145.000
  30
0.0
  11
 806.000
  21
 145.000
  31
0.0
   0
LINE
   5
148
 100
AcDbEntity
   8
LEVEL011
 100
AcDbLine
   6
CONTINUOUS
  62
3
  10
 805.000
  20
 145.000
  30
0.0
  11
 805.000
  21
 155.000
  31
0.0
   0
LINE
   5
149
 100
AcDbEntity
   8
LEVEL011
 100
AcDbLine
   6
CONTINUOUS
  62
3
  10
 803.000
  20
 145.000
  30
0.0
  11
 803.000
  21
 155.000
  31
0.0
   0
ARC
   5
14A
 100
AcDbEntity
   8
LEVEL011
   6
CONTINUOUS
  62
3
 100
AcDbCircle
  10
 795.000
  20
 155.000
  30
0.0
  40
 10.0000
 100
AcDbArc
  50
0.0
  51
 135.000
   0
ARC
   5
14B
 100
AcDbEntity
   8
LEVEL011
   6
CONTINUOUS
  62
3
 100
AcDbCircle
  10
 795.000
  20
 155.000
  30
0.0
  40
 8.00000
 100
AcDbArc
  50
 0.612702E-10
  51
 135.000
   0
LINE
   5
14C
 100
AcDbEntity
   8
LEVEL011
 100
AcDbLine
   6
CONTINUOUS
  62
3
  10
 785.000
  20
 165.000
  30
0.0
  11
 790.000
  21
 160.000
  31
0.0
   0
LINE
   5
14D
 100
AcDbEntity
   8
LEVEL011
 100
AcDbLine
   6
CONTINUOUS
  62
3
  10
 790.000
  20
 135.000
  30
0.0
  11
 790.000
  21
 160.000
  31
0.0
   0
LINE
   5
14E
 100
AcDbEntity
   8
LEVEL011
 100
AcDbLine
   6
CONTINUOUS
  62
3
  10
 770.000
  20
 135.000
  30
0.0
  11
 790.000
  21
 135.000
  31
0.0
   0
LINE
   5
14F
 100
AcDbEntity
   8
LEVEL011
 100
AcDbLine
   6
CONTINUOUS
  62
3
  10
 773.000
  20
 125.000
  30
0.0
  11
 773.000
  21
 135.000
  31
0.0
   0
LINE
   5
150
 100
AcDbEntity
   8
LEVEL011
 100
AcDbLine
   6
CONTINUOUS
  62
3
  10
 803.000
  20
 120.000
  30
0.0
  11
 805.000
  21
 120.000
  31
0.0
   0
ARC
   5
151
 100
AcDbEntity
   8
LEVEL011
   6
CONTINUOUS
  62
3
 100
AcDbCircle
  10
 766.000
  20
 256.000
  30
0.0
  40
 18.0000
 100
AcDbArc
  50
 0.542815E-12
  51
 90.0000
   0
ARC
   5
152
 100
AcDbEntity
   8
LEVEL011
   6
CONTINUOUS
  62
3
 100
AcDbCircle
  10
 766.000
  20
 256.000
  30
0.0
  40
 10.0000
 100
AcDbArc
  50
 0.260551E-11
  51
 90.0000
   0
ARC
   5
153
 100
AcDbEntity
   8
LEVEL011
   6
DASHDOT
  62
1
 100
AcDbCircle
  10
 766.000
  20
 256.000
  30
0.0
  40
 14.0000
 100
AcDbArc
  50
 0.160518E-10
  51
 90.0000
   0
LINE
   5
154
 100
AcDbEntity
   8
LEVEL011
 100
AcDbLine
   6
CONTINUOUS
  62
3
  10
 784.000
  20
 234.998
  30
0.0
  11
 784.000
  21
 256.000
  31
0.0
   0
LINE
   5
155
 100
AcDbEntity
   8
LEVEL011
 100
AcDbLine
   6
CONTINUOUS
  62
3
  10
 776.000
  20
 234.998
  30
0.0
  11
 776.000
  21
 256.000
  31
0.0
   0
LINE
   5
156
 100
AcDbEntity
   8
LEVEL011
 100
AcDbLine
   6
DASHDOT
  62
1
  10
 780.000
  20
 131.000
  30
0.0
  11
 780.000
  21
 256.000
  31
0.0
   0
LINE
   5
157
 100
AcDbEntity
   8
LEVEL011
 100
AcDbLine
   6
CONTINUOUS
  62
3
  10
 863.000
  20
 241.998
  30
0.0
  11
 863.000
  21
 251.998
  31
0.0
   0
LINE
   5
158
 100
AcDbEntity
   8
LEVEL011
 100
AcDbLine
   6
CONTINUOUS
  62
3
  10
 847.000
  20
 241.998
  30
0.0
  11
 847.000
  21
 251.998
  31
0.0
   0
LINE
   5
159
 100
AcDbEntity
   8
LEVEL011
 100
AcDbLine
   6
CONTINUOUS
  62
3
  10
 863.000
  20
 241.998
  30
0.0
  11
 847.000
  21
 241.998
  31
0.0
   0
LINE
   5
15A
 100
AcDbEntity
   8
LEVEL011
 100
AcDbLine
   6
CONTINUOUS
  62
3
  10
 863.000
  20
 251.998
  30
0.0
  11
 847.000
  21
 251.998
  31
0.0
   0
LINE
   5
15B
 100
AcDbEntity
   8
LEVEL011
 100
AcDbLine
   6
CONTINUOUS
  62
3
  10
 870.000
  20
 185.998
  30
0.0
  11
 870.000
  21
 195.998
  31
0.0
   0
LINE
   5
15C
 100
AcDbEntity
   8
LEVEL011
 100
AcDbLine
   6
CONTINUOUS
  62
3
  10
 840.000
  20
 185.998
  30
0.0
  11
 840.000
  21
 195.998
  31
0.0
   0
LINE
   5
15D
 100
AcDbEntity
   8
LEVEL011
 100
AcDbLine
   6
CONTINUOUS
  62
3
  10
 870.000
  20
 185.998
  30
0.0
  11
 840.000
  21
 185.998
  31
0.0
   0
LINE
   5
15E
 100
AcDbEntity
   8
LEVEL011
 100
AcDbLine
   6
CONTINUOUS
  62
3
  10
 870.000
  20
 195.998
  30
0.0
  11
 840.000
  21
 195.998
  31
0.0
   0
LINE
   5
15F
 100
AcDbEntity
   8
LEVEL011
 100
AcDbLine
   6
CONTINUOUS
  62
3
  10
 862.000
  20
 216.998
  30
0.0
  11
 862.000
  21
 241.998
  31
0.0
   0
LINE
   5
160
 100
AcDbEntity
   8
LEVEL011
 100
AcDbLine
   6
CONTINUOUS
  62
3
  10
 848.000
  20
 216.998
  30
0.0
  11
 848.000
  21
 241.998
  31
0.0
   0
LINE
   5
161
 100
AcDbEntity
   8
LEVEL011
 100
AcDbLine
   6
CONTINUOUS
  62
3
  10
 868.000
  20
 206.998
  30
0.0
  11
 865.000
  21
 216.998
  31
0.0
   0
LINE
   5
162
 100
AcDbEntity
   8
LEVEL011
 100
AcDbLine
   6
CONTINUOUS
  62
3
  10
 842.000
  20
 206.998
  30
0.0
  11
 845.000
  21
 216.998
  31
0.0
   0
LINE
   5
163
 100
AcDbEntity
   8
LEVEL011
 100
AcDbLine
   6
CONTINUOUS
  62
3
  10
 865.000
  20
 216.998
  30
0.0
  11
 845.000
  21
 216.998
  31
0.0
   0
LINE
   5
164
 100
AcDbEntity
   8
LEVEL011
 100
AcDbLine
   6
CONTINUOUS
  62
3
  10
 874.000
  20
 206.998
  30
0.0
  11
 836.000
  21
 206.998
  31
0.0
   0
LINE
   5
165
 100
AcDbEntity
   8
LEVEL011
 100
AcDbLine
   6
CONTINUOUS
  62
3
  10
 874.000
  20
 200.163
  30
0.0
  11
 874.000
  21
 206.998
  31
0.0
   0
LINE
   5
166
 100
AcDbEntity
   8
LEVEL011
 100
AcDbLine
   6
CONTINUOUS
  62
3
  10
 836.000
  20
 200.163
  30
0.0
  11
 836.000
  21
 206.998
  31
0.0
   0
ARC
   5
167
 100
AcDbEntity
   8
LEVEL011
   6
CONTINUOUS
  62
3
 100
AcDbCircle
  10
 870.000
  20
 190.998
  30
0.0
  40
 10.0000
 100
AcDbArc
  50
0.0
  51
 90.0000
   0
ARC
   5
168
 100
AcDbEntity
   8
LEVEL011
   6
CONTINUOUS
  62
3
 100
AcDbCircle
  10
 840.000
  20
 190.998
  30
0.0
  40
 10.0000
 100
AcDbArc
  50
 90.0000
  51
 180.000
   0
ARC
   5
169
 100
AcDbEntity
   8
LEVEL011
   6
CONTINUOUS
  62
3
 100
AcDbCircle
  10
 840.000
  20
 128.998
  30
0.0
  40
 10.0000
 100
AcDbArc
  50
 180.000
  51
 270.000
   0
ARC
   5
16A
 100
AcDbEntity
   8
LEVEL011
   6
CONTINUOUS
  62
3
 100
AcDbCircle
  10
 870.000
  20
 128.998
  30
0.0
  40
 10.0000
 100
AcDbArc
  50
 270.000
  51
 0.488533E-12
   0
LINE
   5
16B
 100
AcDbEntity
   8
LEVEL011
 100
AcDbLine
   6
CONTINUOUS
  62
3
  10
 870.000
  20
 200.998
  30
0.0
  11
 840.000
  21
 200.998
  31
0.0
   0
LINE
   5
16C
 100
AcDbEntity
   8
LEVEL011
 100
AcDbLine
   6
CONTINUOUS
  62
3
  10
 870.000
  20
 118.998
  30
0.0
  11
 840.000
  21
 118.998
  31
0.0
   0
LINE
   5
16D
 100
AcDbEntity
   8
LEVEL011
 100
AcDbLine
   6
CONTINUOUS
  62
3
  10
 880.000
  20
 128.998
  30
0.0
  11
 880.000
  21
 190.998
  31
0.0
   0
LINE
   5
16E
 100
AcDbEntity
   8
LEVEL011
 100
AcDbLine
   6
CONTINUOUS
  62
3
  10
 830.000
  20
 128.998
  30
0.0
  11
 830.000
  21
 190.998
  31
0.0
   0
LINE
   5
16F
 100
AcDbEntity
   8
LEVEL011
 100
AcDbLine
   6
CONTINUOUS
  62
3
  10
 837.000
  20
 124.998
  30
0.0
  11
 837.000
  21
 164.998
  31
0.0
   0
LINE
   5
170
 100
AcDbEntity
   8
LEVEL011
 100
AcDbLine
   6
CONTINUOUS
  62
3
  10
 840.000
  20
 124.998
  30
0.0
  11
 840.000
  21
 164.998
  31
0.0
   0
LINE
   5
171
 100
AcDbEntity
   8
LEVEL011
 100
AcDbLine
   6
CONTINUOUS
  62
3
  10
 870.000
  20
 124.998
  30
0.0
  11
 870.000
  21
 164.998
  31
0.0
   0
LINE
   5
172
 100
AcDbEntity
   8
LEVEL011
 100
AcDbLine
   6
CONTINUOUS
  62
3
  10
 873.000
  20
 124.998
  30
0.0
  11
 873.000
  21
 164.998
  31
0.0
   0
LINE
   5
173
 100
AcDbEntity
   8
LEVEL011
 100
AcDbLine
   6
CONTINUOUS
  62
3
  10
 840.000
  20
 124.998
  30
0.0
  11
 837.000
  21
 124.998
  31
0.0
   0
LINE
   5
174
 100
AcDbEntity
   8
LEVEL011
 100
AcDbLine
   6
CONTINUOUS
  62
3
  10
 873.000
  20
 124.998
  30
0.0
  11
 870.000
  21
 124.998
  31
0.0
   0
ARC
   5
175
 100
AcDbEntity
   8
LEVEL011
   6
CONTINUOUS
  62
3
 100
AcDbCircle
  10
 855.000
  20
 164.998
  30
0.0
  40
 18.0000
 100
AcDbArc
  50
0.0
  51
 180.000
   0
ARC
   5
176
 100
AcDbEntity
   8
LEVEL011
   6
CONTINUOUS
  62
3
 100
AcDbCircle
  10
 855.000
  20
 164.998
  30
0.0
  40
 15.0000
 100
AcDbArc
  50
0.0
  51
 180.000
   0
CIRCLE
   5
177
 100
AcDbEntity
   8
LEVEL011
 100
AcDbCircle
   6
CONTINUOUS
  62
3
  10
 855.000
  20
 164.998
  30
0.0
  40
 10.0000
   0
CIRCLE
   5
178
 100
AcDbEntity
   8
LEVEL011
 100
AcDbCircle
   6
CONTINUOUS
  62
3
  10
 855.000
  20
 134.998
  30
0.0
  40
 10.0000
   0
LINE
   5
179
 100
AcDbEntity
   8
LEVEL011
 100
AcDbLine
   6
CONTINUOUS
  62
3
  10
 852.000
  20
 302.000
  30
0.0
  11
 852.000
  21
 251.998
  31
0.0
   0
LINE
   5
17A
 100
AcDbEntity
   8
LEVEL011
 100
AcDbLine
   6
CONTINUOUS
  62
3
  10
 858.000
  20
 302.000
  30
0.0
  11
 858.000
  21
 251.998
  31
0.0
   0
ARC
   5
17B
 100
AcDbEntity
   8
LEVEL011
   6
CONTINUOUS
  62
3
 100
AcDbCircle
  10
 842.000
  20
 302.000
  30
0.0
  40
 10.0000
 100
AcDbArc
  50
0.0
  51
 90.0000
   0
ARC
   5
17C
 100
AcDbEntity
   8
LEVEL011
   6
CONTINUOUS
  62
3
 100
AcDbCircle
  10
 842.000
  20
 302.000
  30
0.0
  40
 16.0000
 100
AcDbArc
  50
 0.183200E-11
  51
 90.0000
   0
ARC
   5
17D
 100
AcDbEntity
   8
LEVEL011
   6
DASHDOT
  62
1
 100
AcDbCircle
  10
 842.000
  20
 302.000
  30
0.0
  40
 13.0000
 100
AcDbArc
  50
0.0
  51
 90.0000
   0
LINE
   5
17E
 100
AcDbEntity
   8
LEVEL011
 100
AcDbLine
   6
DASHDOT
  62
1
  10
 855.000
  20
 113.104
  30
0.0
  11
 855.000
  21
 302.000
  31
0.0
   0
LINE
   5
17F
 100
AcDbEntity
   8
LEVEL011
 100
AcDbLine
   6
DASHDOT
  62
1
  10
 766.000
  20
 270.000
  30
0.0
  11
 705.000
  21
 270.000
  31
0.0
   0
LINE
   5
180
 100
AcDbEntity
   8
LEVEL011
 100
AcDbLine
   6
DASHDOT
  62
1
  10
 842.000
  20
 315.000
  30
0.0
  11
 705.000
  21
 315.000
  31
0.0
   0
TEXT
   5
181
 100
AcDbEntity
   8
LEVEL100
  62
3
 100
AcDbText
  10
 1158.07
  20
 45.9000
  30
0.0
  40
 15.0000
   1
＊
  41
 0.630000
   7
STANDARD
  72
1
  11
 1162.79
  21
 45.9000
  31
0.0
 100
AcDbText
   0
LINE
   5
182
 100
AcDbEntity
   8
LEVEL011
 100
AcDbLine
   6
CONTINUOUS
  62
3
  10
 750.000
  20
 318.000
  30
0.0
  11
 842.000
  21
 318.000
  31
0.0
   0
LINE
   5
183
 100
AcDbEntity
   8
LEVEL011
 100
AcDbLine
   6
CONTINUOUS
  62
3
  10
 750.000
  20
 312.000
  30
0.0
  11
 842.000
  21
 312.000
  31
0.0
   0
LINE
   5
184
 100
AcDbEntity
   8
LEVEL011
 100
AcDbLine
   6
CONTINUOUS
  62
3
  10
 766.000
  20
 274.000
  30
0.0
  11
 750.000
  21
 274.000
  31
0.0
   0
LINE
   5
185
 100
AcDbEntity
   8
LEVEL011
 100
AcDbLine
   6
CONTINUOUS
  62
3
  10
 766.000
  20
 266.000
  30
0.0
  11
 750.000
  21
 266.000
  31
0.0
   0
LINE
   5
186
 100
AcDbEntity
   8
LEVEL020
 100
AcDbLine
   6
DOT
  62
3
  10
 525.004
  20
 210.000
  30
0.0
  11
 526.688
  21
 109.584
  31
0.0
   0
ARC
   5
187
 100
AcDbEntity
   8
LEVEL020
   6
DOT
  62
3
 100
AcDbCircle
  10
 536.680
  20
 110.000
  30
0.0
  40
 10.0000
 100
AcDbArc
  50
 182.386
  51
 270.000
   0
LINE
   5
188
 100
AcDbEntity
   8
LEVEL020
 100
AcDbLine
   6
DOT
  62
3
  10
 734.996
  20
 210.000
  30
0.0
  11
 733.312
  21
 109.584
  31
0.0
   0
ARC
   5
189
 100
AcDbEntity
   8
LEVEL020
   6
DOT
  62
3
 100
AcDbCircle
  10
 723.320
  20
 110.000
  30
0.0
  40
 10.0000
 100
AcDbArc
  50
 270.000
  51
 357.614
   0
LINE
   5
18A
 100
AcDbEntity
   8
LEVEL020
 100
AcDbLine
   6
DOT
  62
3
  10
 536.680
  20
 100.000
  30
0.0
  11
 723.320
  21
 100.000
  31
0.0
   0
LINE
   5
18B
 100
AcDbEntity
   8
LEVEL020
 100
AcDbLine
   6
CONTINUOUS
  62
3
  10
 737.500
  20
 90.0000
  30
0.0
  11
 740.000
  21
 210.000
  31
0.0
   0
LINE
   5
18C
 100
AcDbEntity
   8
LEVEL020
 100
AcDbLine
   6
CONTINUOUS
  62
3
  10
 740.000
  20
 210.000
  30
0.0
  11
 520.000
  21
 210.000
  31
0.0
   0
LINE
   5
18D
 100
AcDbEntity
   8
LEVEL020
 100
AcDbLine
   6
CONTINUOUS
  62
3
  10
 520.000
  20
 210.000
  30
0.0
  11
 522.500
  21
 90.0000
  31
0.0
   0
LINE
   5
18E
 100
AcDbEntity
   8
LEVEL020
 100
AcDbLine
   6
DOT
  62
3
  10
 535.000
  20
 90.5000
  30
0.0
  11
 530.000
  21
 90.5000
  31
0.0
   0
LINE
   5
18F
 100
AcDbEntity
   8
LEVEL020
 100
AcDbLine
   6
CONTINUOUS
  62
3
  10
 737.500
  20
 90.0000
  30
0.0
  11
 717.500
  21
 90.0000
  31
0.0
   0
LINE
   5
190
 100
AcDbEntity
   8
LEVEL020
 100
AcDbLine
   6
CONTINUOUS
  62
3
  10
 522.500
  20
 90.0000
  30
0.0
  11
 542.500
  21
 90.0000
  31
0.0
   0
ARC
   5
191
 100
AcDbEntity
   8
LEVEL020
   6
CONTINUOUS
  62
3
 100
AcDbCircle
  10
 551.160
  20
 85.0000
  30
0.0
  40
 10.0000
 100
AcDbArc
  50
 90.0000
  51
 150.000
   0
ARC
   5
192
 100
AcDbEntity
   8
LEVEL020
   6
CONTINUOUS
  62
3
 100
AcDbCircle
  10
 708.840
  20
 85.0000
  30
0.0
  40
 10.0000
 100
AcDbArc
  50
 30.0000
  51
 90.0000
   0
LINE
   5
193
 100
AcDbEntity
   8
LEVEL020
 100
AcDbLine
   6
CONTINUOUS
  62
3
  10
 708.840
  20
 95.0000
  30
0.0
  11
 551.160
  21
 95.0000
  31
0.0
   0
LINE
   5
194
 100
AcDbEntity
   8
LEVEL020
 100
AcDbLine
   6
DASHDOT
  62
1
  10
 727.500
  20
 87.0000
  30
0.0
  11
 727.500
  21
 105.309
  31
0.0
   0
LINE
   5
195
 100
AcDbEntity
   8
LEVEL020
 100
AcDbLine
   6
DASHDOT
  62
1
  10
 532.500
  20
 87.0000
  30
0.0
  11
 532.500
  21
 105.175
  31
0.0
   0
LINE
   5
196
 100
AcDbEntity
   8
LEVEL020
 100
AcDbLine
   6
DOT
  62
3
  10
 535.500
  20
 90.0000
  30
0.0
  11
 535.500
  21
 99.0000
  31
0.0
   0
LINE
   5
197
 100
AcDbEntity
   8
LEVEL020
 100
AcDbLine
   6
DOT
  62
3
  10
 535.500
  20
 99.0000
  30
0.0
  11
 535.000
  21
 100.866
  31
0.0
   0
LINE
   5
198
 100
AcDbEntity
   8
LEVEL020
 100
AcDbLine
   6
DOT
  62
3
  10
 530.000
  20
 100.866
  30
0.0
  11
 529.500
  21
 99.0000
  31
0.0
   0
LINE
   5
199
 100
AcDbEntity
   8
LEVEL020
 100
AcDbLine
   6
DOT
  62
3
  10
 529.500
  20
 99.0000
  30
0.0
  11
 529.500
  21
 90.0000
  31
0.0
   0
LINE
   5
19A
 100
AcDbEntity
   8
LEVEL020
 100
AcDbLine
   6
DOT
  62
3
  10
 535.500
  20
 99.0000
  30
0.0
  11
 529.500
  21
 99.0000
  31
0.0
   0
LINE
   5
19B
 100
AcDbEntity
   8
LEVEL020
 100
AcDbLine
   6
DOT
  62
3
  10
 535.000
  20
 100.866
  30
0.0
  11
 530.000
  21
 100.866
  31
0.0
   0
LINE
   5
19C
 100
AcDbEntity
   8
LEVEL020
 100
AcDbLine
   6
DOT
  62
3
  10
 535.500
  20
 90.0000
  30
0.0
  11
 535.000
  21
 90.5000
  31
0.0
   0
LINE
   5
19D
 100
AcDbEntity
   8
LEVEL020
 100
AcDbLine
   6
DOT
  62
3
  10
 535.000
  20
 90.5000
  30
0.0
  11
 535.000
  21
 100.866
  31
0.0
   0
LINE
   5
19E
 100
AcDbEntity
   8
LEVEL020
 100
AcDbLine
   6
DOT
  62
3
  10
 530.000
  20
 100.866
  30
0.0
  11
 530.000
  21
 90.5000
  31
0.0
   0
LINE
   5
19F
 100
AcDbEntity
   8
LEVEL020
 100
AcDbLine
   6
DOT
  62
3
  10
 530.000
  20
 90.5000
  30
0.0
  11
 529.500
  21
 90.0000
  31
0.0
   0
LINE
   5
1A0
 100
AcDbEntity
   8
LEVEL020
 100
AcDbLine
   6
DOT
  62
3
  10
 535.000
  20
 100.866
  30
0.0
  11
 532.500
  21
 102.309
  31
0.0
   0
LINE
   5
1A1
 100
AcDbEntity
   8
LEVEL020
 100
AcDbLine
   6
DOT
  62
3
  10
 530.000
  20
 100.866
  30
0.0
  11
 532.500
  21
 102.309
  31
0.0
   0
DIMENSION
   5
1A2
 100
AcDbEntity
   8
LEVEL003
   6
CONTINUOUS
  62
3
 100
AcDbDimension
   2
*D1
  10
 727.500
  20
 67.5000
  30
0.0
  11
 630.000
  21
 67.5000
  31
0.0
  70
0
   1
\A1;195
   3
GMM001
 100
AcDbAlignedDimension
  13
 532.500
  23
 87.0000
  33
0.0
  14
 727.500
  24
 87.0000
  34
0.0
 100
AcDbRotatedDimension
   0
LEADER
   5
1A4
 100
AcDbEntity
   8
LEVEL003
   6
CONTINUOUS
  62
3
 100
AcDbLeader
   3
GMM002
  73
0
  74
1
  75
0
  40
 12.0000
  41
0.0
  76
3
  10
 532.500
  20
 90.0000
  30
0.0
  10
 510.000
  20
 60.0000
  30
0.0
  10
 450.000
  20
 60.0000
  30
0.0
  77
3
   0
TEXT
   5
1A5
 100
AcDbEntity
   8
LEVEL003
  62
3
 100
AcDbText
  10
 450.000
  20
 60.0000
  30
0.0
  40
 12.0000
   1
４－Ｍ６
   7
STANDARD
 100
AcDbText
   0
TEXT
   5
1A6
 100
AcDbEntity
   8
LEVEL003
  62
3
 100
AcDbText
  10
 450.000
  20
 44.0000
  30
0.0
  40
 12.0000
   1
タップ　９
   7
STANDARD
 100
AcDbText
   0
TEXT
   5
1A7
 100
AcDbEntity
   8
LEVEL003
  62
3
 100
AcDbText
  10
 915.000
  20
 750.000
  30
0.0
  40
 12.0000
   1
注；本ユニットは、屋内使用のため、
   7
STANDARD
 100
AcDbText
   0
TEXT
   5
1A8
 100
AcDbEntity
   8
LEVEL003
  62
3
 100
AcDbText
  10
 915.000
  20
 734.000
  30
0.0
  40
 12.0000
   1
　　屋外に放置しないで下さい。
   7
STANDARD
 100
AcDbText
   0
LINE
   5
1A9
 100
AcDbEntity
   8
LEVEL020
 100
AcDbLine
   6
DASHDOT
  62
1
  10
 255.000
  20
 222.000
  30
0.0
  11
 255.000
  21
 210.000
  31
0.0
   0
LINE
   5
1AA
 100
AcDbEntity
   8
LEVEL020
 100
AcDbLine
   6
DASHDOT
  62
1
  10
 255.000
  20
 210.000
  30
0.0
  11
 255.000
  21
 90.0000
  31
0.0
   0
LINE
   5
1AB
 100
AcDbEntity
   8
LEVEL019
 100
AcDbLine
   6
CONTINUOUS
  62
3
  10
 175.000
  20
 210.000
  30
0.0
  11
 175.000
  21
 222.000
  31
0.0
   0
LINE
   5
1AC
 100
AcDbEntity
   8
LEVEL019
 100
AcDbLine
   6
CONTINUOUS
  62
3
  10
 175.000
  20
 222.000
  30
0.0
  11
 335.000
  21
 222.000
  31
0.0
   0
LINE
   5
1AD
 100
AcDbEntity
   8
LEVEL019
 100
AcDbLine
   6
CONTINUOUS
  62
3
  10
 335.000
  20
 210.000
  30
0.0
  11
 335.000
  21
 222.000
  31
0.0
   0
LINE
   5
1AE
 100
AcDbEntity
   8
LEVEL019
 100
AcDbLine
   6
DASHDOT
  62
1
  10
 333.000
  20
 700.000
  30
0.0
  11
 317.000
  21
 700.000
  31
0.0
   0
LINE
   5
1AF
 100
AcDbEntity
   8
LEVEL019
 100
AcDbLine
   6
DASHDOT
  62
1
  10
 325.000
  20
 708.000
  30
0.0
  11
 325.000
  21
 692.000
  31
0.0
   0
LINE
   5
1B0
 100
AcDbEntity
   8
LEVEL019
 100
AcDbLine
   6
DASHDOT
  62
1
  10
 325.000
  20
 492.000
  30
0.0
  11
 325.000
  21
 508.000
  31
0.0
   0
LINE
   5
1B1
 100
AcDbEntity
   8
LEVEL019
 100
AcDbLine
   6
DASHDOT
  62
1
  10
 333.000
  20
 500.000
  30
0.0
  11
 317.000
  21
 500.000
  31
0.0
   0
LINE
   5
1B2
 100
AcDbEntity
   8
LEVEL019
 100
AcDbLine
   6
DASHDOT
  62
1
  10
 177.000
  20
 500.000
  30
0.0
  11
 193.000
  21
 500.000
  31
0.0
   0
LINE
   5
1B3
 100
AcDbEntity
   8
LEVEL019
 100
AcDbLine
   6
DASHDOT
  62
1
  10
 185.000
  20
 492.000
  30
0.0
  11
 185.000
  21
 508.000
  31
0.0
   0
LINE
   5
1B4
 100
AcDbEntity
   8
LEVEL019
 100
AcDbLine
   6
DASHDOT
  62
1
  10
 177.000
  20
 700.000
  30
0.0
  11
 193.000
  21
 700.000
  31
0.0
   0
LINE
   5
1B5
 100
AcDbEntity
   8
LEVEL019
 100
AcDbLine
   6
DASHDOT
  62
1
  10
 185.000
  20
 708.000
  30
0.0
  11
 185.000
  21
 692.000
  31
0.0
   0
ARC
   5
1B6
 100
AcDbEntity
   8
LEVEL019
   6
CONTINUOUS
  62
3
 100
AcDbCircle
  10
 320.000
  20
 505.000
  30
0.0
  40
 15.0000
 100
AcDbArc
  50
 270.000
  51
0.0
   0
LINE
   5
1B7
 100
AcDbEntity
   8
LEVEL019
 100
AcDbLine
   6
CONTINUOUS
  62
3
  10
 190.000
  20
 490.000
  30
0.0
  11
 320.000
  21
 490.000
  31
0.0
   0
ARC
   5
1B8
 100
AcDbEntity
   8
LEVEL019
   6
CONTINUOUS
  62
3
 100
AcDbCircle
  10
 320.000
  20
 695.000
  30
0.0
  40
 15.0000
 100
AcDbArc
  50
0.0
  51
 90.0000
   0
LINE
   5
1B9
 100
AcDbEntity
   8
LEVEL019
 100
AcDbLine
   6
CONTINUOUS
  62
3
  10
 320.000
  20
 710.000
  30
0.0
  11
 190.000
  21
 710.000
  31
0.0
   0
ARC
   5
1BA
 100
AcDbEntity
   8
LEVEL019
   6
CONTINUOUS
  62
3
 100
AcDbCircle
  10
 190.000
  20
 505.000
  30
0.0
  40
 15.0000
 100
AcDbArc
  50
 180.000
  51
 270.000
   0
ARC
   5
1BB
 100
AcDbEntity
   8
LEVEL019
   6
CONTINUOUS
  62
3
 100
AcDbCircle
  10
 190.000
  20
 695.000
  30
0.0
  40
 15.0000
 100
AcDbArc
  50
 90.0000
  51
 180.000
   0
LINE
   5
1BC
 100
AcDbEntity
   8
LEVEL019
 100
AcDbLine
   6
CONTINUOUS
  62
3
  10
 335.000
  20
 505.000
  30
0.0
  11
 335.000
  21
 695.000
  31
0.0
   0
LINE
   5
1BD
 100
AcDbEntity
   8
LEVEL019
 100
AcDbLine
   6
CONTINUOUS
  62
3
  10
 175.000
  20
 695.000
  30
0.0
  11
 175.000
  21
 505.000
  31
0.0
   0
LINE
   5
1BE
 100
AcDbEntity
   8
LEVEL016
 100
AcDbLine
   6
DASHDOT
  62
1
  10
 195.000
  20
 535.000
  30
0.0
  11
 195.000
  21
 505.000
  31
0.0
   0
ARC
   5
1BF
 100
AcDbEntity
   8
LEVEL016
   6
DASHDOT
  62
1
 100
AcDbCircle
  10
 195.000
  20
 520.000
  30
0.0
  40
 9.00000
 100
AcDbArc
  50
 99.5000
  51
 45.5000
   0
LINE
   5
1C0
 100
AcDbEntity
   8
LEVEL016
 100
AcDbLine
   6
CONTINUOUS
  62
3
  10
 194.451
  20
 528.983
  30
0.0
  11
 194.442
  21
 529.982
  31
0.0
   0
LINE
   5
1C1
 100
AcDbEntity
   8
LEVEL016
 100
AcDbLine
   6
CONTINUOUS
  62
3
  10
 194.442
  20
 529.982
  30
0.0
  11
 195.384
  21
 529.990
  31
0.0
   0
LINE
   5
1C2
 100
AcDbEntity
   8
LEVEL016
 100
AcDbLine
   6
CONTINUOUS
  62
3
  10
 195.384
  20
 529.990
  30
0.0
  11
 195.393
  21
 528.991
  31
0.0
   0
LINE
   5
1C3
 100
AcDbEntity
   8
LEVEL016
 100
AcDbLine
   6
CONTINUOUS
  62
3
  10
 195.393
  20
 528.991
  30
0.0
  11
 196.330
  21
 528.901
  31
0.0
   0
LINE
   5
1C4
 100
AcDbEntity
   8
LEVEL016
 100
AcDbLine
   6
CONTINUOUS
  62
3
  10
 196.330
  20
 528.901
  30
0.0
  11
 196.529
  21
 529.880
  31
0.0
   0
LINE
   5
1C5
 100
AcDbEntity
   8
LEVEL016
 100
AcDbLine
   6
CONTINUOUS
  62
3
  10
 196.529
  20
 529.880
  30
0.0
  11
 197.453
  21
 529.692
  31
0.0
   0
LINE
   5
1C6
 100
AcDbEntity
   8
LEVEL016
 100
AcDbLine
   6
CONTINUOUS
  62
3
  10
 197.453
  20
 529.692
  30
0.0
  11
 197.253
  21
 528.713
  31
0.0
   0
LINE
   5
1C7
 100
AcDbEntity
   8
LEVEL016
 100
AcDbLine
   6
CONTINUOUS
  62
3
  10
 197.253
  20
 528.713
  30
0.0
  11
 198.152
  21
 528.430
  31
0.0
   0
LINE
   5
1C8
 100
AcDbEntity
   8
LEVEL016
 100
AcDbLine
   6
CONTINUOUS
  62
3
  10
 198.152
  20
 528.430
  30
0.0
  11
 198.550
  21
 529.346
  31
0.0
   0
LINE
   5
1C9
 100
AcDbEntity
   8
LEVEL016
 100
AcDbLine
   6
CONTINUOUS
  62
3
  10
 198.550
  20
 529.346
  30
0.0
  11
 199.414
  21
 528.970
  31
0.0
   0
LINE
   5
1CA
 100
AcDbEntity
   8
LEVEL016
 100
AcDbLine
   6
CONTINUOUS
  62
3
  10
 199.414
  20
 528.970
  30
0.0
  11
 199.016
  21
 528.054
  31
0.0
   0
LINE
   5
1CB
 100
AcDbEntity
   8
LEVEL016
 100
AcDbLine
   6
CONTINUOUS
  62
3
  10
 199.016
  20
 528.054
  30
0.0
  11
 199.836
  21
 527.591
  31
0.0
   0
LINE
   5
1CC
 100
AcDbEntity
   8
LEVEL016
 100
AcDbLine
   6
CONTINUOUS
  62
3
  10
 199.836
  20
 527.591
  30
0.0
  11
 200.416
  21
 528.404
  31
0.0
   0
LINE
   5
1CD
 100
AcDbEntity
   8
LEVEL016
 100
AcDbLine
   6
CONTINUOUS
  62
3
  10
 200.416
  20
 528.404
  30
0.0
  11
 201.183
  21
 527.856
  31
0.0
   0
LINE
   5
1CE
 100
AcDbEntity
   8
LEVEL016
 100
AcDbLine
   6
CONTINUOUS
  62
3
  10
 201.183
  20
 527.856
  30
0.0
  11
 200.603
  21
 527.043
  31
0.0
   0
LINE
   5
1CF
 100
AcDbEntity
   8
LEVEL016
 100
AcDbLine
   6
CONTINUOUS
  62
3
  10
 200.603
  20
 527.043
  30
0.0
  11
 201.308
  21
 526.419
  31
0.0
   0
ARC
   5
1D0
 100
AcDbEntity
   8
LEVEL016
   6
CONTINUOUS
  62
3
 100
AcDbCircle
  10
 195.000
  20
 520.000
  30
0.0
  40
 10.0000
 100
AcDbArc
  50
 99.7995
  51
 45.2005
   0
LINE
   5
1D1
 100
AcDbEntity
   8
LEVEL016
 100
AcDbLine
   6
CONTINUOUS
  62
3
  10
 193.298
  20
 529.852
  30
0.0
  11
 193.515
  21
 528.877
  31
0.0
   0
LINE
   5
1D2
 100
AcDbEntity
   8
LEVEL016
 100
AcDbLine
   6
CONTINUOUS
  62
3
  10
 193.515
  20
 528.877
  30
0.0
  11
 194.451
  21
 528.983
  31
0.0
   0
LINE
   5
1D3
 100
AcDbEntity
   8
LEVEL016
 100
AcDbLine
   6
CONTINUOUS
  62
3
  10
 201.308
  20
 526.419
  30
0.0
  11
 202.044
  21
 527.094
  31
0.0
   0
CIRCLE
   5
1D4
 100
AcDbEntity
   8
LEVEL019
 100
AcDbCircle
   6
CONTINUOUS
  62
3
  10
 315.000
  20
 520.000
  30
0.0
  40
 8.33100
   0
LINE
   5
1D5
 100
AcDbEntity
   8
LEVEL019
 100
AcDbLine
   6
DASHDOT
  62
1
  10
 326.331
  20
 520.000
  30
0.0
  11
 303.669
  21
 520.000
  31
0.0
   0
LINE
   5
1D6
 100
AcDbEntity
   8
LEVEL019
 100
AcDbLine
   6
DASHDOT
  62
1
  10
 315.000
  20
 531.331
  30
0.0
  11
 315.000
  21
 508.669
  31
0.0
   0
CIRCLE
   5
1D7
 100
AcDbEntity
   8
LEVEL019
 100
AcDbCircle
   6
CONTINUOUS
  62
3
  10
 315.000
  20
 520.000
  30
0.0
  40
 7.47500
   0
LINE
   5
1D8
 100
AcDbEntity
   8
LEVEL019
 100
AcDbLine
   6
CONTINUOUS
  62
3
  10
 315.000
  20
 524.619
  30
0.0
  11
 319.000
  21
 522.309
  31
0.0
   0
LINE
   5
1D9
 100
AcDbEntity
   8
LEVEL019
 100
AcDbLine
   6
CONTINUOUS
  62
3
  10
 319.000
  20
 522.309
  30
0.0
  11
 319.000
  21
 517.691
  31
0.0
   0
LINE
   5
1DA
 100
AcDbEntity
   8
LEVEL019
 100
AcDbLine
   6
CONTINUOUS
  62
3
  10
 319.000
  20
 517.691
  30
0.0
  11
 315.000
  21
 515.381
  31
0.0
   0
LINE
   5
1DB
 100
AcDbEntity
   8
LEVEL019
 100
AcDbLine
   6
CONTINUOUS
  62
3
  10
 315.000
  20
 515.381
  30
0.0
  11
 311.000
  21
 517.691
  31
0.0
   0
LINE
   5
1DC
 100
AcDbEntity
   8
LEVEL019
 100
AcDbLine
   6
CONTINUOUS
  62
3
  10
 311.000
  20
 517.691
  30
0.0
  11
 311.000
  21
 522.309
  31
0.0
   0
LINE
   5
1DD
 100
AcDbEntity
   8
LEVEL019
 100
AcDbLine
   6
CONTINUOUS
  62
3
  10
 311.000
  20
 522.309
  30
0.0
  11
 315.000
  21
 524.619
  31
0.0
   0
LINE
   5
1DE
 100
AcDbEntity
   8
LEVEL016
 100
AcDbLine
   6
CONTINUOUS
  62
3
  10
 201.000
  20
 231.500
  30
0.0
  11
 201.000
  21
 223.750
  31
0.0
   0
LINE
   5
1DF
 100
AcDbEntity
   8
LEVEL016
 100
AcDbLine
   6
CONTINUOUS
  62
3
  10
 202.500
  20
 231.500
  30
0.0
  11
 202.500
  21
 223.750
  31
0.0
   0
LINE
   5
1E0
 100
AcDbEntity
   8
LEVEL016
 100
AcDbLine
   6
CONTINUOUS
  62
3
  10
 204.000
  20
 231.000
  30
0.0
  11
 204.000
  21
 223.750
  31
0.0
   0
LINE
   5
1E1
 100
AcDbEntity
   8
LEVEL016
 100
AcDbLine
   6
CONTINUOUS
  62
3
  10
 199.500
  20
 231.500
  30
0.0
  11
 199.500
  21
 223.750
  31
0.0
   0
LINE
   5
1E2
 100
AcDbEntity
   8
LEVEL016
 100
AcDbLine
   6
CONTINUOUS
  62
3
  10
 198.000
  20
 231.500
  30
0.0
  11
 198.000
  21
 223.750
  31
0.0
   0
LINE
   5
1E3
 100
AcDbEntity
   8
LEVEL016
 100
AcDbLine
   6
CONTINUOUS
  62
3
  10
 196.500
  20
 231.500
  30
0.0
  11
 196.500
  21
 223.750
  31
0.0
   0
LINE
   5
1E4
 100
AcDbEntity
   8
LEVEL016
 100
AcDbLine
   6
DASHDOT
  62
1
  10
 195.000
  20
 236.695
  30
0.0
  11
 195.000
  21
 222.000
  31
0.0
   0
LINE
   5
1E5
 100
AcDbEntity
   8
LEVEL016
 100
AcDbLine
   6
CONTINUOUS
  62
3
  10
 186.000
  20
 231.000
  30
0.0
  11
 186.000
  21
 223.750
  31
0.0
   0
LINE
   5
1E6
 100
AcDbEntity
   8
LEVEL016
 100
AcDbLine
   6
CONTINUOUS
  62
3
  10
 187.500
  20
 231.500
  30
0.0
  11
 187.500
  21
 223.750
  31
0.0
   0
LINE
   5
1E7
 100
AcDbEntity
   8
LEVEL016
 100
AcDbLine
   6
CONTINUOUS
  62
3
  10
 189.000
  20
 231.500
  30
0.0
  11
 189.000
  21
 223.750
  31
0.0
   0
LINE
   5
1E8
 100
AcDbEntity
   8
LEVEL016
 100
AcDbLine
   6
CONTINUOUS
  62
3
  10
 190.500
  20
 231.500
  30
0.0
  11
 190.500
  21
 223.750
  31
0.0
   0
LINE
   5
1E9
 100
AcDbEntity
   8
LEVEL016
 100
AcDbLine
   6
CONTINUOUS
  62
3
  10
 193.500
  20
 231.500
  30
0.0
  11
 193.500
  21
 223.750
  31
0.0
   0
LINE
   5
1EA
 100
AcDbEntity
   8
LEVEL016
 100
AcDbLine
   6
CONTINUOUS
  62
3
  10
 192.000
  20
 231.500
  30
0.0
  11
 192.000
  21
 223.750
  31
0.0
   0
LINE
   5
1EB
 100
AcDbEntity
   8
LEVEL016
 100
AcDbLine
   6
CONTINUOUS
  62
3
  10
 205.000
  20
 223.750
  30
0.0
  11
 203.250
  21
 222.000
  31
0.0
   0
LINE
   5
1EC
 100
AcDbEntity
   8
LEVEL016
 100
AcDbLine
   6
CONTINUOUS
  62
3
  10
 185.000
  20
 223.750
  30
0.0
  11
 205.000
  21
 223.750
  31
0.0
   0
LINE
   5
1ED
 100
AcDbEntity
   8
LEVEL016
 100
AcDbLine
   6
CONTINUOUS
  62
3
  10
 205.000
  20
 223.750
  30
0.0
  11
 205.000
  21
 229.000
  31
0.0
   0
LINE
   5
1EE
 100
AcDbEntity
   8
LEVEL016
 100
AcDbLine
   6
CONTINUOUS
  62
3
  10
 190.000
  20
 234.000
  30
0.0
  11
 200.000
  21
 234.000
  31
0.0
   0
ARC
   5
1EF
 100
AcDbEntity
   8
LEVEL016
   6
CONTINUOUS
  62
3
 100
AcDbCircle
  10
 200.000
  20
 229.000
  30
0.0
  40
 5.00000
 100
AcDbArc
  50
0.0
  51
 90.0000
   0
LINE
   5
1F0
 100
AcDbEntity
   8
LEVEL016
 100
AcDbLine
   6
CONTINUOUS
  62
3
  10
 185.000
  20
 223.750
  30
0.0
  11
 186.750
  21
 222.000
  31
0.0
   0
LINE
   5
1F1
 100
AcDbEntity
   8
LEVEL016
 100
AcDbLine
   6
CONTINUOUS
  62
3
  10
 185.000
  20
 223.750
  30
0.0
  11
 185.000
  21
 229.000
  31
0.0
   0
ARC
   5
1F2
 100
AcDbEntity
   8
LEVEL016
   6
CONTINUOUS
  62
3
 100
AcDbCircle
  10
 190.000
  20
 229.000
  30
0.0
  40
 5.00000
 100
AcDbArc
  50
 90.0000
  51
 180.000
   0
DIMENSION
   5
1F3
 100
AcDbEntity
   8
LEVEL003
   6
CONTINUOUS
  62
3
 100
AcDbDimension
   2
*D3
  10
 335.000
  20
 461.291
  30
0.0
  11
 255.000
  21
 461.291
  31
0.0
  70
0
   1
\A1;160
   3
GMM003
 100
AcDbAlignedDimension
  13
 175.000
  23
 505.000
  33
0.0
  14
 335.000
  24
 505.000
  34
0.0
 100
AcDbRotatedDimension
   0
LINE
   5
1F5
 100
AcDbEntity
   8
LEVEL020
 100
AcDbLine
   6
DOT
  62
3
  10
 180.004
  20
 210.000
  30
0.0
  11
 181.688
  21
 109.584
  31
0.0
   0
ARC
   5
1F6
 100
AcDbEntity
   8
LEVEL020
   6
DOT
  62
3
 100
AcDbCircle
  10
 191.680
  20
 110.000
  30
0.0
  40
 10.0000
 100
AcDbArc
  50
 182.386
  51
 270.000
   0
LINE
   5
1F7
 100
AcDbEntity
   8
LEVEL020
 100
AcDbLine
   6
DOT
  62
3
  10
 329.996
  20
 210.000
  30
0.0
  11
 328.312
  21
 109.584
  31
0.0
   0
ARC
   5
1F8
 100
AcDbEntity
   8
LEVEL020
   6
DOT
  62
3
 100
AcDbCircle
  10
 318.320
  20
 110.000
  30
0.0
  40
 10.0000
 100
AcDbArc
  50
 270.000
  51
 357.614
   0
LINE
   5
1F9
 100
AcDbEntity
   8
LEVEL020
 100
AcDbLine
   6
DOT
  62
3
  10
 191.680
  20
 100.000
  30
0.0
  11
 318.320
  21
 100.000
  31
0.0
   0
LINE
   5
1FA
 100
AcDbEntity
   8
LEVEL020
 100
AcDbLine
   6
DASHDOT
  62
1
  10
 322.500
  20
 87.0000
  30
0.0
  11
 322.500
  21
 105.309
  31
0.0
   0
LINE
   5
1FB
 100
AcDbEntity
   8
LEVEL020
 100
AcDbLine
   6
CONTINUOUS
  62
3
  10
 332.500
  20
 90.0000
  30
0.0
  11
 335.000
  21
 210.000
  31
0.0
   0
LINE
   5
1FC
 100
AcDbEntity
   8
LEVEL020
 100
AcDbLine
   6
CONTINUOUS
  62
3
  10
 335.000
  20
 210.000
  30
0.0
  11
 175.000
  21
 210.000
  31
0.0
   0
LINE
   5
1FD
 100
AcDbEntity
   8
LEVEL020
 100
AcDbLine
   6
CONTINUOUS
  62
3
  10
 175.000
  20
 210.000
  30
0.0
  11
 177.500
  21
 90.0000
  31
0.0
   0
LINE
   5
1FE
 100
AcDbEntity
   8
LEVEL020
 100
AcDbLine
   6
DOT
  62
3
  10
 190.000
  20
 90.5000
  30
0.0
  11
 185.000
  21
 90.5000
  31
0.0
   0
LINE
   5
1FF
 100
AcDbEntity
   8
LEVEL020
 100
AcDbLine
   6
CONTINUOUS
  62
3
  10
 332.500
  20
 90.0000
  30
0.0
  11
 312.500
  21
 90.0000
  31
0.0
   0
ARC
   5
200
 100
AcDbEntity
   8
LEVEL020
   6
CONTINUOUS
  62
3
 100
AcDbCircle
  10
 303.840
  20
 85.0000
  30
0.0
  40
 10.0000
 100
AcDbArc
  50
 30.0000
  51
 90.0000
   0
LINE
   5
201
 100
AcDbEntity
   8
LEVEL020
 100
AcDbLine
   6
CONTINUOUS
  62
3
  10
 177.500
  20
 90.0000
  30
0.0
  11
 197.500
  21
 90.0000
  31
0.0
   0
ARC
   5
202
 100
AcDbEntity
   8
LEVEL020
   6
CONTINUOUS
  62
3
 100
AcDbCircle
  10
 206.160
  20
 85.0000
  30
0.0
  40
 10.0000
 100
AcDbArc
  50
 90.0000
  51
 150.000
   0
LINE
   5
203
 100
AcDbEntity
   8
LEVEL020
 100
AcDbLine
   6
CONTINUOUS
  62
3
  10
 303.840
  20
 95.0000
  30
0.0
  11
 206.160
  21
 95.0000
  31
0.0
   0
DIMENSION
   5
204
 100
AcDbEntity
   8
LEVEL003
   6
CONTINUOUS
  62
3
 100
AcDbDimension
   2
*D4
  10
 150.000
  20
 222.000
  30
0.0
  11
 150.000
  21
 156.000
  31
0.0
  70
0
   1
\A1;132
   3
GMM001
 100
AcDbAlignedDimension
  13
 177.500
  23
 90.0000
  33
0.0
  14
 175.000
  24
 222.000
  34
0.0
  50
 90.0000
 100
AcDbRotatedDimension
   0
LINE
   5
206
 100
AcDbEntity
   8
LEVEL020
 100
AcDbLine
   6
DASHDOT
  62
1
  10
 187.500
  20
 87.0000
  30
0.0
  11
 187.500
  21
 105.175
  31
0.0
   0
LINE
   5
207
 100
AcDbEntity
   8
LEVEL020
 100
AcDbLine
   6
DOT
  62
3
  10
 190.500
  20
 90.0000
  30
0.0
  11
 190.500
  21
 99.0000
  31
0.0
   0
LINE
   5
208
 100
AcDbEntity
   8
LEVEL020
 100
AcDbLine
   6
DOT
  62
3
  10
 190.500
  20
 99.0000
  30
0.0
  11
 190.000
  21
 100.866
  31
0.0
   0
LINE
   5
209
 100
AcDbEntity
   8
LEVEL020
 100
AcDbLine
   6
DOT
  62
3
  10
 185.000
  20
 100.866
  30
0.0
  11
 184.500
  21
 99.0000
  31
0.0
   0
LINE
   5
20A
 100
AcDbEntity
   8
LEVEL020
 100
AcDbLine
   6
DOT
  62
3
  10
 184.500
  20
 99.0000
  30
0.0
  11
 184.500
  21
 90.0000
  31
0.0
   0
LINE
   5
20B
 100
AcDbEntity
   8
LEVEL020
 100
AcDbLine
   6
DOT
  62
3
  10
 190.500
  20
 99.0000
  30
0.0
  11
 184.500
  21
 99.0000
  31
0.0
   0
LINE
   5
20C
 100
AcDbEntity
   8
LEVEL020
 100
AcDbLine
   6
DOT
  62
3
  10
 190.000
  20
 100.866
  30
0.0
  11
 185.000
  21
 100.866
  31
0.0
   0
LINE
   5
20D
 100
AcDbEntity
   8
LEVEL020
 100
AcDbLine
   6
DOT
  62
3
  10
 190.500
  20
 90.0000
  30
0.0
  11
 190.000
  21
 90.5000
  31
0.0
   0
LINE
   5
20E
 100
AcDbEntity
   8
LEVEL020
 100
AcDbLine
   6
DOT
  62
3
  10
 190.000
  20
 90.5000
  30
0.0
  11
 190.000
  21
 100.866
  31
0.0
   0
LINE
   5
20F
 100
AcDbEntity
   8
LEVEL020
 100
AcDbLine
   6
DOT
  62
3
  10
 185.000
  20
 100.866
  30
0.0
  11
 185.000
  21
 90.5000
  31
0.0
   0
LINE
   5
210
 100
AcDbEntity
   8
LEVEL020
 100
AcDbLine
   6
DOT
  62
3
  10
 185.000
  20
 90.5000
  30
0.0
  11
 184.500
  21
 90.0000
  31
0.0
   0
LINE
   5
211
 100
AcDbEntity
   8
LEVEL020
 100
AcDbLine
   6
DOT
  62
3
  10
 185.000
  20
 100.866
  30
0.0
  11
 187.500
  21
 102.309
  31
0.0
   0
LINE
   5
212
 100
AcDbEntity
   8
LEVEL020
 100
AcDbLine
   6
DOT
  62
3
  10
 190.000
  20
 100.866
  30
0.0
  11
 187.500
  21
 102.309
  31
0.0
   0
DIMENSION
   5
213
 100
AcDbEntity
   8
LEVEL003
   6
CONTINUOUS
  62
3
 100
AcDbDimension
   2
*D5
  10
 322.500
  20
 67.5000
  30
0.0
  11
 255.000
  21
 67.5000
  31
0.0
  70
0
   1
\A1;135
   3
GMM001
 100
AcDbAlignedDimension
  13
 187.500
  23
 87.0000
  33
0.0
  14
 322.500
  24
 87.0000
  34
0.0
 100
AcDbRotatedDimension
   0
LINE
   5
215
 100
AcDbEntity
   8
LEVEL016
 100
AcDbLine
   6
DASHDOT
  62
1
  10
 210.000
  20
 520.000
  30
0.0
  11
 180.000
  21
 520.000
  31
0.0
   0
TEXT
   5
216
 100
AcDbEntity
   8
LEVEL100
  62
7
 100
AcDbText
  10
 936.750
  20
 174.000
  30
0.0
  40
 12.0000
   1
Ｎ．ＡＩＨＡＲＡ
  41
 0.625000
   7
STANDARD
 100
AcDbText
   0
LEADER
   5
217
 100
AcDbEntity
   8
LEVEL003
   6
CONTINUOUS
  62
3
 100
AcDbLeader
   3
GMM004
  73
0
  74
1
  75
0
  40
 9.45000
  41
0.0
  76
3
  10
 242.618
  20
 233.492
  30
0.0
  10
 190.000
  20
 165.000
  30
0.0
  10
 265.000
  20
 165.000
  30
0.0
  77
3
   0
CIRCLE
   5
218
 100
AcDbEntity
   8
LEVEL014
 100
AcDbCircle
   6
DASHDOT
  62
1
  10
 255.000
  20
 655.000
  30
0.0
  40
 50.0000
   0
LINE
   5
219
 100
AcDbEntity
   8
LEVEL014
 100
AcDbLine
   6
DASHDOT
  62
1
  10
 215.137
  20
 615.137
  30
0.0
  11
 224.152
  21
 624.152
  31
0.0
   0
LINE
   5
21A
 100
AcDbEntity
   8
LEVEL014
 100
AcDbLine
   6
DASHDOT
  62
1
  10
 215.137
  20
 694.863
  30
0.0
  11
 224.152
  21
 685.848
  31
0.0
   0
LINE
   5
21B
 100
AcDbEntity
   8
LEVEL014
 100
AcDbLine
   6
DASHDOT
  62
1
  10
 294.863
  20
 694.863
  30
0.0
  11
 285.848
  21
 685.848
  31
0.0
   0
LINE
   5
21C
 100
AcDbEntity
   8
LEVEL014
 100
AcDbLine
   6
DASHDOT
  62
1
  10
 294.863
  20
 615.137
  30
0.0
  11
 285.848
  21
 624.152
  31
0.0
   0
LINE
   5
21D
 100
AcDbEntity
   8
LEVEL014
 100
AcDbLine
   6
DASHDOT
  62
1
  10
 180.000
  20
 655.000
  30
0.0
  11
 323.500
  21
 655.000
  31
0.0
   0
LINE
   5
21E
 100
AcDbEntity
   8
LEVEL013
 100
AcDbLine
   6
DASHDOT
  62
1
  10
 266.618
  20
 523.310
  30
0.0
  11
 266.618
  21
 539.310
  31
0.0
   0
LINE
   5
21F
 100
AcDbEntity
   8
LEVEL013
 100
AcDbLine
   6
DASHDOT
  62
1
  10
 274.618
  20
 531.310
  30
0.0
  11
 258.618
  21
 531.310
  31
0.0
   0
LINE
   5
220
 100
AcDbEntity
   8
LEVEL013
 100
AcDbLine
   6
DASHDOT
  62
1
  10
 231.618
  20
 523.310
  30
0.0
  11
 231.618
  21
 539.310
  31
0.0
   0
LINE
   5
221
 100
AcDbEntity
   8
LEVEL013
 100
AcDbLine
   6
DASHDOT
  62
1
  10
 223.618
  20
 531.310
  30
0.0
  11
 239.618
  21
 531.310
  31
0.0
   0
LINE
   5
222
 100
AcDbEntity
   8
LEVEL013
 100
AcDbLine
   6
DASHDOT
  62
1
  10
 225.506
  20
 501.496
  30
0.0
  11
 241.505
  21
 501.375
  31
0.0
   0
LINE
   5
223
 100
AcDbEntity
   8
LEVEL013
 100
AcDbLine
   6
DASHDOT
  62
1
  10
 233.566
  20
 509.435
  30
0.0
  11
 233.445
  21
 493.435
  31
0.0
   0
LINE
   5
224
 100
AcDbEntity
   8
LEVEL013
 100
AcDbLine
   6
DASHDOT
  62
1
  10
 274.618
  20
 501.310
  30
0.0
  11
 258.618
  21
 501.310
  31
0.0
   0
LINE
   5
225
 100
AcDbEntity
   8
LEVEL013
 100
AcDbLine
   6
DASHDOT
  62
1
  10
 266.618
  20
 509.310
  30
0.0
  11
 266.618
  21
 493.310
  31
0.0
   0
LINE
   5
226
 100
AcDbEntity
   8
LEVEL013
 100
AcDbLine
   6
DASHDOT
  62
1
  10
 231.618
  20
 301.000
  30
0.0
  11
 231.618
  21
 289.000
  31
0.0
   0
LINE
   5
227
 100
AcDbEntity
   8
LEVEL013
 100
AcDbLine
   6
DASHDOT
  62
1
  10
 561.310
  20
 301.000
  30
0.0
  11
 561.310
  21
 289.000
  31
0.0
   0
LINE
   5
228
 100
AcDbEntity
   8
LEVEL013
 100
AcDbLine
   6
DASHDOT
  62
1
  10
 531.310
  20
 301.000
  30
0.0
  11
 531.310
  21
 289.000
  31
0.0
   0
LINE
   5
229
 100
AcDbEntity
   8
LEVEL013
 100
AcDbLine
   6
DASHDOT
  62
1
  10
 546.310
  20
 340.849
  30
0.0
  11
 546.310
  21
 252.000
  31
0.0
   0
LINE
   5
22A
 100
AcDbEntity
   8
LEVEL026
 100
AcDbLine
   6
CONTINUOUS
  62
3
  10
 271.618
  20
 252.000
  30
0.0
  11
 271.618
  21
 222.000
  31
0.0
   0
LINE
   5
22B
 100
AcDbEntity
   8
LEVEL026
 100
AcDbLine
   6
DASHDOT
  62
1
  10
 258.949
  20
 240.000
  30
0.0
  11
 236.287
  21
 240.000
  31
0.0
   0
LINE
   5
22C
 100
AcDbEntity
   8
LEVEL026
 100
AcDbLine
   6
DASHDOT
  62
1
  10
 247.618
  20
 250.831
  30
0.0
  11
 247.618
  21
 231.169
  31
0.0
   0
CIRCLE
   5
22D
 100
AcDbEntity
   8
LEVEL026
 100
AcDbCircle
   6
CONTINUOUS
  62
3
  10
 247.618
  20
 240.000
  30
0.0
  40
 8.33100
   0
CIRCLE
   5
22E
 100
AcDbEntity
   8
LEVEL026
 100
AcDbCircle
   6
CONTINUOUS
  62
3
  10
 247.618
  20
 240.000
  30
0.0
  40
 7.47500
   0
LINE
   5
22F
 100
AcDbEntity
   8
LEVEL026
 100
AcDbLine
   6
CONTINUOUS
  62
3
  10
 221.618
  20
 222.000
  30
0.0
  11
 221.618
  21
 252.000
  31
0.0
   0
LINE
   5
230
 100
AcDbEntity
   8
LEVEL026
 100
AcDbLine
   6
DASHDOT
  62
1
  10
 235.618
  20
 551.310
  30
0.0
  11
 219.618
  21
 551.310
  31
0.0
   0
LINE
   5
231
 100
AcDbEntity
   8
LEVEL026
 100
AcDbLine
   6
DASHDOT
  62
1
  10
 213.618
  20
 559.810
  30
0.0
  11
 236.324
  21
 559.810
  31
0.0
   0
LINE
   5
232
 100
AcDbEntity
   8
LEVEL026
 100
AcDbLine
   6
DASHDOT
  62
1
  10
 227.618
  20
 559.310
  30
0.0
  11
 227.618
  21
 543.310
  31
0.0
   0
LINE
   5
233
 100
AcDbEntity
   8
LEVEL013
 100
AcDbLine
   6
DASHDOT
  62
1
  10
 249.118
  20
 337.000
  30
0.0
  11
 249.118
  21
 245.428
  31
0.0
   0
LINE
   5
234
 100
AcDbEntity
   8
LEVEL019
 100
AcDbLine
   6
CONTINUOUS
  62
3
  10
 185.000
  20
 502.887
  30
0.0
  11
 187.500
  21
 501.443
  31
0.0
   0
LINE
   5
235
 100
AcDbEntity
   8
LEVEL019
 100
AcDbLine
   6
CONTINUOUS
  62
3
  10
 187.500
  20
 501.443
  30
0.0
  11
 187.500
  21
 498.557
  31
0.0
   0
LINE
   5
236
 100
AcDbEntity
   8
LEVEL019
 100
AcDbLine
   6
CONTINUOUS
  62
3
  10
 187.500
  20
 498.557
  30
0.0
  11
 185.000
  21
 497.113
  31
0.0
   0
LINE
   5
237
 100
AcDbEntity
   8
LEVEL019
 100
AcDbLine
   6
CONTINUOUS
  62
3
  10
 185.000
  20
 497.113
  30
0.0
  11
 182.500
  21
 498.557
  31
0.0
   0
LINE
   5
238
 100
AcDbEntity
   8
LEVEL019
 100
AcDbLine
   6
CONTINUOUS
  62
3
  10
 182.500
  20
 498.557
  30
0.0
  11
 182.500
  21
 501.443
  31
0.0
   0
LINE
   5
239
 100
AcDbEntity
   8
LEVEL019
 100
AcDbLine
   6
CONTINUOUS
  62
3
  10
 182.500
  20
 501.443
  30
0.0
  11
 185.000
  21
 502.887
  31
0.0
   0
CIRCLE
   5
23A
 100
AcDbEntity
   8
LEVEL019
 100
AcDbCircle
   6
CONTINUOUS
  62
3
  10
 185.000
  20
 500.000
  30
0.0
  40
 5.00000
   0
CIRCLE
   5
23B
 100
AcDbEntity
   8
LEVEL019
 100
AcDbCircle
   6
CONTINUOUS
  62
3
  10
 185.000
  20
 500.000
  30
0.0
  40
 4.48038
   0
LINE
   5
23C
 100
AcDbEntity
   8
LEVEL019
 100
AcDbLine
   6
CONTINUOUS
  62
3
  10
 325.000
  20
 502.887
  30
0.0
  11
 327.500
  21
 501.443
  31
0.0
   0
LINE
   5
23D
 100
AcDbEntity
   8
LEVEL019
 100
AcDbLine
   6
CONTINUOUS
  62
3
  10
 327.500
  20
 501.443
  30
0.0
  11
 327.500
  21
 498.557
  31
0.0
   0
LINE
   5
23E
 100
AcDbEntity
   8
LEVEL019
 100
AcDbLine
   6
CONTINUOUS
  62
3
  10
 327.500
  20
 498.557
  30
0.0
  11
 325.000
  21
 497.113
  31
0.0
   0
LINE
   5
23F
 100
AcDbEntity
   8
LEVEL019
 100
AcDbLine
   6
CONTINUOUS
  62
3
  10
 325.000
  20
 497.113
  30
0.0
  11
 322.500
  21
 498.557
  31
0.0
   0
LINE
   5
240
 100
AcDbEntity
   8
LEVEL019
 100
AcDbLine
   6
CONTINUOUS
  62
3
  10
 322.500
  20
 498.557
  30
0.0
  11
 322.500
  21
 501.443
  31
0.0
   0
LINE
   5
241
 100
AcDbEntity
   8
LEVEL019
 100
AcDbLine
   6
CONTINUOUS
  62
3
  10
 322.500
  20
 501.443
  30
0.0
  11
 325.000
  21
 502.887
  31
0.0
   0
CIRCLE
   5
242
 100
AcDbEntity
   8
LEVEL019
 100
AcDbCircle
   6
CONTINUOUS
  62
3
  10
 325.000
  20
 500.000
  30
0.0
  40
 5.00000
   0
CIRCLE
   5
243
 100
AcDbEntity
   8
LEVEL019
 100
AcDbCircle
   6
CONTINUOUS
  62
3
  10
 325.000
  20
 500.000
  30
0.0
  40
 4.48038
   0
LINE
   5
244
 100
AcDbEntity
   8
LEVEL026
 100
AcDbLine
   6
DASHDOT
  62
1
  10
 242.618
  20
 312.000
  30
0.0
  11
 242.618
  21
 247.000
  31
0.0
   0
LINE
   5
245
 100
AcDbEntity
   8
LEVEL015
 100
AcDbLine
   6
DASHDOT
  62
1
  10
 204.368
  20
 355.000
  30
0.0
  11
 280.868
  21
 355.000
  31
0.0
   0
LINE
   5
246
 100
AcDbEntity
   8
LEVEL015
 100
AcDbLine
   6
DASHDOT
  62
1
  10
 242.618
  20
 306.000
  30
0.0
  11
 242.618
  21
 396.000
  31
0.0
   0
CIRCLE
   5
247
 100
AcDbEntity
   8
LEVEL015
 100
AcDbCircle
   6
CONTINUOUS
  62
3
  10
 242.618
  20
 355.000
  30
0.0
  40
 2.12500
   0
ARC
   5
248
 100
AcDbEntity
   8
LEVEL015
   6
CONTINUOUS
  62
3
 100
AcDbCircle
  10
 247.256
  20
 357.123
  30
0.0
  40
 0.850000
 100
AcDbArc
  50
 284.999
  51
 24.5935
   0
ARC
   5
249
 100
AcDbEntity
   8
LEVEL015
   6
CONTINUOUS
  62
3
 100
AcDbCircle
  10
 245.137
  20
 359.435
  30
0.0
  40
 0.850000
 100
AcDbArc
  50
 60.4063
  51
 160.000
   0
ARC
   5
24A
 100
AcDbEntity
   8
LEVEL015
   6
CONTINUOUS
  62
3
 100
AcDbCircle
  10
 242.618
  20
 355.000
  30
0.0
  40
 5.95000
 100
AcDbArc
  50
 24.5941
  51
 60.4060
   0
LINE
   5
24B
 100
AcDbEntity
   8
LEVEL015
 100
AcDbLine
   6
CONTINUOUS
  62
3
  10
 244.671
  20
 355.550
  30
0.0
  11
 247.476
  21
 356.302
  31
0.0
   0
LINE
   5
24C
 100
AcDbEntity
   8
LEVEL015
 100
AcDbLine
   6
CONTINUOUS
  62
3
  10
 257.644
  20
 339.974
  30
0.0
  11
 260.650
  21
 336.969
  31
0.0
   0
LINE
   5
24D
 100
AcDbEntity
   8
LEVEL015
 100
AcDbLine
   6
CONTINUOUS
  62
3
  10
 243.345
  20
 356.997
  30
0.0
  11
 244.338
  21
 359.725
  31
0.0
   0
CIRCLE
   5
24E
 100
AcDbEntity
   8
LEVEL015
 100
AcDbCircle
   6
CONTINUOUS
  62
3
  10
 242.618
  20
 355.000
  30
0.0
  40
 0.637500
   0
ARC
   5
24F
 100
AcDbEntity
   8
LEVEL013
   6
CONTINUOUS
  62
3
 100
AcDbCircle
  10
 266.700
  20
 318.592
  30
0.0
  40
 3.00000
 100
AcDbArc
  50
 89.9990
  51
 171.469
   0
ARC
   5
250
 100
AcDbEntity
   8
LEVEL013
   6
CONTINUOUS
  62
3
 100
AcDbCircle
  10
 272.973
  20
 322.592
  30
0.0
  40
 1.00000
 100
AcDbArc
  50
 270.000
  51
 0.788167E-9
   0
ARC
   5
251
 100
AcDbEntity
   8
LEVEL013
   6
CONTINUOUS
  62
3
 100
AcDbCircle
  10
 271.973
  20
 330.817
  30
0.0
  40
 2.00000
 100
AcDbArc
  50
0.0
  51
 81.1169
   0
ARC
   5
252
 100
AcDbEntity
   8
LEVEL013
   6
CONTINUOUS
  62
3
 100
AcDbCircle
  10
 249.117
  20
 184.592
  30
0.0
  40
 150.000
 100
AcDbArc
  50
 81.1161
  51
 83.3804
   0
ARC
   5
253
 100
AcDbEntity
   8
LEVEL013
   6
CONTINUOUS
  62
3
 100
AcDbCircle
  10
 261.592
  20
 322.592
  30
0.0
  40
 1.00000
 100
AcDbArc
  50
 270.000
  51
 0.814222E-9
   0
ARC
   5
254
 100
AcDbEntity
   8
LEVEL013
   6
CONTINUOUS
  62
3
 100
AcDbCircle
  10
 260.592
  20
 330.793
  30
0.0
  40
 2.00000
 100
AcDbArc
  50
0.0
  51
 90.0000
   0
ARC
   5
255
 100
AcDbEntity
   8
LEVEL013
   6
CONTINUOUS
  62
3
 100
AcDbCircle
  10
 263.592
  20
 322.592
  30
0.0
  40
 1.00000
 100
AcDbArc
  50
 180.000
  51
 270.000
   0
ARC
   5
256
 100
AcDbEntity
   8
LEVEL013
   6
CONTINUOUS
  62
3
 100
AcDbCircle
  10
 264.592
  20
 330.793
  30
0.0
  40
 2.00000
 100
AcDbArc
  50
 90.0000
  51
 180.000
   0
ARC
   5
257
 100
AcDbEntity
   8
LEVEL015
   6
CONTINUOUS
  62
3
 100
AcDbCircle
  10
 242.618
  20
 355.000
  30
0.0
  40
 34.0000
 100
AcDbArc
  50
 320.333
  51
 237.321
   0
LINE
   5
258
 100
AcDbEntity
   8
LEVEL013
 100
AcDbLine
   6
CONTINUOUS
  62
3
  10
 249.118
  20
 321.592
  30
0.0
  11
 272.973
  21
 321.592
  31
0.0
   0
LINE
   5
259
 100
AcDbEntity
   8
LEVEL013
 100
AcDbLine
   6
CONTINUOUS
  62
3
  10
 273.973
  20
 322.592
  30
0.0
  11
 273.973
  21
 330.817
  31
0.0
   0
LINE
   5
25A
 100
AcDbEntity
   8
LEVEL013
 100
AcDbLine
   6
CONTINUOUS
  62
3
  10
 252.618
  20
 333.592
  30
0.0
  11
 260.789
  21
 332.783
  31
0.0
   0
LINE
   5
25B
 100
AcDbEntity
   8
LEVEL013
 100
AcDbLine
   6
CONTINUOUS
  62
3
  10
 262.592
  20
 322.592
  30
0.0
  11
 262.592
  21
 330.793
  31
0.0
   0
LINE
   5
25C
 100
AcDbEntity
   8
LEVEL013
 100
AcDbLine
   6
CONTINUOUS
  62
3
  10
 264.592
  20
 332.793
  30
0.0
  11
 270.093
  21
 332.793
  31
0.0
   0
LINE
   5
25D
 100
AcDbEntity
   8
LEVEL013
 100
AcDbLine
   6
CONTINUOUS
  62
3
  10
 262.872
  20
 313.296
  30
0.0
  11
 263.734
  21
 319.038
  31
0.0
   0
LINE
   5
25E
 100
AcDbEntity
   8
LEVEL013
 100
AcDbLine
   6
CONTINUOUS
  62
3
  10
 252.618
  20
 322.592
  30
0.0
  11
 252.618
  21
 330.793
  31
0.0
   0
LINE
   5
25F
 100
AcDbEntity
   8
LEVEL013
 100
AcDbLine
   6
CONTINUOUS
  62
3
  10
 245.618
  20
 322.592
  30
0.0
  11
 245.618
  21
 330.793
  31
0.0
   0
ARC
   5
260
 100
AcDbEntity
   8
LEVEL015
   6
CONTINUOUS
  62
3
 100
AcDbCircle
  10
 242.618
  20
 355.000
  30
0.0
  40
 25.5000
 100
AcDbArc
  50
 315.000
  51
 225.000
   0
ARC
   5
261
 100
AcDbEntity
   8
LEVEL015
   6
CONTINUOUS
  62
3
 100
AcDbCircle
  10
 242.618
  20
 355.000
  30
0.0
  40
 21.2500
 100
AcDbArc
  50
 315.000
  51
 225.000
   0
ARC
   5
262
 100
AcDbEntity
   8
LEVEL015
   6
CONTINUOUS
  62
3
 100
AcDbCircle
  10
 242.618
  20
 355.000
  30
0.0
  40
 30.5000
 100
AcDbArc
  50
 315.959
  51
 232.995
   0
LINE
   5
263
 100
AcDbEntity
   8
LEVEL013
 100
AcDbLine
   6
CONTINUOUS
  62
3
  10
 245.618
  20
 333.592
  30
0.0
  11
 237.447
  21
 332.783
  31
0.0
   0
LINE
   5
264
 100
AcDbEntity
   8
LEVEL013
 100
AcDbLine
   6
CONTINUOUS
  62
3
  10
 224.261
  20
 322.592
  30
0.0
  11
 224.261
  21
 330.817
  31
0.0
   0
LINE
   5
265
 100
AcDbEntity
   8
LEVEL015
 100
AcDbLine
   6
CONTINUOUS
  62
3
  10
 227.592
  20
 339.974
  30
0.0
  11
 224.587
  21
 336.969
  31
0.0
   0
LINE
   5
266
 100
AcDbEntity
   8
LEVEL015
 100
AcDbLine
   6
CONTINUOUS
  62
3
  10
 240.534
  20
 354.588
  30
0.0
  11
 225.618
  21
 338.000
  31
0.0
   0
LINE
   5
267
 100
AcDbEntity
   8
LEVEL015
 100
AcDbLine
   6
CONTINUOUS
  62
3
  10
 225.618
  20
 338.000
  30
0.0
  11
 242.207
  21
 352.915
  31
0.0
   0
ARC
   5
268
 100
AcDbEntity
   8
LEVEL013
   6
CONTINUOUS
  62
3
 100
AcDbCircle
  10
 231.533
  20
 318.592
  30
0.0
  40
 3.00000
 100
AcDbArc
  50
 8.53108
  51
 89.9986
   0
ARC
   5
269
 100
AcDbEntity
   8
LEVEL013
   6
CONTINUOUS
  62
3
 100
AcDbCircle
  10
 236.645
  20
 322.592
  30
0.0
  40
 1.00000
 100
AcDbArc
  50
 180.000
  51
 270.000
   0
ARC
   5
26A
 100
AcDbEntity
   8
LEVEL013
   6
CONTINUOUS
  62
3
 100
AcDbCircle
  10
 234.645
  20
 322.592
  30
0.0
  40
 1.00000
 100
AcDbArc
  50
 270.000
  51
 0.299634E-9
   0
ARC
   5
26B
 100
AcDbEntity
   8
LEVEL013
   6
CONTINUOUS
  62
3
 100
AcDbCircle
  10
 226.261
  20
 330.817
  30
0.0
  40
 2.00000
 100
AcDbArc
  50
 98.8840
  51
 180.000
   0
ARC
   5
26C
 100
AcDbEntity
   8
LEVEL013
   6
CONTINUOUS
  62
3
 100
AcDbCircle
  10
 249.117
  20
 184.593
  30
0.0
  40
 150.000
 100
AcDbArc
  50
 96.6196
  51
 98.8839
   0
ARC
   5
26D
 100
AcDbEntity
   8
LEVEL013
   6
CONTINUOUS
  62
3
 100
AcDbCircle
  10
 237.645
  20
 330.793
  30
0.0
  40
 2.00000
 100
AcDbArc
  50
 90.0000
  51
 180.000
   0
ARC
   5
26E
 100
AcDbEntity
   8
LEVEL013
   6
CONTINUOUS
  62
3
 100
AcDbCircle
  10
 233.645
  20
 330.793
  30
0.0
  40
 2.00000
 100
AcDbArc
  50
0.0
  51
 90.0000
   0
ARC
   5
26F
 100
AcDbEntity
   8
LEVEL013
   6
CONTINUOUS
  62
3
 100
AcDbCircle
  10
 249.118
  20
 184.592
  30
0.0
  40
 150.000
 100
AcDbArc
  50
 80.9510
  51
 99.0490
   0
LINE
   5
270
 100
AcDbEntity
   8
LEVEL013
 100
AcDbLine
   6
CONTINUOUS
  62
3
  10
 235.645
  20
 322.592
  30
0.0
  11
 235.645
  21
 330.793
  31
0.0
   0
LINE
   5
271
 100
AcDbEntity
   8
LEVEL013
 100
AcDbLine
   6
CONTINUOUS
  62
3
  10
 233.645
  20
 332.793
  30
0.0
  11
 228.143
  21
 332.793
  31
0.0
   0
LINE
   5
272
 100
AcDbEntity
   8
LEVEL013
 100
AcDbLine
   6
CONTINUOUS
  62
3
  10
 231.825
  20
 333.592
  30
0.0
  11
 266.409
  21
 333.592
  31
0.0
   0
ARC
   5
273
 100
AcDbEntity
   8
LEVEL013
   6
CONTINUOUS
  62
3
 100
AcDbCircle
  10
 225.261
  20
 322.592
  30
0.0
  40
 1.00000
 100
AcDbArc
  50
 180.000
  51
 270.000
   0
LINE
   5
274
 100
AcDbEntity
   8
LEVEL013
 100
AcDbLine
   6
CONTINUOUS
  62
3
  10
 225.261
  20
 321.592
  30
0.0
  11
 249.118
  21
 321.592
  31
0.0
   0
ARC
   5
275
 100
AcDbEntity
   8
LEVEL013
   6
CONTINUOUS
  62
3
 100
AcDbCircle
  10
 237.339
  20
 313.592
  30
0.0
  40
 2.00000
 100
AcDbArc
  50
 188.531
  51
 270.001
   0
ARC
   5
276
 100
AcDbEntity
   8
LEVEL026
   6
CONTINUOUS
  62
3
 100
AcDbCircle
  10
 242.618
  20
 291.938
  30
0.0
  40
 20.0619
 100
AcDbArc
  50
 101.568
  51
 107.588
   0
LINE
   5
277
 100
AcDbEntity
   8
LEVEL026
 100
AcDbLine
   6
CONTINUOUS
  62
3
  10
 236.556
  20
 302.387
  30
0.0
  11
 236.556
  21
 311.062
  31
0.0
   0
LINE
   5
278
 100
AcDbEntity
   8
LEVEL015
 100
AcDbLine
   6
CONTINUOUS
  62
3
  10
 236.040
  20
 312.000
  30
0.0
  11
 236.040
  21
 312.072
  31
0.0
   0
LINE
   5
279
 100
AcDbEntity
   8
LEVEL013
 100
AcDbLine
   6
CONTINUOUS
  62
3
  10
 235.361
  20
 313.296
  30
0.0
  11
 234.500
  21
 319.038
  31
0.0
   0
ARC
   5
27A
 100
AcDbEntity
   8
LEVEL026
   6
CONTINUOUS
  62
3
 100
AcDbCircle
  10
 232.118
  20
 301.031
  30
0.0
  40
 10.9687
 100
AcDbArc
  50
 66.1347
  51
 90.0000
   0
LINE
   5
27B
 100
AcDbEntity
   8
LEVEL026
 100
AcDbLine
   6
CONTINUOUS
  62
3
  10
 236.129
  20
 312.000
  30
0.0
  11
 232.118
  21
 312.000
  31
0.0
   0
LINE
   5
27C
 100
AcDbEntity
   8
LEVEL026
 100
AcDbLine
   6
CONTINUOUS
  62
3
  10
 232.118
  20
 312.000
  30
0.0
  11
 230.494
  21
 311.062
  31
0.0
   0
ARC
   5
27D
 100
AcDbEntity
   8
LEVEL013
   6
CONTINUOUS
  62
3
 100
AcDbCircle
  10
 260.895
  20
 313.592
  30
0.0
  40
 2.00000
 100
AcDbArc
  50
 270.001
  51
 351.469
   0
LINE
   5
27E
 100
AcDbEntity
   8
LEVEL013
 100
AcDbLine
   6
CONTINUOUS
  62
3
  10
 249.118
  20
 311.592
  30
0.0
  11
 260.895
  21
 311.592
  31
0.0
   0
LINE
   5
27F
 100
AcDbEntity
   8
LEVEL013
 100
AcDbLine
   6
CONTINUOUS
  62
3
  10
 242.767
  20
 311.592
  30
0.0
  11
 242.767
  21
 303.000
  31
0.0
   0
LINE
   5
280
 100
AcDbEntity
   8
LEVEL013
 100
AcDbLine
   6
CONTINUOUS
  62
3
  10
 237.339
  20
 311.592
  30
0.0
  11
 249.118
  21
 311.592
  31
0.0
   0
ARC
   5
281
 100
AcDbEntity
   8
LEVEL013
   6
CONTINUOUS
  62
3
 100
AcDbCircle
  10
 260.618
  20
 290.986
  30
0.0
  40
 12.0136
 100
AcDbArc
  50
 90.0000
  51
 113.865
   0
LINE
   5
282
 100
AcDbEntity
   8
LEVEL013
 100
AcDbLine
   6
CONTINUOUS
  62
3
  10
 255.758
  20
 292.000
  30
0.0
  11
 255.758
  21
 301.973
  31
0.0
   0
LINE
   5
283
 100
AcDbEntity
   8
LEVEL013
 100
AcDbLine
   6
CONTINUOUS
  62
3
  10
 255.467
  20
 311.592
  30
0.0
  11
 255.467
  21
 303.000
  31
0.0
   0
ARC
   5
284
 100
AcDbEntity
   8
LEVEL013
   6
CONTINUOUS
  62
3
 100
AcDbCircle
  10
 237.618
  20
 290.986
  30
0.0
  40
 12.0136
 100
AcDbArc
  50
 66.1351
  51
 90.0000
   0
ARC
   5
285
 100
AcDbEntity
   8
LEVEL013
   6
CONTINUOUS
  62
3
 100
AcDbCircle
  10
 249.118
  20
 281.027
  30
0.0
  40
 21.9729
 100
AcDbArc
  50
 72.4120
  51
 107.588
   0
LINE
   5
286
 100
AcDbEntity
   8
LEVEL013
 100
AcDbLine
   6
CONTINUOUS
  62
3
  10
 242.479
  20
 292.000
  30
0.0
  11
 242.479
  21
 301.973
  31
0.0
   0
LINE
   5
287
 100
AcDbEntity
   8
LEVEL013
 100
AcDbLine
   6
DOT
  62
3
  10
 268.062
  20
 298.000
  30
0.0
  11
 268.062
  21
 295.000
  31
0.0
   0
LINE
   5
288
 100
AcDbEntity
   8
LEVEL013
 100
AcDbLine
   6
DOT
  62
3
  10
 265.175
  20
 298.000
  30
0.0
  11
 265.175
  21
 295.000
  31
0.0
   0
LINE
   5
289
 100
AcDbEntity
   8
LEVEL013
 100
AcDbLine
   6
CONTINUOUS
  62
3
  10
 261.618
  20
 292.000
  30
0.0
  11
 271.618
  21
 292.000
  31
0.0
   0
LINE
   5
28A
 100
AcDbEntity
   8
LEVEL013
 100
AcDbLine
   6
CONTINUOUS
  62
3
  10
 271.618
  20
 292.000
  30
0.0
  11
 271.618
  21
 297.700
  31
0.0
   0
LINE
   5
28B
 100
AcDbEntity
   8
LEVEL013
 100
AcDbLine
   6
CONTINUOUS
  62
3
  10
 271.618
  20
 297.700
  30
0.0
  11
 271.099
  21
 298.000
  31
0.0
   0
LINE
   5
28C
 100
AcDbEntity
   8
LEVEL013
 100
AcDbLine
   6
CONTINUOUS
  62
3
  10
 271.099
  20
 298.000
  30
0.0
  11
 262.138
  21
 298.000
  31
0.0
   0
LINE
   5
28D
 100
AcDbEntity
   8
LEVEL013
 100
AcDbLine
   6
CONTINUOUS
  62
3
  10
 262.138
  20
 298.000
  30
0.0
  11
 261.618
  21
 297.700
  31
0.0
   0
LINE
   5
28E
 100
AcDbEntity
   8
LEVEL013
 100
AcDbLine
   6
CONTINUOUS
  62
3
  10
 261.618
  20
 297.700
  30
0.0
  11
 261.618
  21
 292.000
  31
0.0
   0
LINE
   5
28F
 100
AcDbEntity
   8
LEVEL013
 100
AcDbLine
   6
CONTINUOUS
  62
3
  10
 261.618
  20
 297.700
  30
0.0
  11
 271.618
  21
 297.700
  31
0.0
   0
LINE
   5
290
 100
AcDbEntity
   8
LEVEL013
 100
AcDbLine
   6
DOT
  62
3
  10
 263.732
  20
 298.000
  30
0.0
  11
 263.732
  21
 295.000
  31
0.0
   0
LINE
   5
291
 100
AcDbEntity
   8
LEVEL013
 100
AcDbLine
   6
DOT
  62
3
  10
 263.732
  20
 295.000
  30
0.0
  11
 266.618
  21
 293.333
  31
0.0
   0
LINE
   5
292
 100
AcDbEntity
   8
LEVEL013
 100
AcDbLine
   6
DOT
  62
3
  10
 266.618
  20
 293.333
  30
0.0
  11
 269.505
  21
 295.000
  31
0.0
   0
LINE
   5
293
 100
AcDbEntity
   8
LEVEL013
 100
AcDbLine
   6
DOT
  62
3
  10
 269.505
  20
 295.000
  30
0.0
  11
 269.505
  21
 298.000
  31
0.0
   0
LINE
   5
294
 100
AcDbEntity
   8
LEVEL013
 100
AcDbLine
   6
DOT
  62
3
  10
 263.732
  20
 295.000
  30
0.0
  11
 269.505
  21
 295.000
  31
0.0
   0
LINE
   5
295
 100
AcDbEntity
   8
LEVEL013
 100
AcDbLine
   6
DOT
  62
3
  10
 233.061
  20
 298.000
  30
0.0
  11
 233.061
  21
 295.000
  31
0.0
   0
LINE
   5
296
 100
AcDbEntity
   8
LEVEL013
 100
AcDbLine
   6
CONTINUOUS
  62
3
  10
 235.839
  20
 298.000
  30
0.0
  11
 235.839
  21
 301.973
  31
0.0
   0
LINE
   5
297
 100
AcDbEntity
   8
LEVEL013
 100
AcDbLine
   6
CONTINUOUS
  62
3
  10
 235.839
  20
 301.973
  30
0.0
  11
 237.618
  21
 303.000
  31
0.0
   0
LINE
   5
298
 100
AcDbEntity
   8
LEVEL013
 100
AcDbLine
   6
CONTINUOUS
  62
3
  10
 237.618
  20
 303.000
  30
0.0
  11
 260.618
  21
 303.000
  31
0.0
   0
LINE
   5
299
 100
AcDbEntity
   8
LEVEL013
 100
AcDbLine
   6
CONTINUOUS
  62
3
  10
 260.618
  20
 303.000
  30
0.0
  11
 262.397
  21
 301.973
  31
0.0
   0
LINE
   5
29A
 100
AcDbEntity
   8
LEVEL013
 100
AcDbLine
   6
CONTINUOUS
  62
3
  10
 262.397
  20
 301.973
  30
0.0
  11
 262.397
  21
 298.000
  31
0.0
   0
LINE
   5
29B
 100
AcDbEntity
   8
LEVEL013
 100
AcDbLine
   6
CONTINUOUS
  62
3
  10
 226.618
  20
 292.000
  30
0.0
  11
 226.618
  21
 252.000
  31
0.0
   0
LINE
   5
29C
 100
AcDbEntity
   8
LEVEL013
 100
AcDbLine
   6
CONTINUOUS
  62
3
  10
 226.618
  20
 252.000
  30
0.0
  11
 271.618
  21
 252.000
  31
0.0
   0
LINE
   5
29D
 100
AcDbEntity
   8
LEVEL013
 100
AcDbLine
   6
CONTINUOUS
  62
3
  10
 271.618
  20
 252.000
  30
0.0
  11
 271.618
  21
 292.000
  31
0.0
   0
LINE
   5
29E
 100
AcDbEntity
   8
LEVEL013
 100
AcDbLine
   6
CONTINUOUS
  62
3
  10
 271.618
  20
 292.000
  30
0.0
  11
 226.618
  21
 292.000
  31
0.0
   0
LINE
   5
29F
 100
AcDbEntity
   8
LEVEL013
 100
AcDbLine
   6
DOT
  62
3
  10
 230.175
  20
 298.000
  30
0.0
  11
 230.175
  21
 295.000
  31
0.0
   0
LINE
   5
2A0
 100
AcDbEntity
   8
LEVEL026
 100
AcDbLine
   6
CONTINUOUS
  62
3
  10
 230.494
  20
 311.062
  30
0.0
  11
 230.494
  21
 298.000
  31
0.0
   0
LINE
   5
2A1
 100
AcDbEntity
   8
LEVEL013
 100
AcDbLine
   6
CONTINUOUS
  62
3
  10
 236.618
  20
 292.000
  30
0.0
  11
 226.618
  21
 292.000
  31
0.0
   0
LINE
   5
2A2
 100
AcDbEntity
   8
LEVEL013
 100
AcDbLine
   6
CONTINUOUS
  62
3
  10
 226.618
  20
 292.000
  30
0.0
  11
 226.618
  21
 297.700
  31
0.0
   0
LINE
   5
2A3
 100
AcDbEntity
   8
LEVEL013
 100
AcDbLine
   6
CONTINUOUS
  62
3
  10
 226.618
  20
 297.700
  30
0.0
  11
 227.138
  21
 298.000
  31
0.0
   0
LINE
   5
2A4
 100
AcDbEntity
   8
LEVEL013
 100
AcDbLine
   6
CONTINUOUS
  62
3
  10
 227.138
  20
 298.000
  30
0.0
  11
 236.098
  21
 298.000
  31
0.0
   0
LINE
   5
2A5
 100
AcDbEntity
   8
LEVEL013
 100
AcDbLine
   6
CONTINUOUS
  62
3
  10
 236.098
  20
 298.000
  30
0.0
  11
 236.618
  21
 297.700
  31
0.0
   0
LINE
   5
2A6
 100
AcDbEntity
   8
LEVEL013
 100
AcDbLine
   6
CONTINUOUS
  62
3
  10
 236.618
  20
 297.700
  30
0.0
  11
 236.618
  21
 292.000
  31
0.0
   0
LINE
   5
2A7
 100
AcDbEntity
   8
LEVEL013
 100
AcDbLine
   6
CONTINUOUS
  62
3
  10
 236.618
  20
 297.700
  30
0.0
  11
 226.618
  21
 297.700
  31
0.0
   0
LINE
   5
2A8
 100
AcDbEntity
   8
LEVEL013
 100
AcDbLine
   6
DOT
  62
3
  10
 234.505
  20
 298.000
  30
0.0
  11
 234.505
  21
 295.000
  31
0.0
   0
LINE
   5
2A9
 100
AcDbEntity
   8
LEVEL013
 100
AcDbLine
   6
DOT
  62
3
  10
 234.505
  20
 295.000
  30
0.0
  11
 231.618
  21
 293.333
  31
0.0
   0
LINE
   5
2AA
 100
AcDbEntity
   8
LEVEL013
 100
AcDbLine
   6
DOT
  62
3
  10
 231.618
  20
 293.333
  30
0.0
  11
 228.731
  21
 295.000
  31
0.0
   0
LINE
   5
2AB
 100
AcDbEntity
   8
LEVEL013
 100
AcDbLine
   6
DOT
  62
3
  10
 228.731
  20
 295.000
  30
0.0
  11
 228.731
  21
 298.000
  31
0.0
   0
LINE
   5
2AC
 100
AcDbEntity
   8
LEVEL013
 100
AcDbLine
   6
DOT
  62
3
  10
 234.505
  20
 295.000
  30
0.0
  11
 228.731
  21
 295.000
  31
0.0
   0
LINE
   5
2AD
 100
AcDbEntity
   8
LEVEL026
 100
AcDbLine
   6
CONTINUOUS
  62
3
  10
 221.618
  20
 252.000
  30
0.0
  11
 226.618
  21
 252.000
  31
0.0
   0
ARC
   5
2AE
 100
AcDbEntity
   8
LEVEL024
   6
CONTINUOUS
  62
3
 100
AcDbCircle
  10
 190.000
  20
 387.000
  30
0.0
  40
 15.0000
 100
AcDbArc
  50
 90.0000
  51
 180.000
   0
LINE
   5
2AF
 100
AcDbEntity
   8
LEVEL024
 100
AcDbLine
   6
CONTINUOUS
  62
3
  10
 175.000
  20
 222.000
  30
0.0
  11
 175.000
  21
 387.000
  31
0.0
   0
ARC
   5
2B0
 100
AcDbEntity
   8
LEVEL024
   6
CONTINUOUS
  62
3
 100
AcDbCircle
  10
 320.000
  20
 387.000
  30
0.0
  40
 15.0000
 100
AcDbArc
  50
0.0
  51
 90.0000
   0
LINE
   5
2B1
 100
AcDbEntity
   8
LEVEL024
 100
AcDbLine
   6
CONTINUOUS
  62
3
  10
 335.000
  20
 222.000
  30
0.0
  11
 335.000
  21
 387.000
  31
0.0
   0
LINE
   5
2B2
 100
AcDbEntity
   8
LEVEL013
 100
AcDbLine
   6
DOT
  62
3
  10
 231.618
  20
 528.423
  30
0.0
  11
 229.118
  21
 529.867
  31
0.0
   0
LINE
   5
2B3
 100
AcDbEntity
   8
LEVEL013
 100
AcDbLine
   6
DOT
  62
3
  10
 229.118
  20
 529.867
  30
0.0
  11
 229.118
  21
 532.753
  31
0.0
   0
LINE
   5
2B4
 100
AcDbEntity
   8
LEVEL013
 100
AcDbLine
   6
DOT
  62
3
  10
 229.118
  20
 532.753
  30
0.0
  11
 231.618
  21
 534.197
  31
0.0
   0
LINE
   5
2B5
 100
AcDbEntity
   8
LEVEL013
 100
AcDbLine
   6
DOT
  62
3
  10
 231.618
  20
 534.197
  30
0.0
  11
 234.118
  21
 532.753
  31
0.0
   0
LINE
   5
2B6
 100
AcDbEntity
   8
LEVEL013
 100
AcDbLine
   6
DOT
  62
3
  10
 234.118
  20
 532.753
  30
0.0
  11
 234.118
  21
 529.867
  31
0.0
   0
LINE
   5
2B7
 100
AcDbEntity
   8
LEVEL013
 100
AcDbLine
   6
DOT
  62
3
  10
 234.118
  20
 529.867
  30
0.0
  11
 231.618
  21
 528.423
  31
0.0
   0
CIRCLE
   5
2B8
 100
AcDbEntity
   8
LEVEL013
 100
AcDbCircle
   6
DOT
  62
3
  10
 266.618
  20
 531.310
  30
0.0
  40
 5.00000
   0
CIRCLE
   5
2B9
 100
AcDbEntity
   8
LEVEL013
 100
AcDbCircle
   6
DOT
  62
3
  10
 266.618
  20
 531.310
  30
0.0
  40
 4.48038
   0
LINE
   5
2BA
 100
AcDbEntity
   8
LEVEL013
 100
AcDbLine
   6
DOT
  62
3
  10
 266.618
  20
 528.423
  30
0.0
  11
 269.118
  21
 529.867
  31
0.0
   0
LINE
   5
2BB
 100
AcDbEntity
   8
LEVEL013
 100
AcDbLine
   6
DOT
  62
3
  10
 269.118
  20
 529.867
  30
0.0
  11
 269.118
  21
 532.753
  31
0.0
   0
LINE
   5
2BC
 100
AcDbEntity
   8
LEVEL013
 100
AcDbLine
   6
DOT
  62
3
  10
 269.118
  20
 532.753
  30
0.0
  11
 266.618
  21
 534.197
  31
0.0
   0
LINE
   5
2BD
 100
AcDbEntity
   8
LEVEL013
 100
AcDbLine
   6
DOT
  62
3
  10
 266.618
  20
 534.197
  30
0.0
  11
 264.118
  21
 532.753
  31
0.0
   0
LINE
   5
2BE
 100
AcDbEntity
   8
LEVEL013
 100
AcDbLine
   6
DOT
  62
3
  10
 264.118
  20
 532.753
  30
0.0
  11
 264.118
  21
 529.867
  31
0.0
   0
LINE
   5
2BF
 100
AcDbEntity
   8
LEVEL013
 100
AcDbLine
   6
DOT
  62
3
  10
 264.118
  20
 529.867
  30
0.0
  11
 266.618
  21
 528.423
  31
0.0
   0
CIRCLE
   5
2C0
 100
AcDbEntity
   8
LEVEL013
 100
AcDbCircle
   6
DOT
  62
3
  10
 266.618
  20
 501.310
  30
0.0
  40
 5.00000
   0
CIRCLE
   5
2C1
 100
AcDbEntity
   8
LEVEL013
 100
AcDbCircle
   6
DOT
  62
3
  10
 266.618
  20
 501.310
  30
0.0
  40
 4.48038
   0
LINE
   5
2C2
 100
AcDbEntity
   8
LEVEL013
 100
AcDbLine
   6
DOT
  62
3
  10
 266.618
  20
 504.197
  30
0.0
  11
 269.118
  21
 502.753
  31
0.0
   0
LINE
   5
2C3
 100
AcDbEntity
   8
LEVEL013
 100
AcDbLine
   6
DOT
  62
3
  10
 269.118
  20
 502.753
  30
0.0
  11
 269.118
  21
 499.867
  31
0.0
   0
LINE
   5
2C4
 100
AcDbEntity
   8
LEVEL013
 100
AcDbLine
   6
DOT
  62
3
  10
 269.118
  20
 499.867
  30
0.0
  11
 266.618
  21
 498.423
  31
0.0
   0
LINE
   5
2C5
 100
AcDbEntity
   8
LEVEL013
 100
AcDbLine
   6
DOT
  62
3
  10
 266.618
  20
 498.423
  30
0.0
  11
 264.118
  21
 499.867
  31
0.0
   0
LINE
   5
2C6
 100
AcDbEntity
   8
LEVEL013
 100
AcDbLine
   6
DOT
  62
3
  10
 264.118
  20
 499.867
  30
0.0
  11
 264.118
  21
 502.753
  31
0.0
   0
LINE
   5
2C7
 100
AcDbEntity
   8
LEVEL013
 100
AcDbLine
   6
DOT
  62
3
  10
 264.118
  20
 502.753
  30
0.0
  11
 266.618
  21
 504.197
  31
0.0
   0
LINE
   5
2C8
 100
AcDbEntity
   8
LEVEL013
 100
AcDbLine
   6
DOT
  62
3
  10
 233.527
  20
 504.322
  30
0.0
  11
 231.016
  21
 502.897
  31
0.0
   0
LINE
   5
2C9
 100
AcDbEntity
   8
LEVEL013
 100
AcDbLine
   6
DOT
  62
3
  10
 231.016
  20
 502.897
  30
0.0
  11
 230.995
  21
 500.011
  31
0.0
   0
LINE
   5
2CA
 100
AcDbEntity
   8
LEVEL013
 100
AcDbLine
   6
DOT
  62
3
  10
 230.995
  20
 500.011
  30
0.0
  11
 233.484
  21
 498.548
  31
0.0
   0
LINE
   5
2CB
 100
AcDbEntity
   8
LEVEL013
 100
AcDbLine
   6
DOT
  62
3
  10
 233.484
  20
 498.548
  30
0.0
  11
 235.994
  21
 499.973
  31
0.0
   0
LINE
   5
2CC
 100
AcDbEntity
   8
LEVEL013
 100
AcDbLine
   6
DOT
  62
3
  10
 235.994
  20
 499.973
  30
0.0
  11
 236.016
  21
 502.860
  31
0.0
   0
LINE
   5
2CD
 100
AcDbEntity
   8
LEVEL013
 100
AcDbLine
   6
DOT
  62
3
  10
 236.016
  20
 502.860
  30
0.0
  11
 233.527
  21
 504.322
  31
0.0
   0
ARC
   5
2CE
 100
AcDbEntity
   8
LEVEL014
   6
DOT
  62
3
 100
AcDbCircle
  10
 187.000
  20
 673.000
  30
0.0
  40
 2.00000
 100
AcDbArc
  50
 90.0000
  51
 180.000
   0
LINE
   5
2CF
 100
AcDbEntity
   8
LEVEL014
 100
AcDbLine
   6
DOT
  62
3
  10
 220.359
  20
 675.000
  30
0.0
  11
 187.000
  21
 675.000
  31
0.0
   0
LINE
   5
2D0
 100
AcDbEntity
   8
LEVEL014
 100
AcDbLine
   6
DOT
  62
3
  10
 220.359
  20
 635.000
  30
0.0
  11
 187.000
  21
 635.000
  31
0.0
   0
ARC
   5
2D1
 100
AcDbEntity
   8
LEVEL014
   6
DOT
  62
3
 100
AcDbCircle
  10
 187.000
  20
 637.000
  30
0.0
  40
 2.00000
 100
AcDbArc
  50
 180.000
  51
 270.000
   0
LINE
   5
2D2
 100
AcDbEntity
   8
LEVEL014
 100
AcDbLine
   6
DOT
  62
3
  10
 185.000
  20
 673.000
  30
0.0
  11
 185.000
  21
 637.000
  31
0.0
   0
CIRCLE
   5
2D3
 100
AcDbEntity
   8
LEVEL014
 100
AcDbCircle
   6
DOT
  62
3
  10
 219.645
  20
 619.645
  30
0.0
  40
 4.25000
   0
CIRCLE
   5
2D4
 100
AcDbEntity
   8
LEVEL014
 100
AcDbCircle
   6
DOT
  62
3
  10
 219.645
  20
 619.645
  30
0.0
  40
 3.81699
   0
LINE
   5
2D5
 100
AcDbEntity
   8
LEVEL014
 100
AcDbLine
   6
DOT
  62
3
  10
 218.012
  20
 618.012
  30
0.0
  11
 217.414
  21
 620.242
  31
0.0
   0
LINE
   5
2D6
 100
AcDbEntity
   8
LEVEL014
 100
AcDbLine
   6
DOT
  62
3
  10
 217.414
  20
 620.242
  30
0.0
  11
 219.047
  21
 621.875
  31
0.0
   0
LINE
   5
2D7
 100
AcDbEntity
   8
LEVEL014
 100
AcDbLine
   6
DOT
  62
3
  10
 219.047
  20
 621.875
  30
0.0
  11
 221.278
  21
 621.278
  31
0.0
   0
LINE
   5
2D8
 100
AcDbEntity
   8
LEVEL014
 100
AcDbLine
   6
DOT
  62
3
  10
 221.278
  20
 621.278
  30
0.0
  11
 221.875
  21
 619.047
  31
0.0
   0
LINE
   5
2D9
 100
AcDbEntity
   8
LEVEL014
 100
AcDbLine
   6
DOT
  62
3
  10
 221.875
  20
 619.047
  30
0.0
  11
 220.242
  21
 617.414
  31
0.0
   0
LINE
   5
2DA
 100
AcDbEntity
   8
LEVEL014
 100
AcDbLine
   6
DOT
  62
3
  10
 220.242
  20
 617.414
  30
0.0
  11
 218.012
  21
 618.012
  31
0.0
   0
CIRCLE
   5
2DB
 100
AcDbEntity
   8
LEVEL014
 100
AcDbCircle
   6
DOT
  62
3
  10
 219.645
  20
 690.355
  30
0.0
  40
 4.25000
   0
CIRCLE
   5
2DC
 100
AcDbEntity
   8
LEVEL014
 100
AcDbCircle
   6
DOT
  62
3
  10
 219.645
  20
 690.355
  30
0.0
  40
 3.81699
   0
LINE
   5
2DD
 100
AcDbEntity
   8
LEVEL014
 100
AcDbLine
   6
DOT
  62
3
  10
 218.012
  20
 691.988
  30
0.0
  11
 220.242
  21
 692.586
  31
0.0
   0
LINE
   5
2DE
 100
AcDbEntity
   8
LEVEL014
 100
AcDbLine
   6
DOT
  62
3
  10
 220.242
  20
 692.586
  30
0.0
  11
 221.875
  21
 690.953
  31
0.0
   0
LINE
   5
2DF
 100
AcDbEntity
   8
LEVEL014
 100
AcDbLine
   6
DOT
  62
3
  10
 221.875
  20
 690.953
  30
0.0
  11
 221.278
  21
 688.722
  31
0.0
   0
LINE
   5
2E0
 100
AcDbEntity
   8
LEVEL014
 100
AcDbLine
   6
DOT
  62
3
  10
 221.278
  20
 688.722
  30
0.0
  11
 219.047
  21
 688.125
  31
0.0
   0
LINE
   5
2E1
 100
AcDbEntity
   8
LEVEL014
 100
AcDbLine
   6
DOT
  62
3
  10
 219.047
  20
 688.125
  30
0.0
  11
 217.414
  21
 689.758
  31
0.0
   0
LINE
   5
2E2
 100
AcDbEntity
   8
LEVEL014
 100
AcDbLine
   6
DOT
  62
3
  10
 217.414
  20
 689.758
  30
0.0
  11
 218.012
  21
 691.988
  31
0.0
   0
CIRCLE
   5
2E3
 100
AcDbEntity
   8
LEVEL014
 100
AcDbCircle
   6
DOT
  62
3
  10
 290.355
  20
 690.355
  30
0.0
  40
 4.25000
   0
CIRCLE
   5
2E4
 100
AcDbEntity
   8
LEVEL014
 100
AcDbCircle
   6
DOT
  62
3
  10
 290.355
  20
 690.355
  30
0.0
  40
 3.81699
   0
LINE
   5
2E5
 100
AcDbEntity
   8
LEVEL014
 100
AcDbLine
   6
DOT
  62
3
  10
 291.988
  20
 691.988
  30
0.0
  11
 292.586
  21
 689.758
  31
0.0
   0
LINE
   5
2E6
 100
AcDbEntity
   8
LEVEL014
 100
AcDbLine
   6
DOT
  62
3
  10
 292.586
  20
 689.758
  30
0.0
  11
 290.953
  21
 688.125
  31
0.0
   0
LINE
   5
2E7
 100
AcDbEntity
   8
LEVEL014
 100
AcDbLine
   6
DOT
  62
3
  10
 290.953
  20
 688.125
  30
0.0
  11
 288.722
  21
 688.722
  31
0.0
   0
LINE
   5
2E8
 100
AcDbEntity
   8
LEVEL014
 100
AcDbLine
   6
DOT
  62
3
  10
 288.722
  20
 688.722
  30
0.0
  11
 288.125
  21
 690.953
  31
0.0
   0
LINE
   5
2E9
 100
AcDbEntity
   8
LEVEL014
 100
AcDbLine
   6
DOT
  62
3
  10
 288.125
  20
 690.953
  30
0.0
  11
 289.758
  21
 692.586
  31
0.0
   0
LINE
   5
2EA
 100
AcDbEntity
   8
LEVEL014
 100
AcDbLine
   6
DOT
  62
3
  10
 289.758
  20
 692.586
  30
0.0
  11
 291.988
  21
 691.988
  31
0.0
   0
CIRCLE
   5
2EB
 100
AcDbEntity
   8
LEVEL014
 100
AcDbCircle
   6
DOT
  62
3
  10
 255.000
  20
 655.000
  30
0.0
  40
 40.0000
   0
LINE
   5
2EC
 100
AcDbEntity
   8
LEVEL014
 100
AcDbLine
   6
DOT
  62
3
  10
 297.500
  20
 612.500
  30
0.0
  11
 212.500
  21
 612.500
  31
0.0
   0
LINE
   5
2ED
 100
AcDbEntity
   8
LEVEL014
 100
AcDbLine
   6
DOT
  62
3
  10
 212.500
  20
 612.500
  30
0.0
  11
 212.500
  21
 697.500
  31
0.0
   0
LINE
   5
2EE
 100
AcDbEntity
   8
LEVEL014
 100
AcDbLine
   6
DOT
  62
3
  10
 212.500
  20
 697.500
  30
0.0
  11
 297.500
  21
 697.500
  31
0.0
   0
LINE
   5
2EF
 100
AcDbEntity
   8
LEVEL014
 100
AcDbLine
   6
DOT
  62
3
  10
 297.500
  20
 697.500
  30
0.0
  11
 297.500
  21
 612.500
  31
0.0
   0
CIRCLE
   5
2F0
 100
AcDbEntity
   8
LEVEL014
 100
AcDbCircle
   6
DOT
  62
3
  10
 290.355
  20
 619.645
  30
0.0
  40
 4.25000
   0
CIRCLE
   5
2F1
 100
AcDbEntity
   8
LEVEL014
 100
AcDbCircle
   6
DOT
  62
3
  10
 290.355
  20
 619.645
  30
0.0
  40
 3.81699
   0
LINE
   5
2F2
 100
AcDbEntity
   8
LEVEL014
 100
AcDbLine
   6
DOT
  62
3
  10
 291.988
  20
 618.012
  30
0.0
  11
 289.758
  21
 617.414
  31
0.0
   0
LINE
   5
2F3
 100
AcDbEntity
   8
LEVEL014
 100
AcDbLine
   6
DOT
  62
3
  10
 289.758
  20
 617.414
  30
0.0
  11
 288.125
  21
 619.047
  31
0.0
   0
LINE
   5
2F4
 100
AcDbEntity
   8
LEVEL014
 100
AcDbLine
   6
DOT
  62
3
  10
 288.125
  20
 619.047
  30
0.0
  11
 288.722
  21
 621.278
  31
0.0
   0
LINE
   5
2F5
 100
AcDbEntity
   8
LEVEL014
 100
AcDbLine
   6
DOT
  62
3
  10
 288.722
  20
 621.278
  30
0.0
  11
 290.953
  21
 621.875
  31
0.0
   0
LINE
   5
2F6
 100
AcDbEntity
   8
LEVEL014
 100
AcDbLine
   6
DOT
  62
3
  10
 290.953
  20
 621.875
  30
0.0
  11
 292.586
  21
 620.242
  31
0.0
   0
LINE
   5
2F7
 100
AcDbEntity
   8
LEVEL014
 100
AcDbLine
   6
DOT
  62
3
  10
 292.586
  20
 620.242
  30
0.0
  11
 291.988
  21
 618.012
  31
0.0
   0
LINE
   5
2F8
 100
AcDbEntity
   8
LEVEL018
 100
AcDbLine
   6
DASHDOT
  62
1
  10
 308.118
  20
 546.810
  30
0.0
  11
 308.118
  21
 641.810
  31
0.0
   0
LINE
   5
2F9
 100
AcDbEntity
   8
LEVEL018
 100
AcDbLine
   6
DASHDOT
  62
1
  10
 273.118
  20
 571.810
  30
0.0
  11
 333.118
  21
 571.810
  31
0.0
   0
LINE
   5
2FA
 100
AcDbEntity
   8
LEVEL013
 100
AcDbLine
   6
CONTINUOUS
  62
3
  10
 226.618
  20
 526.082
  30
0.0
  11
 226.618
  21
 506.538
  31
0.0
   0
CIRCLE
   5
2FB
 100
AcDbEntity
   8
LEVEL013
 100
AcDbCircle
   6
DOT
  62
3
  10
 231.618
  20
 531.310
  30
0.0
  40
 5.00000
   0
CIRCLE
   5
2FC
 100
AcDbEntity
   8
LEVEL013
 100
AcDbCircle
   6
DOT
  62
3
  10
 231.618
  20
 531.310
  30
0.0
  40
 4.48038
   0
LINE
   5
2FD
 100
AcDbEntity
   8
LEVEL013
 100
AcDbLine
   6
CONTINUOUS
  62
3
  10
 228.118
  20
 536.310
  30
0.0
  11
 226.618
  21
 536.310
  31
0.0
   0
LINE
   5
2FE
 100
AcDbEntity
   8
LEVEL013
 100
AcDbLine
   6
CONTINUOUS
  62
3
  10
 226.618
  20
 536.310
  30
0.0
  11
 226.618
  21
 534.606
  31
0.0
   0
ARC
   5
2FF
 100
AcDbEntity
   8
LEVEL013
   6
CONTINUOUS
  62
3
 100
AcDbCircle
  10
 250.679
  20
 541.912
  30
0.0
  40
 8.00000
 100
AcDbArc
  50
 277.471
  51
 315.000
   0
ARC
   5
300
 100
AcDbEntity
   8
LEVEL013
   6
CONTINUOUS
  62
3
 100
AcDbCircle
  10
 249.118
  20
 553.810
  30
0.0
  40
 20.0000
 100
AcDbArc
  50
 262.529
  51
 277.471
   0
ARC
   5
301
 100
AcDbEntity
   8
LEVEL013
   6
CONTINUOUS
  62
3
 100
AcDbCircle
  10
 262.903
  20
 495.454
  30
0.0
  40
 4.00000
 100
AcDbArc
  50
 225.000
  51
 303.463
   0
ARC
   5
302
 100
AcDbEntity
   8
LEVEL013
   6
CONTINUOUS
  62
3
 100
AcDbCircle
  10
 250.679
  20
 490.708
  30
0.0
  40
 8.00000
 100
AcDbArc
  50
 45.0000
  51
 82.5293
   0
ARC
   5
303
 100
AcDbEntity
   8
LEVEL013
   6
CONTINUOUS
  62
3
 100
AcDbCircle
  10
 269.974
  20
 530.095
  30
0.0
  40
 4.00000
 100
AcDbArc
  50
 315.000
  51
 33.4630
   0
ARC
   5
304
 100
AcDbEntity
   8
LEVEL013
   6
CONTINUOUS
  62
3
 100
AcDbCircle
  10
 274.720
  20
 517.870
  30
0.0
  40
 8.00000
 100
AcDbArc
  50
 135.000
  51
 172.529
   0
ARC
   5
305
 100
AcDbEntity
   8
LEVEL013
   6
CONTINUOUS
  62
3
 100
AcDbCircle
  10
 269.974
  20
 502.525
  30
0.0
  40
 4.00000
 100
AcDbArc
  50
 326.537
  51
 45.0000
   0
ARC
   5
306
 100
AcDbEntity
   8
LEVEL013
   6
CONTINUOUS
  62
3
 100
AcDbCircle
  10
 274.720
  20
 514.750
  30
0.0
  40
 8.00000
 100
AcDbArc
  50
 187.471
  51
 225.000
   0
ARC
   5
307
 100
AcDbEntity
   8
LEVEL013
   6
CONTINUOUS
  62
3
 100
AcDbCircle
  10
 249.118
  20
 516.310
  30
0.0
  40
 29.0000
 100
AcDbArc
  50
 303.463
  51
 326.537
   0
ARC
   5
308
 100
AcDbEntity
   8
LEVEL013
   6
CONTINUOUS
  62
3
 100
AcDbCircle
  10
 249.118
  20
 516.310
  30
0.0
  40
 29.0000
 100
AcDbArc
  50
 33.4630
  51
 56.5370
   0
ARC
   5
309
 100
AcDbEntity
   8
LEVEL013
   6
CONTINUOUS
  62
3
 100
AcDbCircle
  10
 249.118
  20
 478.810
  30
0.0
  40
 20.0000
 100
AcDbArc
  50
 82.5293
  51
 97.4707
   0
ARC
   5
30A
 100
AcDbEntity
   8
LEVEL013
   6
CONTINUOUS
  62
3
 100
AcDbCircle
  10
 286.618
  20
 516.310
  30
0.0
  40
 20.0000
 100
AcDbArc
  50
 172.529
  51
 187.471
   0
ARC
   5
30B
 100
AcDbEntity
   8
LEVEL013
   6
CONTINUOUS
  62
3
 100
AcDbCircle
  10
 262.903
  20
 537.166
  30
0.0
  40
 4.00000
 100
AcDbArc
  50
 56.5370
  51
 135.000
   0
LINE
   5
30C
 100
AcDbEntity
   8
LEVEL013
 100
AcDbLine
   6
CONTINUOUS
  62
3
  10
 256.335
  20
 536.255
  30
0.0
  11
 260.075
  21
 539.994
  31
0.0
   0
LINE
   5
30D
 100
AcDbEntity
   8
LEVEL013
 100
AcDbLine
   6
CONTINUOUS
  62
3
  10
 260.075
  20
 492.626
  30
0.0
  11
 256.335
  21
 496.365
  31
0.0
   0
LINE
   5
30E
 100
AcDbEntity
   8
LEVEL013
 100
AcDbLine
   6
CONTINUOUS
  62
3
  10
 272.803
  20
 527.267
  30
0.0
  11
 269.063
  21
 523.527
  31
0.0
   0
LINE
   5
30F
 100
AcDbEntity
   8
LEVEL013
 100
AcDbLine
   6
CONTINUOUS
  62
3
  10
 269.063
  20
 509.093
  30
0.0
  11
 272.803
  21
 505.353
  31
0.0
   0
ARC
   5
310
 100
AcDbEntity
   8
LEVEL013
   6
CONTINUOUS
  62
3
 100
AcDbCircle
  10
 228.262
  20
 502.525
  30
0.0
  40
 4.00000
 100
AcDbArc
  50
 135.000
  51
 213.463
   0
ARC
   5
311
 100
AcDbEntity
   8
LEVEL013
   6
CONTINUOUS
  62
3
 100
AcDbCircle
  10
 223.516
  20
 514.750
  30
0.0
  40
 8.00000
 100
AcDbArc
  50
 315.000
  51
 352.529
   0
ARC
   5
312
 100
AcDbEntity
   8
LEVEL013
   6
CONTINUOUS
  62
3
 100
AcDbCircle
  10
 228.262
  20
 530.095
  30
0.0
  40
 4.00000
 100
AcDbArc
  50
 146.537
  51
 225.000
   0
ARC
   5
313
 100
AcDbEntity
   8
LEVEL013
   6
CONTINUOUS
  62
3
 100
AcDbCircle
  10
 223.516
  20
 517.870
  30
0.0
  40
 8.00000
 100
AcDbArc
  50
 7.47071
  51
 45.0000
   0
ARC
   5
314
 100
AcDbEntity
   8
LEVEL013
   6
CONTINUOUS
  62
3
 100
AcDbCircle
  10
 235.333
  20
 495.454
  30
0.0
  40
 4.00000
 100
AcDbArc
  50
 236.537
  51
 315.000
   0
ARC
   5
315
 100
AcDbEntity
   8
LEVEL013
   6
CONTINUOUS
  62
3
 100
AcDbCircle
  10
 249.118
  20
 516.310
  30
0.0
  40
 29.0000
 100
AcDbArc
  50
 123.463
  51
 146.537
   0
ARC
   5
316
 100
AcDbEntity
   8
LEVEL013
   6
CONTINUOUS
  62
3
 100
AcDbCircle
  10
 249.118
  20
 516.310
  30
0.0
  40
 29.0000
 100
AcDbArc
  50
 213.463
  51
 236.537
   0
ARC
   5
317
 100
AcDbEntity
   8
LEVEL013
   6
CONTINUOUS
  62
3
 100
AcDbCircle
  10
 211.618
  20
 516.310
  30
0.0
  40
 20.0000
 100
AcDbArc
  50
 352.529
  51
 7.47071
   0
ARC
   5
318
 100
AcDbEntity
   8
LEVEL013
   6
CONTINUOUS
  62
3
 100
AcDbCircle
  10
 235.333
  20
 537.166
  30
0.0
  40
 4.00000
 100
AcDbArc
  50
 45.0000
  51
 123.463
   0
ARC
   5
319
 100
AcDbEntity
   8
LEVEL013
   6
CONTINUOUS
  62
3
 100
AcDbCircle
  10
 247.558
  20
 541.912
  30
0.0
  40
 8.00000
 100
AcDbArc
  50
 225.000
  51
 262.529
   0
ARC
   5
31A
 100
AcDbEntity
   8
LEVEL013
   6
CONTINUOUS
  62
3
 100
AcDbCircle
  10
 247.558
  20
 490.708
  30
0.0
  40
 8.00000
 100
AcDbArc
  50
 97.4707
  51
 135.000
   0
CIRCLE
   5
31B
 100
AcDbEntity
   8
LEVEL013
 100
AcDbCircle
   6
CONTINUOUS
  62
3
  10
 249.118
  20
 516.310
  30
0.0
  40
 15.0000
   0
LINE
   5
31C
 100
AcDbEntity
   8
LEVEL013
 100
AcDbLine
   6
CONTINUOUS
  62
3
  10
 225.434
  20
 505.353
  30
0.0
  11
 229.173
  21
 509.093
  31
0.0
   0
LINE
   5
31D
 100
AcDbEntity
   8
LEVEL013
 100
AcDbLine
   6
CONTINUOUS
  62
3
  10
 229.173
  20
 523.527
  30
0.0
  11
 225.434
  21
 527.267
  31
0.0
   0
LINE
   5
31E
 100
AcDbEntity
   8
LEVEL013
 100
AcDbLine
   6
CONTINUOUS
  62
3
  10
 238.162
  20
 539.994
  30
0.0
  11
 241.901
  21
 536.255
  31
0.0
   0
LINE
   5
31F
 100
AcDbEntity
   8
LEVEL013
 100
AcDbLine
   6
CONTINUOUS
  62
3
  10
 241.901
  20
 496.365
  30
0.0
  11
 238.162
  21
 492.626
  31
0.0
   0
LINE
   5
320
 100
AcDbEntity
   8
LEVEL013
 100
AcDbLine
   6
DASHDOT
  62
1
  10
 249.118
  20
 541.310
  30
0.0
  11
 249.118
  21
 494.449
  31
0.0
   0
LINE
   5
321
 100
AcDbEntity
   8
LEVEL013
 100
AcDbLine
   6
DASHDOT
  62
1
  10
 224.118
  20
 516.310
  30
0.0
  11
 274.118
  21
 516.310
  31
0.0
   0
LINE
   5
322
 100
AcDbEntity
   8
LEVEL013
 100
AcDbLine
   6
CONTINUOUS
  62
3
  10
 256.335
  20
 536.310
  30
0.0
  11
 241.901
  21
 536.310
  31
0.0
   0
LINE
   5
323
 100
AcDbEntity
   8
LEVEL013
 100
AcDbLine
   6
CONTINUOUS
  62
3
  10
 271.618
  20
 536.310
  30
0.0
  11
 270.118
  21
 536.310
  31
0.0
   0
LINE
   5
324
 100
AcDbEntity
   8
LEVEL026
 100
AcDbLine
   6
CONTINUOUS
  62
3
  10
 271.618
  20
 506.538
  30
0.0
  11
 271.618
  21
 526.082
  31
0.0
   0
LINE
   5
325
 100
AcDbEntity
   8
LEVEL026
 100
AcDbLine
   6
CONTINUOUS
  62
3
  10
 270.118
  20
 496.310
  30
0.0
  11
 271.618
  21
 496.310
  31
0.0
   0
LINE
   5
326
 100
AcDbEntity
   8
LEVEL026
 100
AcDbLine
   6
CONTINUOUS
  62
3
  10
 271.618
  20
 496.310
  30
0.0
  11
 271.618
  21
 498.014
  31
0.0
   0
LINE
   5
327
 100
AcDbEntity
   8
LEVEL026
 100
AcDbLine
   6
CONTINUOUS
  62
3
  10
 241.901
  20
 496.310
  30
0.0
  11
 256.335
  21
 496.310
  31
0.0
   0
CIRCLE
   5
328
 100
AcDbEntity
   8
LEVEL013
 100
AcDbCircle
   6
DOT
  62
3
  10
 233.505
  20
 501.435
  30
0.0
  40
 4.48038
   0
CIRCLE
   5
329
 100
AcDbEntity
   8
LEVEL013
 100
AcDbCircle
   6
DOT
  62
3
  10
 233.505
  20
 501.435
  30
0.0
  40
 5.00000
   0
LINE
   5
32A
 100
AcDbEntity
   8
LEVEL013
 100
AcDbLine
   6
CONTINUOUS
  62
3
  10
 226.618
  20
 498.014
  30
0.0
  11
 226.618
  21
 496.310
  31
0.0
   0
LINE
   5
32B
 100
AcDbEntity
   8
LEVEL013
 100
AcDbLine
   6
CONTINUOUS
  62
3
  10
 226.618
  20
 496.310
  30
0.0
  11
 228.118
  21
 496.310
  31
0.0
   0
LINE
   5
32C
 100
AcDbEntity
   8
LEVEL026
 100
AcDbLine
   6
CONTINUOUS
  62
3
  10
 221.618
  20
 559.810
  30
0.0
  11
 221.618
  21
 496.310
  31
0.0
   0
LINE
   5
32D
 100
AcDbEntity
   8
LEVEL026
 100
AcDbLine
   6
CONTINUOUS
  62
3
  10
 221.618
  20
 496.310
  30
0.0
  11
 226.618
  21
 496.310
  31
0.0
   0
LINE
   5
32E
 100
AcDbEntity
   8
LEVEL026
 100
AcDbLine
   6
CONTINUOUS
  62
3
  10
 271.618
  20
 534.606
  30
0.0
  11
 271.618
  21
 559.810
  31
0.0
   0
CIRCLE
   5
32F
 100
AcDbEntity
   8
LEVEL026
 100
AcDbCircle
   6
CONTINUOUS
  62
3
  10
 257.618
  20
 551.310
  30
0.0
  40
 5.00000
   0
CIRCLE
   5
330
 100
AcDbEntity
   8
LEVEL026
 100
AcDbCircle
   6
CONTINUOUS
  62
3
  10
 257.618
  20
 551.310
  30
0.0
  40
 4.48038
   0
LINE
   5
331
 100
AcDbEntity
   8
LEVEL026
 100
AcDbLine
   6
CONTINUOUS
  62
3
  10
 257.618
  20
 554.197
  30
0.0
  11
 260.118
  21
 552.753
  31
0.0
   0
LINE
   5
332
 100
AcDbEntity
   8
LEVEL026
 100
AcDbLine
   6
CONTINUOUS
  62
3
  10
 260.118
  20
 552.753
  30
0.0
  11
 260.118
  21
 549.867
  31
0.0
   0
LINE
   5
333
 100
AcDbEntity
   8
LEVEL026
 100
AcDbLine
   6
CONTINUOUS
  62
3
  10
 260.118
  20
 549.867
  30
0.0
  11
 257.618
  21
 548.423
  31
0.0
   0
LINE
   5
334
 100
AcDbEntity
   8
LEVEL026
 100
AcDbLine
   6
CONTINUOUS
  62
3
  10
 257.618
  20
 548.423
  30
0.0
  11
 255.118
  21
 549.867
  31
0.0
   0
LINE
   5
335
 100
AcDbEntity
   8
LEVEL026
 100
AcDbLine
   6
CONTINUOUS
  62
3
  10
 255.118
  20
 549.867
  30
0.0
  11
 255.118
  21
 552.753
  31
0.0
   0
LINE
   5
336
 100
AcDbEntity
   8
LEVEL026
 100
AcDbLine
   6
CONTINUOUS
  62
3
  10
 255.118
  20
 552.753
  30
0.0
  11
 257.618
  21
 554.197
  31
0.0
   0
CIRCLE
   5
337
 100
AcDbEntity
   8
LEVEL026
 100
AcDbCircle
   6
CONTINUOUS
  62
3
  10
 227.618
  20
 551.310
  30
0.0
  40
 5.00000
   0
CIRCLE
   5
338
 100
AcDbEntity
   8
LEVEL026
 100
AcDbCircle
   6
CONTINUOUS
  62
3
  10
 227.618
  20
 551.310
  30
0.0
  40
 4.48038
   0
LINE
   5
339
 100
AcDbEntity
   8
LEVEL026
 100
AcDbLine
   6
CONTINUOUS
  62
3
  10
 227.618
  20
 554.197
  30
0.0
  11
 230.118
  21
 552.753
  31
0.0
   0
LINE
   5
33A
 100
AcDbEntity
   8
LEVEL026
 100
AcDbLine
   6
CONTINUOUS
  62
3
  10
 230.118
  20
 552.753
  30
0.0
  11
 230.118
  21
 549.867
  31
0.0
   0
LINE
   5
33B
 100
AcDbEntity
   8
LEVEL026
 100
AcDbLine
   6
CONTINUOUS
  62
3
  10
 230.118
  20
 549.867
  30
0.0
  11
 227.618
  21
 548.423
  31
0.0
   0
LINE
   5
33C
 100
AcDbEntity
   8
LEVEL026
 100
AcDbLine
   6
CONTINUOUS
  62
3
  10
 227.618
  20
 548.423
  30
0.0
  11
 225.118
  21
 549.867
  31
0.0
   0
LINE
   5
33D
 100
AcDbEntity
   8
LEVEL026
 100
AcDbLine
   6
CONTINUOUS
  62
3
  10
 225.118
  20
 549.867
  30
0.0
  11
 225.118
  21
 552.753
  31
0.0
   0
LINE
   5
33E
 100
AcDbEntity
   8
LEVEL026
 100
AcDbLine
   6
CONTINUOUS
  62
3
  10
 225.118
  20
 552.753
  30
0.0
  11
 227.618
  21
 554.197
  31
0.0
   0
LINE
   5
33F
 100
AcDbEntity
   8
LEVEL026
 100
AcDbLine
   6
DASHDOT
  62
1
  10
 265.618
  20
 551.310
  30
0.0
  11
 249.618
  21
 551.310
  31
0.0
   0
LINE
   5
340
 100
AcDbEntity
   8
LEVEL026
 100
AcDbLine
   6
DASHDOT
  62
1
  10
 257.618
  20
 559.310
  30
0.0
  11
 257.618
  21
 543.310
  31
0.0
   0
LINE
   5
341
 100
AcDbEntity
   8
LEVEL024
 100
AcDbLine
   6
CONTINUOUS
  62
3
  10
 175.000
  20
 580.000
  30
0.0
  11
 335.000
  21
 580.000
  31
0.0
   0
LINE
   5
342
 100
AcDbEntity
   8
LEVEL026
 100
AcDbLine
   6
CONTINUOUS
  62
3
  10
 273.118
  20
 579.332
  30
0.0
  11
 278.618
  21
 579.504
  31
0.0
   0
LINE
   5
343
 100
AcDbEntity
   8
LEVEL026
 100
AcDbLine
   6
CONTINUOUS
  62
3
  10
 278.618
  20
 579.504
  30
0.0
  11
 280.470
  21
 580.000
  31
0.0
   0
LINE
   5
344
 100
AcDbEntity
   8
LEVEL026
 100
AcDbLine
   6
CONTINUOUS
  62
3
  10
 282.235
  20
 563.147
  30
0.0
  11
 282.235
  21
 580.000
  31
0.0
   0
LINE
   5
345
 100
AcDbEntity
   8
LEVEL018
 100
AcDbLine
   6
DOT
  62
3
  10
 292.868
  20
 603.810
  30
0.0
  11
 292.868
  21
 606.810
  31
0.0
   0
ARC
   5
346
 100
AcDbEntity
   8
LEVEL018
   6
DOT
  62
3
 100
AcDbCircle
  10
 295.868
  20
 638.560
  30
0.0
  40
 1.50000
 100
AcDbArc
  50
 90.0000
  51
 180.000
   0
LINE
   5
347
 100
AcDbEntity
   8
LEVEL018
 100
AcDbLine
   6
DOT
  62
3
  10
 294.368
  20
 638.560
  30
0.0
  11
 294.368
  21
 606.810
  31
0.0
   0
ARC
   5
348
 100
AcDbEntity
   8
LEVEL018
   6
DOT
  62
3
 100
AcDbCircle
  10
 320.368
  20
 638.560
  30
0.0
  40
 1.50000
 100
AcDbArc
  50
0.0
  51
 90.0000
   0
LINE
   5
349
 100
AcDbEntity
   8
LEVEL018
 100
AcDbLine
   6
DOT
  62
3
  10
 295.868
  20
 640.060
  30
0.0
  11
 320.368
  21
 640.060
  31
0.0
   0
LINE
   5
34A
 100
AcDbEntity
   8
LEVEL018
 100
AcDbLine
   6
DOT
  62
3
  10
 324.118
  20
 582.057
  30
0.0
  11
 324.118
  21
 587.810
  31
0.0
   0
LINE
   5
34B
 100
AcDbEntity
   8
LEVEL018
 100
AcDbLine
   6
DOT
  62
3
  10
 324.118
  20
 587.810
  30
0.0
  11
 318.365
  21
 587.810
  31
0.0
   0
LINE
   5
34C
 100
AcDbEntity
   8
LEVEL018
 100
AcDbLine
   6
DOT
  62
3
  10
 322.868
  20
 603.810
  30
0.0
  11
 322.868
  21
 587.810
  31
0.0
   0
LINE
   5
34D
 100
AcDbEntity
   8
LEVEL018
 100
AcDbLine
   6
DOT
  62
3
  10
 323.368
  20
 603.810
  30
0.0
  11
 323.368
  21
 606.810
  31
0.0
   0
ARC
   5
34E
 100
AcDbEntity
   8
LEVEL018
   6
DOT
  62
3
 100
AcDbCircle
  10
 308.118
  20
 571.810
  30
0.0
  40
 10.0000
 100
AcDbArc
  50
 54.9848
  51
 125.015
   0
ARC
   5
34F
 100
AcDbEntity
   8
LEVEL018
   6
DOT
  62
3
 100
AcDbCircle
  10
 308.118
  20
 571.810
  30
0.0
  40
 9.50000
 100
AcDbArc
  50
 59.5538
  51
 120.446
   0
LINE
   5
350
 100
AcDbEntity
   8
LEVEL018
 100
AcDbLine
   6
DOT
  62
3
  10
 292.868
  20
 606.810
  30
0.0
  11
 323.368
  21
 606.810
  31
0.0
   0
LINE
   5
351
 100
AcDbEntity
   8
LEVEL018
 100
AcDbLine
   6
DOT
  62
3
  10
 323.368
  20
 603.810
  30
0.0
  11
 292.868
  21
 603.810
  31
0.0
   0
LINE
   5
352
 100
AcDbEntity
   8
LEVEL018
 100
AcDbLine
   6
DOT
  62
3
  10
 321.868
  20
 606.810
  30
0.0
  11
 321.868
  21
 638.560
  31
0.0
   0
LINE
   5
353
 100
AcDbEntity
   8
LEVEL026
 100
AcDbLine
   6
DOT
  62
3
  10
 282.235
  20
 580.473
  30
0.0
  11
 291.208
  21
 580.473
  31
0.0
   0
LINE
   5
354
 100
AcDbEntity
   8
LEVEL018
 100
AcDbLine
   6
DOT
  62
3
  10
 292.118
  20
 582.057
  30
0.0
  11
 292.118
  21
 587.810
  31
0.0
   0
LINE
   5
355
 100
AcDbEntity
   8
LEVEL018
 100
AcDbLine
   6
DOT
  62
3
  10
 292.118
  20
 587.810
  30
0.0
  11
 297.871
  21
 587.810
  31
0.0
   0
LINE
   5
356
 100
AcDbEntity
   8
LEVEL026
 100
AcDbLine
   6
DOT
  62
3
  10
 282.235
  20
 580.473
  30
0.0
  11
 273.118
  21
 580.188
  31
0.0
   0
LINE
   5
357
 100
AcDbEntity
   8
LEVEL026
 100
AcDbLine
   6
DOT
  62
3
  10
 282.235
  20
 580.000
  30
0.0
  11
 282.235
  21
 580.473
  31
0.0
   0
LINE
   5
358
 100
AcDbEntity
   8
LEVEL026
 100
AcDbLine
   6
DOT
  62
3
  10
 280.470
  20
 580.000
  30
0.0
  11
 282.235
  21
 580.473
  31
0.0
   0
LINE
   5
359
 100
AcDbEntity
   8
LEVEL018
 100
AcDbLine
   6
DOT
  62
3
  10
 293.368
  20
 587.810
  30
0.0
  11
 293.368
  21
 603.810
  31
0.0
   0
LINE
   5
35A
 100
AcDbEntity
   8
LEVEL018
 100
AcDbLine
   6
DOT
  62
3
  10
 293.368
  20
 593.810
  30
0.0
  11
 322.868
  21
 593.810
  31
0.0
   0
LINE
   5
35B
 100
AcDbEntity
   8
LEVEL018
 100
AcDbLine
   6
DOT
  62
3
  10
 322.868
  20
 594.810
  30
0.0
  11
 293.368
  21
 594.810
  31
0.0
   0
ARC
   5
35C
 100
AcDbEntity
   8
LEVEL018
   6
DOT
  62
3
 100
AcDbCircle
  10
 308.118
  20
 571.810
  30
0.0
  40
 19.0000
 100
AcDbArc
  50
 25.5344
  51
 154.466
   0
ARC
   5
35D
 100
AcDbEntity
   8
LEVEL018
   6
DOT
  62
3
 100
AcDbCircle
  10
 308.118
  20
 571.810
  30
0.0
  40
 14.5000
 100
AcDbArc
  50
 34.3903
  51
 145.610
   0
LINE
   5
35E
 100
AcDbEntity
   8
LEVEL018
 100
AcDbLine
   6
CONTINUOUS
  62
3
  10
 318.365
  20
 555.810
  30
0.0
  11
 324.118
  21
 555.810
  31
0.0
   0
LINE
   5
35F
 100
AcDbEntity
   8
LEVEL018
 100
AcDbLine
   6
CONTINUOUS
  62
3
  10
 324.118
  20
 555.810
  30
0.0
  11
 324.118
  21
 561.563
  31
0.0
   0
ARC
   5
360
 100
AcDbEntity
   8
LEVEL018
   6
CONTINUOUS
  62
3
 100
AcDbCircle
  10
 308.118
  20
 571.810
  30
0.0
  40
 19.0000
 100
AcDbArc
  50
 154.466
  51
 25.5344
   0
ARC
   5
361
 100
AcDbEntity
   8
LEVEL018
   6
CONTINUOUS
  62
3
 100
AcDbCircle
  10
 308.118
  20
 571.810
  30
0.0
  40
 14.5000
 100
AcDbArc
  50
 145.610
  51
 34.3903
   0
ARC
   5
362
 100
AcDbEntity
   8
LEVEL018
   6
CONTINUOUS
  62
3
 100
AcDbCircle
  10
 308.118
  20
 571.810
  30
0.0
  40
 10.0000
 100
AcDbArc
  50
 125.015
  51
 54.9848
   0
ARC
   5
363
 100
AcDbEntity
   8
LEVEL018
   6
CONTINUOUS
  62
3
 100
AcDbCircle
  10
 308.118
  20
 571.810
  30
0.0
  40
 9.50000
 100
AcDbArc
  50
 120.446
  51
 59.5538
   0
LINE
   5
364
 100
AcDbEntity
   8
LEVEL026
 100
AcDbLine
   6
CONTINUOUS
  62
3
  10
 282.235
  20
 563.147
  30
0.0
  11
 291.208
  21
 563.147
  31
0.0
   0
LINE
   5
365
 100
AcDbEntity
   8
LEVEL018
 100
AcDbLine
   6
CONTINUOUS
  62
3
  10
 297.871
  20
 555.810
  30
0.0
  11
 292.118
  21
 555.810
  31
0.0
   0
LINE
   5
366
 100
AcDbEntity
   8
LEVEL018
 100
AcDbLine
   6
CONTINUOUS
  62
3
  10
 292.118
  20
 555.810
  30
0.0
  11
 292.118
  21
 561.563
  31
0.0
   0
LINE
   5
367
 100
AcDbEntity
   8
LEVEL026
 100
AcDbLine
   6
CONTINUOUS
  62
3
  10
 278.618
  20
 564.116
  30
0.0
  11
 278.618
  21
 579.504
  31
0.0
   0
LINE
   5
368
 100
AcDbEntity
   8
LEVEL026
 100
AcDbLine
   6
CONTINUOUS
  62
3
  10
 276.618
  20
 564.179
  30
0.0
  11
 278.618
  21
 564.116
  31
0.0
   0
LINE
   5
369
 100
AcDbEntity
   8
LEVEL026
 100
AcDbLine
   6
CONTINUOUS
  62
3
  10
 278.618
  20
 564.116
  30
0.0
  11
 282.235
  21
 563.147
  31
0.0
   0
LINE
   5
36A
 100
AcDbEntity
   8
LEVEL026
 100
AcDbLine
   6
CONTINUOUS
  62
3
  10
 282.235
  20
 563.147
  30
0.0
  11
 276.618
  21
 563.323
  31
0.0
   0
LINE
   5
36B
 100
AcDbEntity
   8
LEVEL015
 100
AcDbLine
   6
DASHDOT
  62
1
  10
 229.818
  20
 578.810
  30
0.0
  11
 255.418
  21
 578.810
  31
0.0
   0
LINE
   5
36C
 100
AcDbEntity
   8
LEVEL015
 100
AcDbLine
   6
DASHDOT
  62
1
  10
 242.618
  20
 554.810
  30
0.0
  11
 242.618
  21
 595.310
  31
0.0
   0
LINE
   5
36D
 100
AcDbEntity
   8
LEVEL015
 100
AcDbLine
   6
DASHDOT
  62
1
  10
 207.618
  20
 576.810
  30
0.0
  11
 277.618
  21
 576.810
  31
0.0
   0
ARC
   5
36E
 100
AcDbEntity
   8
LEVEL015
   6
CONTINUOUS
  62
3
 100
AcDbCircle
  10
 210.618
  20
 561.810
  30
0.0
  40
 2.00000
 100
AcDbArc
  50
 180.000
  51
 270.000
   0
LINE
   5
36F
 100
AcDbEntity
   8
LEVEL015
 100
AcDbLine
   6
CONTINUOUS
  62
3
  10
 210.618
  20
 559.810
  30
0.0
  11
 274.618
  21
 559.810
  31
0.0
   0
LINE
   5
370
 100
AcDbEntity
   8
LEVEL015
 100
AcDbLine
   6
CONTINUOUS
  62
3
  10
 212.118
  20
 564.810
  30
0.0
  11
 212.118
  21
 580.000
  31
0.0
   0
ARC
   5
371
 100
AcDbEntity
   8
LEVEL015
   6
DOT
  62
3
 100
AcDbCircle
  10
 215.118
  20
 587.810
  30
0.0
  40
 3.00000
 100
AcDbArc
  50
 90.0000
  51
 180.000
   0
ARC
   5
372
 100
AcDbEntity
   8
LEVEL015
   6
CONTINUOUS
  62
3
 100
AcDbCircle
  10
 242.618
  20
 578.810
  30
0.0
  40
 8.00000
 100
AcDbArc
  50
 171.446
  51
 8.55449
   0
LINE
   5
373
 100
AcDbEntity
   8
LEVEL015
 100
AcDbLine
   6
CONTINUOUS
  62
3
  10
 273.118
  20
 564.810
  30
0.0
  11
 273.118
  21
 580.000
  31
0.0
   0
ARC
   5
374
 100
AcDbEntity
   8
LEVEL015
   6
CONTINUOUS
  62
3
 100
AcDbCircle
  10
 274.618
  20
 561.810
  30
0.0
  40
 2.00000
 100
AcDbArc
  50
 270.000
  51
0.0
   0
LINE
   5
375
 100
AcDbEntity
   8
LEVEL015
 100
AcDbLine
   6
CONTINUOUS
  62
3
  10
 276.618
  20
 561.810
  30
0.0
  11
 276.618
  21
 564.810
  31
0.0
   0
LINE
   5
376
 100
AcDbEntity
   8
LEVEL015
 100
AcDbLine
   6
CONTINUOUS
  62
3
  10
 276.618
  20
 564.810
  30
0.0
  11
 208.618
  21
 564.810
  31
0.0
   0
LINE
   5
377
 100
AcDbEntity
   8
LEVEL015
 100
AcDbLine
   6
CONTINUOUS
  62
3
  10
 208.618
  20
 564.810
  30
0.0
  11
 208.618
  21
 561.810
  31
0.0
   0
ARC
   5
378
 100
AcDbEntity
   8
LEVEL015
   6
DOT
  62
3
 100
AcDbCircle
  10
 242.618
  20
 578.810
  30
0.0
  40
 8.00000
 100
AcDbArc
  50
 8.55449
  51
 171.446
   0
LINE
   5
379
 100
AcDbEntity
   8
LEVEL015
 100
AcDbLine
   6
DOT
  62
3
  10
 273.118
  20
 580.000
  30
0.0
  11
 273.118
  21
 587.810
  31
0.0
   0
LINE
   5
37A
 100
AcDbEntity
   8
LEVEL015
 100
AcDbLine
   6
DOT
  62
3
  10
 212.118
  20
 580.000
  30
0.0
  11
 212.118
  21
 587.810
  31
0.0
   0
LINE
   5
37B
 100
AcDbEntity
   8
LEVEL015
 100
AcDbLine
   6
DOT
  62
3
  10
 215.118
  20
 590.810
  30
0.0
  11
 270.118
  21
 590.810
  31
0.0
   0
ARC
   5
37C
 100
AcDbEntity
   8
LEVEL015
   6
DOT
  62
3
 100
AcDbCircle
  10
 270.118
  20
 587.810
  30
0.0
  40
 3.00000
 100
AcDbArc
  50
0.0
  51
 90.0000
   0
LINE
   5
37D
 100
AcDbEntity
   8
LEVEL026
 100
AcDbLine
   6
DOT
  62
3
  10
 271.618
  20
 590.408
  30
0.0
  11
 271.618
  21
 591.310
  31
0.0
   0
LINE
   5
37E
 100
AcDbEntity
   8
LEVEL026
 100
AcDbLine
   6
DOT
  62
3
  10
 271.618
  20
 591.310
  30
0.0
  11
 221.618
  21
 591.310
  31
0.0
   0
LINE
   5
37F
 100
AcDbEntity
   8
LEVEL026
 100
AcDbLine
   6
DOT
  62
3
  10
 221.618
  20
 591.310
  30
0.0
  11
 221.618
  21
 590.810
  31
0.0
   0
LINE
   5
380
 100
AcDbEntity
   8
LEVEL022
 100
AcDbLine
   6
DASHDOT
  62
1
  10
 235.618
  20
 604.810
  30
0.0
  11
 235.618
  21
 592.810
  31
0.0
   0
LINE
   5
381
 100
AcDbEntity
   8
LEVEL019
 100
AcDbLine
   6
DASHDOT
  62
1
  10
 241.618
  20
 598.810
  30
0.0
  11
 229.618
  21
 598.810
  31
0.0
   0
CIRCLE
   5
382
 100
AcDbEntity
   8
LEVEL022
 100
AcDbCircle
   6
DOT
  62
3
  10
 235.618
  20
 598.810
  30
0.0
  40
 1.65000
   0
LINE
   5
383
 100
AcDbEntity
   8
LEVEL022
 100
AcDbLine
   6
DOT
  62
3
  10
 235.618
  20
 602.851
  30
0.0
  11
 239.118
  21
 600.831
  31
0.0
   0
LINE
   5
384
 100
AcDbEntity
   8
LEVEL022
 100
AcDbLine
   6
DOT
  62
3
  10
 239.118
  20
 600.831
  30
0.0
  11
 239.118
  21
 596.789
  31
0.0
   0
LINE
   5
385
 100
AcDbEntity
   8
LEVEL022
 100
AcDbLine
   6
DOT
  62
3
  10
 239.118
  20
 596.789
  30
0.0
  11
 235.618
  21
 594.769
  31
0.0
   0
LINE
   5
386
 100
AcDbEntity
   8
LEVEL022
 100
AcDbLine
   6
DOT
  62
3
  10
 235.618
  20
 594.769
  30
0.0
  11
 232.118
  21
 596.789
  31
0.0
   0
LINE
   5
387
 100
AcDbEntity
   8
LEVEL022
 100
AcDbLine
   6
DOT
  62
3
  10
 232.118
  20
 596.789
  30
0.0
  11
 232.118
  21
 600.831
  31
0.0
   0
LINE
   5
388
 100
AcDbEntity
   8
LEVEL022
 100
AcDbLine
   6
DOT
  62
3
  10
 232.118
  20
 600.831
  30
0.0
  11
 235.618
  21
 602.851
  31
0.0
   0
CIRCLE
   5
389
 100
AcDbEntity
   8
LEVEL022
 100
AcDbCircle
   6
DOT
  62
3
  10
 235.618
  20
 598.810
  30
0.0
  40
 3.50000
   0
CIRCLE
   5
38A
 100
AcDbEntity
   8
LEVEL022
 100
AcDbCircle
   6
DOT
  62
3
  10
 235.618
  20
 598.810
  30
0.0
  40
 2.00000
   0
LINE
   5
38B
 100
AcDbEntity
   8
LEVEL019
 100
AcDbLine
   6
DOT
  62
3
  10
 185.000
  20
 702.887
  30
0.0
  11
 187.500
  21
 701.443
  31
0.0
   0
LINE
   5
38C
 100
AcDbEntity
   8
LEVEL019
 100
AcDbLine
   6
DOT
  62
3
  10
 187.500
  20
 701.443
  30
0.0
  11
 187.500
  21
 698.557
  31
0.0
   0
LINE
   5
38D
 100
AcDbEntity
   8
LEVEL019
 100
AcDbLine
   6
DOT
  62
3
  10
 187.500
  20
 698.557
  30
0.0
  11
 185.000
  21
 697.113
  31
0.0
   0
LINE
   5
38E
 100
AcDbEntity
   8
LEVEL019
 100
AcDbLine
   6
DOT
  62
3
  10
 185.000
  20
 697.113
  30
0.0
  11
 182.500
  21
 698.557
  31
0.0
   0
LINE
   5
38F
 100
AcDbEntity
   8
LEVEL019
 100
AcDbLine
   6
DOT
  62
3
  10
 182.500
  20
 698.557
  30
0.0
  11
 182.500
  21
 701.443
  31
0.0
   0
LINE
   5
390
 100
AcDbEntity
   8
LEVEL019
 100
AcDbLine
   6
DOT
  62
3
  10
 182.500
  20
 701.443
  30
0.0
  11
 185.000
  21
 702.887
  31
0.0
   0
CIRCLE
   5
391
 100
AcDbEntity
   8
LEVEL019
 100
AcDbCircle
   6
DOT
  62
3
  10
 185.000
  20
 700.000
  30
0.0
  40
 5.00000
   0
CIRCLE
   5
392
 100
AcDbEntity
   8
LEVEL019
 100
AcDbCircle
   6
DOT
  62
3
  10
 185.000
  20
 700.000
  30
0.0
  40
 4.48038
   0
LINE
   5
393
 100
AcDbEntity
   8
LEVEL019
 100
AcDbLine
   6
DOT
  62
3
  10
 325.000
  20
 702.887
  30
0.0
  11
 327.500
  21
 701.443
  31
0.0
   0
LINE
   5
394
 100
AcDbEntity
   8
LEVEL019
 100
AcDbLine
   6
DOT
  62
3
  10
 327.500
  20
 701.443
  30
0.0
  11
 327.500
  21
 698.557
  31
0.0
   0
LINE
   5
395
 100
AcDbEntity
   8
LEVEL019
 100
AcDbLine
   6
DOT
  62
3
  10
 327.500
  20
 698.557
  30
0.0
  11
 325.000
  21
 697.113
  31
0.0
   0
LINE
   5
396
 100
AcDbEntity
   8
LEVEL019
 100
AcDbLine
   6
DOT
  62
3
  10
 325.000
  20
 697.113
  30
0.0
  11
 322.500
  21
 698.557
  31
0.0
   0
LINE
   5
397
 100
AcDbEntity
   8
LEVEL019
 100
AcDbLine
   6
DOT
  62
3
  10
 322.500
  20
 698.557
  30
0.0
  11
 322.500
  21
 701.443
  31
0.0
   0
LINE
   5
398
 100
AcDbEntity
   8
LEVEL019
 100
AcDbLine
   6
DOT
  62
3
  10
 322.500
  20
 701.443
  30
0.0
  11
 325.000
  21
 702.887
  31
0.0
   0
CIRCLE
   5
399
 100
AcDbEntity
   8
LEVEL019
 100
AcDbCircle
   6
DOT
  62
3
  10
 325.000
  20
 700.000
  30
0.0
  40
 5.00000
   0
CIRCLE
   5
39A
 100
AcDbEntity
   8
LEVEL019
 100
AcDbCircle
   6
DOT
  62
3
  10
 325.000
  20
 700.000
  30
0.0
  40
 4.48038
   0
LINE
   5
39B
 100
AcDbEntity
   8
LEVEL018
 100
AcDbLine
   6
CONTINUOUS
  62
3
  10
 316.118
  20
 267.000
  30
0.0
  11
 316.118
  21
 265.500
  31
0.0
   0
LINE
   5
39C
 100
AcDbEntity
   8
LEVEL018
 100
AcDbLine
   6
CONTINUOUS
  62
3
  10
 291.618
  20
 343.000
  30
0.0
  11
 291.618
  21
 364.500
  31
0.0
   0
LINE
   5
39D
 100
AcDbEntity
   8
LEVEL018
 100
AcDbLine
   6
CONTINUOUS
  62
3
  10
 303.618
  20
 343.000
  30
0.0
  11
 303.618
  21
 364.500
  31
0.0
   0
LINE
   5
39E
 100
AcDbEntity
   8
LEVEL018
 100
AcDbLine
   6
CONTINUOUS
  62
3
  10
 294.618
  20
 343.000
  30
0.0
  11
 294.618
  21
 364.500
  31
0.0
   0
LINE
   5
39F
 100
AcDbEntity
   8
LEVEL018
 100
AcDbLine
   6
CONTINUOUS
  62
3
  10
 297.618
  20
 343.000
  30
0.0
  11
 297.618
  21
 364.500
  31
0.0
   0
LINE
   5
3A0
 100
AcDbEntity
   8
LEVEL018
 100
AcDbLine
   6
CONTINUOUS
  62
3
  10
 300.618
  20
 343.000
  30
0.0
  11
 300.618
  21
 364.500
  31
0.0
   0
LINE
   5
3A1
 100
AcDbEntity
   8
LEVEL018
 100
AcDbLine
   6
CONTINUOUS
  62
3
  10
 293.368
  20
 327.000
  30
0.0
  11
 310.118
  21
 327.000
  31
0.0
   0
LINE
   5
3A2
 100
AcDbEntity
   8
LEVEL018
 100
AcDbLine
   6
CONTINUOUS
  62
3
  10
 293.368
  20
 324.000
  30
0.0
  11
 310.118
  21
 324.000
  31
0.0
   0
LINE
   5
3A3
 100
AcDbEntity
   8
LEVEL018
 100
AcDbLine
   6
CONTINUOUS
  62
3
  10
 293.368
  20
 333.000
  30
0.0
  11
 310.118
  21
 333.000
  31
0.0
   0
LINE
   5
3A4
 100
AcDbEntity
   8
LEVEL018
 100
AcDbLine
   6
CONTINUOUS
  62
3
  10
 293.368
  20
 330.000
  30
0.0
  11
 310.118
  21
 330.000
  31
0.0
   0
LINE
   5
3A5
 100
AcDbEntity
   8
LEVEL018
 100
AcDbLine
   6
CONTINUOUS
  62
3
  10
 293.368
  20
 338.000
  30
0.0
  11
 293.368
  21
 322.500
  31
0.0
   0
LINE
   5
3A6
 100
AcDbEntity
   8
LEVEL018
 100
AcDbLine
   6
CONTINUOUS
  62
3
  10
 289.118
  20
 364.500
  30
0.0
  11
 327.118
  21
 364.500
  31
0.0
   0
LINE
   5
3A7
 100
AcDbEntity
   8
LEVEL018
 100
AcDbLine
   6
CONTINUOUS
  62
3
  10
 290.618
  20
 343.000
  30
0.0
  11
 325.618
  21
 343.000
  31
0.0
   0
LINE
   5
3A8
 100
AcDbEntity
   8
LEVEL018
 100
AcDbLine
   6
CONTINUOUS
  62
3
  10
 325.118
  20
 338.000
  30
0.0
  11
 291.118
  21
 338.000
  31
0.0
   0
LINE
   5
3A9
 100
AcDbEntity
   8
LEVEL018
 100
AcDbLine
   6
CONTINUOUS
  62
3
  10
 291.118
  20
 338.000
  30
0.0
  11
 290.618
  21
 343.000
  31
0.0
   0
LINE
   5
3AA
 100
AcDbEntity
   8
LEVEL018
 100
AcDbLine
   6
CONTINUOUS
  62
3
  10
 290.618
  20
 343.000
  30
0.0
  11
 289.118
  21
 344.500
  31
0.0
   0
LINE
   5
3AB
 100
AcDbEntity
   8
LEVEL018
 100
AcDbLine
   6
CONTINUOUS
  62
3
  10
 289.118
  20
 344.500
  30
0.0
  11
 289.118
  21
 364.500
  31
0.0
   0
LINE
   5
3AC
 100
AcDbEntity
   8
LEVEL018
 100
AcDbLine
   6
CONTINUOUS
  62
3
  10
 289.118
  20
 364.500
  30
0.0
  11
 293.618
  21
 370.500
  31
0.0
   0
LINE
   5
3AD
 100
AcDbEntity
   8
LEVEL018
 100
AcDbLine
   6
CONTINUOUS
  62
3
  10
 293.618
  20
 370.500
  30
0.0
  11
 308.118
  21
 370.500
  31
0.0
   0
LINE
   5
3AE
 100
AcDbEntity
   8
LEVEL018
 100
AcDbLine
   6
CONTINUOUS
  62
3
  10
 308.118
  20
 370.500
  30
0.0
  11
 322.618
  21
 370.500
  31
0.0
   0
LINE
   5
3AF
 100
AcDbEntity
   8
LEVEL018
 100
AcDbLine
   6
CONTINUOUS
  62
3
  10
 322.618
  20
 370.500
  30
0.0
  11
 327.118
  21
 364.500
  31
0.0
   0
LINE
   5
3B0
 100
AcDbEntity
   8
LEVEL018
 100
AcDbLine
   6
CONTINUOUS
  62
3
  10
 327.118
  20
 364.500
  30
0.0
  11
 327.118
  21
 344.500
  31
0.0
   0
LINE
   5
3B1
 100
AcDbEntity
   8
LEVEL018
 100
AcDbLine
   6
CONTINUOUS
  62
3
  10
 327.118
  20
 344.500
  30
0.0
  11
 325.618
  21
 343.000
  31
0.0
   0
LINE
   5
3B2
 100
AcDbEntity
   8
LEVEL018
 100
AcDbLine
   6
CONTINUOUS
  62
3
  10
 325.618
  20
 343.000
  30
0.0
  11
 325.118
  21
 338.000
  31
0.0
   0
LINE
   5
3B3
 100
AcDbEntity
   8
LEVEL018
 100
AcDbLine
   6
CONTINUOUS
  62
3
  10
 292.118
  20
 322.500
  30
0.0
  11
 292.118
  21
 282.500
  31
0.0
   0
LINE
   5
3B4
 100
AcDbEntity
   8
LEVEL018
 100
AcDbLine
   6
CONTINUOUS
  62
3
  10
 292.118
  20
 282.500
  30
0.0
  11
 324.118
  21
 282.500
  31
0.0
   0
LINE
   5
3B5
 100
AcDbEntity
   8
LEVEL018
 100
AcDbLine
   6
CONTINUOUS
  62
3
  10
 324.118
  20
 282.500
  30
0.0
  11
 324.118
  21
 322.500
  31
0.0
   0
LINE
   5
3B6
 100
AcDbEntity
   8
LEVEL018
 100
AcDbLine
   6
CONTINUOUS
  62
3
  10
 324.118
  20
 322.500
  30
0.0
  11
 292.118
  21
 322.500
  31
0.0
   0
LINE
   5
3B7
 100
AcDbEntity
   8
LEVEL018
 100
AcDbLine
   6
CONTINUOUS
  62
3
  10
 312.618
  20
 343.000
  30
0.0
  11
 312.618
  21
 364.500
  31
0.0
   0
LINE
   5
3B8
 100
AcDbEntity
   8
LEVEL018
 100
AcDbLine
   6
CONTINUOUS
  62
3
  10
 315.618
  20
 343.000
  30
0.0
  11
 315.618
  21
 364.500
  31
0.0
   0
LINE
   5
3B9
 100
AcDbEntity
   8
LEVEL018
 100
AcDbLine
   6
CONTINUOUS
  62
3
  10
 324.618
  20
 343.000
  30
0.0
  11
 324.618
  21
 364.500
  31
0.0
   0
LINE
   5
3BA
 100
AcDbEntity
   8
LEVEL018
 100
AcDbLine
   6
CONTINUOUS
  62
3
  10
 318.618
  20
 343.000
  30
0.0
  11
 318.618
  21
 364.500
  31
0.0
   0
LINE
   5
3BB
 100
AcDbEntity
   8
LEVEL018
 100
AcDbLine
   6
CONTINUOUS
  62
3
  10
 321.618
  20
 343.000
  30
0.0
  11
 321.618
  21
 364.500
  31
0.0
   0
LINE
   5
3BC
 100
AcDbEntity
   8
LEVEL018
 100
AcDbLine
   6
CONTINUOUS
  62
3
  10
 306.118
  20
 331.500
  30
0.0
  11
 322.868
  21
 331.500
  31
0.0
   0
LINE
   5
3BD
 100
AcDbEntity
   8
LEVEL018
 100
AcDbLine
   6
CONTINUOUS
  62
3
  10
 306.118
  20
 334.500
  30
0.0
  11
 322.868
  21
 334.500
  31
0.0
   0
LINE
   5
3BE
 100
AcDbEntity
   8
LEVEL018
 100
AcDbLine
   6
CONTINUOUS
  62
3
  10
 322.868
  20
 338.000
  30
0.0
  11
 322.868
  21
 322.500
  31
0.0
   0
LINE
   5
3BF
 100
AcDbEntity
   8
LEVEL018
 100
AcDbLine
   6
CONTINUOUS
  62
3
  10
 306.118
  20
 325.500
  30
0.0
  11
 322.868
  21
 325.500
  31
0.0
   0
LINE
   5
3C0
 100
AcDbEntity
   8
LEVEL018
 100
AcDbLine
   6
CONTINUOUS
  62
3
  10
 306.118
  20
 328.500
  30
0.0
  11
 322.868
  21
 328.500
  31
0.0
   0
LINE
   5
3C1
 100
AcDbEntity
   8
LEVEL018
 100
AcDbLine
   6
CONTINUOUS
  62
3
  10
 309.618
  20
 343.000
  30
0.0
  11
 309.618
  21
 364.500
  31
0.0
   0
LINE
   5
3C2
 100
AcDbEntity
   8
LEVEL018
 100
AcDbLine
   6
CONTINUOUS
  62
3
  10
 306.618
  20
 343.000
  30
0.0
  11
 306.618
  21
 364.500
  31
0.0
   0
ARC
   5
3C3
 100
AcDbEntity
   8
LEVEL018
   6
CONTINUOUS
  62
3
 100
AcDbCircle
  10
 317.618
  20
 267.000
  30
0.0
  40
 1.50000
 100
AcDbArc
  50
 90.0000
  51
 180.000
   0
LINE
   5
3C4
 100
AcDbEntity
   8
LEVEL018
 100
AcDbLine
   6
CONTINUOUS
  62
3
  10
 298.618
  20
 278.500
  30
0.0
  11
 298.618
  21
 268.500
  31
0.0
   0
LINE
   5
3C5
 100
AcDbEntity
   8
LEVEL018
 100
AcDbLine
   6
CONTINUOUS
  62
3
  10
 298.618
  20
 268.500
  30
0.0
  11
 317.618
  21
 268.500
  31
0.0
   0
LINE
   5
3C6
 100
AcDbEntity
   8
LEVEL018
 100
AcDbLine
   6
CONTINUOUS
  62
3
  10
 317.618
  20
 268.500
  30
0.0
  11
 317.618
  21
 278.500
  31
0.0
   0
LINE
   5
3C7
 100
AcDbEntity
   8
LEVEL018
 100
AcDbLine
   6
CONTINUOUS
  62
3
  10
 293.118
  20
 282.500
  30
0.0
  11
 293.118
  21
 278.500
  31
0.0
   0
LINE
   5
3C8
 100
AcDbEntity
   8
LEVEL018
 100
AcDbLine
   6
CONTINUOUS
  62
3
  10
 293.118
  20
 278.500
  30
0.0
  11
 323.118
  21
 278.500
  31
0.0
   0
LINE
   5
3C9
 100
AcDbEntity
   8
LEVEL018
 100
AcDbLine
   6
CONTINUOUS
  62
3
  10
 323.118
  20
 278.500
  30
0.0
  11
 323.118
  21
 282.500
  31
0.0
   0
LINE
   5
3CA
 100
AcDbEntity
   8
LEVEL018
 100
AcDbLine
   6
CONTINUOUS
  62
3
  10
 293.118
  20
 282.000
  30
0.0
  11
 323.118
  21
 282.000
  31
0.0
   0
ARC
   5
3CB
 100
AcDbEntity
   8
LEVEL018
   6
CONTINUOUS
  62
3
 100
AcDbCircle
  10
 298.618
  20
 267.000
  30
0.0
  40
 1.50000
 100
AcDbArc
  50
 0.130276E-10
  51
 90.0000
   0
LINE
   5
3CC
 100
AcDbEntity
   8
LEVEL018
 100
AcDbLine
   6
CONTINUOUS
  62
3
  10
 300.118
  20
 267.000
  30
0.0
  11
 300.118
  21
 265.500
  31
0.0
   0
LINE
   5
3CD
 100
AcDbEntity
   8
LEVEL018
 100
AcDbLine
   6
DASHDOT
  62
1
  10
 308.118
  20
 265.500
  30
0.0
  11
 308.118
  21
 375.500
  31
0.0
   0
LINE
   5
3CE
 100
AcDbEntity
   8
LEVEL026
 100
AcDbLine
   6
DASHDOT
  62
1
  10
 271.618
  20
 240.000
  30
0.0
  11
 321.627
  21
 240.000
  31
0.0
   0
LINE
   5
3CF
 100
AcDbEntity
   8
LEVEL026
 100
AcDbLine
   6
CONTINUOUS
  62
3
  10
 282.235
  20
 248.663
  30
0.0
  11
 271.618
  21
 248.331
  31
0.0
   0
LINE
   5
3D0
 100
AcDbEntity
   8
LEVEL026
 100
AcDbLine
   6
CONTINUOUS
  62
3
  10
 271.618
  20
 247.475
  30
0.0
  11
 278.618
  21
 247.694
  31
0.0
   0
LINE
   5
3D1
 100
AcDbEntity
   8
LEVEL026
 100
AcDbLine
   6
CONTINUOUS
  62
3
  10
 278.618
  20
 247.694
  30
0.0
  11
 282.235
  21
 248.663
  31
0.0
   0
LINE
   5
3D2
 100
AcDbEntity
   8
LEVEL026
 100
AcDbLine
   6
CONTINUOUS
  62
3
  10
 282.235
  20
 248.663
  30
0.0
  11
 295.618
  21
 248.663
  31
0.0
   0
LINE
   5
3D3
 100
AcDbEntity
   8
LEVEL026
 100
AcDbLine
   6
CONTINUOUS
  62
3
  10
 282.235
  20
 231.337
  30
0.0
  11
 271.618
  21
 231.669
  31
0.0
   0
LINE
   5
3D4
 100
AcDbEntity
   8
LEVEL026
 100
AcDbLine
   6
CONTINUOUS
  62
3
  10
 282.235
  20
 231.337
  30
0.0
  11
 278.618
  21
 232.306
  31
0.0
   0
LINE
   5
3D5
 100
AcDbEntity
   8
LEVEL026
 100
AcDbLine
   6
CONTINUOUS
  62
3
  10
 278.618
  20
 232.306
  30
0.0
  11
 271.618
  21
 232.525
  31
0.0
   0
LINE
   5
3D6
 100
AcDbEntity
   8
LEVEL026
 100
AcDbLine
   6
CONTINUOUS
  62
3
  10
 282.235
  20
 231.337
  30
0.0
  11
 295.618
  21
 231.337
  31
0.0
   0
LINE
   5
3D7
 100
AcDbEntity
   8
LEVEL026
 100
AcDbLine
   6
CONTINUOUS
  62
3
  10
 278.618
  20
 247.694
  30
0.0
  11
 278.618
  21
 232.306
  31
0.0
   0
LINE
   5
3D8
 100
AcDbEntity
   8
LEVEL026
 100
AcDbLine
   6
CONTINUOUS
  62
3
  10
 282.235
  20
 248.663
  30
0.0
  11
 282.235
  21
 231.337
  31
0.0
   0
LINE
   5
3D9
 100
AcDbEntity
   8
LEVEL026
 100
AcDbLine
   6
CONTINUOUS
  62
3
  10
 320.618
  20
 231.500
  30
0.0
  11
 295.618
  21
 231.500
  31
0.0
   0
LINE
   5
3DA
 100
AcDbEntity
   8
LEVEL026
 100
AcDbLine
   6
CONTINUOUS
  62
3
  10
 295.618
  20
 231.500
  30
0.0
  11
 295.618
  21
 264.500
  31
0.0
   0
LINE
   5
3DB
 100
AcDbEntity
   8
LEVEL026
 100
AcDbLine
   6
CONTINUOUS
  62
3
  10
 295.618
  20
 264.500
  30
0.0
  11
 296.618
  21
 265.500
  31
0.0
   0
LINE
   5
3DC
 100
AcDbEntity
   8
LEVEL026
 100
AcDbLine
   6
CONTINUOUS
  62
3
  10
 296.618
  20
 265.500
  30
0.0
  11
 319.618
  21
 265.500
  31
0.0
   0
LINE
   5
3DD
 100
AcDbEntity
   8
LEVEL026
 100
AcDbLine
   6
CONTINUOUS
  62
3
  10
 319.618
  20
 265.500
  30
0.0
  11
 320.618
  21
 264.500
  31
0.0
   0
LINE
   5
3DE
 100
AcDbEntity
   8
LEVEL026
 100
AcDbLine
   6
CONTINUOUS
  62
3
  10
 320.618
  20
 264.500
  30
0.0
  11
 320.618
  21
 231.500
  31
0.0
   0
LINE
   5
3DF
 100
AcDbEntity
   8
LEVEL026
 100
AcDbLine
   6
DASHDOT
  62
1
  10
 308.118
  20
 230.000
  30
0.0
  11
 308.118
  21
 265.500
  31
0.0
   0
LINE
   5
3E0
 100
AcDbEntity
   8
LEVEL013
 100
AcDbLine
   6
DASHDOT
  62
1
  10
 266.618
  20
 301.000
  30
0.0
  11
 266.618
  21
 289.000
  31
0.0
   0
ARC
   5
3E1
 100
AcDbEntity
   8
0
   6
CONTINUOUS
  62
3
 100
AcDbCircle
  10
 182.500
  20
 90.6233
  30
0.0
  40
 5.22330
 100
AcDbArc
  50
 270.000
  51
 293.865
   0
ARC
   5
3E2
 100
AcDbEntity
   8
0
   6
CONTINUOUS
  62
3
 100
AcDbCircle
  10
 192.500
  20
 90.6233
  30
0.0
  40
 5.22330
 100
AcDbArc
  50
 246.135
  51
 270.000
   0
ARC
   5
3E3
 100
AcDbEntity
   8
0
   6
CONTINUOUS
  62
3
 100
AcDbCircle
  10
 192.500
  20
 83.7767
  30
0.0
  40
 5.22330
 100
AcDbArc
  50
 90.0000
  51
 113.865
   0
ARC
   5
3E4
 100
AcDbEntity
   8
0
   6
CONTINUOUS
  62
3
 100
AcDbCircle
  10
 182.500
  20
 83.7767
  30
0.0
  40
 5.22330
 100
AcDbArc
  50
 66.1351
  51
 90.0000
   0
ARC
   5
3E5
 100
AcDbEntity
   8
0
   6
CONTINUOUS
  62
3
 100
AcDbCircle
  10
 187.500
  20
 94.9534
  30
0.0
  40
 9.55342
 100
AcDbArc
  50
 252.412
  51
 287.588
   0
ARC
   5
3E6
 100
AcDbEntity
   8
0
   6
CONTINUOUS
  62
3
 100
AcDbCircle
  10
 187.500
  20
 79.4466
  30
0.0
  40
 9.55342
 100
AcDbArc
  50
 72.4120
  51
 107.588
   0
LINE
   5
3E7
 100
AcDbEntity
   8
0
 100
AcDbLine
   6
CONTINUOUS
  62
3
  10
 184.613
  20
 85.8466
  30
0.0
  11
 184.613
  21
 88.5534
  31
0.0
   0
LINE
   5
3E8
 100
AcDbEntity
   8
0
 100
AcDbLine
   6
CONTINUOUS
  62
3
  10
 190.387
  20
 85.8466
  30
0.0
  11
 190.387
  21
 88.5534
  31
0.0
   0
LINE
   5
3E9
 100
AcDbEntity
   8
0
 100
AcDbLine
   6
CONTINUOUS
  62
3
  10
 192.500
  20
 85.4000
  30
0.0
  11
 193.274
  21
 85.8466
  31
0.0
   0
LINE
   5
3EA
 100
AcDbEntity
   8
0
 100
AcDbLine
   6
CONTINUOUS
  62
3
  10
 193.274
  20
 85.8466
  30
0.0
  11
 193.274
  21
 88.5534
  31
0.0
   0
LINE
   5
3EB
 100
AcDbEntity
   8
0
 100
AcDbLine
   6
CONTINUOUS
  62
3
  10
 193.274
  20
 88.5534
  30
0.0
  11
 192.500
  21
 89.0000
  31
0.0
   0
LINE
   5
3EC
 100
AcDbEntity
   8
0
 100
AcDbLine
   6
CONTINUOUS
  62
3
  10
 192.500
  20
 89.0000
  30
0.0
  11
 182.500
  21
 89.0000
  31
0.0
   0
LINE
   5
3ED
 100
AcDbEntity
   8
0
 100
AcDbLine
   6
CONTINUOUS
  62
3
  10
 182.500
  20
 89.0000
  30
0.0
  11
 181.726
  21
 88.5534
  31
0.0
   0
LINE
   5
3EE
 100
AcDbEntity
   8
0
 100
AcDbLine
   6
CONTINUOUS
  62
3
  10
 181.726
  20
 88.5534
  30
0.0
  11
 181.726
  21
 85.8466
  31
0.0
   0
LINE
   5
3EF
 100
AcDbEntity
   8
0
 100
AcDbLine
   6
CONTINUOUS
  62
3
  10
 181.726
  20
 85.8466
  30
0.0
  11
 182.500
  21
 85.4000
  31
0.0
   0
LINE
   5
3F0
 100
AcDbEntity
   8
0
 100
AcDbLine
   6
CONTINUOUS
  62
3
  10
 177.500
  20
 85.4000
  30
0.0
  11
 197.500
  21
 85.4000
  31
0.0
   0
LINE
   5
3F1
 100
AcDbEntity
   8
0
 100
AcDbLine
   6
CONTINUOUS
  62
3
  10
 177.500
  20
 75.4000
  30
0.0
  11
 197.500
  21
 75.4000
  31
0.0
   0
LINE
   5
3F2
 100
AcDbEntity
   8
0
 100
AcDbLine
   6
CONTINUOUS
  62
3
  10
 177.500
  20
 85.4000
  30
0.0
  11
 177.500
  21
 75.4000
  31
0.0
   0
LINE
   5
3F3
 100
AcDbEntity
   8
0
 100
AcDbLine
   6
CONTINUOUS
  62
3
  10
 197.500
  20
 85.4000
  30
0.0
  11
 197.500
  21
 75.4000
  31
0.0
   0
LINE
   5
3F4
 100
AcDbEntity
   8
0
 100
AcDbLine
   6
CONTINUOUS
  62
3
  10
 184.500
  20
 89.0000
  30
0.0
  11
 184.500
  21
 90.0000
  31
0.0
   0
LINE
   5
3F5
 100
AcDbEntity
   8
0
 100
AcDbLine
   6
CONTINUOUS
  62
3
  10
 190.500
  20
 89.0000
  30
0.0
  11
 190.500
  21
 90.0000
  31
0.0
   0
ARC
   5
3F6
 100
AcDbEntity
   8
0
   6
CONTINUOUS
  62
3
 100
AcDbCircle
  10
 317.500
  20
 90.6233
  30
0.0
  40
 5.22330
 100
AcDbArc
  50
 270.000
  51
 293.865
   0
ARC
   5
3F7
 100
AcDbEntity
   8
0
   6
CONTINUOUS
  62
3
 100
AcDbCircle
  10
 327.500
  20
 90.6233
  30
0.0
  40
 5.22330
 100
AcDbArc
  50
 246.135
  51
 270.000
   0
ARC
   5
3F8
 100
AcDbEntity
   8
0
   6
CONTINUOUS
  62
3
 100
AcDbCircle
  10
 327.500
  20
 83.7767
  30
0.0
  40
 5.22330
 100
AcDbArc
  50
 90.0000
  51
 113.865
   0
ARC
   5
3F9
 100
AcDbEntity
   8
0
   6
CONTINUOUS
  62
3
 100
AcDbCircle
  10
 317.500
  20
 83.7767
  30
0.0
  40
 5.22330
 100
AcDbArc
  50
 66.1351
  51
 90.0000
   0
ARC
   5
3FA
 100
AcDbEntity
   8
0
   6
CONTINUOUS
  62
3
 100
AcDbCircle
  10
 322.500
  20
 94.9534
  30
0.0
  40
 9.55342
 100
AcDbArc
  50
 252.412
  51
 287.588
   0
ARC
   5
3FB
 100
AcDbEntity
   8
0
   6
CONTINUOUS
  62
3
 100
AcDbCircle
  10
 322.500
  20
 79.4466
  30
0.0
  40
 9.55342
 100
AcDbArc
  50
 72.4120
  51
 107.588
   0
LINE
   5
3FC
 100
AcDbEntity
   8
0
 100
AcDbLine
   6
CONTINUOUS
  62
3
  10
 319.613
  20
 85.8466
  30
0.0
  11
 319.613
  21
 88.5534
  31
0.0
   0
LINE
   5
3FD
 100
AcDbEntity
   8
0
 100
AcDbLine
   6
CONTINUOUS
  62
3
  10
 325.387
  20
 85.8466
  30
0.0
  11
 325.387
  21
 88.5534
  31
0.0
   0
LINE
   5
3FE
 100
AcDbEntity
   8
0
 100
AcDbLine
   6
CONTINUOUS
  62
3
  10
 327.500
  20
 85.4000
  30
0.0
  11
 328.274
  21
 85.8466
  31
0.0
   0
LINE
   5
3FF
 100
AcDbEntity
   8
0
 100
AcDbLine
   6
CONTINUOUS
  62
3
  10
 328.274
  20
 85.8466
  30
0.0
  11
 328.274
  21
 88.5534
  31
0.0
   0
LINE
   5
400
 100
AcDbEntity
   8
0
 100
AcDbLine
   6
CONTINUOUS
  62
3
  10
 328.274
  20
 88.5534
  30
0.0
  11
 327.500
  21
 89.0000
  31
0.0
   0
LINE
   5
401
 100
AcDbEntity
   8
0
 100
AcDbLine
   6
CONTINUOUS
  62
3
  10
 327.500
  20
 89.0000
  30
0.0
  11
 317.500
  21
 89.0000
  31
0.0
   0
LINE
   5
402
 100
AcDbEntity
   8
0
 100
AcDbLine
   6
CONTINUOUS
  62
3
  10
 317.500
  20
 89.0000
  30
0.0
  11
 316.726
  21
 88.5534
  31
0.0
   0
LINE
   5
403
 100
AcDbEntity
   8
0
 100
AcDbLine
   6
CONTINUOUS
  62
3
  10
 316.726
  20
 88.5534
  30
0.0
  11
 316.726
  21
 85.8466
  31
0.0
   0
LINE
   5
404
 100
AcDbEntity
   8
0
 100
AcDbLine
   6
CONTINUOUS
  62
3
  10
 316.726
  20
 85.8466
  30
0.0
  11
 317.500
  21
 85.4000
  31
0.0
   0
LINE
   5
405
 100
AcDbEntity
   8
0
 100
AcDbLine
   6
CONTINUOUS
  62
3
  10
 312.500
  20
 85.4000
  30
0.0
  11
 332.500
  21
 85.4000
  31
0.0
   0
LINE
   5
406
 100
AcDbEntity
   8
0
 100
AcDbLine
   6
CONTINUOUS
  62
3
  10
 312.500
  20
 75.4000
  30
0.0
  11
 332.500
  21
 75.4000
  31
0.0
   0
LINE
   5
407
 100
AcDbEntity
   8
0
 100
AcDbLine
   6
CONTINUOUS
  62
3
  10
 312.500
  20
 85.4000
  30
0.0
  11
 312.500
  21
 75.4000
  31
0.0
   0
LINE
   5
408
 100
AcDbEntity
   8
0
 100
AcDbLine
   6
CONTINUOUS
  62
3
  10
 332.500
  20
 85.4000
  30
0.0
  11
 332.500
  21
 75.4000
  31
0.0
   0
LINE
   5
409
 100
AcDbEntity
   8
0
 100
AcDbLine
   6
CONTINUOUS
  62
3
  10
 319.500
  20
 89.0000
  30
0.0
  11
 319.500
  21
 90.0000
  31
0.0
   0
LINE
   5
40A
 100
AcDbEntity
   8
0
 100
AcDbLine
   6
CONTINUOUS
  62
3
  10
 325.500
  20
 89.0000
  30
0.0
  11
 325.500
  21
 90.0000
  31
0.0
   0
ARC
   5
40B
 100
AcDbEntity
   8
0
   6
CONTINUOUS
  62
3
 100
AcDbCircle
  10
 527.500
  20
 90.6233
  30
0.0
  40
 5.22330
 100
AcDbArc
  50
 270.000
  51
 293.865
   0
ARC
   5
40C
 100
AcDbEntity
   8
0
   6
CONTINUOUS
  62
3
 100
AcDbCircle
  10
 537.500
  20
 90.6233
  30
0.0
  40
 5.22330
 100
AcDbArc
  50
 246.135
  51
 270.000
   0
ARC
   5
40D
 100
AcDbEntity
   8
0
   6
CONTINUOUS
  62
3
 100
AcDbCircle
  10
 537.500
  20
 83.7767
  30
0.0
  40
 5.22330
 100
AcDbArc
  50
 90.0000
  51
 113.865
   0
ARC
   5
40E
 100
AcDbEntity
   8
0
   6
CONTINUOUS
  62
3
 100
AcDbCircle
  10
 527.500
  20
 83.7767
  30
0.0
  40
 5.22330
 100
AcDbArc
  50
 66.1351
  51
 90.0000
   0
ARC
   5
40F
 100
AcDbEntity
   8
0
   6
CONTINUOUS
  62
3
 100
AcDbCircle
  10
 532.500
  20
 94.9534
  30
0.0
  40
 9.55342
 100
AcDbArc
  50
 252.412
  51
 287.588
   0
ARC
   5
410
 100
AcDbEntity
   8
0
   6
CONTINUOUS
  62
3
 100
AcDbCircle
  10
 532.500
  20
 79.4466
  30
0.0
  40
 9.55342
 100
AcDbArc
  50
 72.4120
  51
 107.588
   0
LINE
   5
411
 100
AcDbEntity
   8
0
 100
AcDbLine
   6
CONTINUOUS
  62
3
  10
 529.613
  20
 85.8466
  30
0.0
  11
 529.613
  21
 88.5534
  31
0.0
   0
LINE
   5
412
 100
AcDbEntity
   8
0
 100
AcDbLine
   6
CONTINUOUS
  62
3
  10
 535.387
  20
 85.8466
  30
0.0
  11
 535.387
  21
 88.5534
  31
0.0
   0
LINE
   5
413
 100
AcDbEntity
   8
0
 100
AcDbLine
   6
CONTINUOUS
  62
3
  10
 537.500
  20
 85.4000
  30
0.0
  11
 538.274
  21
 85.8466
  31
0.0
   0
LINE
   5
414
 100
AcDbEntity
   8
0
 100
AcDbLine
   6
CONTINUOUS
  62
3
  10
 538.274
  20
 85.8466
  30
0.0
  11
 538.274
  21
 88.5534
  31
0.0
   0
LINE
   5
415
 100
AcDbEntity
   8
0
 100
AcDbLine
   6
CONTINUOUS
  62
3
  10
 538.274
  20
 88.5534
  30
0.0
  11
 537.500
  21
 89.0000
  31
0.0
   0
LINE
   5
416
 100
AcDbEntity
   8
0
 100
AcDbLine
   6
CONTINUOUS
  62
3
  10
 537.500
  20
 89.0000
  30
0.0
  11
 527.500
  21
 89.0000
  31
0.0
   0
LINE
   5
417
 100
AcDbEntity
   8
0
 100
AcDbLine
   6
CONTINUOUS
  62
3
  10
 527.500
  20
 89.0000
  30
0.0
  11
 526.726
  21
 88.5534
  31
0.0
   0
LINE
   5
418
 100
AcDbEntity
   8
0
 100
AcDbLine
   6
CONTINUOUS
  62
3
  10
 526.726
  20
 88.5534
  30
0.0
  11
 526.726
  21
 85.8466
  31
0.0
   0
LINE
   5
419
 100
AcDbEntity
   8
0
 100
AcDbLine
   6
CONTINUOUS
  62
3
  10
 526.726
  20
 85.8466
  30
0.0
  11
 527.500
  21
 85.4000
  31
0.0
   0
LINE
   5
41A
 100
AcDbEntity
   8
0
 100
AcDbLine
   6
CONTINUOUS
  62
3
  10
 522.500
  20
 85.4000
  30
0.0
  11
 542.500
  21
 85.4000
  31
0.0
   0
LINE
   5
41B
 100
AcDbEntity
   8
0
 100
AcDbLine
   6
CONTINUOUS
  62
3
  10
 522.500
  20
 75.4000
  30
0.0
  11
 542.500
  21
 75.4000
  31
0.0
   0
LINE
   5
41C
 100
AcDbEntity
   8
0
 100
AcDbLine
   6
CONTINUOUS
  62
3
  10
 522.500
  20
 85.4000
  30
0.0
  11
 522.500
  21
 75.4000
  31
0.0
   0
LINE
   5
41D
 100
AcDbEntity
   8
0
 100
AcDbLine
   6
CONTINUOUS
  62
3
  10
 542.500
  20
 85.4000
  30
0.0
  11
 542.500
  21
 75.4000
  31
0.0
   0
LINE
   5
41E
 100
AcDbEntity
   8
0
 100
AcDbLine
   6
CONTINUOUS
  62
3
  10
 529.500
  20
 89.0000
  30
0.0
  11
 529.500
  21
 90.0000
  31
0.0
   0
LINE
   5
41F
 100
AcDbEntity
   8
0
 100
AcDbLine
   6
CONTINUOUS
  62
3
  10
 535.500
  20
 89.0000
  30
0.0
  11
 535.500
  21
 90.0000
  31
0.0
   0
ARC
   5
420
 100
AcDbEntity
   8
0
   6
CONTINUOUS
  62
3
 100
AcDbCircle
  10
 722.500
  20
 90.6233
  30
0.0
  40
 5.22330
 100
AcDbArc
  50
 270.000
  51
 293.865
   0
ARC
   5
421
 100
AcDbEntity
   8
0
   6
CONTINUOUS
  62
3
 100
AcDbCircle
  10
 732.500
  20
 90.6233
  30
0.0
  40
 5.22330
 100
AcDbArc
  50
 246.135
  51
 270.000
   0
ARC
   5
422
 100
AcDbEntity
   8
0
   6
CONTINUOUS
  62
3
 100
AcDbCircle
  10
 732.500
  20
 83.7767
  30
0.0
  40
 5.22330
 100
AcDbArc
  50
 90.0000
  51
 113.865
   0
ARC
   5
423
 100
AcDbEntity
   8
0
   6
CONTINUOUS
  62
3
 100
AcDbCircle
  10
 722.500
  20
 83.7767
  30
0.0
  40
 5.22330
 100
AcDbArc
  50
 66.1351
  51
 90.0000
   0
ARC
   5
424
 100
AcDbEntity
   8
0
   6
CONTINUOUS
  62
3
 100
AcDbCircle
  10
 727.500
  20
 94.9534
  30
0.0
  40
 9.55342
 100
AcDbArc
  50
 252.412
  51
 287.588
   0
ARC
   5
425
 100
AcDbEntity
   8
0
   6
CONTINUOUS
  62
3
 100
AcDbCircle
  10
 727.500
  20
 79.4466
  30
0.0
  40
 9.55342
 100
AcDbArc
  50
 72.4120
  51
 107.588
   0
LINE
   5
426
 100
AcDbEntity
   8
0
 100
AcDbLine
   6
CONTINUOUS
  62
3
  10
 724.613
  20
 85.8466
  30
0.0
  11
 724.613
  21
 88.5534
  31
0.0
   0
LINE
   5
427
 100
AcDbEntity
   8
0
 100
AcDbLine
   6
CONTINUOUS
  62
3
  10
 730.387
  20
 85.8466
  30
0.0
  11
 730.387
  21
 88.5534
  31
0.0
   0
LINE
   5
428
 100
AcDbEntity
   8
0
 100
AcDbLine
   6
CONTINUOUS
  62
3
  10
 732.500
  20
 85.4000
  30
0.0
  11
 733.274
  21
 85.8466
  31
0.0
   0
LINE
   5
429
 100
AcDbEntity
   8
0
 100
AcDbLine
   6
CONTINUOUS
  62
3
  10
 733.274
  20
 85.8466
  30
0.0
  11
 733.274
  21
 88.5534
  31
0.0
   0
LINE
   5
42A
 100
AcDbEntity
   8
0
 100
AcDbLine
   6
CONTINUOUS
  62
3
  10
 733.274
  20
 88.5534
  30
0.0
  11
 732.500
  21
 89.0000
  31
0.0
   0
LINE
   5
42B
 100
AcDbEntity
   8
0
 100
AcDbLine
   6
CONTINUOUS
  62
3
  10
 732.500
  20
 89.0000
  30
0.0
  11
 722.500
  21
 89.0000
  31
0.0
   0
LINE
   5
42C
 100
AcDbEntity
   8
0
 100
AcDbLine
   6
CONTINUOUS
  62
3
  10
 722.500
  20
 89.0000
  30
0.0
  11
 721.726
  21
 88.5534
  31
0.0
   0
LINE
   5
42D
 100
AcDbEntity
   8
0
 100
AcDbLine
   6
CONTINUOUS
  62
3
  10
 721.726
  20
 88.5534
  30
0.0
  11
 721.726
  21
 85.8466
  31
0.0
   0
LINE
   5
42E
 100
AcDbEntity
   8
0
 100
AcDbLine
   6
CONTINUOUS
  62
3
  10
 721.726
  20
 85.8466
  30
0.0
  11
 722.500
  21
 85.4000
  31
0.0
   0
LINE
   5
42F
 100
AcDbEntity
   8
0
 100
AcDbLine
   6
CONTINUOUS
  62
3
  10
 717.500
  20
 85.4000
  30
0.0
  11
 737.500
  21
 85.4000
  31
0.0
   0
LINE
   5
430
 100
AcDbEntity
   8
0
 100
AcDbLine
   6
CONTINUOUS
  62
3
  10
 717.500
  20
 75.4000
  30
0.0
  11
 737.500
  21
 75.4000
  31
0.0
   0
LINE
   5
431
 100
AcDbEntity
   8
0
 100
AcDbLine
   6
CONTINUOUS
  62
3
  10
 717.500
  20
 85.4000
  30
0.0
  11
 717.500
  21
 75.4000
  31
0.0
   0
LINE
   5
432
 100
AcDbEntity
   8
0
 100
AcDbLine
   6
CONTINUOUS
  62
3
  10
 737.500
  20
 85.4000
  30
0.0
  11
 737.500
  21
 75.4000
  31
0.0
   0
LINE
   5
433
 100
AcDbEntity
   8
0
 100
AcDbLine
   6
CONTINUOUS
  62
3
  10
 724.500
  20
 89.0000
  30
0.0
  11
 724.500
  21
 90.0000
  31
0.0
   0
LINE
   5
434
 100
AcDbEntity
   8
0
 100
AcDbLine
   6
CONTINUOUS
  62
3
  10
 730.500
  20
 89.0000
  30
0.0
  11
 730.500
  21
 90.0000
  31
0.0
   0
DIMENSION
   5
435
 100
AcDbEntity
   8
LEVEL003
   6
CONTINUOUS
  62
3
 100
AcDbDimension
   2
*D7
  10
 522.500
  20
 45.0000
  30
0.0
  11
 630.000
  21
 45.0000
  31
0.0
  70
0
   1
\A1;215
   3
GMM005
 100
AcDbAlignedDimension
  13
 737.500
  23
 75.4000
  33
0.0
  14
 522.500
  24
 75.4000
  34
0.0
  50
 180.000
 100
AcDbRotatedDimension
   0
DIMENSION
   5
437
 100
AcDbEntity
   8
LEVEL003
   6
CONTINUOUS
  62
3
 100
AcDbDimension
   2
*D8
  10
 332.500
  20
 45.0000
  30
0.0
  11
 255.000
  21
 45.0000
  31
0.0
  70
0
   1
\A1;155
   3
GMM001
 100
AcDbAlignedDimension
  13
 177.500
  23
 75.4000
  33
0.0
  14
 332.500
  24
 75.4000
  34
0.0
 100
AcDbRotatedDimension
   0
LINE
   5
439
 100
AcDbEntity
   8
LEVEL026
 100
AcDbLine
   6
DASHDOT
  62
1
  10
 247.618
  20
 493.310
  30
0.0
  11
 247.618
  21
 524.247
  31
0.0
   0
LINE
   5
43A
 100
AcDbEntity
   8
LEVEL026
 100
AcDbLine
   6
DOT
  62
3
  10
 239.287
  20
 496.310
  30
0.0
  11
 240.171
  21
 497.194
  31
0.0
   0
LINE
   5
43B
 100
AcDbEntity
   8
LEVEL026
 100
AcDbLine
   6
DOT
  62
3
  10
 240.800
  20
 517.310
  30
0.0
  11
 239.831
  21
 513.694
  31
0.0
   0
LINE
   5
43C
 100
AcDbEntity
   8
LEVEL026
 100
AcDbLine
   6
DOT
  62
3
  10
 239.831
  20
 513.694
  30
0.0
  11
 239.287
  21
 496.310
  31
0.0
   0
LINE
   5
43D
 100
AcDbEntity
   8
LEVEL026
 100
AcDbLine
   6
DOT
  62
3
  10
 255.949
  20
 496.310
  30
0.0
  11
 255.066
  21
 497.194
  31
0.0
   0
LINE
   5
43E
 100
AcDbEntity
   8
LEVEL026
 100
AcDbLine
   6
DOT
  62
3
  10
 255.949
  20
 496.310
  30
0.0
  11
 255.406
  21
 513.694
  31
0.0
   0
LINE
   5
43F
 100
AcDbEntity
   8
LEVEL026
 100
AcDbLine
   6
DOT
  62
3
  10
 255.406
  20
 513.694
  30
0.0
  11
 254.437
  21
 517.310
  31
0.0
   0
LINE
   5
440
 100
AcDbEntity
   8
LEVEL026
 100
AcDbLine
   6
DOT
  62
3
  10
 239.831
  20
 513.694
  30
0.0
  11
 255.406
  21
 513.694
  31
0.0
   0
LINE
   5
441
 100
AcDbEntity
   8
LEVEL026
 100
AcDbLine
   6
DOT
  62
3
  10
 254.437
  20
 517.310
  30
0.0
  11
 247.618
  21
 521.247
  31
0.0
   0
LINE
   5
442
 100
AcDbEntity
   8
LEVEL026
 100
AcDbLine
   6
DOT
  62
3
  10
 247.618
  20
 521.247
  30
0.0
  11
 240.800
  21
 517.310
  31
0.0
   0
LINE
   5
443
 100
AcDbEntity
   8
LEVEL026
 100
AcDbLine
   6
DOT
  62
3
  10
 240.171
  20
 497.194
  30
0.0
  11
 255.066
  21
 497.194
  31
0.0
   0
LINE
   5
444
 100
AcDbEntity
   8
LEVEL026
 100
AcDbLine
   6
DOT
  62
3
  10
 255.066
  20
 497.194
  30
0.0
  11
 254.437
  21
 517.310
  31
0.0
   0
LINE
   5
445
 100
AcDbEntity
   8
LEVEL026
 100
AcDbLine
   6
DOT
  62
3
  10
 254.437
  20
 517.310
  30
0.0
  11
 240.800
  21
 517.310
  31
0.0
   0
LINE
   5
446
 100
AcDbEntity
   8
LEVEL026
 100
AcDbLine
   6
DOT
  62
3
  10
 240.800
  20
 517.310
  30
0.0
  11
 240.171
  21
 497.194
  31
0.0
   0
ARC
   5
447
 100
AcDbEntity
   8
LEVEL013
   6
CONTINUOUS
  62
3
 100
AcDbCircle
  10
 528.725
  20
 318.592
  30
0.0
  40
 3.00000
 100
AcDbArc
  50
 8.53108
  51
 89.9986
   0
ARC
   5
448
 100
AcDbEntity
   8
LEVEL013
   6
CONTINUOUS
  62
3
 100
AcDbCircle
  10
 523.453
  20
 330.817
  30
0.0
  40
 2.00000
 100
AcDbArc
  50
 98.8840
  51
 180.000
   0
ARC
   5
449
 100
AcDbEntity
   8
LEVEL013
   6
CONTINUOUS
  62
3
 100
AcDbCircle
  10
 546.309
  20
 184.593
  30
0.0
  40
 150.000
 100
AcDbArc
  50
 96.6196
  51
 98.8839
   0
ARC
   5
44A
 100
AcDbEntity
   8
LEVEL013
   6
CONTINUOUS
  62
3
 100
AcDbCircle
  10
 522.453
  20
 322.592
  30
0.0
  40
 1.00000
 100
AcDbArc
  50
 180.000
  51
 270.000
   0
ARC
   5
44B
 100
AcDbEntity
   8
LEVEL013
   6
CONTINUOUS
  62
3
 100
AcDbCircle
  10
 533.836
  20
 322.592
  30
0.0
  40
 1.00000
 100
AcDbArc
  50
 180.000
  51
 270.000
   0
ARC
   5
44C
 100
AcDbEntity
   8
LEVEL013
   6
CONTINUOUS
  62
3
 100
AcDbCircle
  10
 534.836
  20
 330.793
  30
0.0
  40
 2.00000
 100
AcDbArc
  50
 90.0000
  51
 180.000
   0
ARC
   5
44D
 100
AcDbEntity
   8
LEVEL013
   6
CONTINUOUS
  62
3
 100
AcDbCircle
  10
 531.836
  20
 322.592
  30
0.0
  40
 1.00000
 100
AcDbArc
  50
 270.000
  51
0.0
   0
ARC
   5
44E
 100
AcDbEntity
   8
LEVEL013
   6
CONTINUOUS
  62
3
 100
AcDbCircle
  10
 530.836
  20
 330.793
  30
0.0
  40
 2.00000
 100
AcDbArc
  50
 0.162844E-11
  51
 90.0000
   0
ARC
   5
44F
 100
AcDbEntity
   8
LEVEL013
   6
CONTINUOUS
  62
3
 100
AcDbCircle
  10
 534.531
  20
 313.592
  30
0.0
  40
 2.00000
 100
AcDbArc
  50
 188.531
  51
 270.001
   0
LINE
   5
450
 100
AcDbEntity
   8
LEVEL013
 100
AcDbLine
   6
CONTINUOUS
  62
3
  10
 522.453
  20
 321.592
  30
0.0
  11
 546.310
  21
 321.592
  31
0.0
   0
LINE
   5
451
 100
AcDbEntity
   8
LEVEL013
 100
AcDbLine
   6
CONTINUOUS
  62
3
  10
 542.810
  20
 333.592
  30
0.0
  11
 534.639
  21
 332.783
  31
0.0
   0
LINE
   5
452
 100
AcDbEntity
   8
LEVEL013
 100
AcDbLine
   6
CONTINUOUS
  62
3
  10
 532.836
  20
 322.592
  30
0.0
  11
 532.836
  21
 330.793
  31
0.0
   0
LINE
   5
453
 100
AcDbEntity
   8
LEVEL013
 100
AcDbLine
   6
CONTINUOUS
  62
3
  10
 530.836
  20
 332.793
  30
0.0
  11
 525.335
  21
 332.793
  31
0.0
   0
LINE
   5
454
 100
AcDbEntity
   8
LEVEL013
 100
AcDbLine
   6
CONTINUOUS
  62
3
  10
 532.553
  20
 313.296
  30
0.0
  11
 531.692
  21
 319.038
  31
0.0
   0
LINE
   5
455
 100
AcDbEntity
   8
LEVEL013
 100
AcDbLine
   6
CONTINUOUS
  62
3
  10
 534.531
  20
 311.592
  30
0.0
  11
 546.310
  21
 311.592
  31
0.0
   0
LINE
   5
456
 100
AcDbEntity
   8
LEVEL013
 100
AcDbLine
   6
CONTINUOUS
  62
3
  10
 521.453
  20
 322.592
  30
0.0
  11
 521.453
  21
 330.817
  31
0.0
   0
ARC
   5
457
 100
AcDbEntity
   8
LEVEL013
   6
CONTINUOUS
  62
3
 100
AcDbCircle
  10
 563.892
  20
 318.592
  30
0.0
  40
 3.00000
 100
AcDbArc
  50
 89.9990
  51
 171.469
   0
ARC
   5
458
 100
AcDbEntity
   8
LEVEL013
   6
CONTINUOUS
  62
3
 100
AcDbCircle
  10
 546.309
  20
 184.592
  30
0.0
  40
 150.000
 100
AcDbArc
  50
 81.1161
  51
 83.3804
   0
ARC
   5
459
 100
AcDbEntity
   8
LEVEL013
   6
CONTINUOUS
  62
3
 100
AcDbCircle
  10
 558.784
  20
 322.592
  30
0.0
  40
 1.00000
 100
AcDbArc
  50
 270.000
  51
 0.111386E-8
   0
ARC
   5
45A
 100
AcDbEntity
   8
LEVEL013
   6
CONTINUOUS
  62
3
 100
AcDbCircle
  10
 557.784
  20
 330.793
  30
0.0
  40
 2.00000
 100
AcDbArc
  50
0.0
  51
 90.0000
   0
ARC
   5
45B
 100
AcDbEntity
   8
LEVEL013
   6
CONTINUOUS
  62
3
 100
AcDbCircle
  10
 560.784
  20
 322.592
  30
0.0
  40
 1.00000
 100
AcDbArc
  50
 180.000
  51
 270.000
   0
ARC
   5
45C
 100
AcDbEntity
   8
LEVEL013
   6
CONTINUOUS
  62
3
 100
AcDbCircle
  10
 561.784
  20
 330.793
  30
0.0
  40
 2.00000
 100
AcDbArc
  50
 90.0000
  51
 180.000
   0
ARC
   5
45D
 100
AcDbEntity
   8
LEVEL013
   6
CONTINUOUS
  62
3
 100
AcDbCircle
  10
 558.086
  20
 313.592
  30
0.0
  40
 2.00000
 100
AcDbArc
  50
 270.001
  51
 351.469
   0
ARC
   5
45E
 100
AcDbEntity
   8
LEVEL013
   6
CONTINUOUS
  62
3
 100
AcDbCircle
  10
 546.310
  20
 184.592
  30
0.0
  40
 150.000
 100
AcDbArc
  50
 80.9510
  51
 99.0490
   0
LINE
   5
45F
 100
AcDbEntity
   8
LEVEL013
 100
AcDbLine
   6
CONTINUOUS
  62
3
  10
 546.310
  20
 321.592
  30
0.0
  11
 570.165
  21
 321.592
  31
0.0
   0
LINE
   5
460
 100
AcDbEntity
   8
LEVEL013
 100
AcDbLine
   6
CONTINUOUS
  62
3
  10
 549.810
  20
 333.592
  30
0.0
  11
 557.981
  21
 332.783
  31
0.0
   0
LINE
   5
461
 100
AcDbEntity
   8
LEVEL013
 100
AcDbLine
   6
CONTINUOUS
  62
3
  10
 559.784
  20
 322.592
  30
0.0
  11
 559.784
  21
 330.793
  31
0.0
   0
LINE
   5
462
 100
AcDbEntity
   8
LEVEL013
 100
AcDbLine
   6
CONTINUOUS
  62
3
  10
 561.784
  20
 332.793
  30
0.0
  11
 567.285
  21
 332.793
  31
0.0
   0
LINE
   5
463
 100
AcDbEntity
   8
LEVEL013
 100
AcDbLine
   6
CONTINUOUS
  62
3
  10
 549.810
  20
 322.592
  30
0.0
  11
 549.810
  21
 330.793
  31
0.0
   0
LINE
   5
464
 100
AcDbEntity
   8
LEVEL013
 100
AcDbLine
   6
CONTINUOUS
  62
3
  10
 560.064
  20
 313.296
  30
0.0
  11
 560.925
  21
 319.038
  31
0.0
   0
LINE
   5
465
 100
AcDbEntity
   8
LEVEL013
 100
AcDbLine
   6
CONTINUOUS
  62
3
  10
 546.310
  20
 311.592
  30
0.0
  11
 558.086
  21
 311.592
  31
0.0
   0
LINE
   5
466
 100
AcDbEntity
   8
LEVEL013
 100
AcDbLine
   6
CONTINUOUS
  62
3
  10
 529.017
  20
 333.592
  30
0.0
  11
 563.600
  21
 333.592
  31
0.0
   0
LINE
   5
467
 100
AcDbEntity
   8
LEVEL013
 100
AcDbLine
   6
CONTINUOUS
  62
3
  10
 542.810
  20
 322.592
  30
0.0
  11
 542.810
  21
 330.793
  31
0.0
   0
ARC
   5
468
 100
AcDbEntity
   8
LEVEL013
   6
CONTINUOUS
  62
3
 100
AcDbCircle
  10
 570.165
  20
 322.592
  30
0.0
  40
 1.00000
 100
AcDbArc
  50
 270.000
  51
 0.204533E-8
   0
ARC
   5
469
 100
AcDbEntity
   8
LEVEL013
   6
CONTINUOUS
  62
3
 100
AcDbCircle
  10
 569.165
  20
 330.817
  30
0.0
  40
 2.00000
 100
AcDbArc
  50
 0.146560E-10
  51
 81.1169
   0
LINE
   5
46A
 100
AcDbEntity
   8
LEVEL013
 100
AcDbLine
   6
CONTINUOUS
  62
3
  10
 571.165
  20
 322.592
  30
0.0
  11
 571.165
  21
 330.817
  31
0.0
   0
ARC
   5
46B
 100
AcDbEntity
   8
LEVEL013
   6
CONTINUOUS
  62
3
 100
AcDbCircle
  10
 557.810
  20
 290.986
  30
0.0
  40
 12.0136
 100
AcDbArc
  50
 90.0000
  51
 113.865
   0
LINE
   5
46C
 100
AcDbEntity
   8
LEVEL013
 100
AcDbLine
   6
DOT
  62
3
  10
 559.867
  20
 298.000
  30
0.0
  11
 559.867
  21
 295.000
  31
0.0
   0
LINE
   5
46D
 100
AcDbEntity
   8
LEVEL013
 100
AcDbLine
   6
CONTINUOUS
  62
3
  10
 552.950
  20
 292.000
  30
0.0
  11
 552.950
  21
 301.973
  31
0.0
   0
LINE
   5
46E
 100
AcDbEntity
   8
LEVEL013
 100
AcDbLine
   6
CONTINUOUS
  62
3
  10
 552.659
  20
 311.592
  30
0.0
  11
 552.659
  21
 303.000
  31
0.0
   0
LINE
   5
46F
 100
AcDbEntity
   8
LEVEL013
 100
AcDbLine
   6
DOT
  62
3
  10
 562.753
  20
 298.000
  30
0.0
  11
 562.753
  21
 295.000
  31
0.0
   0
LINE
   5
470
 100
AcDbEntity
   8
LEVEL013
 100
AcDbLine
   6
CONTINUOUS
  62
3
  10
 556.310
  20
 292.000
  30
0.0
  11
 566.310
  21
 292.000
  31
0.0
   0
LINE
   5
471
 100
AcDbEntity
   8
LEVEL013
 100
AcDbLine
   6
CONTINUOUS
  62
3
  10
 566.310
  20
 292.000
  30
0.0
  11
 566.310
  21
 297.700
  31
0.0
   0
LINE
   5
472
 100
AcDbEntity
   8
LEVEL013
 100
AcDbLine
   6
CONTINUOUS
  62
3
  10
 566.310
  20
 297.700
  30
0.0
  11
 565.790
  21
 298.000
  31
0.0
   0
LINE
   5
473
 100
AcDbEntity
   8
LEVEL013
 100
AcDbLine
   6
CONTINUOUS
  62
3
  10
 565.790
  20
 298.000
  30
0.0
  11
 556.830
  21
 298.000
  31
0.0
   0
LINE
   5
474
 100
AcDbEntity
   8
LEVEL013
 100
AcDbLine
   6
CONTINUOUS
  62
3
  10
 556.830
  20
 298.000
  30
0.0
  11
 556.310
  21
 297.700
  31
0.0
   0
LINE
   5
475
 100
AcDbEntity
   8
LEVEL013
 100
AcDbLine
   6
CONTINUOUS
  62
3
  10
 556.310
  20
 297.700
  30
0.0
  11
 556.310
  21
 292.000
  31
0.0
   0
LINE
   5
476
 100
AcDbEntity
   8
LEVEL013
 100
AcDbLine
   6
CONTINUOUS
  62
3
  10
 556.310
  20
 297.700
  30
0.0
  11
 566.310
  21
 297.700
  31
0.0
   0
LINE
   5
477
 100
AcDbEntity
   8
LEVEL013
 100
AcDbLine
   6
DOT
  62
3
  10
 558.423
  20
 298.000
  30
0.0
  11
 558.423
  21
 295.000
  31
0.0
   0
LINE
   5
478
 100
AcDbEntity
   8
LEVEL013
 100
AcDbLine
   6
DOT
  62
3
  10
 558.423
  20
 295.000
  30
0.0
  11
 561.310
  21
 293.333
  31
0.0
   0
LINE
   5
479
 100
AcDbEntity
   8
LEVEL013
 100
AcDbLine
   6
DOT
  62
3
  10
 561.310
  20
 293.333
  30
0.0
  11
 564.197
  21
 295.000
  31
0.0
   0
LINE
   5
47A
 100
AcDbEntity
   8
LEVEL013
 100
AcDbLine
   6
DOT
  62
3
  10
 564.197
  20
 295.000
  30
0.0
  11
 564.197
  21
 298.000
  31
0.0
   0
LINE
   5
47B
 100
AcDbEntity
   8
LEVEL013
 100
AcDbLine
   6
DOT
  62
3
  10
 558.423
  20
 295.000
  30
0.0
  11
 564.197
  21
 295.000
  31
0.0
   0
ARC
   5
47C
 100
AcDbEntity
   8
LEVEL013
   6
CONTINUOUS
  62
3
 100
AcDbCircle
  10
 534.810
  20
 290.986
  30
0.0
  40
 12.0136
 100
AcDbArc
  50
 66.1351
  51
 90.0000
   0
ARC
   5
47D
 100
AcDbEntity
   8
LEVEL013
   6
CONTINUOUS
  62
3
 100
AcDbCircle
  10
 546.310
  20
 281.027
  30
0.0
  40
 21.9729
 100
AcDbArc
  50
 72.4120
  51
 107.588
   0
LINE
   5
47E
 100
AcDbEntity
   8
LEVEL013
 100
AcDbLine
   6
DOT
  62
3
  10
 532.753
  20
 298.000
  30
0.0
  11
 532.753
  21
 295.000
  31
0.0
   0
LINE
   5
47F
 100
AcDbEntity
   8
LEVEL013
 100
AcDbLine
   6
CONTINUOUS
  62
3
  10
 539.670
  20
 292.000
  30
0.0
  11
 539.670
  21
 301.973
  31
0.0
   0
LINE
   5
480
 100
AcDbEntity
   8
LEVEL013
 100
AcDbLine
   6
CONTINUOUS
  62
3
  10
 539.959
  20
 311.592
  30
0.0
  11
 539.959
  21
 303.000
  31
0.0
   0
LINE
   5
481
 100
AcDbEntity
   8
LEVEL013
 100
AcDbLine
   6
CONTINUOUS
  62
3
  10
 533.031
  20
 298.000
  30
0.0
  11
 533.031
  21
 301.973
  31
0.0
   0
LINE
   5
482
 100
AcDbEntity
   8
LEVEL013
 100
AcDbLine
   6
CONTINUOUS
  62
3
  10
 533.031
  20
 301.973
  30
0.0
  11
 534.810
  21
 303.000
  31
0.0
   0
LINE
   5
483
 100
AcDbEntity
   8
LEVEL013
 100
AcDbLine
   6
CONTINUOUS
  62
3
  10
 534.810
  20
 303.000
  30
0.0
  11
 557.810
  21
 303.000
  31
0.0
   0
LINE
   5
484
 100
AcDbEntity
   8
LEVEL013
 100
AcDbLine
   6
CONTINUOUS
  62
3
  10
 557.810
  20
 303.000
  30
0.0
  11
 559.589
  21
 301.973
  31
0.0
   0
LINE
   5
485
 100
AcDbEntity
   8
LEVEL013
 100
AcDbLine
   6
CONTINUOUS
  62
3
  10
 559.589
  20
 301.973
  30
0.0
  11
 559.589
  21
 298.000
  31
0.0
   0
LINE
   5
486
 100
AcDbEntity
   8
LEVEL013
 100
AcDbLine
   6
DOT
  62
3
  10
 529.867
  20
 298.000
  30
0.0
  11
 529.867
  21
 295.000
  31
0.0
   0
LINE
   5
487
 100
AcDbEntity
   8
LEVEL013
 100
AcDbLine
   6
CONTINUOUS
  62
3
  10
 536.310
  20
 292.000
  30
0.0
  11
 526.310
  21
 292.000
  31
0.0
   0
LINE
   5
488
 100
AcDbEntity
   8
LEVEL013
 100
AcDbLine
   6
CONTINUOUS
  62
3
  10
 526.310
  20
 292.000
  30
0.0
  11
 526.310
  21
 297.700
  31
0.0
   0
LINE
   5
489
 100
AcDbEntity
   8
LEVEL013
 100
AcDbLine
   6
CONTINUOUS
  62
3
  10
 526.310
  20
 297.700
  30
0.0
  11
 526.830
  21
 298.000
  31
0.0
   0
LINE
   5
48A
 100
AcDbEntity
   8
LEVEL013
 100
AcDbLine
   6
CONTINUOUS
  62
3
  10
 526.830
  20
 298.000
  30
0.0
  11
 535.790
  21
 298.000
  31
0.0
   0
LINE
   5
48B
 100
AcDbEntity
   8
LEVEL013
 100
AcDbLine
   6
CONTINUOUS
  62
3
  10
 535.790
  20
 298.000
  30
0.0
  11
 536.310
  21
 297.700
  31
0.0
   0
LINE
   5
48C
 100
AcDbEntity
   8
LEVEL013
 100
AcDbLine
   6
CONTINUOUS
  62
3
  10
 536.310
  20
 297.700
  30
0.0
  11
 536.310
  21
 292.000
  31
0.0
   0
LINE
   5
48D
 100
AcDbEntity
   8
LEVEL013
 100
AcDbLine
   6
CONTINUOUS
  62
3
  10
 536.310
  20
 297.700
  30
0.0
  11
 526.310
  21
 297.700
  31
0.0
   0
LINE
   5
48E
 100
AcDbEntity
   8
LEVEL013
 100
AcDbLine
   6
DOT
  62
3
  10
 534.197
  20
 298.000
  30
0.0
  11
 534.197
  21
 295.000
  31
0.0
   0
LINE
   5
48F
 100
AcDbEntity
   8
LEVEL013
 100
AcDbLine
   6
DOT
  62
3
  10
 534.197
  20
 295.000
  30
0.0
  11
 531.310
  21
 293.333
  31
0.0
   0
LINE
   5
490
 100
AcDbEntity
   8
LEVEL013
 100
AcDbLine
   6
DOT
  62
3
  10
 531.310
  20
 293.333
  30
0.0
  11
 528.423
  21
 295.000
  31
0.0
   0
LINE
   5
491
 100
AcDbEntity
   8
LEVEL013
 100
AcDbLine
   6
DOT
  62
3
  10
 528.423
  20
 295.000
  30
0.0
  11
 528.423
  21
 298.000
  31
0.0
   0
LINE
   5
492
 100
AcDbEntity
   8
LEVEL013
 100
AcDbLine
   6
DOT
  62
3
  10
 534.197
  20
 295.000
  30
0.0
  11
 528.423
  21
 295.000
  31
0.0
   0
LINE
   5
493
 100
AcDbEntity
   8
LEVEL013
 100
AcDbLine
   6
CONTINUOUS
  62
3
  10
 526.310
  20
 292.000
  30
0.0
  11
 526.310
  21
 252.000
  31
0.0
   0
LINE
   5
494
 100
AcDbEntity
   8
LEVEL013
 100
AcDbLine
   6
CONTINUOUS
  62
3
  10
 526.310
  20
 252.000
  30
0.0
  11
 566.310
  21
 252.000
  31
0.0
   0
LINE
   5
495
 100
AcDbEntity
   8
LEVEL013
 100
AcDbLine
   6
CONTINUOUS
  62
3
  10
 566.310
  20
 252.000
  30
0.0
  11
 566.310
  21
 292.000
  31
0.0
   0
LINE
   5
496
 100
AcDbEntity
   8
LEVEL013
 100
AcDbLine
   6
CONTINUOUS
  62
3
  10
 566.310
  20
 292.000
  30
0.0
  11
 526.310
  21
 292.000
  31
0.0
   0
LINE
   5
497
 100
AcDbEntity
   8
LEVEL026
 100
AcDbLine
   6
CONTINUOUS
  62
3
  10
 526.310
  20
 222.000
  30
0.0
  11
 526.310
  21
 252.000
  31
0.0
   0
LINE
   5
498
 100
AcDbEntity
   8
LEVEL026
 100
AcDbLine
   6
DOT
  62
3
  10
 621.310
  20
 222.000
  30
0.0
  11
 621.310
  21
 252.000
  31
0.0
   0
LINE
   5
499
 100
AcDbEntity
   8
LEVEL026
 100
AcDbLine
   6
DOT
  62
3
  10
 614.310
  20
 252.000
  30
0.0
  11
 621.310
  21
 252.000
  31
0.0
   0
LINE
   5
49A
 100
AcDbEntity
   8
LEVEL026
 100
AcDbLine
   6
DASHDOT
  62
1
  10
 523.310
  20
 240.000
  30
0.0
  11
 554.247
  21
 240.000
  31
0.0
   0
LINE
   5
49B
 100
AcDbEntity
   8
LEVEL026
 100
AcDbLine
   6
DOT
  62
3
  10
 526.310
  20
 248.331
  30
0.0
  11
 527.194
  21
 247.447
  31
0.0
   0
LINE
   5
49C
 100
AcDbEntity
   8
LEVEL026
 100
AcDbLine
   6
DOT
  62
3
  10
 547.310
  20
 246.819
  30
0.0
  11
 543.694
  21
 247.788
  31
0.0
   0
LINE
   5
49D
 100
AcDbEntity
   8
LEVEL026
 100
AcDbLine
   6
DOT
  62
3
  10
 543.694
  20
 247.788
  30
0.0
  11
 526.310
  21
 248.331
  31
0.0
   0
LINE
   5
49E
 100
AcDbEntity
   8
LEVEL026
 100
AcDbLine
   6
DOT
  62
3
  10
 526.310
  20
 231.669
  30
0.0
  11
 527.194
  21
 232.553
  31
0.0
   0
LINE
   5
49F
 100
AcDbEntity
   8
LEVEL026
 100
AcDbLine
   6
DOT
  62
3
  10
 526.310
  20
 231.669
  30
0.0
  11
 543.694
  21
 232.212
  31
0.0
   0
LINE
   5
4A0
 100
AcDbEntity
   8
LEVEL026
 100
AcDbLine
   6
DOT
  62
3
  10
 543.694
  20
 232.212
  30
0.0
  11
 547.310
  21
 233.181
  31
0.0
   0
LINE
   5
4A1
 100
AcDbEntity
   8
LEVEL026
 100
AcDbLine
   6
DOT
  62
3
  10
 543.694
  20
 247.788
  30
0.0
  11
 543.694
  21
 232.212
  31
0.0
   0
LINE
   5
4A2
 100
AcDbEntity
   8
LEVEL026
 100
AcDbLine
   6
DOT
  62
3
  10
 547.310
  20
 233.181
  30
0.0
  11
 551.247
  21
 240.000
  31
0.0
   0
LINE
   5
4A3
 100
AcDbEntity
   8
LEVEL026
 100
AcDbLine
   6
DOT
  62
3
  10
 551.247
  20
 240.000
  30
0.0
  11
 547.310
  21
 246.819
  31
0.0
   0
LINE
   5
4A4
 100
AcDbEntity
   8
LEVEL026
 100
AcDbLine
   6
DOT
  62
3
  10
 527.194
  20
 247.447
  30
0.0
  11
 527.194
  21
 232.553
  31
0.0
   0
LINE
   5
4A5
 100
AcDbEntity
   8
LEVEL026
 100
AcDbLine
   6
DOT
  62
3
  10
 527.194
  20
 232.553
  30
0.0
  11
 547.310
  21
 233.181
  31
0.0
   0
LINE
   5
4A6
 100
AcDbEntity
   8
LEVEL026
 100
AcDbLine
   6
DOT
  62
3
  10
 547.310
  20
 233.181
  30
0.0
  11
 547.310
  21
 246.819
  31
0.0
   0
LINE
   5
4A7
 100
AcDbEntity
   8
LEVEL026
 100
AcDbLine
   6
DOT
  62
3
  10
 547.310
  20
 246.819
  30
0.0
  11
 527.194
  21
 247.447
  31
0.0
   0
LINE
   5
4A8
 100
AcDbEntity
   8
LEVEL014
 100
AcDbLine
   6
DASHDOT
  62
1
  10
 685.000
  20
 390.000
  30
0.0
  11
 685.000
  21
 195.000
  31
0.0
   0
LINE
   5
4A9
 100
AcDbEntity
   8
LEVEL014
 100
AcDbLine
   6
DOT
  62
3
  10
 725.000
  20
 222.000
  30
0.0
  11
 725.000
  21
 374.000
  31
0.0
   0
LINE
   5
4AA
 100
AcDbEntity
   8
LEVEL014
 100
AcDbLine
   6
DOT
  62
3
  10
 645.000
  20
 230.000
  30
0.0
  11
 725.000
  21
 230.000
  31
0.0
   0
LINE
   5
4AB
 100
AcDbEntity
   8
LEVEL014
 100
AcDbLine
   6
DOT
  62
3
  10
 645.000
  20
 222.000
  30
0.0
  11
 645.000
  21
 292.000
  31
0.0
   0
LINE
   5
4AC
 100
AcDbEntity
   8
LEVEL014
 100
AcDbLine
   6
DOT
  62
3
  10
 666.000
  20
 374.000
  30
0.0
  11
 670.000
  21
 378.000
  31
0.0
   0
LINE
   5
4AD
 100
AcDbEntity
   8
LEVEL014
 100
AcDbLine
   6
DOT
  62
3
  10
 645.000
  20
 341.000
  30
0.0
  11
 725.000
  21
 341.000
  31
0.0
   0
LINE
   5
4AE
 100
AcDbEntity
   8
LEVEL014
 100
AcDbLine
   6
DOT
  62
3
  10
 645.000
  20
 319.500
  30
0.0
  11
 645.000
  21
 374.000
  31
0.0
   0
LINE
   5
4AF
 100
AcDbEntity
   8
LEVEL014
 100
AcDbLine
   6
DOT
  62
3
  10
 704.000
  20
 374.000
  30
0.0
  11
 700.000
  21
 378.000
  31
0.0
   0
LINE
   5
4B0
 100
AcDbEntity
   8
LEVEL014
 100
AcDbLine
   6
DOT
  62
3
  10
 670.000
  20
 378.000
  30
0.0
  11
 700.000
  21
 378.000
  31
0.0
   0
LINE
   5
4B1
 100
AcDbEntity
   8
LEVEL014
 100
AcDbLine
   6
DOT
  62
3
  10
 645.000
  20
 374.000
  30
0.0
  11
 725.000
  21
 374.000
  31
0.0
   0
LINE
   5
4B2
 100
AcDbEntity
   8
LEVEL014
 100
AcDbLine
   6
DOT
  62
3
  10
 645.000
  20
 369.000
  30
0.0
  11
 725.000
  21
 369.000
  31
0.0
   0
LINE
   5
4B3
 100
AcDbEntity
   8
LEVEL015
 100
AcDbLine
   6
DASHDOT
  62
1
  10
 606.810
  20
 390.500
  30
0.0
  11
 606.810
  21
 370.500
  31
0.0
   0
LINE
   5
4B4
 100
AcDbEntity
   8
LEVEL015
 100
AcDbLine
   6
DASHDOT
  62
1
  10
 624.506
  20
 355.000
  30
0.0
  11
 620.810
  21
 355.000
  31
0.0
   0
ARC
   5
4B5
 100
AcDbEntity
   8
LEVEL015
   6
DOT
  62
3
 100
AcDbCircle
  10
 617.810
  20
 382.500
  30
0.0
  40
 3.00000
 100
AcDbArc
  50
0.0
  51
 90.0000
   0
LINE
   5
4B6
 100
AcDbEntity
   8
LEVEL015
 100
AcDbLine
   6
DOT
  62
3
  10
 620.810
  20
 364.500
  30
0.0
  11
 620.810
  21
 382.500
  31
0.0
   0
LINE
   5
4B7
 100
AcDbEntity
   8
LEVEL015
 100
AcDbLine
   6
DOT
  62
3
  10
 617.810
  20
 385.500
  30
0.0
  11
 610.000
  21
 385.500
  31
0.0
   0
LINE
   5
4B8
 100
AcDbEntity
   8
LEVEL015
 100
AcDbLine
   6
DOT
  62
3
  10
 620.810
  20
 327.500
  30
0.0
  11
 620.810
  21
 344.500
  31
0.0
   0
LINE
   5
4B9
 100
AcDbEntity
   8
LEVEL015
 100
AcDbLine
   6
DOT
  62
3
  10
 616.810
  20
 322.500
  30
0.0
  11
 616.810
  21
 324.500
  31
0.0
   0
LINE
   5
4BA
 100
AcDbEntity
   8
LEVEL015
 100
AcDbLine
   6
DOT
  62
3
  10
 617.810
  20
 324.500
  30
0.0
  11
 616.810
  21
 324.500
  31
0.0
   0
ARC
   5
4BB
 100
AcDbEntity
   8
LEVEL015
   6
DOT
  62
3
 100
AcDbCircle
  10
 606.810
  20
 261.000
  30
0.0
  40
 64.2826
 100
AcDbArc
  50
 81.0505
  51
 81.2760
   0
ARC
   5
4BC
 100
AcDbEntity
   8
LEVEL015
   6
DOT
  62
3
 100
AcDbCircle
  10
 617.810
  20
 327.500
  30
0.0
  40
 3.00000
 100
AcDbArc
  50
 270.000
  51
 0.434252E-10
   0
ARC
   5
4BD
 100
AcDbEntity
   8
LEVEL015
   6
CONTINUOUS
  62
3
 100
AcDbCircle
  10
 591.810
  20
 387.000
  30
0.0
  40
 2.00000
 100
AcDbArc
  50
 90.0000
  51
 180.000
   0
LINE
   5
4BE
 100
AcDbEntity
   8
LEVEL015
 100
AcDbLine
   6
CONTINUOUS
  62
3
  10
 594.810
  20
 370.500
  30
0.0
  11
 594.810
  21
 389.000
  31
0.0
   0
LINE
   5
4BF
 100
AcDbEntity
   8
LEVEL015
 100
AcDbLine
   6
CONTINUOUS
  62
3
  10
 594.810
  20
 389.000
  30
0.0
  11
 591.810
  21
 389.000
  31
0.0
   0
LINE
   5
4C0
 100
AcDbEntity
   8
LEVEL015
 100
AcDbLine
   6
CONTINUOUS
  62
3
  10
 589.810
  20
 387.000
  30
0.0
  11
 589.810
  21
 370.500
  31
0.0
   0
LINE
   5
4C1
 100
AcDbEntity
   8
LEVEL015
 100
AcDbLine
   6
CONTINUOUS
  62
3
  10
 608.166
  20
 385.500
  30
0.0
  11
 594.810
  21
 385.500
  31
0.0
   0
LINE
   5
4C2
 100
AcDbEntity
   8
LEVEL018
 100
AcDbLine
   6
CONTINUOUS
  62
3
  10
 588.310
  20
 343.000
  30
0.0
  11
 588.310
  21
 364.500
  31
0.0
   0
LINE
   5
4C3
 100
AcDbEntity
   8
LEVEL018
 100
AcDbLine
   6
CONTINUOUS
  62
3
  10
 597.310
  20
 343.000
  30
0.0
  11
 597.310
  21
 364.500
  31
0.0
   0
LINE
   5
4C4
 100
AcDbEntity
   8
LEVEL018
 100
AcDbLine
   6
CONTINUOUS
  62
3
  10
 600.310
  20
 343.000
  30
0.0
  11
 600.310
  21
 364.500
  31
0.0
   0
LINE
   5
4C5
 100
AcDbEntity
   8
LEVEL018
 100
AcDbLine
   6
CONTINUOUS
  62
3
  10
 603.310
  20
 343.000
  30
0.0
  11
 603.310
  21
 364.500
  31
0.0
   0
LINE
   5
4C6
 100
AcDbEntity
   8
LEVEL018
 100
AcDbLine
   6
DASHDOT
  62
1
  10
 601.810
  20
 265.500
  30
0.0
  11
 601.810
  21
 375.500
  31
0.0
   0
LINE
   5
4C7
 100
AcDbEntity
   8
LEVEL026
 100
AcDbLine
   6
DASHDOT
  62
1
  10
 601.810
  20
 230.000
  30
0.0
  11
 601.810
  21
 270.500
  31
0.0
   0
LINE
   5
4C8
 100
AcDbEntity
   8
LEVEL026
 100
AcDbLine
   6
DASHDOT
  62
1
  10
 588.301
  20
 240.000
  30
0.0
  11
 615.319
  21
 240.000
  31
0.0
   0
LINE
   5
4C9
 100
AcDbEntity
   8
LEVEL018
 100
AcDbLine
   6
DASHDOT
  62
1
  10
 658.810
  20
 263.500
  30
0.0
  11
 658.810
  21
 279.500
  31
0.0
   0
LINE
   5
4CA
 100
AcDbEntity
   8
LEVEL018
 100
AcDbLine
   6
DASHDOT
  62
1
  10
 611.810
  20
 305.750
  30
0.0
  11
 671.810
  21
 305.750
  31
0.0
   0
LINE
   5
4CB
 100
AcDbEntity
   8
LEVEL018
 100
AcDbLine
   6
DOT
  62
3
  10
 605.832
  20
 364.500
  30
0.0
  11
 620.810
  21
 364.500
  31
0.0
   0
LINE
   5
4CC
 100
AcDbEntity
   8
LEVEL018
 100
AcDbLine
   6
DOT
  62
3
  10
 602.498
  20
 334.500
  30
0.0
  11
 616.560
  21
 334.500
  31
0.0
   0
LINE
   5
4CD
 100
AcDbEntity
   8
LEVEL018
 100
AcDbLine
   6
DOT
  62
3
  10
 606.310
  20
 343.000
  30
0.0
  11
 606.310
  21
 364.500
  31
0.0
   0
LINE
   5
4CE
 100
AcDbEntity
   8
LEVEL018
 100
AcDbLine
   6
DOT
  62
3
  10
 609.310
  20
 343.000
  30
0.0
  11
 609.310
  21
 364.500
  31
0.0
   0
LINE
   5
4CF
 100
AcDbEntity
   8
LEVEL018
 100
AcDbLine
   6
DOT
  62
3
  10
 612.310
  20
 343.000
  30
0.0
  11
 612.310
  21
 364.500
  31
0.0
   0
LINE
   5
4D0
 100
AcDbEntity
   8
LEVEL018
 100
AcDbLine
   6
DOT
  62
3
  10
 615.310
  20
 343.000
  30
0.0
  11
 615.310
  21
 364.500
  31
0.0
   0
LINE
   5
4D1
 100
AcDbEntity
   8
LEVEL018
 100
AcDbLine
   6
DOT
  62
3
  10
 618.310
  20
 343.000
  30
0.0
  11
 618.310
  21
 364.500
  31
0.0
   0
LINE
   5
4D2
 100
AcDbEntity
   8
LEVEL018
 100
AcDbLine
   6
DOT
  62
3
  10
 606.499
  20
 370.500
  30
0.0
  11
 616.310
  21
 370.500
  31
0.0
   0
LINE
   5
4D3
 100
AcDbEntity
   8
LEVEL018
 100
AcDbLine
   6
DOT
  62
3
  10
 616.310
  20
 370.500
  30
0.0
  11
 620.810
  21
 364.500
  31
0.0
   0
LINE
   5
4D4
 100
AcDbEntity
   8
LEVEL018
 100
AcDbLine
   6
DOT
  62
3
  10
 620.810
  20
 364.500
  30
0.0
  11
 620.810
  21
 344.500
  31
0.0
   0
LINE
   5
4D5
 100
AcDbEntity
   8
LEVEL018
 100
AcDbLine
   6
DOT
  62
3
  10
 620.810
  20
 344.500
  30
0.0
  11
 619.310
  21
 343.000
  31
0.0
   0
LINE
   5
4D6
 100
AcDbEntity
   8
LEVEL018
 100
AcDbLine
   6
DOT
  62
3
  10
 619.310
  20
 343.000
  30
0.0
  11
 618.810
  21
 338.000
  31
0.0
   0
LINE
   5
4D7
 100
AcDbEntity
   8
LEVEL018
 100
AcDbLine
   6
DOT
  62
3
  10
 618.810
  20
 338.000
  30
0.0
  11
 602.887
  21
 338.000
  31
0.0
   0
LINE
   5
4D8
 100
AcDbEntity
   8
LEVEL018
 100
AcDbLine
   6
DOT
  62
3
  10
 603.443
  20
 343.000
  30
0.0
  11
 619.310
  21
 343.000
  31
0.0
   0
LINE
   5
4D9
 100
AcDbEntity
   8
LEVEL018
 100
AcDbLine
   6
DOT
  62
3
  10
 602.332
  20
 333.000
  30
0.0
  11
 603.810
  21
 333.000
  31
0.0
   0
LINE
   5
4DA
 100
AcDbEntity
   8
LEVEL018
 100
AcDbLine
   6
DOT
  62
3
  10
 601.998
  20
 330.000
  30
0.0
  11
 603.810
  21
 330.000
  31
0.0
   0
LINE
   5
4DB
 100
AcDbEntity
   8
LEVEL018
 100
AcDbLine
   6
DOT
  62
3
  10
 601.810
  20
 328.500
  30
0.0
  11
 616.560
  21
 328.500
  31
0.0
   0
LINE
   5
4DC
 100
AcDbEntity
   8
LEVEL018
 100
AcDbLine
   6
DOT
  62
3
  10
 601.665
  20
 327.000
  30
0.0
  11
 603.810
  21
 327.000
  31
0.0
   0
LINE
   5
4DD
 100
AcDbEntity
   8
LEVEL018
 100
AcDbLine
   6
DOT
  62
3
  10
 601.331
  20
 324.000
  30
0.0
  11
 603.810
  21
 324.000
  31
0.0
   0
LINE
   5
4DE
 100
AcDbEntity
   8
LEVEL018
 100
AcDbLine
   6
DOT
  62
3
  10
 602.165
  20
 331.500
  30
0.0
  11
 616.560
  21
 331.500
  31
0.0
   0
LINE
   5
4DF
 100
AcDbEntity
   8
LEVEL018
 100
AcDbLine
   6
DOT
  62
3
  10
 617.810
  20
 320.500
  30
0.0
  11
 633.810
  21
 320.500
  31
0.0
   0
LINE
   5
4E0
 100
AcDbEntity
   8
LEVEL018
 100
AcDbLine
   6
DOT
  62
3
  10
 623.810
  20
 291.000
  30
0.0
  11
 623.810
  21
 320.500
  31
0.0
   0
LINE
   5
4E1
 100
AcDbEntity
   8
LEVEL018
 100
AcDbLine
   6
DOT
  62
3
  10
 624.810
  20
 320.500
  30
0.0
  11
 624.810
  21
 291.000
  31
0.0
   0
LINE
   5
4E2
 100
AcDbEntity
   8
LEVEL018
 100
AcDbLine
   6
DOT
  62
3
  10
 616.560
  20
 338.000
  30
0.0
  11
 616.560
  21
 322.500
  31
0.0
   0
LINE
   5
4E3
 100
AcDbEntity
   8
LEVEL018
 100
AcDbLine
   6
DOT
  62
3
  10
 601.498
  20
 325.500
  30
0.0
  11
 616.560
  21
 325.500
  31
0.0
   0
LINE
   5
4E4
 100
AcDbEntity
   8
LEVEL018
 100
AcDbLine
   6
DOT
  62
3
  10
 600.998
  20
 321.000
  30
0.0
  11
 616.810
  21
 321.000
  31
0.0
   0
LINE
   5
4E5
 100
AcDbEntity
   8
LEVEL018
 100
AcDbLine
   6
DOT
  62
3
  10
 616.810
  20
 321.000
  30
0.0
  11
 616.810
  21
 291.000
  31
0.0
   0
LINE
   5
4E6
 100
AcDbEntity
   8
LEVEL018
 100
AcDbLine
   6
DOT
  62
3
  10
 616.810
  20
 291.000
  30
0.0
  11
 597.664
  21
 291.000
  31
0.0
   0
ARC
   5
4E7
 100
AcDbEntity
   8
LEVEL018
   6
DOT
  62
3
 100
AcDbCircle
  10
 668.060
  20
 317.500
  30
0.0
  40
 2.00000
 100
AcDbArc
  50
0.0
  51
 90.0000
   0
LINE
   5
4E8
 100
AcDbEntity
   8
LEVEL018
 100
AcDbLine
   6
DOT
  62
3
  10
 636.810
  20
 319.500
  30
0.0
  11
 668.060
  21
 319.500
  31
0.0
   0
LINE
   5
4E9
 100
AcDbEntity
   8
LEVEL018
 100
AcDbLine
   6
DOT
  62
3
  10
 617.810
  20
 291.000
  30
0.0
  11
 633.810
  21
 291.000
  31
0.0
   0
ARC
   5
4EA
 100
AcDbEntity
   8
LEVEL018
   6
DOT
  62
3
 100
AcDbCircle
  10
 649.060
  20
 278.000
  30
0.0
  40
 1.50000
 100
AcDbArc
  50
 180.000
  51
 270.000
   0
LINE
   5
4EB
 100
AcDbEntity
   8
LEVEL018
 100
AcDbLine
   6
DOT
  62
3
  10
 647.560
  20
 292.000
  30
0.0
  11
 647.560
  21
 278.000
  31
0.0
   0
LINE
   5
4EC
 100
AcDbEntity
   8
LEVEL018
 100
AcDbLine
   6
DOT
  62
3
  10
 651.810
  20
 276.500
  30
0.0
  11
 651.810
  21
 271.500
  31
0.0
   0
ARC
   5
4ED
 100
AcDbEntity
   8
LEVEL018
   6
DOT
  62
3
 100
AcDbCircle
  10
 650.496
  20
 274.498
  30
0.0
  40
 8.00000
 100
AcDbArc
  50
 268.665
  51
 295.199
   0
LINE
   5
4EE
 100
AcDbEntity
   8
LEVEL018
 100
AcDbLine
   6
DOT
  62
3
  10
 648.995
  20
 267.259
  30
0.0
  11
 650.310
  21
 266.500
  31
0.0
   0
LINE
   5
4EF
 100
AcDbEntity
   8
LEVEL018
 100
AcDbLine
   6
DOT
  62
3
  10
 653.903
  20
 271.500
  30
0.0
  11
 653.903
  21
 267.259
  31
0.0
   0
LINE
   5
4F0
 100
AcDbEntity
   8
LEVEL018
 100
AcDbLine
   6
DOT
  62
3
  10
 648.995
  20
 271.500
  30
0.0
  11
 648.995
  21
 267.259
  31
0.0
   0
LINE
   5
4F1
 100
AcDbEntity
   8
LEVEL018
 100
AcDbLine
   6
DOT
  62
3
  10
 633.810
  20
 290.500
  30
0.0
  11
 633.810
  21
 321.000
  31
0.0
   0
LINE
   5
4F2
 100
AcDbEntity
   8
LEVEL018
 100
AcDbLine
   6
DOT
  62
3
  10
 633.810
  20
 321.000
  30
0.0
  11
 636.810
  21
 321.000
  31
0.0
   0
LINE
   5
4F3
 100
AcDbEntity
   8
LEVEL018
 100
AcDbLine
   6
DOT
  62
3
  10
 636.810
  20
 321.000
  30
0.0
  11
 636.810
  21
 290.500
  31
0.0
   0
LINE
   5
4F4
 100
AcDbEntity
   8
LEVEL018
 100
AcDbLine
   6
DOT
  62
3
  10
 636.810
  20
 290.500
  30
0.0
  11
 633.810
  21
 290.500
  31
0.0
   0
ARC
   5
4F5
 100
AcDbEntity
   8
LEVEL018
   6
DOT
  62
3
 100
AcDbCircle
  10
 668.060
  20
 294.000
  30
0.0
  40
 2.00000
 100
AcDbArc
  50
 270.000
  51
 0.377799E-9
   0
ARC
   5
4F6
 100
AcDbEntity
   8
LEVEL018
   6
DOT
  62
3
 100
AcDbCircle
  10
 668.560
  20
 278.000
  30
0.0
  40
 1.50000
 100
AcDbArc
  50
 270.000
  51
 0.286606E-9
   0
LINE
   5
4F7
 100
AcDbEntity
   8
LEVEL018
 100
AcDbLine
   6
DOT
  62
3
  10
 665.810
  20
 276.500
  30
0.0
  11
 665.810
  21
 271.500
  31
0.0
   0
LINE
   5
4F8
 100
AcDbEntity
   8
LEVEL018
 100
AcDbLine
   6
DOT
  62
3
  10
 667.310
  20
 266.500
  30
0.0
  11
 668.625
  21
 267.259
  31
0.0
   0
LINE
   5
4F9
 100
AcDbEntity
   8
LEVEL018
 100
AcDbLine
   6
DOT
  62
3
  10
 663.717
  20
 271.500
  30
0.0
  11
 663.717
  21
 267.259
  31
0.0
   0
LINE
   5
4FA
 100
AcDbEntity
   8
LEVEL018
 100
AcDbLine
   6
DOT
  62
3
  10
 668.625
  20
 267.259
  30
0.0
  11
 668.625
  21
 271.500
  31
0.0
   0
ARC
   5
4FB
 100
AcDbEntity
   8
LEVEL018
   6
DOT
  62
3
 100
AcDbCircle
  10
 667.124
  20
 274.498
  30
0.0
  40
 8.00000
 100
AcDbArc
  50
 244.801
  51
 271.335
   0
LINE
   5
4FC
 100
AcDbEntity
   8
LEVEL018
 100
AcDbLine
   6
DOT
  62
3
  10
 670.060
  20
 317.500
  30
0.0
  11
 670.060
  21
 278.000
  31
0.0
   0
LINE
   5
4FD
 100
AcDbEntity
   8
LEVEL018
 100
AcDbLine
   6
DOT
  62
3
  10
 649.060
  20
 276.500
  30
0.0
  11
 668.560
  21
 276.500
  31
0.0
   0
LINE
   5
4FE
 100
AcDbEntity
   8
LEVEL018
 100
AcDbLine
   6
DOT
  62
3
  10
 668.560
  20
 276.500
  30
0.0
  11
 649.060
  21
 276.500
  31
0.0
   0
ARC
   5
4FF
 100
AcDbEntity
   8
LEVEL018
   6
DOT
  62
3
 100
AcDbCircle
  10
 658.810
  20
 282.741
  30
0.0
  40
 16.2408
 100
AcDbArc
  50
 252.412
  51
 287.588
   0
LINE
   5
500
 100
AcDbEntity
   8
LEVEL018
 100
AcDbLine
   6
DOT
  62
3
  10
 668.625
  20
 271.500
  30
0.0
  11
 648.995
  21
 271.500
  31
0.0
   0
LINE
   5
501
 100
AcDbEntity
   8
LEVEL018
 100
AcDbLine
   6
DOT
  62
3
  10
 650.310
  20
 266.500
  30
0.0
  11
 667.310
  21
 266.500
  31
0.0
   0
LINE
   5
502
 100
AcDbEntity
   8
LEVEL018
 100
AcDbLine
   6
DOT
  62
3
  10
 636.810
  20
 292.000
  30
0.0
  11
 668.060
  21
 292.000
  31
0.0
   0
LINE
   5
503
 100
AcDbEntity
   8
LEVEL018
 100
AcDbLine
   6
DOT
  62
3
  10
 616.810
  20
 279.500
  30
0.0
  11
 615.810
  21
 278.500
  31
0.0
   0
ARC
   5
504
 100
AcDbEntity
   8
LEVEL018
   6
DOT
  62
3
 100
AcDbCircle
  10
 615.310
  20
 277.000
  30
0.0
  40
 1.50000
 100
AcDbArc
  50
 90.0000
  51
 180.000
   0
ARC
   5
505
 100
AcDbEntity
   8
LEVEL018
   6
DOT
  62
3
 100
AcDbCircle
  10
 611.310
  20
 267.000
  30
0.0
  40
 1.50000
 100
AcDbArc
  50
 90.0000
  51
 180.000
   0
LINE
   5
506
 100
AcDbEntity
   8
LEVEL018
 100
AcDbLine
   6
DOT
  62
3
  10
 609.810
  20
 267.000
  30
0.0
  11
 609.810
  21
 265.500
  31
0.0
   0
LINE
   5
507
 100
AcDbEntity
   8
LEVEL018
 100
AcDbLine
   6
DOT
  62
3
  10
 611.310
  20
 268.500
  30
0.0
  11
 611.310
  21
 278.500
  31
0.0
   0
LINE
   5
508
 100
AcDbEntity
   8
LEVEL018
 100
AcDbLine
   6
DOT
  62
3
  10
 616.810
  20
 282.500
  30
0.0
  11
 616.810
  21
 279.500
  31
0.0
   0
LINE
   5
509
 100
AcDbEntity
   8
LEVEL018
 100
AcDbLine
   6
DOT
  62
3
  10
 596.664
  20
 282.000
  30
0.0
  11
 616.810
  21
 282.000
  31
0.0
   0
LINE
   5
50A
 100
AcDbEntity
   8
LEVEL018
 100
AcDbLine
   6
DOT
  62
3
  10
 596.386
  20
 279.500
  30
0.0
  11
 616.810
  21
 279.500
  31
0.0
   0
LINE
   5
50B
 100
AcDbEntity
   8
LEVEL018
 100
AcDbLine
   6
DOT
  62
3
  10
 596.275
  20
 278.500
  30
0.0
  11
 615.810
  21
 278.500
  31
0.0
   0
LINE
   5
50C
 100
AcDbEntity
   8
LEVEL018
 100
AcDbLine
   6
DOT
  62
3
  10
 611.310
  20
 268.500
  30
0.0
  11
 596.056
  21
 276.529
  31
0.0
   0
LINE
   5
50D
 100
AcDbEntity
   8
LEVEL018
 100
AcDbLine
   6
DOT
  62
3
  10
 595.341
  20
 270.095
  30
0.0
  11
 611.310
  21
 278.500
  31
0.0
   0
LINE
   5
50E
 100
AcDbEntity
   8
LEVEL018
 100
AcDbLine
   6
DOT
  62
3
  10
 595.163
  20
 268.500
  30
0.0
  11
 613.810
  21
 268.500
  31
0.0
   0
LINE
   5
50F
 100
AcDbEntity
   8
LEVEL018
 100
AcDbLine
   6
DOT
  62
3
  10
 613.810
  20
 268.500
  30
0.0
  11
 613.810
  21
 277.000
  31
0.0
   0
LINE
   5
510
 100
AcDbEntity
   8
LEVEL018
 100
AcDbLine
   6
DOT
  62
3
  10
 601.165
  20
 322.500
  30
0.0
  11
 617.810
  21
 322.500
  31
0.0
   0
LINE
   5
511
 100
AcDbEntity
   8
LEVEL018
 100
AcDbLine
   6
DOT
  62
3
  10
 617.810
  20
 322.500
  30
0.0
  11
 617.810
  21
 282.500
  31
0.0
   0
LINE
   5
512
 100
AcDbEntity
   8
LEVEL018
 100
AcDbLine
   6
DOT
  62
3
  10
 617.810
  20
 282.500
  30
0.0
  11
 596.719
  21
 282.500
  31
0.0
   0
LINE
   5
513
 100
AcDbEntity
   8
LEVEL026
 100
AcDbLine
   6
DOT
  62
3
  10
 594.830
  20
 265.500
  30
0.0
  11
 613.310
  21
 265.500
  31
0.0
   0
LINE
   5
514
 100
AcDbEntity
   8
LEVEL026
 100
AcDbLine
   6
DOT
  62
3
  10
 613.310
  20
 265.500
  30
0.0
  11
 614.310
  21
 264.500
  31
0.0
   0
LINE
   5
515
 100
AcDbEntity
   8
LEVEL026
 100
AcDbLine
   6
DOT
  62
3
  10
 614.310
  20
 264.500
  30
0.0
  11
 614.310
  21
 231.500
  31
0.0
   0
LINE
   5
516
 100
AcDbEntity
   8
LEVEL026
 100
AcDbLine
   6
DOT
  62
3
  10
 614.310
  20
 231.500
  30
0.0
  11
 591.051
  21
 231.500
  31
0.0
   0
LINE
   5
517
 100
AcDbEntity
   8
LEVEL018
 100
AcDbLine
   6
CONTINUOUS
  62
3
  10
 585.310
  20
 343.000
  30
0.0
  11
 585.310
  21
 364.500
  31
0.0
   0
LINE
   5
518
 100
AcDbEntity
   8
LEVEL018
 100
AcDbLine
   6
CONTINUOUS
  62
3
  10
 582.810
  20
 364.500
  30
0.0
  11
 605.832
  21
 364.500
  31
0.0
   0
LINE
   5
519
 100
AcDbEntity
   8
LEVEL018
 100
AcDbLine
   6
CONTINUOUS
  62
3
  10
 591.310
  20
 343.000
  30
0.0
  11
 591.310
  21
 364.500
  31
0.0
   0
LINE
   5
51A
 100
AcDbEntity
   8
LEVEL018
 100
AcDbLine
   6
CONTINUOUS
  62
3
  10
 594.310
  20
 343.000
  30
0.0
  11
 594.310
  21
 364.500
  31
0.0
   0
LINE
   5
51B
 100
AcDbEntity
   8
LEVEL018
 100
AcDbLine
   6
CONTINUOUS
  62
3
  10
 584.310
  20
 343.000
  30
0.0
  11
 603.443
  21
 343.000
  31
0.0
   0
LINE
   5
51C
 100
AcDbEntity
   8
LEVEL018
 100
AcDbLine
   6
CONTINUOUS
  62
3
  10
 587.060
  20
 330.000
  30
0.0
  11
 601.998
  21
 330.000
  31
0.0
   0
LINE
   5
51D
 100
AcDbEntity
   8
LEVEL018
 100
AcDbLine
   6
CONTINUOUS
  62
3
  10
 587.060
  20
 324.000
  30
0.0
  11
 601.331
  21
 324.000
  31
0.0
   0
LINE
   5
51E
 100
AcDbEntity
   8
LEVEL018
 100
AcDbLine
   6
CONTINUOUS
  62
3
  10
 602.887
  20
 338.000
  30
0.0
  11
 584.810
  21
 338.000
  31
0.0
   0
LINE
   5
51F
 100
AcDbEntity
   8
LEVEL018
 100
AcDbLine
   6
CONTINUOUS
  62
3
  10
 584.810
  20
 338.000
  30
0.0
  11
 584.310
  21
 343.000
  31
0.0
   0
LINE
   5
520
 100
AcDbEntity
   8
LEVEL018
 100
AcDbLine
   6
CONTINUOUS
  62
3
  10
 584.310
  20
 343.000
  30
0.0
  11
 582.810
  21
 344.500
  31
0.0
   0
LINE
   5
521
 100
AcDbEntity
   8
LEVEL018
 100
AcDbLine
   6
CONTINUOUS
  62
3
  10
 582.810
  20
 344.500
  30
0.0
  11
 582.810
  21
 364.500
  31
0.0
   0
LINE
   5
522
 100
AcDbEntity
   8
LEVEL018
 100
AcDbLine
   6
CONTINUOUS
  62
3
  10
 582.810
  20
 364.500
  30
0.0
  11
 587.310
  21
 370.500
  31
0.0
   0
LINE
   5
523
 100
AcDbEntity
   8
LEVEL018
 100
AcDbLine
   6
CONTINUOUS
  62
3
  10
 587.310
  20
 370.500
  30
0.0
  11
 601.810
  21
 370.500
  31
0.0
   0
LINE
   5
524
 100
AcDbEntity
   8
LEVEL018
 100
AcDbLine
   6
CONTINUOUS
  62
3
  10
 601.810
  20
 370.500
  30
0.0
  11
 606.499
  21
 370.500
  31
0.0
   0
LINE
   5
525
 100
AcDbEntity
   8
LEVEL018
 100
AcDbLine
   6
CONTINUOUS
  62
3
  10
 599.810
  20
 334.500
  30
0.0
  11
 602.498
  21
 334.500
  31
0.0
   0
LINE
   5
526
 100
AcDbEntity
   8
LEVEL018
 100
AcDbLine
   6
CONTINUOUS
  62
3
  10
 599.810
  20
 331.500
  30
0.0
  11
 602.165
  21
 331.500
  31
0.0
   0
LINE
   5
527
 100
AcDbEntity
   8
LEVEL018
 100
AcDbLine
   6
CONTINUOUS
  62
3
  10
 587.060
  20
 333.000
  30
0.0
  11
 602.332
  21
 333.000
  31
0.0
   0
LINE
   5
528
 100
AcDbEntity
   8
LEVEL024
 100
AcDbLine
   6
CONTINUOUS
  62
3
  10
 588.662
  20
 210.000
  30
0.0
  11
 610.000
  21
 402.000
  31
0.0
   0
LINE
   5
529
 100
AcDbEntity
   8
LEVEL018
 100
AcDbLine
   6
CONTINUOUS
  62
3
  10
 599.810
  20
 328.500
  30
0.0
  11
 601.810
  21
 328.500
  31
0.0
   0
LINE
   5
52A
 100
AcDbEntity
   8
LEVEL018
 100
AcDbLine
   6
CONTINUOUS
  62
3
  10
 599.810
  20
 325.500
  30
0.0
  11
 601.498
  21
 325.500
  31
0.0
   0
LINE
   5
52B
 100
AcDbEntity
   8
LEVEL018
 100
AcDbLine
   6
CONTINUOUS
  62
3
  10
 587.060
  20
 327.000
  30
0.0
  11
 601.810
  21
 327.000
  31
0.0
   0
LINE
   5
52C
 100
AcDbEntity
   8
LEVEL018
 100
AcDbLine
   6
CONTINUOUS
  62
3
  10
 587.060
  20
 338.000
  30
0.0
  11
 587.060
  21
 322.500
  31
0.0
   0
LINE
   5
52D
 100
AcDbEntity
   8
LEVEL018
 100
AcDbLine
   6
CONTINUOUS
  62
3
  10
 597.664
  20
 291.000
  30
0.0
  11
 586.810
  21
 291.000
  31
0.0
   0
LINE
   5
52E
 100
AcDbEntity
   8
LEVEL018
 100
AcDbLine
   6
CONTINUOUS
  62
3
  10
 586.810
  20
 291.000
  30
0.0
  11
 586.810
  21
 321.000
  31
0.0
   0
LINE
   5
52F
 100
AcDbEntity
   8
LEVEL018
 100
AcDbLine
   6
CONTINUOUS
  62
3
  10
 586.810
  20
 321.000
  30
0.0
  11
 600.998
  21
 321.000
  31
0.0
   0
LINE
   5
530
 100
AcDbEntity
   8
LEVEL018
 100
AcDbLine
   6
CONTINUOUS
  62
3
  10
 596.719
  20
 282.500
  30
0.0
  11
 585.810
  21
 282.500
  31
0.0
   0
LINE
   5
531
 100
AcDbEntity
   8
LEVEL018
 100
AcDbLine
   6
CONTINUOUS
  62
3
  10
 585.810
  20
 282.500
  30
0.0
  11
 585.810
  21
 322.500
  31
0.0
   0
LINE
   5
532
 100
AcDbEntity
   8
LEVEL018
 100
AcDbLine
   6
CONTINUOUS
  62
3
  10
 585.810
  20
 322.500
  30
0.0
  11
 601.165
  21
 322.500
  31
0.0
   0
ARC
   5
533
 100
AcDbEntity
   8
LEVEL018
   6
CONTINUOUS
  62
3
 100
AcDbCircle
  10
 588.310
  20
 277.000
  30
0.0
  40
 1.50000
 100
AcDbArc
  50
0.0
  51
 90.0000
   0
LINE
   5
534
 100
AcDbEntity
   8
LEVEL018
 100
AcDbLine
   6
CONTINUOUS
  62
3
  10
 586.810
  20
 279.500
  30
0.0
  11
 587.810
  21
 278.500
  31
0.0
   0
LINE
   5
535
 100
AcDbEntity
   8
LEVEL018
 100
AcDbLine
   6
CONTINUOUS
  62
3
  10
 592.310
  20
 278.500
  30
0.0
  11
 592.310
  21
 268.500
  31
0.0
   0
LINE
   5
536
 100
AcDbEntity
   8
LEVEL018
 100
AcDbLine
   6
CONTINUOUS
  62
3
  10
 586.810
  20
 282.500
  30
0.0
  11
 586.810
  21
 279.500
  31
0.0
   0
LINE
   5
537
 100
AcDbEntity
   8
LEVEL018
 100
AcDbLine
   6
CONTINUOUS
  62
3
  10
 596.056
  20
 276.529
  30
0.0
  11
 592.310
  21
 278.500
  31
0.0
   0
LINE
   5
538
 100
AcDbEntity
   8
LEVEL018
 100
AcDbLine
   6
CONTINUOUS
  62
3
  10
 587.810
  20
 278.500
  30
0.0
  11
 596.275
  21
 278.500
  31
0.0
   0
LINE
   5
539
 100
AcDbEntity
   8
LEVEL018
 100
AcDbLine
   6
CONTINUOUS
  62
3
  10
 586.810
  20
 279.500
  30
0.0
  11
 596.386
  21
 279.500
  31
0.0
   0
LINE
   5
53A
 100
AcDbEntity
   8
LEVEL018
 100
AcDbLine
   6
CONTINUOUS
  62
3
  10
 586.810
  20
 282.000
  30
0.0
  11
 596.664
  21
 282.000
  31
0.0
   0
ARC
   5
53B
 100
AcDbEntity
   8
LEVEL018
   6
CONTINUOUS
  62
3
 100
AcDbCircle
  10
 592.310
  20
 267.000
  30
0.0
  40
 1.50000
 100
AcDbArc
  50
0.0
  51
 90.0000
   0
LINE
   5
53C
 100
AcDbEntity
   8
LEVEL018
 100
AcDbLine
   6
CONTINUOUS
  62
3
  10
 593.810
  20
 267.000
  30
0.0
  11
 593.810
  21
 265.500
  31
0.0
   0
LINE
   5
53D
 100
AcDbEntity
   8
LEVEL026
 100
AcDbLine
   6
CONTINUOUS
  62
3
  10
 591.051
  20
 231.500
  30
0.0
  11
 589.310
  21
 231.500
  31
0.0
   0
LINE
   5
53E
 100
AcDbEntity
   8
LEVEL026
 100
AcDbLine
   6
CONTINUOUS
  62
3
  10
 589.310
  20
 231.500
  30
0.0
  11
 589.310
  21
 264.500
  31
0.0
   0
LINE
   5
53F
 100
AcDbEntity
   8
LEVEL026
 100
AcDbLine
   6
CONTINUOUS
  62
3
  10
 589.310
  20
 264.500
  30
0.0
  11
 590.310
  21
 265.500
  31
0.0
   0
LINE
   5
540
 100
AcDbEntity
   8
LEVEL026
 100
AcDbLine
   6
CONTINUOUS
  62
3
  10
 590.310
  20
 265.500
  30
0.0
  11
 594.830
  21
 265.500
  31
0.0
   0
LINE
   5
541
 100
AcDbEntity
   8
LEVEL018
 100
AcDbLine
   6
CONTINUOUS
  62
3
  10
 592.310
  20
 268.500
  30
0.0
  11
 595.341
  21
 270.095
  31
0.0
   0
LINE
   5
542
 100
AcDbEntity
   8
LEVEL018
 100
AcDbLine
   6
CONTINUOUS
  62
3
  10
 589.810
  20
 277.000
  30
0.0
  11
 589.810
  21
 268.500
  31
0.0
   0
LINE
   5
543
 100
AcDbEntity
   8
LEVEL018
 100
AcDbLine
   6
CONTINUOUS
  62
3
  10
 589.810
  20
 268.500
  30
0.0
  11
 595.163
  21
 268.500
  31
0.0
   0
LINE
   5
544
 100
AcDbEntity
   8
LEVEL024
 100
AcDbLine
   6
CONTINUOUS
  62
3
  10
 610.000
  20
 402.000
  30
0.0
  11
 725.000
  21
 402.000
  31
0.0
   0
ARC
   5
545
 100
AcDbEntity
   8
LEVEL024
   6
CONTINUOUS
  62
3
 100
AcDbCircle
  10
 725.000
  20
 387.000
  30
0.0
  40
 15.0000
 100
AcDbArc
  50
 0.434252E-12
  51
 90.0000
   0
LINE
   5
546
 100
AcDbEntity
   8
LEVEL024
 100
AcDbLine
   6
CONTINUOUS
  62
3
  10
 740.000
  20
 222.000
  30
0.0
  11
 740.000
  21
 387.000
  31
0.0
   0
TEXT
   5
547
 100
AcDbEntity
   8
LEVEL003
  62
3
 100
AcDbText
  10
 360.000
  20
 555.000
  30
0.0
  40
 12.0000
   1
タンクポート
   7
STANDARD
 100
AcDbText
   0
TEXT
   5
548
 100
AcDbEntity
   8
LEVEL003
  62
3
 100
AcDbText
  10
 360.000
  20
 539.000
  30
0.0
  40
 12.0000
   1
Ｒｃ３／８
   7
STANDARD
 100
AcDbText
   0
LEADER
   5
549
 100
AcDbEntity
   8
LEVEL003
   6
CONTINUOUS
  62
3
 100
AcDbLeader
   3
GMM006
  73
0
  74
1
  75
0
  40
 12.0000
  41
0.0
  76
3
  10
 321.576
  20
 525.115
  30
0.0
  10
 360.000
  20
 555.000
  30
0.0
  10
 435.000
  20
 555.000
  30
0.0
  77
3
   0
LINE
   5
54A
 100
AcDbEntity
   8
LEVEL024
 100
AcDbLine
   6
CONTINUOUS
  62
3
  10
 190.000
  20
 402.000
  30
0.0
  11
 320.000
  21
 402.000
  31
0.0
   0
TEXT
   5
54B
 100
AcDbEntity
   8
LEVEL003
  62
3
 100
AcDbText
  10
 210.000
  20
 165.000
  30
0.0
  40
 12.0000
   1
加圧口
   7
STANDARD
 100
AcDbText
   0
TEXT
   5
54C
 100
AcDbEntity
   8
LEVEL003
  62
3
 100
AcDbText
  10
 210.000
  20
 149.000
  30
0.0
  40
 12.0000
   1
Ｒｃ３／８
   7
STANDARD
 100
AcDbText
   0
LINE
   5
54D
 100
AcDbEntity
   8
LEVEL019
 100
AcDbLine
   6
CONTINUOUS
  62
3
  10
 520.000
  20
 222.000
  30
0.0
  11
 589.995
  21
 222.000
  31
0.0
   0
LINE
   5
54E
 100
AcDbEntity
   8
LEVEL019
 100
AcDbLine
   6
DOT
  62
3
  10
 589.995
  20
 222.000
  30
0.0
  11
 740.000
  21
 222.000
  31
0.0
   0
TEXT
   5
54F
 100
AcDbEntity
   8
LEVEL003
  62
3
 100
AcDbText
  10
 810.000
  20
 345.000
  30
0.0
  40
 12.0000
   1
各３ｍ
   7
STANDARD
 100
AcDbText
   0
LEADER
   5
550
 100
AcDbEntity
   8
LEVEL003
   6
CONTINUOUS
  62
3
 100
AcDbLeader
   3
GMM002
  73
0
  74
1
  75
0
  40
 12.0000
  41
0.0
  76
3
  10
 765.000
  20
 274.000
  30
0.0
  10
 795.000
  20
 345.000
  30
0.0
  10
 855.000
  20
 345.000
  30
0.0
  77
3
   0
LEADER
   5
551
 100
AcDbEntity
   8
LEVEL003
   6
CONTINUOUS
  62
3
 100
AcDbLeader
   3
GMM007
  73
0
  74
1
  75
0
  40
 12.0000
  41
0.0
  76
2
  10
 795.000
  20
 318.000
  30
0.0
  10
 810.000
  20
 345.000
  30
0.0
  77
3
   0
LINE
   5
552
 100
AcDbEntity
   8
LEVEL042
 100
AcDbLine
   6
CONTINUOUS
  62
25
  10
 1148.01
  20
 503.637
  30
0.0
  11
 1148.01
  21
 521.637
  31
0.0
   0
LINE
   5
553
 100
AcDbEntity
   8
LEVEL042
 100
AcDbLine
   6
CONTINUOUS
  62
25
  10
 986.011
  20
 503.637
  30
0.0
  11
 986.011
  21
 521.637
  31
0.0
   0
LINE
   5
554
 100
AcDbEntity
   8
LEVEL042
 100
AcDbLine
   6
CONTINUOUS
  62
25
  10
 986.011
  20
 503.637
  30
0.0
  11
 1148.01
  21
 503.637
  31
0.0
   0
LINE
   5
555
 100
AcDbEntity
   8
LEVEL042
 100
AcDbLine
   6
CONTINUOUS
  62
3
  10
 1030.22
  20
 468.988
  30
0.0
  11
 1110.22
  21
 468.988
  31
0.0
   0
TEXT
   5
556
 100
AcDbEntity
   8
LEVEL042
  62
3
 100
AcDbText
  10
 1031.90
  20
 469.000
  30
0.0
  40
 15.0000
   1
油圧回路図
   7
STANDARD
  72
1
  11
 1069.40
  21
 469.000
  31
0.0
 100
AcDbText
   0
LINE
   5
557
 100
AcDbEntity
   8
LEVEL042
 100
AcDbLine
   6
CONTINUOUS
  62
3
  10
 1051.01
  20
 637.249
  30
0.0
  11
 1051.01
  21
 657.249
  31
0.0
   0
LINE
   5
558
 100
AcDbEntity
   8
LEVEL042
 100
AcDbLine
   6
CONTINUOUS
  62
3
  10
 1026.01
  20
 657.249
  30
0.0
  11
 1051.01
  21
 657.249
  31
0.0
   0
CIRCLE
   5
559
 100
AcDbEntity
   8
LEVEL042
 100
AcDbCircle
   6
CONTINUOUS
  62
25
  10
 1051.01
  20
 647.249
  30
0.0
  40
 0.900000
   0
LINE
   5
55A
 100
AcDbEntity
   8
LEVEL042
 100
AcDbLine
   6
CONTINUOUS
  62
3
  10
 1026.01
  20
 637.249
  30
0.0
  11
 1051.01
  21
 637.249
  31
0.0
   0
CIRCLE
   5
55B
 100
AcDbEntity
   8
LEVEL042
 100
AcDbCircle
   6
CONTINUOUS
  62
3
  10
 1017.37
  20
 633.889
  30
0.0
  40
 1.34400
   0
CIRCLE
   5
55C
 100
AcDbEntity
   8
LEVEL042
 100
AcDbCircle
   6
CONTINUOUS
  62
3
  10
 1013.05
  20
 640.609
  30
0.0
  40
 1.34400
   0
LINE
   5
55D
 100
AcDbEntity
   8
LEVEL042
 100
AcDbLine
   6
CONTINUOUS
  62
3
  10
 1008.73
  20
 640.609
  30
0.0
  11
 1007.89
  21
 642.625
  31
0.0
   0
LINE
   5
55E
 100
AcDbEntity
   8
LEVEL042
 100
AcDbLine
   6
CONTINUOUS
  62
3
  10
 1007.89
  20
 642.625
  30
0.0
  11
 1007.05
  21
 640.609
  31
0.0
   0
LINE
   5
55F
 100
AcDbEntity
   8
LEVEL042
 100
AcDbLine
   6
CONTINUOUS
  62
3
  10
 1007.05
  20
 640.609
  30
0.0
  11
 1006.21
  21
 638.593
  31
0.0
   0
LINE
   5
560
 100
AcDbEntity
   8
LEVEL042
 100
AcDbLine
   6
CONTINUOUS
  62
3
  10
 1006.21
  20
 638.593
  30
0.0
  11
 1005.37
  21
 640.609
  31
0.0
   0
LINE
   5
561
 100
AcDbEntity
   8
LEVEL042
 100
AcDbLine
   6
CONTINUOUS
  62
3
  10
 1005.37
  20
 640.609
  30
0.0
  11
 1004.53
  21
 642.625
  31
0.0
   0
LINE
   5
562
 100
AcDbEntity
   8
LEVEL042
 100
AcDbLine
   6
CONTINUOUS
  62
3
  10
 1004.53
  20
 642.625
  30
0.0
  11
 1003.69
  21
 640.609
  31
0.0
   0
LINE
   5
563
 100
AcDbEntity
   8
LEVEL042
 100
AcDbLine
   6
CONTINUOUS
  62
3
  10
 1003.69
  20
 640.609
  30
0.0
  11
 1002.85
  21
 638.593
  31
0.0
   0
LINE
   5
564
 100
AcDbEntity
   8
LEVEL042
 100
AcDbLine
   6
CONTINUOUS
  62
3
  10
 1026.01
  20
 630.529
  30
0.0
  11
 1026.01
  21
 643.969
  31
0.0
   0
LINE
   5
565
 100
AcDbEntity
   8
LEVEL042
 100
AcDbLine
   6
CONTINUOUS
  62
3
  10
 1026.01
  20
 643.969
  30
0.0
  11
 1008.73
  21
 643.969
  31
0.0
   0
LINE
   5
566
 100
AcDbEntity
   8
LEVEL042
 100
AcDbLine
   6
CONTINUOUS
  62
3
  10
 1008.73
  20
 643.969
  30
0.0
  11
 1008.73
  21
 630.529
  31
0.0
   0
LINE
   5
567
 100
AcDbEntity
   8
LEVEL042
 100
AcDbLine
   6
CONTINUOUS
  62
3
  10
 1008.73
  20
 630.529
  30
0.0
  11
 1026.01
  21
 630.529
  31
0.0
   0
CIRCLE
   5
568
 100
AcDbEntity
   8
LEVEL042
 100
AcDbCircle
   6
CONTINUOUS
  62
3
  10
 1021.69
  20
 640.609
  30
0.0
  40
 1.34400
   0
LINE
   5
569
 100
AcDbEntity
   8
LEVEL042
 100
AcDbLine
   6
CONTINUOUS
  62
3
  10
 1017.89
  20
 635.126
  30
0.0
  11
 1020.98
  21
 642.372
  31
0.0
   0
CIRCLE
   5
56A
 100
AcDbEntity
   8
LEVEL042
 100
AcDbCircle
   6
CONTINUOUS
  62
3
  10
 1017.61
  20
 657.249
  30
0.0
  40
 8.40000
   0
LEADER
   5
56B
 100
AcDbEntity
   8
LEVEL042
   6
CONTINUOUS
  62
3
 100
AcDbLeader
   3
GMM008
  73
0
  74
1
  75
0
  40
 8.40000
  41
0.0
  76
2
  10
 1012.86
  20
 662.001
  30
0.0
  10
 1022.36
  20
 652.497
  30
0.0
  77
3
   0
LINE
   5
56C
 100
AcDbEntity
   8
LEVEL042
 100
AcDbLine
   6
CONTINUOUS
  62
3
  10
 1073.91
  20
 681.862
  30
0.0
  11
 1076.01
  21
 681.862
  31
0.0
   0
LINE
   5
56D
 100
AcDbEntity
   8
LEVEL042
 100
AcDbLine
   6
CONTINUOUS
  62
3
  10
 1076.01
  20
 681.862
  30
0.0
  11
 1078.11
  21
 681.862
  31
0.0
   0
CIRCLE
   5
56E
 100
AcDbEntity
   8
LEVEL042
 100
AcDbCircle
   6
CONTINUOUS
  62
25
  10
 1076.01
  20
 647.249
  30
0.0
  40
 0.900000
   0
LINE
   5
56F
 100
AcDbEntity
   8
LEVEL042
 100
AcDbLine
   6
DASHDOT
  62
1
  10
 975.000
  20
 495.000
  30
0.0
  11
 975.000
  21
 675.000
  31
0.0
   0
LINE
   5
570
 100
AcDbEntity
   8
LEVEL042
 100
AcDbLine
   6
DASHDOT
  62
1
  10
 975.000
  20
 675.000
  30
0.0
  11
 1170.00
  21
 675.000
  31
0.0
   0
LINE
   5
571
 100
AcDbEntity
   8
LEVEL042
 100
AcDbLine
   6
DASHDOT
  62
1
  10
 1170.00
  20
 675.000
  30
0.0
  11
 1170.00
  21
 495.000
  31
0.0
   0
LINE
   5
572
 100
AcDbEntity
   8
LEVEL042
 100
AcDbLine
   6
DASHDOT
  62
1
  10
 1170.00
  20
 495.000
  30
0.0
  11
 975.000
  21
 495.000
  31
0.0
   0
TEXT
   5
573
 100
AcDbEntity
   8
LEVEL042
  62
3
 100
AcDbText
  10
 1140.00
  20
 705.000
  30
0.0
  40
 12.0000
   1
タンクポート
   7
STANDARD
 100
AcDbText
   0
TEXT
   5
574
 100
AcDbEntity
   8
LEVEL042
  62
3
 100
AcDbText
  10
 1140.00
  20
 689.000
  30
0.0
  40
 12.0000
   1
Ｒｃ３／８
   7
STANDARD
 100
AcDbText
   0
LEADER
   5
575
 100
AcDbEntity
   8
LEVEL042
   6
CONTINUOUS
  62
3
 100
AcDbLeader
   3
GMM002
  73
0
  74
1
  75
0
  40
 12.0000
  41
0.0
  76
3
  10
 1125.00
  20
 681.862
  30
0.0
  10
 1140.00
  20
 705.000
  30
0.0
  10
 1215.00
  20
 705.000
  30
0.0
  77
3
   0
TEXT
   5
576
 100
AcDbEntity
   8
LEVEL042
  62
3
 100
AcDbText
  10
 1005.00
  20
 705.000
  30
0.0
  40
 12.0000
   1
加圧口
   7
STANDARD
 100
AcDbText
   0
TEXT
   5
577
 100
AcDbEntity
   8
LEVEL042
  62
3
 100
AcDbText
  10
 1005.00
  20
 689.000
  30
0.0
  40
 12.0000
   1
Ｒｃ３／８
   7
STANDARD
 100
AcDbText
   0
LEADER
   5
578
 100
AcDbEntity
   8
LEVEL042
   6
CONTINUOUS
  62
3
 100
AcDbLeader
   3
GMM004
  73
0
  74
1
  75
0
  40
 9.45000
  41
0.0
  76
3
  10
 1076.01
  20
 681.862
  30
0.0
  10
 1065.00
  20
 705.000
  30
0.0
  10
 1005.00
  20
 705.000
  30
0.0
  77
3
   0
LINE
   5
579
 100
AcDbEntity
   8
LEVEL042
 100
AcDbLine
   6
CONTINUOUS
  62
3
  10
 1122.90
  20
 681.862
  30
0.0
  11
 1125.00
  21
 681.862
  31
0.0
   0
LINE
   5
57A
 100
AcDbEntity
   8
LEVEL042
 100
AcDbLine
   6
CONTINUOUS
  62
3
  10
 1125.00
  20
 681.862
  30
0.0
  11
 1127.10
  21
 681.862
  31
0.0
   0
LINE
   5
57B
 100
AcDbEntity
   8
LEVEL042
 100
AcDbLine
   6
CONTINUOUS
  62
25
  10
 1125.00
  20
 660.000
  30
0.0
  11
 1125.00
  21
 681.862
  31
0.0
   0
LINE
   5
57C
 100
AcDbEntity
   8
LEVEL042
 100
AcDbLine
   6
CONTINUOUS
  62
3
  10
 1117.50
  20
 667.500
  30
0.0
  11
 1117.50
  21
 660.000
  31
0.0
   0
LINE
   5
57D
 100
AcDbEntity
   8
LEVEL042
 100
AcDbLine
   6
CONTINUOUS
  62
3
  10
 1117.50
  20
 660.000
  30
0.0
  11
 1132.50
  21
 660.000
  31
0.0
   0
LINE
   5
57E
 100
AcDbEntity
   8
LEVEL042
 100
AcDbLine
   6
CONTINUOUS
  62
3
  10
 1132.50
  20
 660.000
  30
0.0
  11
 1132.50
  21
 667.500
  31
0.0
   0
MTEXT
   5
57F
 100
AcDbEntity
   8
LEVEL042
  62
25
 100
AcDbMText
  10
 1028.82
  20
 623.278
  30
0.0
  40
 12.0960
  41
0.0
  71
7
  72
1
   1
72MPa
   7
GMM002
   0
TEXT
   5
580
 100
AcDbEntity
   8
LEVEL011
  62
3
 100
AcDbText
  10
 848.569
  20
 130.958
  30
0.0
  40
 9.54545
   1
縮
  41
 1.43750
   7
STANDARD
  72
1
  11
 855.430
  21
 130.958
  31
0.0
 100
AcDbText
   0
TEXT
   5
581
 100
AcDbEntity
   8
LEVEL011
  62
3
 100
AcDbText
  10
 848.139
  20
 160.071
  30
0.0
  40
 9.54545
   1
伸
  41
 1.43750
   7
STANDARD
  72
1
  11
 855.000
  21
 160.071
  31
0.0
 100
AcDbText
   0
LINE
   5
582
 100
AcDbEntity
   8
0
 100
AcDbLine
   6
DASHDOT
  62
1
  10
 710.250
  20
 266.500
  30
0.0
  11
 710.250
  21
 275.000
  31
0.0
   0
LINE
   5
583
 100
AcDbEntity
   8
0
 100
AcDbLine
   6
DASHDOT
  62
1
  10
 710.250
  20
 275.000
  30
0.0
  11
 679.750
  21
 275.000
  31
0.0
   0
LINE
   5
584
 100
AcDbEntity
   8
0
 100
AcDbLine
   6
DASHDOT
  62
1
  10
 679.750
  20
 275.000
  30
0.0
  11
 679.750
  21
 266.500
  31
0.0
   0
LINE
   5
585
 100
AcDbEntity
   8
0
 100
AcDbLine
   6
DASHDOT
  62
1
  10
 707.500
  20
 210.000
  30
0.0
  11
 707.500
  21
 240.000
  31
0.0
   0
LINE
   5
586
 100
AcDbEntity
   8
0
 100
AcDbLine
   6
DASHDOT
  62
1
  10
 682.500
  20
 210.000
  30
0.0
  11
 682.500
  21
 240.000
  31
0.0
   0
LINE
   5
587
 100
AcDbEntity
   8
0
 100
AcDbLine
   6
DASHDOT
  62
1
  10
 675.500
  20
 251.500
  30
0.0
  11
 675.500
  21
 224.500
  31
0.0
   0
LINE
   5
588
 100
AcDbEntity
   8
0
 100
AcDbLine
   6
DASHDOT
  62
1
  10
 714.500
  20
 251.500
  30
0.0
  11
 714.500
  21
 224.500
  31
0.0
   0
LINE
   5
589
 100
AcDbEntity
   8
0
 100
AcDbLine
   6
DOT
  62
3
  10
 718.500
  20
 222.000
  30
0.0
  11
 718.500
  21
 237.000
  31
0.0
   0
LINE
   5
58A
 100
AcDbEntity
   8
0
 100
AcDbLine
   6
DOT
  62
3
  10
 671.500
  20
 222.000
  30
0.0
  11
 671.500
  21
 237.000
  31
0.0
   0
LINE
   5
58B
 100
AcDbEntity
   8
0
 100
AcDbLine
   6
DOT
  62
3
  10
 671.500
  20
 237.000
  30
0.0
  11
 718.500
  21
 237.000
  31
0.0
   0
LINE
   5
58C
 100
AcDbEntity
   8
0
 100
AcDbLine
   6
DOT
  62
3
  10
 672.500
  20
 237.000
  30
0.0
  11
 672.500
  21
 239.500
  31
0.0
   0
LINE
   5
58D
 100
AcDbEntity
   8
0
 100
AcDbLine
   6
DOT
  62
3
  10
 672.500
  20
 239.500
  30
0.0
  11
 679.750
  21
 239.500
  31
0.0
   0
LINE
   5
58E
 100
AcDbEntity
   8
0
 100
AcDbLine
   6
DOT
  62
3
  10
 679.750
  20
 239.500
  30
0.0
  11
 679.750
  21
 266.500
  31
0.0
   0
LINE
   5
58F
 100
AcDbEntity
   8
0
 100
AcDbLine
   6
DOT
  62
3
  10
 679.750
  20
 266.500
  30
0.0
  11
 710.250
  21
 266.500
  31
0.0
   0
LINE
   5
590
 100
AcDbEntity
   8
0
 100
AcDbLine
   6
DOT
  62
3
  10
 710.250
  20
 266.500
  30
0.0
  11
 710.250
  21
 239.500
  31
0.0
   0
LINE
   5
591
 100
AcDbEntity
   8
0
 100
AcDbLine
   6
DOT
  62
3
  10
 710.250
  20
 239.500
  30
0.0
  11
 717.500
  21
 239.500
  31
0.0
   0
LINE
   5
592
 100
AcDbEntity
   8
0
 100
AcDbLine
   6
DOT
  62
3
  10
 717.500
  20
 239.500
  30
0.0
  11
 717.500
  21
 237.000
  31
0.0
   0
ARC
   5
593
 100
AcDbEntity
   8
0
   6
DOT
  62
3
 100
AcDbCircle
  10
 673.850
  20
 240.165
  30
0.0
  40
 1.10000
 100
AcDbArc
  50
 106.240
  51
 180.000
   0
ARC
   5
594
 100
AcDbEntity
   8
0
   6
DOT
  62
3
 100
AcDbCircle
  10
 675.500
  20
 234.500
  30
0.0
  40
 7.00000
 100
AcDbArc
  50
 93.2758
  51
 106.240
   0
ARC
   5
595
 100
AcDbEntity
   8
0
   6
DOT
  62
3
 100
AcDbCircle
  10
 675.500
  20
 234.500
  30
0.0
  40
 7.00000
 100
AcDbArc
  50
 73.7600
  51
 86.7242
   0
ARC
   5
596
 100
AcDbEntity
   8
0
   6
DOT
  62
3
 100
AcDbCircle
  10
 677.150
  20
 240.165
  30
0.0
  40
 1.10000
 100
AcDbArc
  50
 0.116952E-9
  51
 73.7600
   0
LINE
   5
597
 100
AcDbEntity
   8
0
 100
AcDbLine
   6
DOT
  62
3
  10
 672.750
  20
 240.165
  30
0.0
  11
 672.750
  21
 239.500
  31
0.0
   0
LINE
   5
598
 100
AcDbEntity
   8
0
 100
AcDbLine
   6
DOT
  62
3
  10
 672.750
  20
 239.500
  30
0.0
  11
 678.250
  21
 239.500
  31
0.0
   0
LINE
   5
599
 100
AcDbEntity
   8
0
 100
AcDbLine
   6
DOT
  62
3
  10
 678.250
  20
 239.500
  30
0.0
  11
 678.250
  21
 240.165
  31
0.0
   0
LINE
   5
59A
 100
AcDbEntity
   8
0
 100
AcDbLine
   6
DOT
  62
3
  10
 675.100
  20
 241.489
  30
0.0
  11
 675.100
  21
 240.400
  31
0.0
   0
LINE
   5
59B
 100
AcDbEntity
   8
0
 100
AcDbLine
   6
DOT
  62
3
  10
 675.100
  20
 240.400
  30
0.0
  11
 675.900
  21
 240.400
  31
0.0
   0
LINE
   5
59C
 100
AcDbEntity
   8
0
 100
AcDbLine
   6
DOT
  62
3
  10
 675.900
  20
 240.400
  30
0.0
  11
 675.900
  21
 241.489
  31
0.0
   0
ARC
   5
59D
 100
AcDbEntity
   8
0
   6
DOT
  62
3
 100
AcDbCircle
  10
 716.150
  20
 240.165
  30
0.0
  40
 1.10000
 100
AcDbArc
  50
0.0
  51
 73.7600
   0
ARC
   5
59E
 100
AcDbEntity
   8
0
   6
DOT
  62
3
 100
AcDbCircle
  10
 714.500
  20
 234.500
  30
0.0
  40
 7.00000
 100
AcDbArc
  50
 73.7600
  51
 86.7242
   0
ARC
   5
59F
 100
AcDbEntity
   8
0
   6
DOT
  62
3
 100
AcDbCircle
  10
 714.500
  20
 234.500
  30
0.0
  40
 7.00000
 100
AcDbArc
  50
 93.2758
  51
 106.240
   0
ARC
   5
5A0
 100
AcDbEntity
   8
0
   6
DOT
  62
3
 100
AcDbCircle
  10
 712.850
  20
 240.165
  30
0.0
  40
 1.10000
 100
AcDbArc
  50
 106.240
  51
 180.000
   0
LINE
   5
5A1
 100
AcDbEntity
   8
0
 100
AcDbLine
   6
DOT
  62
3
  10
 717.250
  20
 240.165
  30
0.0
  11
 717.250
  21
 239.500
  31
0.0
   0
LINE
   5
5A2
 100
AcDbEntity
   8
0
 100
AcDbLine
   6
DOT
  62
3
  10
 717.250
  20
 239.500
  30
0.0
  11
 711.750
  21
 239.500
  31
0.0
   0
LINE
   5
5A3
 100
AcDbEntity
   8
0
 100
AcDbLine
   6
DOT
  62
3
  10
 711.750
  20
 239.500
  30
0.0
  11
 711.750
  21
 240.165
  31
0.0
   0
LINE
   5
5A4
 100
AcDbEntity
   8
0
 100
AcDbLine
   6
DOT
  62
3
  10
 714.900
  20
 241.489
  30
0.0
  11
 714.900
  21
 240.400
  31
0.0
   0
LINE
   5
5A5
 100
AcDbEntity
   8
0
 100
AcDbLine
   6
DOT
  62
3
  10
 714.900
  20
 240.400
  30
0.0
  11
 714.100
  21
 240.400
  31
0.0
   0
LINE
   5
5A6
 100
AcDbEntity
   8
0
 100
AcDbLine
   6
DOT
  62
3
  10
 714.100
  20
 240.400
  30
0.0
  11
 714.100
  21
 241.489
  31
0.0
   0
LINE
   5
5A7
 100
AcDbEntity
   8
0
 100
AcDbLine
   6
DASHDOT
  62
1
  10
 695.000
  20
 222.000
  30
0.0
  11
 695.000
  21
 285.000
  31
0.0
   0
LINE
   5
5A8
 100
AcDbEntity
   8
0
 100
AcDbLine
   6
DASHDOT
  62
1
  10
 327.800
  20
 684.500
  30
0.0
  11
 302.200
  21
 684.500
  31
0.0
   0
LINE
   5
5A9
 100
AcDbEntity
   8
0
 100
AcDbLine
   6
DASHDOT
  62
1
  10
 315.000
  20
 697.300
  30
0.0
  11
 315.000
  21
 671.700
  31
0.0
   0
LINE
   5
5AA
 100
AcDbEntity
   8
0
 100
AcDbLine
   6
DASHDOT
  62
1
  10
 327.800
  20
 645.500
  30
0.0
  11
 302.200
  21
 645.500
  31
0.0
   0
LINE
   5
5AB
 100
AcDbEntity
   8
0
 100
AcDbLine
   6
DASHDOT
  62
1
  10
 315.000
  20
 632.700
  30
0.0
  11
 315.000
  21
 658.300
  31
0.0
   0
LINE
   5
5AC
 100
AcDbEntity
   8
0
 100
AcDbLine
   6
DOT
  62
3
  10
 308.000
  20
 642.500
  30
0.0
  11
 322.000
  21
 642.500
  31
0.0
   0
LINE
   5
5AD
 100
AcDbEntity
   8
0
 100
AcDbLine
   6
DOT
  62
3
  10
 322.000
  20
 642.500
  30
0.0
  11
 322.000
  21
 687.500
  31
0.0
   0
LINE
   5
5AE
 100
AcDbEntity
   8
0
 100
AcDbLine
   6
DOT
  62
3
  10
 322.000
  20
 687.500
  30
0.0
  11
 308.000
  21
 687.500
  31
0.0
   0
LINE
   5
5AF
 100
AcDbEntity
   8
0
 100
AcDbLine
   6
DOT
  62
3
  10
 308.000
  20
 687.500
  30
0.0
  11
 308.000
  21
 642.500
  31
0.0
   0
LINE
   5
5B0
 100
AcDbEntity
   8
0
 100
AcDbLine
   6
DOT
  62
3
  10
 307.500
  20
 641.500
  30
0.0
  11
 322.500
  21
 641.500
  31
0.0
   0
LINE
   5
5B1
 100
AcDbEntity
   8
0
 100
AcDbLine
   6
DOT
  62
3
  10
 322.500
  20
 641.500
  30
0.0
  11
 322.500
  21
 688.500
  31
0.0
   0
LINE
   5
5B2
 100
AcDbEntity
   8
0
 100
AcDbLine
   6
DOT
  62
3
  10
 307.500
  20
 641.500
  30
0.0
  11
 307.500
  21
 688.500
  31
0.0
   0
LINE
   5
5B3
 100
AcDbEntity
   8
0
 100
AcDbLine
   6
DOT
  62
3
  10
 307.500
  20
 688.500
  30
0.0
  11
 322.500
  21
 688.500
  31
0.0
   0
LINE
   5
5B4
 100
AcDbEntity
   8
0
 100
AcDbLine
   6
DOT
  62
3
  10
 322.000
  20
 680.250
  30
0.0
  11
 308.000
  21
 680.250
  31
0.0
   0
LINE
   5
5B5
 100
AcDbEntity
   8
0
 100
AcDbLine
   6
DOT
  62
3
  10
 308.000
  20
 649.750
  30
0.0
  11
 322.000
  21
 649.750
  31
0.0
   0
CIRCLE
   5
5B6
 100
AcDbEntity
   8
0
 100
AcDbCircle
   6
DOT
  62
3
  10
 315.000
  20
 684.500
  30
0.0
  40
 2.80000
   0
LINE
   5
5B7
 100
AcDbEntity
   8
0
 100
AcDbLine
   6
DOT
  62
3
  10
 316.500
  20
 684.760
  30
0.0
  11
 315.576
  21
 684.760
  31
0.0
   0
LINE
   5
5B8
 100
AcDbEntity
   8
0
 100
AcDbLine
   6
DOT
  62
3
  10
 315.576
  20
 684.760
  30
0.0
  11
 315.260
  21
 685.076
  31
0.0
   0
LINE
   5
5B9
 100
AcDbEntity
   8
0
 100
AcDbLine
   6
DOT
  62
3
  10
 315.260
  20
 685.076
  30
0.0
  11
 315.260
  21
 686.000
  31
0.0
   0
LINE
   5
5BA
 100
AcDbEntity
   8
0
 100
AcDbLine
   6
DOT
  62
3
  10
 315.260
  20
 686.000
  30
0.0
  11
 314.740
  21
 686.000
  31
0.0
   0
LINE
   5
5BB
 100
AcDbEntity
   8
0
 100
AcDbLine
   6
DOT
  62
3
  10
 314.740
  20
 686.000
  30
0.0
  11
 314.740
  21
 685.076
  31
0.0
   0
LINE
   5
5BC
 100
AcDbEntity
   8
0
 100
AcDbLine
   6
DOT
  62
3
  10
 314.740
  20
 685.076
  30
0.0
  11
 314.424
  21
 684.760
  31
0.0
   0
LINE
   5
5BD
 100
AcDbEntity
   8
0
 100
AcDbLine
   6
DOT
  62
3
  10
 314.424
  20
 684.760
  30
0.0
  11
 313.500
  21
 684.760
  31
0.0
   0
LINE
   5
5BE
 100
AcDbEntity
   8
0
 100
AcDbLine
   6
DOT
  62
3
  10
 313.500
  20
 684.760
  30
0.0
  11
 313.500
  21
 684.240
  31
0.0
   0
LINE
   5
5BF
 100
AcDbEntity
   8
0
 100
AcDbLine
   6
DOT
  62
3
  10
 313.500
  20
 684.240
  30
0.0
  11
 314.424
  21
 684.240
  31
0.0
   0
LINE
   5
5C0
 100
AcDbEntity
   8
0
 100
AcDbLine
   6
DOT
  62
3
  10
 314.424
  20
 684.240
  30
0.0
  11
 314.740
  21
 683.924
  31
0.0
   0
LINE
   5
5C1
 100
AcDbEntity
   8
0
 100
AcDbLine
   6
DOT
  62
3
  10
 314.740
  20
 683.924
  30
0.0
  11
 314.740
  21
 683.000
  31
0.0
   0
LINE
   5
5C2
 100
AcDbEntity
   8
0
 100
AcDbLine
   6
DOT
  62
3
  10
 314.740
  20
 683.000
  30
0.0
  11
 315.260
  21
 683.000
  31
0.0
   0
LINE
   5
5C3
 100
AcDbEntity
   8
0
 100
AcDbLine
   6
DOT
  62
3
  10
 315.260
  20
 683.000
  30
0.0
  11
 315.260
  21
 683.924
  31
0.0
   0
LINE
   5
5C4
 100
AcDbEntity
   8
0
 100
AcDbLine
   6
DOT
  62
3
  10
 315.260
  20
 683.924
  30
0.0
  11
 315.576
  21
 684.240
  31
0.0
   0
LINE
   5
5C5
 100
AcDbEntity
   8
0
 100
AcDbLine
   6
DOT
  62
3
  10
 315.576
  20
 684.240
  30
0.0
  11
 316.500
  21
 684.240
  31
0.0
   0
LINE
   5
5C6
 100
AcDbEntity
   8
0
 100
AcDbLine
   6
DOT
  62
3
  10
 316.500
  20
 684.240
  30
0.0
  11
 316.500
  21
 684.760
  31
0.0
   0
CIRCLE
   5
5C7
 100
AcDbEntity
   8
0
 100
AcDbCircle
   6
DOT
  62
3
  10
 315.000
  20
 645.500
  30
0.0
  40
 2.80000
   0
LINE
   5
5C8
 100
AcDbEntity
   8
0
 100
AcDbLine
   6
DOT
  62
3
  10
 316.500
  20
 645.240
  30
0.0
  11
 315.576
  21
 645.240
  31
0.0
   0
LINE
   5
5C9
 100
AcDbEntity
   8
0
 100
AcDbLine
   6
DOT
  62
3
  10
 315.576
  20
 645.240
  30
0.0
  11
 315.260
  21
 644.924
  31
0.0
   0
LINE
   5
5CA
 100
AcDbEntity
   8
0
 100
AcDbLine
   6
DOT
  62
3
  10
 315.260
  20
 644.924
  30
0.0
  11
 315.260
  21
 644.000
  31
0.0
   0
LINE
   5
5CB
 100
AcDbEntity
   8
0
 100
AcDbLine
   6
DOT
  62
3
  10
 315.260
  20
 644.000
  30
0.0
  11
 314.740
  21
 644.000
  31
0.0
   0
LINE
   5
5CC
 100
AcDbEntity
   8
0
 100
AcDbLine
   6
DOT
  62
3
  10
 314.740
  20
 644.000
  30
0.0
  11
 314.740
  21
 644.924
  31
0.0
   0
LINE
   5
5CD
 100
AcDbEntity
   8
0
 100
AcDbLine
   6
DOT
  62
3
  10
 314.740
  20
 644.924
  30
0.0
  11
 314.424
  21
 645.240
  31
0.0
   0
LINE
   5
5CE
 100
AcDbEntity
   8
0
 100
AcDbLine
   6
DOT
  62
3
  10
 314.424
  20
 645.240
  30
0.0
  11
 313.500
  21
 645.240
  31
0.0
   0
LINE
   5
5CF
 100
AcDbEntity
   8
0
 100
AcDbLine
   6
DOT
  62
3
  10
 313.500
  20
 645.240
  30
0.0
  11
 313.500
  21
 645.760
  31
0.0
   0
LINE
   5
5D0
 100
AcDbEntity
   8
0
 100
AcDbLine
   6
DOT
  62
3
  10
 313.500
  20
 645.760
  30
0.0
  11
 314.424
  21
 645.760
  31
0.0
   0
LINE
   5
5D1
 100
AcDbEntity
   8
0
 100
AcDbLine
   6
DOT
  62
3
  10
 314.424
  20
 645.760
  30
0.0
  11
 314.740
  21
 646.076
  31
0.0
   0
LINE
   5
5D2
 100
AcDbEntity
   8
0
 100
AcDbLine
   6
DOT
  62
3
  10
 314.740
  20
 646.076
  30
0.0
  11
 314.740
  21
 647.000
  31
0.0
   0
LINE
   5
5D3
 100
AcDbEntity
   8
0
 100
AcDbLine
   6
DOT
  62
3
  10
 314.740
  20
 647.000
  30
0.0
  11
 315.260
  21
 647.000
  31
0.0
   0
LINE
   5
5D4
 100
AcDbEntity
   8
0
 100
AcDbLine
   6
DOT
  62
3
  10
 315.260
  20
 647.000
  30
0.0
  11
 315.260
  21
 646.076
  31
0.0
   0
LINE
   5
5D5
 100
AcDbEntity
   8
0
 100
AcDbLine
   6
DOT
  62
3
  10
 315.260
  20
 646.076
  30
0.0
  11
 315.576
  21
 645.760
  31
0.0
   0
LINE
   5
5D6
 100
AcDbEntity
   8
0
 100
AcDbLine
   6
DOT
  62
3
  10
 315.576
  20
 645.760
  30
0.0
  11
 316.500
  21
 645.760
  31
0.0
   0
LINE
   5
5D7
 100
AcDbEntity
   8
0
 100
AcDbLine
   6
DOT
  62
3
  10
 316.500
  20
 645.760
  30
0.0
  11
 316.500
  21
 645.240
  31
0.0
   0
LINE
   5
5D8
 100
AcDbEntity
   8
LEVEL019
 100
AcDbLine
   6
DASHDOT
  62
1
  10
 255.000
  20
 715.000
  30
0.0
  11
 255.000
  21
 485.000
  31
0.0
   0
LINE
   5
5D9
 100
AcDbEntity
   8
LEVEL044
 100
AcDbLine
   6
CONTINUOUS
  62
3
  10
 615.000
  20
 510.000
  30
0.0
  11
 690.183
  21
 510.000
  31
0.0
   0
TEXT
   5
5DA
 100
AcDbEntity
   8
LEVEL044
  62
3
 100
AcDbText
  10
 615.092
  20
 510.000
  30
0.0
  40
 15.0000
   1
電気回路図
   7
STANDARD
  72
1
  11
 652.592
  21
 510.000
  31
0.0
 100
AcDbText
   0
LINE
   5
5DB
 100
AcDbEntity
   8
LEVEL021
 100
AcDbLine
   6
DASHDOT
  62
1
  10
 196.499
  20
 397.000
  30
0.0
  11
 196.499
  21
 432.184
  31
0.0
   0
LINE
   5
5DC
 100
AcDbEntity
   8
LEVEL021
 100
AcDbLine
   6
DOT
  62
3
  10
 199.749
  20
 413.950
  30
0.0
  11
 196.499
  21
 413.950
  31
0.0
   0
LINE
   5
5DD
 100
AcDbEntity
   8
LEVEL021
 100
AcDbLine
   6
DOT
  62
3
  10
 199.749
  20
 402.000
  30
0.0
  11
 199.749
  21
 413.950
  31
0.0
   0
LINE
   5
5DE
 100
AcDbEntity
   8
LEVEL021
 100
AcDbLine
   6
DOT
  62
3
  10
 202.499
  20
 416.700
  30
0.0
  11
 199.749
  21
 413.950
  31
0.0
   0
LINE
   5
5DF
 100
AcDbEntity
   8
LEVEL021
 100
AcDbLine
   6
DOT
  62
3
  10
 202.499
  20
 417.000
  30
0.0
  11
 202.499
  21
 416.700
  31
0.0
   0
LINE
   5
5E0
 100
AcDbEntity
   8
LEVEL021
 100
AcDbLine
   6
DOT
  62
3
  10
 204.176
  20
 417.000
  30
0.0
  11
 204.176
  21
 438.532
  31
0.0
   0
LINE
   5
5E1
 100
AcDbEntity
   8
LEVEL021
 100
AcDbLine
   6
DOT
  62
3
  10
 193.249
  20
 402.000
  30
0.0
  11
 193.249
  21
 413.950
  31
0.0
   0
LINE
   5
5E2
 100
AcDbEntity
   8
LEVEL021
 100
AcDbLine
   6
DOT
  62
3
  10
 193.249
  20
 413.950
  30
0.0
  11
 196.499
  21
 413.950
  31
0.0
   0
LINE
   5
5E3
 100
AcDbEntity
   8
LEVEL021
 100
AcDbLine
   6
DOT
  62
3
  10
 190.499
  20
 416.700
  30
0.0
  11
 190.499
  21
 417.000
  31
0.0
   0
LINE
   5
5E4
 100
AcDbEntity
   8
LEVEL021
 100
AcDbLine
   6
DOT
  62
3
  10
 190.499
  20
 416.700
  30
0.0
  11
 193.249
  21
 413.950
  31
0.0
   0
LINE
   5
5E5
 100
AcDbEntity
   8
LEVEL021
 100
AcDbLine
   6
DOT
  62
3
  10
 190.499
  20
 416.700
  30
0.0
  11
 202.499
  21
 416.700
  31
0.0
   0
LINE
   5
5E6
 100
AcDbEntity
   8
LEVEL021
 100
AcDbLine
   6
DOT
  62
3
  10
 204.176
  20
 417.000
  30
0.0
  11
 188.176
  21
 417.000
  31
0.0
   0
LINE
   5
5E7
 100
AcDbEntity
   8
LEVEL021
 100
AcDbLine
   6
CONTINUOUS
  62
3
  10
 187.824
  20
 417.000
  30
0.0
  11
 203.080
  21
 439.491
  31
0.0
   0
LINE
   5
5E8
 100
AcDbEntity
   8
LEVEL021
 100
AcDbLine
   6
CONTINUOUS
  62
3
  10
 187.824
  20
 417.000
  30
0.0
  11
 187.824
  21
 402.000
  31
0.0
   0
LINE
   5
5E9
 100
AcDbEntity
   8
LEVEL021
 100
AcDbLine
   6
CONTINUOUS
  62
3
  10
 206.224
  20
 402.000
  30
0.0
  11
 206.224
  21
 431.500
  31
0.0
   0
LINE
   5
5EA
 100
AcDbEntity
   8
LEVEL021
 100
AcDbLine
   6
CONTINUOUS
  62
3
  10
 207.324
  20
 402.000
  30
0.0
  11
 207.324
  21
 431.500
  31
0.0
   0
LINE
   5
5EB
 100
AcDbEntity
   8
LEVEL021
 100
AcDbLine
   6
DASHDOT
  62
1
  10
 313.501
  20
 397.000
  30
0.0
  11
 313.501
  21
 432.184
  31
0.0
   0
LINE
   5
5EC
 100
AcDbEntity
   8
LEVEL021
 100
AcDbLine
   6
DOT
  62
3
  10
 310.251
  20
 402.000
  30
0.0
  11
 310.251
  21
 413.950
  31
0.0
   0
LINE
   5
5ED
 100
AcDbEntity
   8
LEVEL021
 100
AcDbLine
   6
DOT
  62
3
  10
 307.501
  20
 416.700
  30
0.0
  11
 310.251
  21
 413.950
  31
0.0
   0
LINE
   5
5EE
 100
AcDbEntity
   8
LEVEL021
 100
AcDbLine
   6
DOT
  62
3
  10
 307.501
  20
 417.000
  30
0.0
  11
 307.501
  21
 416.700
  31
0.0
   0
LINE
   5
5EF
 100
AcDbEntity
   8
LEVEL021
 100
AcDbLine
   6
DOT
  62
3
  10
 310.251
  20
 413.950
  30
0.0
  11
 313.501
  21
 413.950
  31
0.0
   0
LINE
   5
5F0
 100
AcDbEntity
   8
LEVEL021
 100
AcDbLine
   6
DOT
  62
3
  10
 316.751
  20
 402.000
  30
0.0
  11
 316.751
  21
 413.950
  31
0.0
   0
LINE
   5
5F1
 100
AcDbEntity
   8
LEVEL021
 100
AcDbLine
   6
DOT
  62
3
  10
 316.751
  20
 413.950
  30
0.0
  11
 313.501
  21
 413.950
  31
0.0
   0
LINE
   5
5F2
 100
AcDbEntity
   8
LEVEL021
 100
AcDbLine
   6
DOT
  62
3
  10
 305.824
  20
 417.000
  30
0.0
  11
 305.824
  21
 438.532
  31
0.0
   0
LINE
   5
5F3
 100
AcDbEntity
   8
LEVEL021
 100
AcDbLine
   6
DOT
  62
3
  10
 319.501
  20
 417.000
  30
0.0
  11
 319.501
  21
 416.700
  31
0.0
   0
LINE
   5
5F4
 100
AcDbEntity
   8
LEVEL021
 100
AcDbLine
   6
DOT
  62
3
  10
 319.501
  20
 416.700
  30
0.0
  11
 316.751
  21
 413.950
  31
0.0
   0
LINE
   5
5F5
 100
AcDbEntity
   8
LEVEL021
 100
AcDbLine
   6
DOT
  62
3
  10
 305.824
  20
 417.000
  30
0.0
  11
 321.824
  21
 417.000
  31
0.0
   0
LINE
   5
5F6
 100
AcDbEntity
   8
LEVEL021
 100
AcDbLine
   6
DOT
  62
3
  10
 319.501
  20
 416.700
  30
0.0
  11
 307.501
  21
 416.700
  31
0.0
   0
LINE
   5
5F7
 100
AcDbEntity
   8
LEVEL021
 100
AcDbLine
   6
CONTINUOUS
  62
3
  10
 321.824
  20
 417.000
  30
0.0
  11
 306.567
  21
 439.491
  31
0.0
   0
LINE
   5
5F8
 100
AcDbEntity
   8
LEVEL021
 100
AcDbLine
   6
CONTINUOUS
  62
3
  10
 303.776
  20
 402.000
  30
0.0
  11
 303.776
  21
 431.500
  31
0.0
   0
LINE
   5
5F9
 100
AcDbEntity
   8
LEVEL021
 100
AcDbLine
   6
CONTINUOUS
  62
3
  10
 302.324
  20
 402.000
  30
0.0
  11
 302.324
  21
 431.500
  31
0.0
   0
LINE
   5
5FA
 100
AcDbEntity
   8
LEVEL021
 100
AcDbLine
   6
CONTINUOUS
  62
3
  10
 321.824
  20
 402.000
  30
0.0
  11
 321.824
  21
 417.000
  31
0.0
   0
ARC
   5
5FB
 100
AcDbEntity
   8
LEVEL021
   6
DOT
  62
3
 100
AcDbCircle
  10
 301.824
  20
 438.532
  30
0.0
  40
 4.00000
 100
AcDbArc
  50
0.0
  51
 62.0195
   0
LINE
   5
5FC
 100
AcDbEntity
   8
LEVEL021
 100
AcDbLine
   6
CONTINUOUS
  62
3
  10
 298.676
  20
 436.600
  30
0.0
  11
 211.324
  21
 436.600
  31
0.0
   0
LINE
   5
5FD
 100
AcDbEntity
   8
LEVEL021
 100
AcDbLine
   6
CONTINUOUS
  62
3
  10
 298.324
  20
 435.500
  30
0.0
  11
 211.324
  21
 435.500
  31
0.0
   0
ARC
   5
5FE
 100
AcDbEntity
   8
LEVEL021
   6
CONTINUOUS
  62
3
 100
AcDbCircle
  10
 298.676
  20
 431.500
  30
0.0
  40
 5.10000
 100
AcDbArc
  50
0.0
  51
 90.0000
   0
ARC
   5
5FF
 100
AcDbEntity
   8
LEVEL021
   6
CONTINUOUS
  62
3
 100
AcDbCircle
  10
 298.324
  20
 431.500
  30
0.0
  40
 4.00000
 100
AcDbArc
  50
0.0
  51
 90.0000
   0
ARC
   5
600
 100
AcDbEntity
   8
LEVEL021
   6
CONTINUOUS
  62
3
 100
AcDbCircle
  10
 299.947
  20
 435.000
  30
0.0
  40
 8.00000
 100
AcDbArc
  50
 34.1500
  51
 90.0000
   0
ARC
   5
601
 100
AcDbEntity
   8
LEVEL021
   6
DOT
  62
3
 100
AcDbCircle
  10
 208.176
  20
 438.532
  30
0.0
  40
 4.00000
 100
AcDbArc
  50
 117.981
  51
 180.000
   0
ARC
   5
602
 100
AcDbEntity
   8
LEVEL021
   6
CONTINUOUS
  62
3
 100
AcDbCircle
  10
 211.324
  20
 431.500
  30
0.0
  40
 5.10000
 100
AcDbArc
  50
 90.0000
  51
 180.000
   0
ARC
   5
603
 100
AcDbEntity
   8
LEVEL021
   6
CONTINUOUS
  62
3
 100
AcDbCircle
  10
 211.324
  20
 431.500
  30
0.0
  40
 4.00000
 100
AcDbArc
  50
 90.0000
  51
 180.000
   0
ARC
   5
604
 100
AcDbEntity
   8
LEVEL021
   6
CONTINUOUS
  62
3
 100
AcDbCircle
  10
 209.700
  20
 435.000
  30
0.0
  40
 8.00000
 100
AcDbArc
  50
 90.0000
  51
 145.850
   0
LINE
   5
605
 100
AcDbEntity
   8
LEVEL021
 100
AcDbLine
   6
CONTINUOUS
  62
3
  10
 299.947
  20
 443.000
  30
0.0
  11
 209.700
  21
 443.000
  31
0.0
   0
LINE
   5
606
 100
AcDbEntity
   8
LEVEL021
 100
AcDbLine
   6
DASHDOT
  62
1
  10
 630.000
  20
 397.000
  30
0.0
  11
 630.000
  21
 448.019
  31
0.0
   0
LINE
   5
607
 100
AcDbEntity
   8
LEVEL021
 100
AcDbLine
   6
DOT
  62
3
  10
 636.000
  20
 416.700
  30
0.0
  11
 633.250
  21
 413.950
  31
0.0
   0
LINE
   5
608
 100
AcDbEntity
   8
LEVEL021
 100
AcDbLine
   6
DOT
  62
3
  10
 624.000
  20
 416.700
  30
0.0
  11
 636.000
  21
 416.700
  31
0.0
   0
LINE
   5
609
 100
AcDbEntity
   8
LEVEL021
 100
AcDbLine
   6
DOT
  62
3
  10
 630.000
  20
 435.500
  30
0.0
  11
 640.573
  21
 436.425
  31
0.0
   0
LINE
   5
60A
 100
AcDbEntity
   8
LEVEL021
 100
AcDbLine
   6
DOT
  62
3
  10
 626.750
  20
 402.000
  30
0.0
  11
 626.750
  21
 413.950
  31
0.0
   0
LINE
   5
60B
 100
AcDbEntity
   8
LEVEL021
 100
AcDbLine
   6
DOT
  62
3
  10
 633.250
  20
 402.000
  30
0.0
  11
 633.250
  21
 413.950
  31
0.0
   0
LINE
   5
60C
 100
AcDbEntity
   8
LEVEL021
 100
AcDbLine
   6
DOT
  62
3
  10
 626.750
  20
 413.950
  30
0.0
  11
 630.000
  21
 413.950
  31
0.0
   0
LINE
   5
60D
 100
AcDbEntity
   8
LEVEL021
 100
AcDbLine
   6
DOT
  62
3
  10
 624.000
  20
 416.700
  30
0.0
  11
 624.000
  21
 417.000
  31
0.0
   0
LINE
   5
60E
 100
AcDbEntity
   8
LEVEL021
 100
AcDbLine
   6
DOT
  62
3
  10
 624.000
  20
 416.700
  30
0.0
  11
 626.750
  21
 413.950
  31
0.0
   0
LINE
   5
60F
 100
AcDbEntity
   8
LEVEL021
 100
AcDbLine
   6
DOT
  62
3
  10
 633.250
  20
 413.950
  30
0.0
  11
 630.000
  21
 413.950
  31
0.0
   0
LINE
   5
610
 100
AcDbEntity
   8
LEVEL021
 100
AcDbLine
   6
DOT
  62
3
  10
 630.000
  20
 435.500
  30
0.0
  11
 619.427
  21
 436.425
  31
0.0
   0
ARC
   5
611
 100
AcDbEntity
   8
LEVEL021
   6
DOT
  62
3
 100
AcDbCircle
  10
 619.601
  20
 438.417
  30
0.0
  40
 2.00000
 100
AcDbArc
  50
 180.904
  51
 265.000
   0
LINE
   5
612
 100
AcDbEntity
   8
LEVEL021
 100
AcDbLine
   6
DOT
  62
3
  10
 617.601
  20
 440.114
  30
0.0
  11
 617.601
  21
 438.386
  31
0.0
   0
LINE
   5
613
 100
AcDbEntity
   8
LEVEL021
 100
AcDbLine
   6
DOT
  62
3
  10
 636.000
  20
 417.000
  30
0.0
  11
 636.000
  21
 416.700
  31
0.0
   0
ARC
   5
614
 100
AcDbEntity
   8
LEVEL021
   6
DOT
  62
3
 100
AcDbCircle
  10
 640.399
  20
 438.417
  30
0.0
  40
 2.00000
 100
AcDbArc
  50
 275.000
  51
 359.096
   0
LINE
   5
615
 100
AcDbEntity
   8
LEVEL021
 100
AcDbLine
   6
DOT
  62
3
  10
 642.399
  20
 440.114
  30
0.0
  11
 642.399
  21
 438.386
  31
0.0
   0
LINE
   5
616
 100
AcDbEntity
   8
LEVEL021
 100
AcDbLine
   6
CONTINUOUS
  62
3
  10
 630.000
  20
 443.000
  30
0.0
  11
 640.573
  21
 442.075
  31
0.0
   0
LINE
   5
617
 100
AcDbEntity
   8
LEVEL021
 100
AcDbLine
   6
CONTINUOUS
  62
3
  10
 639.000
  20
 417.000
  30
0.0
  11
 621.000
  21
 417.000
  31
0.0
   0
LINE
   5
618
 100
AcDbEntity
   8
LEVEL021
 100
AcDbLine
   6
CONTINUOUS
  62
3
  10
 617.601
  20
 440.114
  30
0.0
  11
 617.000
  21
 402.000
  31
0.0
   0
LINE
   5
619
 100
AcDbEntity
   8
LEVEL021
 100
AcDbLine
   6
CONTINUOUS
  62
3
  10
 621.000
  20
 417.000
  30
0.0
  11
 621.000
  21
 434.191
  31
0.0
   0
LINE
   5
61A
 100
AcDbEntity
   8
LEVEL021
 100
AcDbLine
   6
CONTINUOUS
  62
3
  10
 630.000
  20
 417.000
  30
0.0
  11
 630.000
  21
 402.000
  31
0.0
   0
ARC
   5
61B
 100
AcDbEntity
   8
LEVEL021
   6
CONTINUOUS
  62
3
 100
AcDbCircle
  10
 624.842
  20
 434.126
  30
0.0
  40
 3.85559
 100
AcDbArc
  50
 133.844
  51
 156.671
   0
ARC
   5
61C
 100
AcDbEntity
   8
LEVEL021
   6
CONTINUOUS
  62
3
 100
AcDbCircle
  10
 624.693
  20
 434.191
  30
0.0
  40
 3.69345
 100
AcDbArc
  50
 156.671
  51
 180.000
   0
LINE
   5
61D
 100
AcDbEntity
   8
LEVEL021
 100
AcDbLine
   6
CONTINUOUS
  62
3
  10
 630.000
  20
 443.000
  30
0.0
  11
 619.427
  21
 442.075
  31
0.0
   0
ARC
   5
61E
 100
AcDbEntity
   8
LEVEL021
   6
CONTINUOUS
  62
3
 100
AcDbCircle
  10
 624.938
  20
 434.027
  30
0.0
  40
 3.99381
 100
AcDbArc
  50
 111.694
  51
 133.844
   0
ARC
   5
61F
 100
AcDbEntity
   8
LEVEL021
   6
CONTINUOUS
  62
3
 100
AcDbCircle
  10
 619.601
  20
 440.083
  30
0.0
  40
 2.00000
 100
AcDbArc
  50
 95.0000
  51
 179.096
   0
ARC
   5
620
 100
AcDbEntity
   8
LEVEL021
   6
CONTINUOUS
  62
3
 100
AcDbCircle
  10
 625.000
  20
 433.871
  30
0.0
  40
 4.16132
 100
AcDbArc
  50
 90.0000
  51
 111.694
   0
LINE
   5
621
 100
AcDbEntity
   8
LEVEL021
 100
AcDbLine
   6
CONTINUOUS
  62
3
  10
 642.399
  20
 440.114
  30
0.0
  11
 643.000
  21
 402.000
  31
0.0
   0
LINE
   5
622
 100
AcDbEntity
   8
LEVEL021
 100
AcDbLine
   6
CONTINUOUS
  62
3
  10
 639.000
  20
 417.000
  30
0.0
  11
 639.000
  21
 434.191
  31
0.0
   0
ARC
   5
623
 100
AcDbEntity
   8
LEVEL021
   6
CONTINUOUS
  62
3
 100
AcDbCircle
  10
 635.158
  20
 434.126
  30
0.0
  40
 3.85559
 100
AcDbArc
  50
 23.3292
  51
 46.1559
   0
ARC
   5
624
 100
AcDbEntity
   8
LEVEL021
   6
CONTINUOUS
  62
3
 100
AcDbCircle
  10
 635.307
  20
 434.191
  30
0.0
  40
 3.69345
 100
AcDbArc
  50
0.0
  51
 23.3292
   0
ARC
   5
625
 100
AcDbEntity
   8
LEVEL021
   6
CONTINUOUS
  62
3
 100
AcDbCircle
  10
 640.399
  20
 440.083
  30
0.0
  40
 2.00000
 100
AcDbArc
  50
 0.903882
  51
 85.0000
   0
ARC
   5
626
 100
AcDbEntity
   8
LEVEL021
   6
CONTINUOUS
  62
3
 100
AcDbCircle
  10
 635.000
  20
 433.871
  30
0.0
  40
 4.16132
 100
AcDbArc
  50
 68.3059
  51
 90.0000
   0
ARC
   5
627
 100
AcDbEntity
   8
LEVEL021
   6
CONTINUOUS
  62
3
 100
AcDbCircle
  10
 635.062
  20
 434.027
  30
0.0
  40
 3.99381
 100
AcDbArc
  50
 46.1559
  51
 68.3059
   0
DIMENSION
   5
628
 100
AcDbEntity
   8
LEVEL003
   6
CONTINUOUS
  62
3
 100
AcDbDimension
   2
*D15
  10
 120.000
  20
 443.000
  30
0.0
  11
 120.000
  21
 259.200
  31
0.0
  70
0
   1
\A1;約370
   3
GMM009
 100
AcDbAlignedDimension
  13
 177.500
  23
 75.4000
  33
0.0
  14
 209.700
  24
 443.000
  34
0.0
  50
 90.0000
 100
AcDbRotatedDimension
   0
LINE
   5
629
 100
AcDbEntity
   8
LEVEL026
 100
AcDbLine
   6
CONTINUOUS
  62
3
  10
 566.310
  20
 252.000
  30
0.0
  11
 589.310
  21
 252.000
  31
0.0
   0
CIRCLE
   5
62A
 100
AcDbEntity
   8
LEVEL042
 100
AcDbCircle
   6
CONTINUOUS
  62
25
  10
 1076.01
  20
 585.000
  30
0.0
  40
 0.900000
   0
LINE
   5
62B
 100
AcDbEntity
   8
LEVEL042
 100
AcDbLine
   6
CONTINUOUS
  62
25
  10
 1108.41
  20
 576.000
  30
0.0
  11
 1104.81
  21
 574.200
  31
0.0
   0
LINE
   5
62C
 100
AcDbEntity
   8
LEVEL042
 100
AcDbLine
   6
CONTINUOUS
  62
25
  10
 1104.81
  20
 577.800
  30
0.0
  11
 1108.41
  21
 576.000
  31
0.0
   0
LINE
   5
62D
 100
AcDbEntity
   8
LEVEL042
 100
AcDbLine
   6
CONTINUOUS
  62
25
  10
 1108.41
  20
 579.600
  30
0.0
  11
 1104.81
  21
 577.800
  31
0.0
   0
LINE
   5
62E
 100
AcDbEntity
   8
LEVEL042
 100
AcDbLine
   6
CONTINUOUS
  62
25
  10
 1104.81
  20
 581.400
  30
0.0
  11
 1108.41
  21
 579.600
  31
0.0
   0
LINE
   5
62F
 100
AcDbEntity
   8
LEVEL042
 100
AcDbLine
   6
CONTINUOUS
  62
25
  10
 1101.21
  20
 588.600
  30
0.0
  11
 1112.01
  21
 588.600
  31
0.0
   0
LINE
   5
630
 100
AcDbEntity
   8
LEVEL042
 100
AcDbLine
   6
CONTINUOUS
  62
25
  10
 1101.21
  20
 581.400
  30
0.0
  11
 1112.01
  21
 581.400
  31
0.0
   0
LINE
   5
631
 100
AcDbEntity
   8
LEVEL042
 100
AcDbLine
   6
CONTINUOUS
  62
25
  10
 1101.21
  20
 592.200
  30
0.0
  11
 1112.01
  21
 592.200
  31
0.0
   0
LINE
   5
632
 100
AcDbEntity
   8
LEVEL042
 100
AcDbLine
   6
CONTINUOUS
  62
25
  10
 1101.21
  20
 581.400
  30
0.0
  11
 1101.21
  21
 592.200
  31
0.0
   0
LINE
   5
633
 100
AcDbEntity
   8
LEVEL042
 100
AcDbLine
   6
CONTINUOUS
  62
25
  10
 1112.01
  20
 581.400
  30
0.0
  11
 1112.01
  21
 592.200
  31
0.0
   0
LINE
   5
634
 100
AcDbEntity
   8
LEVEL042
 100
AcDbLine
   6
DOT
  62
3
  10
 1106.61
  20
 592.200
  30
0.0
  11
 1106.61
  21
 595.800
  31
0.0
   0
LINE
   5
635
 100
AcDbEntity
   8
LEVEL042
 100
AcDbLine
   6
DOT
  62
3
  10
 1094.01
  20
 595.800
  30
0.0
  11
 1106.61
  21
 595.800
  31
0.0
   0
LINE
   5
636
 100
AcDbEntity
   8
LEVEL042
 100
AcDbLine
   6
CONTINUOUS
  62
3
  10
 1112.01
  20
 588.600
  30
0.0
  11
 1106.61
  21
 587.250
  31
0.0
   0
LINE
   5
637
 100
AcDbEntity
   8
LEVEL042
 100
AcDbLine
   6
CONTINUOUS
  62
3
  10
 1106.61
  20
 589.950
  30
0.0
  11
 1112.01
  21
 588.600
  31
0.0
   0
LINE
   5
638
 100
AcDbEntity
   8
LEVEL042
 100
AcDbLine
   6
DOT
  62
3
  10
 1094.01
  20
 589.157
  30
0.0
  11
 1101.21
  21
 585.000
  31
0.0
   0
LINE
   5
639
 100
AcDbEntity
   8
LEVEL042
 100
AcDbLine
   6
DOT
  62
3
  10
 1094.01
  20
 589.157
  30
0.0
  11
 1094.01
  21
 595.800
  31
0.0
   0
LINE
   5
63A
 100
AcDbEntity
   8
LEVEL042
 100
AcDbLine
   6
CONTINUOUS
  62
25
  10
 1075.11
  20
 585.000
  30
0.0
  11
 1101.21
  21
 585.000
  31
0.0
   0
LINE
   5
63B
 100
AcDbEntity
   8
LEVEL042
 100
AcDbLine
   6
CONTINUOUS
  62
25
  10
 1070.61
  20
 600.309
  30
0.0
  11
 1076.01
  21
 594.909
  31
0.0
   0
CIRCLE
   5
63C
 100
AcDbEntity
   8
LEVEL042
 100
AcDbCircle
   6
CONTINUOUS
  62
25
  10
 1076.01
  20
 600.000
  30
0.0
  40
 3.60000
   0
LINE
   5
63D
 100
AcDbEntity
   8
LEVEL042
 100
AcDbLine
   6
CONTINUOUS
  62
25
  10
 1081.41
  20
 600.309
  30
0.0
  11
 1076.01
  21
 594.909
  31
0.0
   0
LINE
   5
63E
 100
AcDbEntity
   8
LEVEL042
 100
AcDbLine
   6
CONTINUOUS
  62
25
  10
 1076.01
  20
 603.600
  30
0.0
  11
 1076.01
  21
 681.862
  31
0.0
   0
LINE
   5
63F
 100
AcDbEntity
   8
LEVEL042
 100
AcDbLine
   6
CONTINUOUS
  62
25
  10
 1112.01
  20
 585.000
  30
0.0
  11
 1125.00
  21
 585.000
  31
0.0
   0
LINE
   5
640
 100
AcDbEntity
   8
LEVEL042
 100
AcDbLine
   6
DASHDOT
  62
1
  10
 1088.61
  20
 570.000
  30
0.0
  11
 1132.50
  21
 570.000
  31
0.0
   0
LINE
   5
641
 100
AcDbEntity
   8
LEVEL042
 100
AcDbLine
   6
DASHDOT
  62
1
  10
 1132.50
  20
 570.000
  30
0.0
  11
 1132.50
  21
 615.000
  31
0.0
   0
LINE
   5
642
 100
AcDbEntity
   8
LEVEL042
 100
AcDbLine
   6
CONTINUOUS
  62
25
  10
 1058.01
  20
 510.000
  30
0.0
  11
 1049.01
  21
 515.196
  31
0.0
   0
LINE
   5
643
 100
AcDbEntity
   8
LEVEL042
 100
AcDbLine
   6
CONTINUOUS
  62
25
  10
 1040.01
  20
 510.000
  30
0.0
  11
 1049.01
  21
 515.196
  31
0.0
   0
LINE
   5
644
 100
AcDbEntity
   8
LEVEL042
 100
AcDbLine
   6
DOT
  62
3
  10
 1040.01
  20
 510.000
  30
0.0
  11
 1058.01
  21
 510.000
  31
0.0
   0
ARC
   5
645
 100
AcDbEntity
   8
LEVEL042
   6
CONTINUOUS
  62
3
 100
AcDbCircle
  10
 1049.01
  20
 528.687
  30
0.0
  40
 3.00000
 100
AcDbArc
  50
 180.000
  51
0.0
   0
LINE
   5
646
 100
AcDbEntity
   8
LEVEL042
 100
AcDbLine
   6
CONTINUOUS
  62
3
  10
 1035.00
  20
 528.687
  30
0.0
  11
 1046.01
  21
 528.687
  31
0.0
   0
LINE
   5
647
 100
AcDbEntity
   8
LEVEL042
 100
AcDbLine
   6
CONTINUOUS
  62
3
  10
 1052.01
  20
 528.687
  30
0.0
  11
 1076.01
  21
 528.687
  31
0.0
   0
LINE
   5
648
 100
AcDbEntity
   8
LEVEL042
 100
AcDbLine
   6
DASHDOT
  62
1
  10
 1132.50
  20
 615.000
  30
0.0
  11
 990.000
  21
 615.000
  31
0.0
   0
LINE
   5
649
 100
AcDbEntity
   8
LEVEL042
 100
AcDbLine
   6
DASHDOT
  62
1
  10
 990.000
  20
 615.000
  30
0.0
  11
 990.000
  21
 521.250
  31
0.0
   0
LINE
   5
64A
 100
AcDbEntity
   8
LEVEL042
 100
AcDbLine
   6
DASHDOT
  62
1
  10
 990.000
  20
 521.250
  30
0.0
  11
 1088.61
  21
 521.250
  31
0.0
   0
LINE
   5
64B
 100
AcDbEntity
   8
LEVEL042
 100
AcDbLine
   6
DASHDOT
  62
1
  10
 1088.61
  20
 521.250
  30
0.0
  11
 1088.61
  21
 570.000
  31
0.0
   0
LINE
   5
64C
 100
AcDbEntity
   8
LEVEL042
 100
AcDbLine
   6
CONTINUOUS
  62
25
  10
 1125.00
  20
 510.000
  30
0.0
  11
 1125.00
  21
 585.000
  31
0.0
   0
LINE
   5
64D
 100
AcDbEntity
   8
LEVEL042
 100
AcDbLine
   6
CONTINUOUS
  62
25
  10
 1015.80
  20
 576.000
  30
0.0
  11
 1012.20
  21
 574.200
  31
0.0
   0
LINE
   5
64E
 100
AcDbEntity
   8
LEVEL042
 100
AcDbLine
   6
CONTINUOUS
  62
25
  10
 1012.20
  20
 577.800
  30
0.0
  11
 1015.80
  21
 576.000
  31
0.0
   0
LINE
   5
64F
 100
AcDbEntity
   8
LEVEL042
 100
AcDbLine
   6
CONTINUOUS
  62
25
  10
 1015.80
  20
 579.600
  30
0.0
  11
 1012.20
  21
 577.800
  31
0.0
   0
LINE
   5
650
 100
AcDbEntity
   8
LEVEL042
 100
AcDbLine
   6
CONTINUOUS
  62
25
  10
 1012.20
  20
 581.400
  30
0.0
  11
 1015.80
  21
 579.600
  31
0.0
   0
LINE
   5
651
 100
AcDbEntity
   8
LEVEL042
 100
AcDbLine
   6
CONTINUOUS
  62
25
  10
 1019.40
  20
 581.400
  30
0.0
  11
 1008.60
  21
 581.400
  31
0.0
   0
LINE
   5
652
 100
AcDbEntity
   8
LEVEL042
 100
AcDbLine
   6
CONTINUOUS
  62
25
  10
 1019.40
  20
 588.600
  30
0.0
  11
 1008.60
  21
 588.600
  31
0.0
   0
LINE
   5
653
 100
AcDbEntity
   8
LEVEL042
 100
AcDbLine
   6
CONTINUOUS
  62
25
  10
 1019.40
  20
 592.200
  30
0.0
  11
 1008.60
  21
 592.200
  31
0.0
   0
LINE
   5
654
 100
AcDbEntity
   8
LEVEL042
 100
AcDbLine
   6
CONTINUOUS
  62
25
  10
 1019.40
  20
 581.400
  30
0.0
  11
 1019.40
  21
 592.200
  31
0.0
   0
LINE
   5
655
 100
AcDbEntity
   8
LEVEL042
 100
AcDbLine
   6
CONTINUOUS
  62
25
  10
 1008.60
  20
 581.400
  30
0.0
  11
 1008.60
  21
 592.200
  31
0.0
   0
LINE
   5
656
 100
AcDbEntity
   8
LEVEL042
 100
AcDbLine
   6
DOT
  62
3
  10
 1014.00
  20
 592.200
  30
0.0
  11
 1014.00
  21
 595.800
  31
0.0
   0
LINE
   5
657
 100
AcDbEntity
   8
LEVEL042
 100
AcDbLine
   6
DOT
  62
3
  10
 1026.60
  20
 595.800
  30
0.0
  11
 1014.00
  21
 595.800
  31
0.0
   0
LINE
   5
658
 100
AcDbEntity
   8
LEVEL042
 100
AcDbLine
   6
CONTINUOUS
  62
3
  10
 1008.60
  20
 588.600
  30
0.0
  11
 1014.00
  21
 587.250
  31
0.0
   0
LINE
   5
659
 100
AcDbEntity
   8
LEVEL042
 100
AcDbLine
   6
CONTINUOUS
  62
3
  10
 1014.00
  20
 589.950
  30
0.0
  11
 1008.60
  21
 588.600
  31
0.0
   0
MTEXT
   5
65A
 100
AcDbEntity
   8
LEVEL042
  62
25
 100
AcDbMText
  10
 990.258
  20
 592.456
  30
0.0
  40
 12.0960
  41
0.0
  71
7
  72
1
   1
1MPa
   7
GMM003
   0
LINE
   5
65B
 100
AcDbEntity
   8
LEVEL042
 100
AcDbLine
   6
DOT
  62
3
  10
 1019.40
  20
 585.000
  30
0.0
  11
 1026.60
  21
 589.157
  31
0.0
   0
LINE
   5
65C
 100
AcDbEntity
   8
LEVEL042
 100
AcDbLine
   6
DOT
  62
3
  10
 1026.60
  20
 589.157
  30
0.0
  11
 1026.60
  21
 595.800
  31
0.0
   0
LINE
   5
65D
 100
AcDbEntity
   8
LEVEL042
 100
AcDbLine
   6
CONTINUOUS
  62
25
  10
 1008.60
  20
 585.000
  30
0.0
  11
 1005.00
  21
 585.000
  31
0.0
   0
LINE
   5
65E
 100
AcDbEntity
   8
LEVEL042
 100
AcDbLine
   6
CONTINUOUS
  62
25
  10
 1005.00
  20
 585.000
  30
0.0
  11
 1005.00
  21
 510.000
  31
0.0
   0
LINE
   5
65F
 100
AcDbEntity
   8
LEVEL042
 100
AcDbLine
   6
CONTINUOUS
  62
25
  10
 1019.40
  20
 585.000
  30
0.0
  11
 1049.01
  21
 585.000
  31
0.0
   0
CIRCLE
   5
660
 100
AcDbEntity
   8
LEVEL042
 100
AcDbCircle
   6
CONTINUOUS
  62
25
  10
 1035.00
  20
 585.000
  30
0.0
  40
 0.900000
   0
LINE
   5
661
 100
AcDbEntity
   8
LEVEL042
 100
AcDbLine
   6
CONTINUOUS
  62
25
  10
 1035.00
  20
 585.000
  30
0.0
  11
 1035.00
  21
 528.687
  31
0.0
   0
MTEXT
   5
662
 100
AcDbEntity
   8
LEVEL042
  62
25
 100
AcDbMText
  10
 1042.50
  20
 550.185
  30
0.0
  40
 7.56000
  41
0.0
  71
7
  72
1
   1
L.P
   7
GMM004
   0
MTEXT
   5
663
 100
AcDbEntity
   8
LEVEL042
  62
25
 100
AcDbMText
  10
 1068.86
  20
 550.302
  30
0.0
  40
 7.56000
  41
0.0
  71
7
  72
1
   1
H.P
   7
GMM004
   0
MTEXT
   5
664
 100
AcDbEntity
   8
LEVEL042
  62
25
 100
AcDbMText
  10
 1099.49
  20
 551.397
  30
0.0
  40
 7.56000
  41
0.0
  71
7
  72
1
   1
M
   7
GMM005
   0
LINE
   5
665
 100
AcDbEntity
   8
LEVEL042
 100
AcDbLine
   6
CONTINUOUS
  62
25
  10
 1059.81
  20
 556.800
  30
0.0
  11
 1065.21
  21
 556.800
  31
0.0
   0
LINE
   5
666
 100
AcDbEntity
   8
LEVEL042
 100
AcDbLine
   6
CONTINUOUS
  62
25
  10
 1059.81
  20
 553.200
  30
0.0
  11
 1065.21
  21
 553.200
  31
0.0
   0
LINE
   5
667
 100
AcDbEntity
   8
LEVEL042
 100
AcDbLine
   6
CONTINUOUS
  62
25
  10
 1086.81
  20
 553.200
  30
0.0
  11
 1090.41
  21
 553.200
  31
0.0
   0
LINE
   5
668
 100
AcDbEntity
   8
LEVEL042
 100
AcDbLine
   6
CONTINUOUS
  62
25
  10
 1086.81
  20
 556.800
  30
0.0
  11
 1090.41
  21
 556.800
  31
0.0
   0
CIRCLE
   5
669
 100
AcDbEntity
   8
LEVEL042
 100
AcDbCircle
   6
CONTINUOUS
  62
25
  10
 1101.21
  20
 555.000
  30
0.0
  40
 9.00000
   0
CIRCLE
   5
66A
 100
AcDbEntity
   8
LEVEL042
 100
AcDbCircle
   6
CONTINUOUS
  62
25
  10
 1076.01
  20
 555.000
  30
0.0
  40
 9.00000
   0
CIRCLE
   5
66B
 100
AcDbEntity
   8
LEVEL042
 100
AcDbCircle
   6
CONTINUOUS
  62
25
  10
 1049.01
  20
 555.000
  30
0.0
  40
 9.00000
   0
LINE
   5
66C
 100
AcDbEntity
   8
LEVEL042
 100
AcDbLine
   6
CONTINUOUS
  62
25
  10
 1076.01
  20
 564.000
  30
0.0
  11
 1074.21
  21
 560.882
  31
0.0
   0
LINE
   5
66D
 100
AcDbEntity
   8
LEVEL042
 100
AcDbLine
   6
CONTINUOUS
  62
25
  10
 1074.21
  20
 560.882
  30
0.0
  11
 1077.79
  21
 560.894
  31
0.0
   0
LINE
   5
66E
 100
AcDbEntity
   8
LEVEL042
 100
AcDbLine
   6
CONTINUOUS
  62
25
  10
 1077.79
  20
 560.894
  30
0.0
  11
 1076.01
  21
 564.000
  31
0.0
   0
LINE
   5
66F
 100
AcDbEntity
   8
LEVEL042
 100
AcDbLine
   6
CONTINUOUS
  62
25
  10
 1048.99
  20
 563.829
  30
0.0
  11
 1047.19
  21
 560.712
  31
0.0
   0
LINE
   5
670
 100
AcDbEntity
   8
LEVEL042
 100
AcDbLine
   6
CONTINUOUS
  62
25
  10
 1047.19
  20
 560.712
  30
0.0
  11
 1050.77
  21
 560.724
  31
0.0
   0
LINE
   5
671
 100
AcDbEntity
   8
LEVEL042
 100
AcDbLine
   6
CONTINUOUS
  62
25
  10
 1050.77
  20
 560.724
  30
0.0
  11
 1048.99
  21
 563.829
  31
0.0
   0
LINE
   5
672
 100
AcDbEntity
   8
LEVEL042
 100
AcDbLine
   6
CONTINUOUS
  62
25
  10
 1076.01
  20
 564.000
  30
0.0
  11
 1076.01
  21
 594.909
  31
0.0
   0
LINE
   5
673
 100
AcDbEntity
   8
LEVEL042
 100
AcDbLine
   6
CONTINUOUS
  62
25
  10
 1049.01
  20
 564.000
  30
0.0
  11
 1049.01
  21
 585.000
  31
0.0
   0
LINE
   5
674
 100
AcDbEntity
   8
LEVEL042
 100
AcDbLine
   6
CONTINUOUS
  62
25
  10
 1043.61
  20
 537.652
  30
0.0
  11
 1049.01
  21
 532.252
  31
0.0
   0
CIRCLE
   5
675
 100
AcDbEntity
   8
LEVEL042
 100
AcDbCircle
   6
CONTINUOUS
  62
25
  10
 1049.01
  20
 537.343
  30
0.0
  40
 3.60000
   0
LINE
   5
676
 100
AcDbEntity
   8
LEVEL042
 100
AcDbLine
   6
CONTINUOUS
  62
25
  10
 1054.41
  20
 537.652
  30
0.0
  11
 1049.01
  21
 532.252
  31
0.0
   0
LINE
   5
677
 100
AcDbEntity
   8
LEVEL042
 100
AcDbLine
   6
CONTINUOUS
  62
3
  10
 1049.01
  20
 515.196
  30
0.0
  11
 1049.01
  21
 532.252
  31
0.0
   0
LINE
   5
678
 100
AcDbEntity
   8
LEVEL042
 100
AcDbLine
   6
CONTINUOUS
  62
25
  10
 1070.61
  20
 537.652
  30
0.0
  11
 1076.01
  21
 532.252
  31
0.0
   0
CIRCLE
   5
679
 100
AcDbEntity
   8
LEVEL042
 100
AcDbCircle
   6
CONTINUOUS
  62
25
  10
 1076.01
  20
 537.343
  30
0.0
  40
 3.60000
   0
LINE
   5
67A
 100
AcDbEntity
   8
LEVEL042
 100
AcDbLine
   6
CONTINUOUS
  62
25
  10
 1081.41
  20
 537.652
  30
0.0
  11
 1076.01
  21
 532.252
  31
0.0
   0
LINE
   5
67B
 100
AcDbEntity
   8
LEVEL042
 100
AcDbLine
   6
CONTINUOUS
  62
25
  10
 1076.01
  20
 528.687
  30
0.0
  11
 1076.01
  21
 532.252
  31
0.0
   0
LINE
   5
67C
 100
AcDbEntity
   8
LEVEL042
 100
AcDbLine
   6
CONTINUOUS
  62
3
  10
 1049.01
  20
 540.943
  30
0.0
  11
 1049.01
  21
 546.000
  31
0.0
   0
LINE
   5
67D
 100
AcDbEntity
   8
LEVEL042
 100
AcDbLine
   6
CONTINUOUS
  62
25
  10
 1076.01
  20
 540.943
  30
0.0
  11
 1076.01
  21
 546.000
  31
0.0
   0
LINE
   5
67E
 100
AcDbEntity
   8
LEVEL042
 100
AcDbLine
   6
CONTINUOUS
  62
3
  10
 1134.38
  20
 635.625
  30
0.0
  11
 1145.63
  21
 635.625
  31
0.0
   0
LINE
   5
67F
 100
AcDbEntity
   8
LEVEL042
 100
AcDbLine
   6
CONTINUOUS
  62
3
  10
 1145.63
  20
 635.625
  30
0.0
  11
 1134.38
  21
 624.375
  31
0.0
   0
LINE
   5
680
 100
AcDbEntity
   8
LEVEL042
 100
AcDbLine
   6
CONTINUOUS
  62
3
  10
 1134.38
  20
 624.375
  30
0.0
  11
 1145.63
  21
 624.375
  31
0.0
   0
LINE
   5
681
 100
AcDbEntity
   8
LEVEL042
 100
AcDbLine
   6
CONTINUOUS
  62
3
  10
 1145.63
  20
 624.375
  30
0.0
  11
 1134.38
  21
 635.625
  31
0.0
   0
LINE
   5
682
 100
AcDbEntity
   8
LEVEL042
 100
AcDbLine
   6
CONTINUOUS
  62
25
  10
 1140.00
  20
 635.625
  30
0.0
  11
 1140.00
  21
 647.249
  31
0.0
   0
LINE
   5
683
 100
AcDbEntity
   8
LEVEL042
 100
AcDbLine
   6
CONTINUOUS
  62
3
  10
 1051.01
  20
 647.249
  30
0.0
  11
 1140.00
  21
 647.249
  31
0.0
   0
LINE
   5
684
 100
AcDbEntity
   8
LEVEL042
 100
AcDbLine
   6
CONTINUOUS
  62
25
  10
 1140.00
  20
 510.000
  30
0.0
  11
 1140.00
  21
 624.375
  31
0.0
   0
MTEXT
   5
685
 100
AcDbEntity
   8
LEVEL042
  62
25
 100
AcDbMText
  10
 1088.38
  20
 595.602
  30
0.0
  40
 12.0960
  41
0.0
  71
7
  72
1
   1
77MPa
   7
GMM002
   0
TEXT
   5
686
 100
AcDbEntity
   8
LEVEL044
  62
3
 100
AcDbText
  10
 634.592
  20
 636.561
  30
0.0
  40
 6.00000
   1
ＡＣ１００Ｖ
   7
STANDARD
  72
1
  11
 652.592
  21
 636.561
  31
0.0
 100
AcDbText
   0
LEADER
   5
687
 100
AcDbEntity
   8
LEVEL044
   6
CONTINUOUS
  62
3
 100
AcDbLeader
   3
GMM010
  73
0
  74
1
  75
0
  40
 9.45000
  41
0.0
  76
2
  10
 610.092
  20
 638.623
  30
0.0
  10
 625.092
  20
 638.623
  30
0.0
  77
3
   0
CIRCLE
   5
688
 100
AcDbEntity
   8
LEVEL044
 100
AcDbCircle
   6
CONTINUOUS
  62
3
  10
 602.592
  20
 638.623
  30
0.0
  40
 1.68750
   0
CIRCLE
   5
689
 100
AcDbEntity
   8
LEVEL044
 100
AcDbCircle
   6
CONTINUOUS
  62
3
  10
 717.592
  20
 638.623
  30
0.0
  40
 1.68750
   0
LEADER
   5
68A
 100
AcDbEntity
   8
LEVEL044
   6
CONTINUOUS
  62
3
 100
AcDbLeader
   3
GMM010
  73
0
  74
1
  75
0
  40
 9.45000
  41
0.0
  76
2
  10
 710.092
  20
 638.623
  30
0.0
  10
 695.092
  20
 638.623
  30
0.0
  77
3
   0
LINE
   5
68B
 100
AcDbEntity
   8
LEVEL044
 100
AcDbLine
   6
DASHDOT
  62
1
  10
 592.592
  20
 533.623
  30
0.0
  11
 592.592
  21
 653.623
  31
0.0
   0
LINE
   5
68C
 100
AcDbEntity
   8
LEVEL044
 100
AcDbLine
   6
DASHDOT
  62
1
  10
 592.592
  20
 653.623
  30
0.0
  11
 727.592
  21
 653.623
  31
0.0
   0
LINE
   5
68D
 100
AcDbEntity
   8
LEVEL044
 100
AcDbLine
   6
DASHDOT
  62
1
  10
 727.592
  20
 653.623
  30
0.0
  11
 727.592
  21
 533.623
  31
0.0
   0
LINE
   5
68E
 100
AcDbEntity
   8
LEVEL044
 100
AcDbLine
   6
DASHDOT
  62
1
  10
 727.592
  20
 533.623
  30
0.0
  11
 592.592
  21
 533.623
  31
0.0
   0
CIRCLE
   5
68F
 100
AcDbEntity
   8
LEVEL044
 100
AcDbCircle
   6
CONTINUOUS
  62
25
  10
 602.592
  20
 616.123
  30
0.0
  40
 0.900000
   0
CIRCLE
   5
690
 100
AcDbEntity
   8
LEVEL044
 100
AcDbCircle
   6
CONTINUOUS
  62
3
  10
 624.423
  20
 616.123
  30
0.0
  40
 1.68750
   0
CIRCLE
   5
691
 100
AcDbEntity
   8
LEVEL044
 100
AcDbCircle
   6
CONTINUOUS
  62
3
  10
 613.173
  20
 616.123
  30
0.0
  40
 1.68750
   0
LINE
   5
692
 100
AcDbEntity
   8
LEVEL044
 100
AcDbLine
   6
CONTINUOUS
  62
3
  10
 611.550
  20
 619.806
  30
0.0
  11
 626.046
  21
 619.806
  31
0.0
   0
TEXT
   5
693
 100
AcDbEntity
   8
LEVEL044
  62
3
 100
AcDbText
  10
 608.550
  20
 622.603
  30
0.0
  40
 6.00000
   1
Ａ
   7
STANDARD
  72
1
  11
 611.550
  21
 622.603
  31
0.0
 100
AcDbText
   0
LINE
   5
694
 100
AcDbEntity
   8
LEVEL044
 100
AcDbLine
   6
CONTINUOUS
  62
3
  10
 618.798
  20
 619.806
  30
0.0
  11
 618.798
  21
 625.806
  31
0.0
   0
LINE
   5
695
 100
AcDbEntity
   8
LEVEL044
 100
AcDbLine
   6
DOT
  62
3
  10
 618.798
  20
 625.806
  30
0.0
  11
 633.840
  21
 622.033
  31
0.0
   0
LINE
   5
696
 100
AcDbEntity
   8
LEVEL044
 100
AcDbLine
   6
CONTINUOUS
  62
3
  10
 611.486
  20
 616.123
  30
0.0
  11
 602.592
  21
 616.123
  31
0.0
   0
CIRCLE
   5
697
 100
AcDbEntity
   8
LEVEL044
 100
AcDbCircle
   6
CONTINUOUS
  62
25
  10
 717.592
  20
 616.123
  30
0.0
  40
 0.900000
   0
CIRCLE
   5
698
 100
AcDbEntity
   8
LEVEL044
 100
AcDbCircle
   6
CONTINUOUS
  62
3
  10
 696.559
  20
 616.123
  30
0.0
  40
 11.2500
   0
LINE
   5
699
 100
AcDbEntity
   8
LEVEL044
 100
AcDbLine
   6
CONTINUOUS
  62
3
  10
 707.809
  20
 616.123
  30
0.0
  11
 717.592
  21
 616.123
  31
0.0
   0
TEXT
   5
69A
 100
AcDbEntity
   8
LEVEL044
  62
3
 100
AcDbText
  10
 687.559
  20
 609.373
  30
0.0
  40
 13.5000
   1
ＣＲ１
  41
 0.444444
   7
STANDARD
  72
1
  11
 696.559
  21
 616.123
  31
0.0
 100
AcDbText
  73
2
   0
CIRCLE
   5
69B
 100
AcDbEntity
   8
LEVEL044
 100
AcDbCircle
   6
CONTINUOUS
  62
3
  10
 669.507
  20
 616.123
  30
0.0
  40
 1.68750
   0
CIRCLE
   5
69C
 100
AcDbEntity
   8
LEVEL044
 100
AcDbCircle
   6
CONTINUOUS
  62
3
  10
 658.257
  20
 616.123
  30
0.0
  40
 1.68750
   0
TEXT
   5
69D
 100
AcDbEntity
   8
LEVEL044
  62
3
 100
AcDbText
  10
 657.882
  20
 622.603
  30
0.0
  40
 6.00000
   1
ＰＳ
   7
STANDARD
  72
1
  11
 663.882
  21
 622.603
  31
0.0
 100
AcDbText
   0
LINE
   5
69E
 100
AcDbEntity
   8
LEVEL044
 100
AcDbLine
   6
CONTINUOUS
  62
3
  10
 626.111
  20
 616.123
  30
0.0
  11
 656.570
  21
 616.123
  31
0.0
   0
LINE
   5
69F
 100
AcDbEntity
   8
LEVEL044
 100
AcDbLine
   6
CONTINUOUS
  62
3
  10
 671.195
  20
 616.123
  30
0.0
  11
 685.309
  21
 616.123
  31
0.0
   0
LINE
   5
6A0
 100
AcDbEntity
   8
LEVEL044
 100
AcDbLine
   6
CONTINUOUS
  62
3
  10
 678.252
  20
 593.623
  30
0.0
  11
 678.252
  21
 616.123
  31
0.0
   0
CIRCLE
   5
6A1
 100
AcDbEntity
   8
LEVEL044
 100
AcDbCircle
   6
CONTINUOUS
  62
25
  10
 678.252
  20
 616.123
  30
0.0
  40
 0.900000
   0
CIRCLE
   5
6A2
 100
AcDbEntity
   8
LEVEL044
 100
AcDbCircle
   6
CONTINUOUS
  62
25
  10
 649.512
  20
 616.123
  30
0.0
  40
 0.900000
   0
LINE
   5
6A3
 100
AcDbEntity
   8
LEVEL044
 100
AcDbLine
   6
CONTINUOUS
  62
3
  10
 661.070
  20
 587.998
  30
0.0
  11
 661.070
  21
 599.248
  31
0.0
   0
LINE
   5
6A4
 100
AcDbEntity
   8
LEVEL044
 100
AcDbLine
   6
CONTINUOUS
  62
3
  10
 666.695
  20
 587.998
  30
0.0
  11
 666.695
  21
 599.248
  31
0.0
   0
LINE
   5
6A5
 100
AcDbEntity
   8
LEVEL044
 100
AcDbLine
   6
CONTINUOUS
  62
3
  10
 666.695
  20
 593.623
  30
0.0
  11
 678.252
  21
 593.623
  31
0.0
   0
LINE
   5
6A6
 100
AcDbEntity
   8
LEVEL044
 100
AcDbLine
   6
CONTINUOUS
  62
3
  10
 661.070
  20
 593.623
  30
0.0
  11
 649.512
  21
 593.623
  31
0.0
   0
CIRCLE
   5
6A7
 100
AcDbEntity
   8
LEVEL044
 100
AcDbCircle
   6
CONTINUOUS
  62
25
  10
 649.512
  20
 593.623
  30
0.0
  40
 0.900000
   0
LINE
   5
6A8
 100
AcDbEntity
   8
LEVEL044
 100
AcDbLine
   6
CONTINUOUS
  62
3
  10
 659.856
  20
 616.662
  30
0.0
  11
 670.517
  21
 620.256
  31
0.0
   0
ARC
   5
6A9
 100
AcDbEntity
   8
LEVEL044
   6
CONTINUOUS
  62
3
 100
AcDbCircle
  10
 663.882
  20
 605.727
  30
0.0
  40
 6.75000
 100
AcDbArc
  50
0.0
  51
 180.000
   0
LINE
   5
6AA
 100
AcDbEntity
   8
LEVEL044
 100
AcDbLine
   6
CONTINUOUS
  62
3
  10
 657.132
  20
 605.727
  30
0.0
  11
 670.632
  21
 605.727
  31
0.0
   0
LINE
   5
6AB
 100
AcDbEntity
   8
LEVEL044
 100
AcDbLine
   6
CONTINUOUS
  62
3
  10
 663.882
  20
 612.477
  30
0.0
  11
 663.882
  21
 618.019
  31
0.0
   0
CIRCLE
   5
6AC
 100
AcDbEntity
   8
LEVEL044
 100
AcDbCircle
   6
CONTINUOUS
  62
3
  10
 624.423
  20
 548.623
  30
0.0
  40
 1.68750
   0
CIRCLE
   5
6AD
 100
AcDbEntity
   8
LEVEL044
 100
AcDbCircle
   6
CONTINUOUS
  62
3
  10
 613.173
  20
 548.623
  30
0.0
  40
 1.68750
   0
LINE
   5
6AE
 100
AcDbEntity
   8
LEVEL044
 100
AcDbLine
   6
CONTINUOUS
  62
3
  10
 611.550
  20
 552.306
  30
0.0
  11
 626.046
  21
 552.306
  31
0.0
   0
TEXT
   5
6AF
 100
AcDbEntity
   8
LEVEL044
  62
3
 100
AcDbText
  10
 608.550
  20
 555.103
  30
0.0
  40
 6.00000
   1
Ｂ
   7
STANDARD
  72
1
  11
 611.550
  21
 555.103
  31
0.0
 100
AcDbText
   0
LINE
   5
6B0
 100
AcDbEntity
   8
LEVEL044
 100
AcDbLine
   6
CONTINUOUS
  62
3
  10
 618.798
  20
 552.306
  30
0.0
  11
 618.798
  21
 558.306
  31
0.0
   0
LINE
   5
6B1
 100
AcDbEntity
   8
LEVEL044
 100
AcDbLine
   6
DOT
  62
3
  10
 633.840
  20
 554.533
  30
0.0
  11
 618.798
  21
 558.306
  31
0.0
   0
LINE
   5
6B2
 100
AcDbEntity
   8
LEVEL044
 100
AcDbLine
   6
CONTINUOUS
  62
3
  10
 611.486
  20
 548.623
  30
0.0
  11
 602.592
  21
 548.623
  31
0.0
   0
LINE
   5
6B3
 100
AcDbEntity
   8
LEVEL044
 100
AcDbLine
   6
DOT
  62
3
  10
 633.840
  20
 622.033
  30
0.0
  11
 633.840
  21
 554.533
  31
0.0
   0
LINE
   5
6B4
 100
AcDbEntity
   8
LEVEL044
 100
AcDbLine
   6
CONTINUOUS
  62
3
  10
 602.592
  20
 636.936
  30
0.0
  11
 602.592
  21
 548.623
  31
0.0
   0
CIRCLE
   5
6B5
 100
AcDbEntity
   8
LEVEL044
 100
AcDbCircle
   6
CONTINUOUS
  62
3
  10
 696.559
  20
 571.123
  30
0.0
  40
 11.2500
   0
LINE
   5
6B6
 100
AcDbEntity
   8
LEVEL044
 100
AcDbLine
   6
CONTINUOUS
  62
3
  10
 707.809
  20
 571.123
  30
0.0
  11
 717.592
  21
 571.123
  31
0.0
   0
LINE
   5
6B7
 100
AcDbEntity
   8
LEVEL044
 100
AcDbLine
   6
CONTINUOUS
  62
3
  10
 661.070
  20
 565.498
  30
0.0
  11
 661.070
  21
 576.748
  31
0.0
   0
LINE
   5
6B8
 100
AcDbEntity
   8
LEVEL044
 100
AcDbLine
   6
CONTINUOUS
  62
3
  10
 666.695
  20
 565.498
  30
0.0
  11
 666.695
  21
 576.748
  31
0.0
   0
LINE
   5
6B9
 100
AcDbEntity
   8
LEVEL044
 100
AcDbLine
   6
CONTINUOUS
  62
3
  10
 666.695
  20
 571.123
  30
0.0
  11
 685.309
  21
 571.123
  31
0.0
   0
LINE
   5
6BA
 100
AcDbEntity
   8
LEVEL044
 100
AcDbLine
   6
CONTINUOUS
  62
3
  10
 658.257
  20
 565.498
  30
0.0
  11
 669.507
  21
 576.748
  31
0.0
   0
LINE
   5
6BB
 100
AcDbEntity
   8
LEVEL044
 100
AcDbLine
   6
CONTINUOUS
  62
3
  10
 649.512
  20
 571.123
  30
0.0
  11
 661.070
  21
 571.123
  31
0.0
   0
LINE
   5
6BC
 100
AcDbEntity
   8
LEVEL044
 100
AcDbLine
   6
CONTINUOUS
  62
3
  10
 649.512
  20
 571.123
  30
0.0
  11
 649.512
  21
 616.123
  31
0.0
   0
TEXT
   5
6BD
 100
AcDbEntity
   8
LEVEL044
  62
3
 100
AcDbText
  10
 689.809
  20
 564.373
  30
0.0
  40
 13.5000
   1
Ｍ
   7
STANDARD
 100
AcDbText
   0
TEXT
   5
6BE
 100
AcDbEntity
   8
LEVEL044
  62
3
 100
AcDbText
  10
 657.695
  20
 599.248
  30
0.0
  40
 6.00000
   1
ＣＲ１
   7
STANDARD
  72
1
  11
 666.695
  21
 599.248
  31
0.0
 100
AcDbText
   0
TEXT
   5
6BF
 100
AcDbEntity
   8
LEVEL044
  62
3
 100
AcDbText
  10
 657.695
  20
 576.748
  30
0.0
  40
 6.00000
   1
ＣＲ１
   7
STANDARD
  72
1
  11
 666.695
  21
 576.748
  31
0.0
 100
AcDbText
   0
LINE
   5
6C0
 100
AcDbEntity
   8
LEVEL044
 100
AcDbLine
   6
CONTINUOUS
  62
3
  10
 636.840
  20
 591.283
  30
0.0
  11
 630.840
  21
 585.283
  31
0.0
   0
LINE
   5
6C1
 100
AcDbEntity
   8
LEVEL044
 100
AcDbLine
   6
CONTINUOUS
  62
3
  10
 636.840
  20
 585.283
  30
0.0
  11
 630.840
  21
 591.283
  31
0.0
   0
LINE
   5
6C2
 100
AcDbEntity
   8
LEVEL050
 100
AcDbLine
   6
CONTINUOUS
  62
3
  10
 687.542
  20
 599.832
  30
0.0
  11
 682.292
  21
 590.739
  31
0.0
   0
LINE
   5
6C3
 100
AcDbEntity
   8
LEVEL050
 100
AcDbLine
   6
CONTINUOUS
  62
3
  10
 682.292
  20
 590.739
  30
0.0
  11
 692.792
  21
 590.739
  31
0.0
   0
LINE
   5
6C4
 100
AcDbEntity
   8
LEVEL050
 100
AcDbLine
   6
CONTINUOUS
  62
3
  10
 692.792
  20
 590.739
  30
0.0
  11
 687.542
  21
 599.832
  31
0.0
   0
TEXT
   5
6C5
 100
AcDbEntity
   8
LEVEL050
  62
3
 100
AcDbText
  10
 684.542
  20
 590.739
  30
0.0
  40
 6.90000
   1
２
  41
 0.869565
   7
STANDARD
  72
1
  11
 687.542
  21
 590.739
  31
0.0
 100
AcDbText
   0
LINE
   5
6C6
 100
AcDbEntity
   8
LEVEL044
 100
AcDbLine
   6
CONTINUOUS
  62
3
  10
 645.000
  20
 548.623
  30
0.0
  11
 626.111
  21
 548.623
  31
0.0
   0
LINE
   5
6C7
 100
AcDbEntity
   8
LEVEL044
 100
AcDbLine
   6
CONTINUOUS
  62
3
  10
 717.592
  20
 636.936
  30
0.0
  11
 717.592
  21
 571.123
  31
0.0
   0
TEXT
   5
6C8
 100
AcDbEntity
   8
LEVEL003
  62
7
 100
AcDbText
  10
 1010.71
  20
 35.5912
  30
0.0
  40
 22.5000
   1
ＯＳＡＫＡ ＪＡＣＫ
   7
STANDARD
 100
AcDbText
   0
CIRCLE
   5
6C9
 100
AcDbEntity
   8
LEVEL003
 100
AcDbCircle
   6
CONTINUOUS
  62
7
  10
 964.703
  20
 50.6976
  30
0.0
  40
 6.75000
   0
LINE
   5
6CA
 100
AcDbEntity
   8
LEVEL003
 100
AcDbLine
   6
CONTINUOUS
  62
7
  10
 977.951
  20
 57.4476
  30
0.0
  11
 969.381
  21
 42.5976
  31
0.0
   0
LINE
   5
6CB
 100
AcDbEntity
   8
LEVEL003
 100
AcDbLine
   6
CONTINUOUS
  62
7
  10
 969.381
  20
 42.5976
  30
0.0
  11
 952.234
  21
 42.5976
  31
0.0
   0
LINE
   5
6CC
 100
AcDbEntity
   8
LEVEL003
 100
AcDbLine
   6
CONTINUOUS
  62
7
  10
 950.283
  20
 39.2226
  30
0.0
  11
 980.930
  21
 39.2226
  31
0.0
   0
LINE
   5
6CD
 100
AcDbEntity
   8
LEVEL003
 100
AcDbLine
   6
CONTINUOUS
  62
7
  10
 980.930
  20
 39.2226
  30
0.0
  11
 991.451
  21
 57.4476
  31
0.0
   0
LINE
   5
6CE
 100
AcDbEntity
   8
LEVEL003
 100
AcDbLine
   6
CONTINUOUS
  62
7
  10
 991.451
  20
 57.4476
  30
0.0
  11
 977.951
  21
 57.4476
  31
0.0
   0
LINE
   5
6CF
 100
AcDbEntity
   8
LEVEL003
 100
AcDbLine
   6
CONTINUOUS
  62
7
  10
 952.234
  20
 42.5976
  30
0.0
  11
 950.283
  21
 39.2226
  31
0.0
   0
TEXT
   5
6D0
 100
AcDbEntity
   8
LEVEL001
  62
7
 100
AcDbText
  10
 1003.56
  20
 75.3430
  30
0.0
  40
 14.8114
   1
Model : ＮＥＸ－２ＭＧＳ
   7
STANDARD
 100
AcDbText
   0
ENDSEC
  0
SECTION
  2
OBJECTS
  0
DICTIONARY
  5
C
100
AcDbDictionary
  3
ACAD_GROUP
350
D
  3
ACAD_MLINESTYLE
350
1B
  0
DICTIONARY
  5
D
102
{ACAD_REACTORS
330
C
102
}
100
AcDbDictionary
  0
DICTIONARY
  5
1B
102
{ACAD_REACTORS
330
C
102
}
100
AcDbDictionary
  3
STANDARD
350
1C
  0
MLINESTYLE
  5
1C
102
{ACAD_REACTORS
330
1B
102
}
100
AcDbMlineStyle
  2
STANDARD
 70
     0
  3

 62
   256
 51
90.0
 52
90.0
 71
     2
 49
0.5
 62
   256
  6
BYLAYER
 49
-0.5
 62
   256
  6
BYLAYER
  0
ENDSEC
   0
EOF
