   0
SECTION
   2
HEADER
   9
$ACADVER
   1
AC1014
   9
$LIMMIN
  10
0.0
  20
-42.000000000000
   9
$LIMMAX
  10
 1188.0000000000
  20
 1032.0000000000
   9
$EXTMIN
  10
0.0
  20
-42.000000000000
  30
0.0
   9
$EXTMAX
  10
 1188.0000000000
  20
 1032.0000000000
  30
0.0
   9
$LTSCALE
  40
 23.760000000000
   9
$HANDSEED
   5
51E
   0
ENDSEC
   0
SECTION
   2
TABLES
  0
TABLE
  2
VPORT
  5
8
100
AcDbSymbolTable
 70
     1
  0
VPORT
  5
51D
100
AcDbSymbolTableRecord
100
AcDbViewportTableRecord
  2
*ACTIVE
 70
     0
 10
0.0
 20
0.0
 11
1.0
 21
1.0
  12
 594.00000000000
  22
 495.00000000000
 13
0.0
 23
0.0
 14
1.0
 24
1.0
 15
0.0
 25
0.0
 16
0.0
 26
0.0
 36
1.0
 17
0.0
 27
0.0
 37
0.0
  40
 1188.0000000000
  41
 1.4787878787879
 42
50.0
 43
0.0
 44
0.0
 50
0.0
 51
0.0
 71
     0
 72
   100
 73
     1
 74
     1
 75
     0
 76
     0
 77
     0
 78
     0
  0
ENDTAB
  0
TABLE
  2
LTYPE
  5
5
100
AcDbSymbolTable
 70
    25
  0
LTYPE
  5
12
100
AcDbSymbolTableRecord
100
AcDbLinetypeTableRecord
  2
BYBLOCK
 70
     0
  3

 72
    65
 73
     0
 40
0.0
  0
LTYPE
  5
13
100
AcDbSymbolTableRecord
100
AcDbLinetypeTableRecord
  2
BYLAYER
 70
     0
  3

 72
    65
 73
     0
 40
0.0
  0
LTYPE
  5
14
100
AcDbSymbolTableRecord
100
AcDbLinetypeTableRecord
  2
CONTINUOUS
 70
     0
  3
Solid line
 72
    65
 73
     0
 40
0.0
  0
LTYPE
  5
20
100
AcDbSymbolTableRecord
100
AcDbLinetypeTableRecord
  2
BORDER
 70
     0
  3
__ __ . __ __ . __ __ . __ __ . __ __ . __ __ .
 72
    65
 73
     6
 40
1.75
 49
0.5
 74
     0
 49
-0.25
 74
     0
 49
0.5
 74
     0
 49
-0.25
 74
     0
 49
0.0
 74
     0
 49
-0.25
 74
     0
  0
LTYPE
  5
21
100
AcDbSymbolTableRecord
100
AcDbLinetypeTableRecord
  2
BORDER2
 70
     0
  3
__.__.__.__.__.__.__.__.__.__.__.__.__.__.__.__
 72
    65
 73
     6
 40
0.875
 49
0.25
 74
     0
 49
-0.125
 74
     0
 49
0.25
 74
     0
 49
-0.125
 74
     0
 49
0.0
 74
     0
 49
-0.125
 74
     0
  0
LTYPE
  5
22
100
AcDbSymbolTableRecord
100
AcDbLinetypeTableRecord
  2
BORDERX2
 70
     0
  3
____  ____  .  ____  ____  .  ____  ____  .  __
 72
    65
 73
     6
 40
3.5
 49
1.0
 74
     0
 49
-0.5
 74
     0
 49
1.0
 74
     0
 49
-0.5
 74
     0
 49
0.0
 74
     0
 49
-0.5
 74
     0
  0
LTYPE
  5
23
100
AcDbSymbolTableRecord
100
AcDbLinetypeTableRecord
  2
CENTER
 70
     0
  3
____ _ ____ _ ____ _ ____ _ ____ _ ____ _ ____ 
 72
    65
 73
     4
 40
2.0
 49
1.25
 74
     0
 49
-0.25
 74
     0
 49
0.25
 74
     0
 49
-0.25
 74
     0
  0
LTYPE
  5
24
100
AcDbSymbolTableRecord
100
AcDbLinetypeTableRecord
  2
CENTER2
 70
     0
  3
___ _ ___ _ ___ _ ___ _ ___ _ ___ _ ___ _ ___ _
 72
    65
 73
     4
 40
1.125
 49
0.75
 74
     0
 49
-0.125
 74
     0
 49
0.125
 74
     0
 49
-0.125
 74
     0
  0
LTYPE
  5
25
100
AcDbSymbolTableRecord
100
AcDbLinetypeTableRecord
  2
CENTERX2
 70
     0
  3
________  __  ________  __  ________  __  _____
 72
    65
 73
     4
 40
4.0
 49
2.5
 74
     0
 49
-0.5
 74
     0
 49
0.5
 74
     0
 49
-0.5
 74
     0
  0
LTYPE
  5
26
100
AcDbSymbolTableRecord
100
AcDbLinetypeTableRecord
  2
DASHDOT
 70
     0
  3
__ . __ . __ . __ . __ . __ . __ . __ . __ . __
 72
    65
 73
     4
 40
1.0
 49
0.5
 74
     0
 49
-0.25
 74
     0
 49
0.0
 74
     0
 49
-0.25
 74
     0
  0
LTYPE
  5
27
100
AcDbSymbolTableRecord
100
AcDbLinetypeTableRecord
  2
DASHDOT2
 70
     0
  3
_._._._._._._._._._._._._._._._._._._._._._._._
 72
    65
 73
     4
 40
0.5
 49
0.25
 74
     0
 49
-0.125
 74
     0
 49
0.0
 74
     0
 49
-0.125
 74
     0
  0
LTYPE
  5
28
100
AcDbSymbolTableRecord
100
AcDbLinetypeTableRecord
  2
DASHDOTX2
 70
     0
  3
____  .  ____  .  ____  .  ____  .  ____  .  __
 72
    65
 73
     4
 40
2.0
 49
1.0
 74
     0
 49
-0.5
 74
     0
 49
0.0
 74
     0
 49
-0.5
 74
     0
  0
LTYPE
  5
29
100
AcDbSymbolTableRecord
100
AcDbLinetypeTableRecord
  2
DASHED
 70
     0
  3
__ __ __ __ __ __ __ __ __ __ __ __ __ __ __ __
 72
    65
 73
     2
 40
0.75
 49
0.5
 74
     0
 49
-0.25
 74
     0
  0
LTYPE
  5
2A
100
AcDbSymbolTableRecord
100
AcDbLinetypeTableRecord
  2
DASHED2
 70
     0
  3
_ _ _ _ _ _ _ _ _ _ _ _ _ _ _ _ _ _ _ _ _ _ _ _
 72
    65
 73
     2
 40
0.375
 49
0.25
 74
     0
 49
-0.125
 74
     0
  0
LTYPE
  5
2B
100
AcDbSymbolTableRecord
100
AcDbLinetypeTableRecord
  2
DASHEDX2
 70
     0
  3
____  ____  ____  ____  ____  ____  ____  ____ 
 72
    65
 73
     2
 40
1.5
 49
1.0
 74
     0
 49
-0.5
 74
     0
  0
LTYPE
  5
2C
100
AcDbSymbolTableRecord
100
AcDbLinetypeTableRecord
  2
DIVIDE
 70
     0
  3
____ . . ____ . . ____ . . ____ . . ____ . . __
 72
    65
 73
     6
 40
1.25
 49
0.5
 74
     0
 49
-0.25
 74
     0
 49
0.0
 74
     0
 49
-0.25
 74
     0
 49
0.0
 74
     0
 49
-0.25
 74
     0
  0
LTYPE
  5
2D
100
AcDbSymbolTableRecord
100
AcDbLinetypeTableRecord
  2
DIVIDE2
 70
     0
  3
__..__..__..__..__..__..__..__..__..__..__..__.
 72
    65
 73
     6
 40
0.625
 49
0.25
 74
     0
 49
-0.125
 74
     0
 49
0.0
 74
     0
 49
-0.125
 74
     0
 49
0.0
 74
     0
 49
-0.125
 74
     0
  0
LTYPE
  5
2E
100
AcDbSymbolTableRecord
100
AcDbLinetypeTableRecord
  2
DIVIDEX2
 70
     0
  3
________  .  .  ________  .  .  ________  .  . 
 72
    65
 73
     6
 40
2.5
 49
1.0
 74
     0
 49
-0.5
 74
     0
 49
0.0
 74
     0
 49
-0.5
 74
     0
 49
0.0
 74
     0
 49
-0.5
 74
     0
  0
LTYPE
  5
2F
100
AcDbSymbolTableRecord
100
AcDbLinetypeTableRecord
  2
DOT
 70
     0
  3
. . . . . . . . . . . . . . . . . . . . . . . .
 72
    65
 73
     2
 40
0.25
 49
0.0
 74
     0
 49
-0.25
 74
     0
  0
LTYPE
  5
30
100
AcDbSymbolTableRecord
100
AcDbLinetypeTableRecord
  2
DOT2
 70
     0
  3
...............................................
 72
    65
 73
     2
 40
0.125
 49
0.0
 74
     0
 49
-0.125
 74
     0
  0
LTYPE
  5
31
100
AcDbSymbolTableRecord
100
AcDbLinetypeTableRecord
  2
DOTX2
 70
     0
  3
.  .  .  .  .  .  .  .  .  .  .  .  .  .  .  . 
 72
    65
 73
     2
 40
0.5
 49
0.0
 74
     0
 49
-0.5
 74
     0
  0
LTYPE
  5
32
100
AcDbSymbolTableRecord
100
AcDbLinetypeTableRecord
  2
HIDDEN
 70
     0
  3
__ __ __ __ __ __ __ __ __ __ __ __ __ __ __ __
 72
    65
 73
     2
 40
0.375
 49
0.25
 74
     0
 49
-0.125
 74
     0
  0
LTYPE
  5
33
100
AcDbSymbolTableRecord
100
AcDbLinetypeTableRecord
  2
HIDDEN2
 70
     0
  3
_ _ _ _ _ _ _ _ _ _ _ _ _ _ _ _ _ _ _ _ _ _ _ _
 72
    65
 73
     2
 40
0.1875
 49
0.125
 74
     0
 49
-0.0625
 74
     0
  0
LTYPE
  5
34
100
AcDbSymbolTableRecord
100
AcDbLinetypeTableRecord
  2
HIDDENX2
 70
     0
  3
____ ____ ____ ____ ____ ____ ____ ____ ____ __
 72
    65
 73
     2
 40
0.75
 49
0.5
 74
     0
 49
-0.25
 74
     0
  0
LTYPE
  5
35
100
AcDbSymbolTableRecord
100
AcDbLinetypeTableRecord
  2
PHANTOM
 70
     0
  3
______  __  __  ______  __  __  ______  __  __ 
 72
    65
 73
     6
 40
2.5
 49
1.25
 74
     0
 49
-0.25
 74
     0
 49
0.25
 74
     0
 49
-0.25
 74
     0
 49
0.25
 74
     0
 49
-0.25
 74
     0
  0
LTYPE
  5
36
100
AcDbSymbolTableRecord
100
AcDbLinetypeTableRecord
  2
PHANTOM2
 70
     0
  3
___ _ _ ___ _ _ ___ _ _ ___ _ _ ___ _ _ ___ _ _
 72
    65
 73
     6
 40
1.25
 49
0.625
 74
     0
 49
-0.125
 74
     0
 49
0.125
 74
     0
 49
-0.125
 74
     0
 49
0.125
 74
     0
 49
-0.125
 74
     0
  0
LTYPE
  5
37
100
AcDbSymbolTableRecord
100
AcDbLinetypeTableRecord
  2
PHANTOMX2
 70
     0
  3
____________    ____    ____    ____________   
 72
    65
 73
     6
 40
5.0
 49
2.5
 74
     0
 49
-0.5
 74
     0
 49
0.5
 74
     0
 49
-0.5
 74
     0
 49
0.5
 74
     0
 49
-0.5
 74
     0
  0
ENDTAB
   0
TABLE
   2
LAYER
   5
2
 100
AcDbSymbolTable
  70
4
   0
LAYER
   5
E
 100
AcDbSymbolTableRecord
 100
AcDbLayerTableRecord
   2
0
  70
0
  62
-7
   6
CONTINUOUS
   0
LAYER
   5
39
 100
AcDbSymbolTableRecord
 100
AcDbLayerTableRecord
   2
LEVEL001
  70
0
  62
7
   6
CONTINUOUS
   0
LAYER
   5
3A
 100
AcDbSymbolTableRecord
 100
AcDbLayerTableRecord
   2
LEVEL003
  70
0
  62
7
   6
CONTINUOUS
   0
LAYER
   5
3B
 100
AcDbSymbolTableRecord
 100
AcDbLayerTableRecord
   2
LEVEL004
  70
0
  62
7
   6
CONTINUOUS
   0
ENDTAB
  0
TABLE
  2
STYLE
  5
3
100
AcDbSymbolTable
  70
3
  0
STYLE
  5
F
100
AcDbSymbolTableRecord
100
AcDbTextStyleTableRecord
  2
STANDARD
 70
     0
 40
0.0
 41
1.0
 50
0.0
 71
     0
 42
0.2
  3
TXT
  4
BIGFONT
  0
STYLE
  5
38
100
AcDbSymbolTableRecord
100
AcDbTextStyleTableRecord
  2
STANDARD1
 70
     4
 40
0.0
 41
1.0
 50
0.0
 71
     0
 42
0.2
  3
TXT
  4
BIGFONT
   0
STYLE
   5
3C
 100
AcDbSymbolTableRecord
 100
AcDbTextStyleTableRecord
   2
GMM001
  70
0
  40
0.0
  41
 1.0000000000000
  50
0.0
  71
     0
  42
1.0
   3
txt.shx
   4
bigfont.shx
   0
ENDTAB
  0
TABLE
  2
VIEW
  5
6
100
AcDbSymbolTable
 70
     0
  0
ENDTAB
  0
TABLE
  2
UCS
  5
7
100
AcDbSymbolTable
 70
     0
  0
ENDTAB
  0
TABLE
  2
APPID
  5
9
100
AcDbSymbolTable
 70
     1
  0
APPID
  5
10
100
AcDbSymbolTableRecord
100
AcDbRegAppTableRecord
  2
ACAD
 70
     0
  0
ENDTAB
   0
TABLE
   2
DIMSTYLE
   5
A
 100
AcDbSymbolTable
  70
5
  0
DIMSTYLE
105
1D
100
AcDbSymbolTableRecord
100
AcDbDimStyleTableRecord
  2
STANDARD
 70
     0
  3

  4

  5

  6

  7

 40
1.0
 41
0.18
 42
0.0625
 43
0.38
 44
0.18
 45
0.0
 46
0.0
 47
0.0
 48
0.0
140
0.18
141
0.09
142
0.0
143
25.4
144
1.0
145
0.0
146
1.0
147
0.09
 71
     0
 72
     0
 73
     1
 74
     1
 75
     0
 76
     0
 77
     0
 78
     0
170
     0
171
     2
172
     0
173
     0
174
     0
175
     0
176
     0
177
     0
178
     0
270
     2
271
     4
272
     4
273
     2
274
     2
340
F
275
     0
280
     0
281
     0
282
     0
283
     1
284
     0
285
     0
286
     0
287
     3
288
     0
   0
DIMSTYLE
 105
3D
 100
AcDbSymbolTableRecord
 100
AcDbDimStyleTableRecord
   2
GMM001
  70
0
   3

   4

   5

   6
_OPEN30
   7
_OPEN30
  40
 1.0000000000000
  41
 3.0000000000000
  42
 1.0000000000000
  43
 8.0000000000000
  44
 2.0000000000000
  45
0.0
  46
0.0
  47
0.0
  48
0.0
 140
 4.0000000000000
 141
 1.0000000000000
 142
0.0
 143
 0.39400000000000E-1
 144
 1.0000000000000
 145
0.0
 146
 0.62500000000000
 147
 1.7142857142857
  71
0
  72
0
  73
0
  74
0
  75
0
  76
0
  77
3
  78
8
 170
0
 171
2
 172
1
 173
1
 174
0
 175
0
 176
3
 177
3
 178
3
 270
2
 271
6
 272
0
 273
2
 274
2
 340
3C
 275
1
 280
0
 281
0
 282
0
 283
1
 284
0
 285
0
 286
0
 287
3
 288
0
   0
DIMSTYLE
 105
3E
 100
AcDbSymbolTableRecord
 100
AcDbDimStyleTableRecord
   2
GMM002
  70
0
   3

   4

   5

   6
_OPEN30
   7
_OPEN30
  40
 1.0000000000000
  41
 3.0000000000000
  42
 1.0000000000000
  43
 8.0000000000000
  44
 2.0000000000000
  45
0.0
  46
0.0
  47
0.0
  48
0.0
 140
 4.0000000000000
 141
 1.0000000000000
 142
0.0
 143
 0.39400000000000E-1
 144
 1.0000000000000
 145
0.0
 146
 0.62500000000000
 147
 1.7142857142857
  71
0
  72
0
  73
0
  74
0
  75
0
  76
0
  77
3
  78
8
 170
0
 171
2
 172
1
 173
1
 174
0
 175
0
 176
3
 177
3
 178
3
 270
2
 271
6
 272
0
 273
2
 274
2
 340
3C
 275
1
 280
0
 281
0
 282
0
 283
1
 284
0
 285
0
 286
0
 287
3
 288
0
   0
DIMSTYLE
 105
3F
 100
AcDbSymbolTableRecord
 100
AcDbDimStyleTableRecord
   2
GMM003
  70
0
   3

   4

   5

   6
_OPEN30
   7
_OPEN30
  40
 1.0000000000000
  41
 3.0000000000000
  42
0.0
  43
 8.0000000000000
  44
 2.0000000000000
  45
0.0
  46
0.0
  47
0.0
  48
0.0
 140
 4.0000000000000
 141
 1.0000000000000
 142
0.0
 143
 0.39400000000000E-1
 144
 1.0000000000000
 145
0.0
 146
 0.62500000000000
 147
 1.7142857142857
  71
0
  72
0
  73
0
  74
0
  75
0
  76
0
  77
3
  78
8
 170
0
 171
2
 172
1
 173
1
 174
0
 175
0
 176
3
 177
3
 178
3
 270
2
 271
6
 272
0
 273
2
 274
2
 340
3C
 275
1
 280
0
 281
0
 282
0
 283
1
 284
0
 285
0
 286
0
 287
3
 288
0
   0
ENDTAB
  0
TABLE
  2
BLOCK_RECORD
  5
1
100
AcDbSymbolTable
 70
     0
  0
BLOCK_RECORD
  5
18
100
AcDbSymbolTableRecord
100
AcDbBlockTableRecord
  2
*MODEL_SPACE
  0
BLOCK_RECORD
  5
15
100
AcDbSymbolTableRecord
100
AcDbBlockTableRecord
  2
*PAPER_SPACE
   0
BLOCK_RECORD
   5
40
 100
AcDbSymbolTableRecord
 100
AcDbBlockTableRecord
   2
*D1
   0
BLOCK_RECORD
   5
41
 100
AcDbSymbolTableRecord
 100
AcDbBlockTableRecord
   2
*D2
   0
BLOCK_RECORD
   5
42
 100
AcDbSymbolTableRecord
 100
AcDbBlockTableRecord
   2
*D3
   0
BLOCK_RECORD
   5
43
 100
AcDbSymbolTableRecord
 100
AcDbBlockTableRecord
   2
*D4
   0
BLOCK_RECORD
   5
44
 100
AcDbSymbolTableRecord
 100
AcDbBlockTableRecord
   2
*D5
   0
BLOCK_RECORD
   5
45
 100
AcDbSymbolTableRecord
 100
AcDbBlockTableRecord
   2
*D6
   0
BLOCK_RECORD
   5
46
 100
AcDbSymbolTableRecord
 100
AcDbBlockTableRecord
   2
*D7
   0
BLOCK_RECORD
   5
47
 100
AcDbSymbolTableRecord
 100
AcDbBlockTableRecord
   2
*D8
   0
BLOCK_RECORD
   5
48
 100
AcDbSymbolTableRecord
 100
AcDbBlockTableRecord
   2
*D9
   0
BLOCK_RECORD
   5
49
 100
AcDbSymbolTableRecord
 100
AcDbBlockTableRecord
   2
*D10
   0
BLOCK_RECORD
   5
4A
 100
AcDbSymbolTableRecord
 100
AcDbBlockTableRecord
   2
*D11
   0
BLOCK_RECORD
   5
4B
 100
AcDbSymbolTableRecord
 100
AcDbBlockTableRecord
   2
*D12
   0
BLOCK_RECORD
   5
4C
 100
AcDbSymbolTableRecord
 100
AcDbBlockTableRecord
   2
_ARCHTICK
   0
BLOCK_RECORD
   5
4D
 100
AcDbSymbolTableRecord
 100
AcDbBlockTableRecord
   2
_BOXBLANK
   0
BLOCK_RECORD
   5
4E
 100
AcDbSymbolTableRecord
 100
AcDbBlockTableRecord
   2
_BOXFILLED
   0
BLOCK_RECORD
   5
4F
 100
AcDbSymbolTableRecord
 100
AcDbBlockTableRecord
   2
_CLOSED
   0
BLOCK_RECORD
   5
50
 100
AcDbSymbolTableRecord
 100
AcDbBlockTableRecord
   2
_CLOSEDBLANK
   0
BLOCK_RECORD
   5
51
 100
AcDbSymbolTableRecord
 100
AcDbBlockTableRecord
   2
_DATUMBLANK
   0
BLOCK_RECORD
   5
52
 100
AcDbSymbolTableRecord
 100
AcDbBlockTableRecord
   2
_DATUMFILLED
   0
BLOCK_RECORD
   5
53
 100
AcDbSymbolTableRecord
 100
AcDbBlockTableRecord
   2
_DOT
   0
BLOCK_RECORD
   5
54
 100
AcDbSymbolTableRecord
 100
AcDbBlockTableRecord
   2
_DOTBLANK
   0
BLOCK_RECORD
   5
55
 100
AcDbSymbolTableRecord
 100
AcDbBlockTableRecord
   2
_DOTSMALL
   0
BLOCK_RECORD
   5
56
 100
AcDbSymbolTableRecord
 100
AcDbBlockTableRecord
   2
_INTEGRAL
   0
BLOCK_RECORD
   5
57
 100
AcDbSymbolTableRecord
 100
AcDbBlockTableRecord
   2
_NONE
   0
BLOCK_RECORD
   5
58
 100
AcDbSymbolTableRecord
 100
AcDbBlockTableRecord
   2
_OBLIQUE
   0
BLOCK_RECORD
   5
59
 100
AcDbSymbolTableRecord
 100
AcDbBlockTableRecord
   2
_OPEN
   0
BLOCK_RECORD
   5
5A
 100
AcDbSymbolTableRecord
 100
AcDbBlockTableRecord
   2
_OPEN30
   0
BLOCK_RECORD
   5
5B
 100
AcDbSymbolTableRecord
 100
AcDbBlockTableRecord
   2
_OPEN90
   0
BLOCK_RECORD
   5
5C
 100
AcDbSymbolTableRecord
 100
AcDbBlockTableRecord
   2
_ORIGIN
   0
ENDTAB
   0
ENDSEC
  0
SECTION
  2
BLOCKS
  0
BLOCK
  5
19
100
AcDbEntity
  8
0
100
AcDbBlockBegin
  2
*MODEL_SPACE
 70
     0
 10
0.0
 20
0.0
 30
0.0
  3
*MODEL_SPACE
  1

  0
ENDBLK
  5
1A
100
AcDbEntity
  8
0
100
AcDbBlockEnd
  0
BLOCK
  5
16
100
AcDbEntity
 67
     1
  8
0
100
AcDbBlockBegin
  2
*PAPER_SPACE
 70
     0
 10
0.0
 20
0.0
 30
0.0
  3
*PAPER_SPACE
  1

  0
ENDBLK
  5
17
100
AcDbEntity
 67
     1
  8
0
100
AcDbBlockEnd
   0
BLOCK
   5
5D
 100
AcDbEntity
   8
0
 100
AcDbBlockBegin
   2
_ARCHTICK
  70
0
  10
0.0
  20
0.0
  30
0.0
   3
_ARCHTICK
   0
POLYLINE
   5
5E
 100
AcDbEntity
   8
0
   6
BYBLOCK
  62
0
 100
AcDb2dPolyline
  66
1
  10
0.0
  20
0.0
  30
0.0
  70
1
  40
 0.15000000000000
  41
 0.15000000000000
   0
VERTEX
   5
5F
 100
AcDbEntity
   8
0
   6
BYBLOCK
  62
0
 100
AcDbVertex
 100
AcDb2dVertex
  10
-0.50000000000000
  20
-0.50000000000000
  30
0.0
  40
 0.15000000000000
  41
 0.15000000000000
   0
VERTEX
   5
60
 100
AcDbEntity
   8
0
   6
BYBLOCK
  62
0
 100
AcDbVertex
 100
AcDb2dVertex
  10
 0.50000000000000
  20
 0.50000000000000
  30
0.0
  40
 0.15000000000000
  41
 0.15000000000000
   0
SEQEND
   5
61
 100
AcDbEntity
   8
0
   6
BYBLOCK
  62
0
   0
ENDBLK
   5
62
 100
AcDbEntity
   8
0
 100
AcDbBlockEnd
   0
BLOCK
   5
63
 100
AcDbEntity
   8
0
 100
AcDbBlockBegin
   2
_OBLIQUE
  70
0
  10
0.0
  20
0.0
  30
0.0
   3
_OBLIQUE
   0
LINE
   5
64
 100
AcDbEntity
   8
0
 100
AcDbLine
   6
BYBLOCK
  62
0
  10
-0.50000000000000
  20
-0.50000000000000
  30
0.0
  11
 0.50000000000000
  21
 0.50000000000000
  31
0.0
   0
ENDBLK
   5
65
 100
AcDbEntity
   8
0
 100
AcDbBlockEnd
   0
BLOCK
   5
66
 100
AcDbEntity
   8
0
 100
AcDbBlockBegin
   2
_BOXBLANK
  70
0
  10
0.0
  20
0.0
  30
0.0
   3
_BOXBLANK
   0
LINE
   5
67
 100
AcDbEntity
   8
0
 100
AcDbLine
   6
BYBLOCK
  62
0
  10
-0.50000000000000
  20
-0.50000000000000
  30
0.0
  11
 0.50000000000000
  21
-0.50000000000000
  31
0.0
   0
LINE
   5
68
 100
AcDbEntity
   8
0
 100
AcDbLine
   6
BYBLOCK
  62
0
  10
 0.50000000000000
  20
-0.50000000000000
  30
0.0
  11
 0.50000000000000
  21
 0.50000000000000
  31
0.0
   0
LINE
   5
69
 100
AcDbEntity
   8
0
 100
AcDbLine
   6
BYBLOCK
  62
0
  10
 0.50000000000000
  20
 0.50000000000000
  30
0.0
  11
-0.50000000000000
  21
 0.50000000000000
  31
0.0
   0
LINE
   5
6A
 100
AcDbEntity
   8
0
 100
AcDbLine
   6
BYBLOCK
  62
0
  10
-0.50000000000000
  20
 0.50000000000000
  30
0.0
  11
-0.50000000000000
  21
-0.50000000000000
  31
0.0
   0
LINE
   5
6B
 100
AcDbEntity
   8
0
 100
AcDbLine
   6
BYBLOCK
  62
0
  10
-0.50000000000000
  20
0.0
  30
0.0
  11
-1.0000000000000
  21
0.0
  31
0.0
   0
ENDBLK
   5
6C
 100
AcDbEntity
   8
0
 100
AcDbBlockEnd
   0
BLOCK
   5
6D
 100
AcDbEntity
   8
0
 100
AcDbBlockBegin
   2
_BOXFILLED
  70
0
  10
0.0
  20
0.0
  30
0.0
   3
_BOXFILLED
   0
SOLID
   5
6E
 100
AcDbEntity
   8
0
 100
AcDbTrace
   6
BYBLOCK
  62
0
  10
-0.50000000000000
  20
 0.50000000000000
  30
0.0
  11
 0.50000000000000
  21
 0.50000000000000
  31
0.0
  12
-0.50000000000000
  22
-0.50000000000000
  32
0.0
  13
 0.50000000000000
  23
-0.50000000000000
  33
0.0
   0
LINE
   5
6F
 100
AcDbEntity
   8
0
 100
AcDbLine
   6
BYBLOCK
  62
0
  10
-0.50000000000000
  20
0.0
  30
0.0
  11
-1.0000000000000
  21
0.0
  31
0.0
   0
ENDBLK
   5
70
 100
AcDbEntity
   8
0
 100
AcDbBlockEnd
   0
BLOCK
   5
71
 100
AcDbEntity
   8
0
 100
AcDbBlockBegin
   2
_CLOSED
  70
0
  10
0.0
  20
0.0
  30
0.0
   3
_CLOSED
   0
LINE
   5
72
 100
AcDbEntity
   8
0
 100
AcDbLine
   6
BYBLOCK
  62
0
  10
-1.0000000000000
  20
 0.16666666666667
  30
0.0
  11
0.0
  21
0.0
  31
0.0
   0
LINE
   5
73
 100
AcDbEntity
   8
0
 100
AcDbLine
   6
BYBLOCK
  62
0
  10
0.0
  20
0.0
  30
0.0
  11
-1.0000000000000
  21
-0.16666666666667
  31
0.0
   0
LINE
   5
74
 100
AcDbEntity
   8
0
 100
AcDbLine
   6
BYBLOCK
  62
0
  10
-1.0000000000000
  20
 0.16666666666667
  30
0.0
  11
-1.0000000000000
  21
-0.16666666666667
  31
0.0
   0
LINE
   5
75
 100
AcDbEntity
   8
0
 100
AcDbLine
   6
BYBLOCK
  62
0
  10
0.0
  20
0.0
  30
0.0
  11
-1.0000000000000
  21
0.0
  31
0.0
   0
ENDBLK
   5
76
 100
AcDbEntity
   8
0
 100
AcDbBlockEnd
   0
BLOCK
   5
77
 100
AcDbEntity
   8
0
 100
AcDbBlockBegin
   2
_OPEN
  70
0
  10
0.0
  20
0.0
  30
0.0
   3
_OPEN
   0
LINE
   5
78
 100
AcDbEntity
   8
0
 100
AcDbLine
   6
BYBLOCK
  62
0
  10
-1.0000000000000
  20
 0.16666666666667
  30
0.0
  11
0.0
  21
0.0
  31
0.0
   0
LINE
   5
79
 100
AcDbEntity
   8
0
 100
AcDbLine
   6
BYBLOCK
  62
0
  10
0.0
  20
0.0
  30
0.0
  11
-1.0000000000000
  21
-0.16666666666667
  31
0.0
   0
LINE
   5
7A
 100
AcDbEntity
   8
0
 100
AcDbLine
   6
BYBLOCK
  62
0
  10
0.0
  20
0.0
  30
0.0
  11
-1.0000000000000
  21
0.0
  31
0.0
   0
ENDBLK
   5
7B
 100
AcDbEntity
   8
0
 100
AcDbBlockEnd
   0
BLOCK
   5
7C
 100
AcDbEntity
   8
0
 100
AcDbBlockBegin
   2
_OPEN30
  70
0
  10
0.0
  20
0.0
  30
0.0
   3
_OPEN30
   0
LINE
   5
7D
 100
AcDbEntity
   8
0
 100
AcDbLine
   6
BYBLOCK
  62
0
  10
-1.0000000000000
  20
 0.26794919243110
  30
0.0
  11
0.0
  21
0.0
  31
0.0
   0
LINE
   5
7E
 100
AcDbEntity
   8
0
 100
AcDbLine
   6
BYBLOCK
  62
0
  10
0.0
  20
0.0
  30
0.0
  11
-1.0000000000000
  21
-0.26794919243110
  31
0.0
   0
LINE
   5
7F
 100
AcDbEntity
   8
0
 100
AcDbLine
   6
BYBLOCK
  62
0
  10
0.0
  20
0.0
  30
0.0
  11
-1.0000000000000
  21
0.0
  31
0.0
   0
ENDBLK
   5
80
 100
AcDbEntity
   8
0
 100
AcDbBlockEnd
   0
BLOCK
   5
81
 100
AcDbEntity
   8
0
 100
AcDbBlockBegin
   2
_OPEN90
  70
0
  10
0.0
  20
0.0
  30
0.0
   3
_OPEN90
   0
LINE
   5
82
 100
AcDbEntity
   8
0
 100
AcDbLine
   6
BYBLOCK
  62
0
  10
-0.50000000000000
  20
 0.50000000000000
  30
0.0
  11
0.0
  21
0.0
  31
0.0
   0
LINE
   5
83
 100
AcDbEntity
   8
0
 100
AcDbLine
   6
BYBLOCK
  62
0
  10
0.0
  20
0.0
  30
0.0
  11
-0.50000000000000
  21
-0.50000000000000
  31
0.0
   0
LINE
   5
84
 100
AcDbEntity
   8
0
 100
AcDbLine
   6
BYBLOCK
  62
0
  10
0.0
  20
0.0
  30
0.0
  11
-1.0000000000000
  21
0.0
  31
0.0
   0
ENDBLK
   5
85
 100
AcDbEntity
   8
0
 100
AcDbBlockEnd
   0
BLOCK
   5
86
 100
AcDbEntity
   8
0
 100
AcDbBlockBegin
   2
_CLOSEDBLANK
  70
0
  10
0.0
  20
0.0
  30
0.0
   3
_CLOSEDBLANK
   0
LINE
   5
87
 100
AcDbEntity
   8
0
 100
AcDbLine
   6
BYBLOCK
  62
0
  10
-1.0000000000000
  20
 0.16666666666667
  30
0.0
  11
0.0
  21
0.0
  31
0.0
   0
LINE
   5
88
 100
AcDbEntity
   8
0
 100
AcDbLine
   6
BYBLOCK
  62
0
  10
0.0
  20
0.0
  30
0.0
  11
-1.0000000000000
  21
-0.16666666666667
  31
0.0
   0
LINE
   5
89
 100
AcDbEntity
   8
0
 100
AcDbLine
   6
BYBLOCK
  62
0
  10
-1.0000000000000
  20
 0.16666666666667
  30
0.0
  11
-1.0000000000000
  21
-0.16666666666667
  31
0.0
   0
ENDBLK
   5
8A
 100
AcDbEntity
   8
0
 100
AcDbBlockEnd
   0
BLOCK
   5
8B
 100
AcDbEntity
   8
0
 100
AcDbBlockBegin
   2
_DOT
  70
0
  10
0.0
  20
0.0
  30
0.0
   3
_DOT
   0
POLYLINE
   5
8C
 100
AcDbEntity
   8
0
   6
BYBLOCK
  62
0
 100
AcDb2dPolyline
  66
1
  10
0.0
  20
0.0
  30
0.0
  70
1
  40
 0.50000000000000
  41
 0.50000000000000
   0
VERTEX
   5
8D
 100
AcDbEntity
   8
0
   6
BYBLOCK
  62
0
 100
AcDbVertex
 100
AcDb2dVertex
  10
-0.25000000000000
  20
0.0
  30
0.0
  42
 1.0000000000000
  40
 0.50000000000000
  41
 0.50000000000000
   0
VERTEX
   5
8E
 100
AcDbEntity
   8
0
   6
BYBLOCK
  62
0
 100
AcDbVertex
 100
AcDb2dVertex
  10
 0.25000000000000
  20
0.0
  30
0.0
  42
 1.0000000000000
  40
 0.50000000000000
  41
 0.50000000000000
   0
SEQEND
   5
8F
 100
AcDbEntity
   8
0
   6
BYBLOCK
  62
0
   0
LINE
   5
90
 100
AcDbEntity
   8
0
 100
AcDbLine
   6
BYBLOCK
  62
0
  10
-0.50000000000000
  20
0.0
  30
0.0
  11
-1.0000000000000
  21
0.0
  31
0.0
   0
ENDBLK
   5
91
 100
AcDbEntity
   8
0
 100
AcDbBlockEnd
   0
BLOCK
   5
92
 100
AcDbEntity
   8
0
 100
AcDbBlockBegin
   2
_DOTSMALL
  70
0
  10
0.0
  20
0.0
  30
0.0
   3
_DOTSMALL
   0
POLYLINE
   5
93
 100
AcDbEntity
   8
0
   6
BYBLOCK
  62
0
 100
AcDb2dPolyline
  66
1
  10
0.0
  20
0.0
  30
0.0
  70
1
  40
 0.50000000000000
  41
 0.50000000000000
   0
VERTEX
   5
94
 100
AcDbEntity
   8
0
   6
BYBLOCK
  62
0
 100
AcDbVertex
 100
AcDb2dVertex
  10
-0.62500000000000E-1
  20
0.0
  30
0.0
  42
 1.0000000000000
  40
 0.50000000000000
  41
 0.50000000000000
   0
VERTEX
   5
95
 100
AcDbEntity
   8
0
   6
BYBLOCK
  62
0
 100
AcDbVertex
 100
AcDb2dVertex
  10
 0.62500000000000E-1
  20
0.0
  30
0.0
  42
 1.0000000000000
  40
 0.50000000000000
  41
 0.50000000000000
   0
SEQEND
   5
96
 100
AcDbEntity
   8
0
   6
BYBLOCK
  62
0
   0
ENDBLK
   5
97
 100
AcDbEntity
   8
0
 100
AcDbBlockEnd
   0
BLOCK
   5
98
 100
AcDbEntity
   8
0
 100
AcDbBlockBegin
   2
_DATUMBLANK
  70
0
  10
0.0
  20
0.0
  30
0.0
   3
_DATUMBLANK
   0
LINE
   5
99
 100
AcDbEntity
   8
0
 100
AcDbLine
   6
BYBLOCK
  62
0
  10
0.0
  20
 0.57735027000000
  30
0.0
  11
-1.0000000000000
  21
0.0
  31
0.0
   0
LINE
   5
9A
 100
AcDbEntity
   8
0
 100
AcDbLine
   6
BYBLOCK
  62
0
  10
-1.0000000000000
  20
0.0
  30
0.0
  11
0.0
  21
-0.57735027000000
  31
0.0
   0
LINE
   5
9B
 100
AcDbEntity
   8
0
 100
AcDbLine
   6
BYBLOCK
  62
0
  10
0.0
  20
-0.57735027000000
  30
0.0
  11
0.0
  21
 0.57735027000000
  31
0.0
   0
ENDBLK
   5
9C
 100
AcDbEntity
   8
0
 100
AcDbBlockEnd
   0
BLOCK
   5
9D
 100
AcDbEntity
   8
0
 100
AcDbBlockBegin
   2
_DATUMFILLED
  70
0
  10
0.0
  20
0.0
  30
0.0
   3
_DATUMFILLED
   0
SOLID
   5
9E
 100
AcDbEntity
   8
0
 100
AcDbTrace
   6
BYBLOCK
  62
0
  10
0.0
  20
 0.57735027000000
  30
0.0
  11
-1.0000000000000
  21
0.0
  31
0.0
  12
0.0
  22
-0.57735027000000
  32
0.0
  13
0.0
  23
-0.57735027000000
  33
0.0
   0
ENDBLK
   5
9F
 100
AcDbEntity
   8
0
 100
AcDbBlockEnd
   0
BLOCK
   5
A0
 100
AcDbEntity
   8
0
 100
AcDbBlockBegin
   2
_ORIGIN
  70
0
  10
0.0
  20
0.0
  30
0.0
   3
_ORIGIN
   0
CIRCLE
   5
A1
 100
AcDbEntity
   8
0
 100
AcDbCircle
   6
BYBLOCK
  62
0
  10
0.0
  20
0.0
  30
0.0
  40
 0.50000000000000
   0
LINE
   5
A2
 100
AcDbEntity
   8
0
 100
AcDbLine
   6
BYBLOCK
  62
0
  10
0.0
  20
0.0
  30
0.0
  11
-1.0000000000000
  21
0.0
  31
0.0
   0
ENDBLK
   5
A3
 100
AcDbEntity
   8
0
 100
AcDbBlockEnd
   0
BLOCK
   5
A4
 100
AcDbEntity
   8
0
 100
AcDbBlockBegin
   2
_NONE
  70
0
  10
0.0
  20
0.0
  30
0.0
   3
_NONE
   0
CIRCLE
   5
A5
 100
AcDbEntity
   8
0
 100
AcDbCircle
   6
BYBLOCK
  62
0
  10
0.0
  20
0.0
  30
0.0
  40
 0.25000000000000
   0
ENDBLK
   5
A6
 100
AcDbEntity
   8
0
 100
AcDbBlockEnd
   0
BLOCK
   5
A7
 100
AcDbEntity
   8
0
 100
AcDbBlockBegin
   2
_DOTBLANK
  70
0
  10
0.0
  20
0.0
  30
0.0
   3
_DOTBLANK
   0
CIRCLE
   5
A8
 100
AcDbEntity
   8
0
 100
AcDbCircle
   6
BYBLOCK
  62
0
  10
0.0
  20
0.0
  30
0.0
  40
 0.50000000000000
   0
LINE
   5
A9
 100
AcDbEntity
   8
0
 100
AcDbLine
   6
BYBLOCK
  62
0
  10
-0.50000000000000
  20
0.0
  30
0.0
  11
-1.0000000000000
  21
0.0
  31
0.0
   0
ENDBLK
   5
AA
 100
AcDbEntity
   8
0
 100
AcDbBlockEnd
   0
BLOCK
   5
AB
 100
AcDbEntity
   8
0
 100
AcDbBlockBegin
   2
_INTEGRAL
  70
0
  10
0.0
  20
0.0
  30
0.0
   3
_INTEGRAL
   0
ARC
   5
AC
 100
AcDbEntity
   8
0
   6
BYBLOCK
  62
0
 100
AcDbCircle
  10
 0.44488800000000
  20
-0.91335000000000E-1
  30
0.0
  40
 0.45416700000000
 100
AcDbArc
  50
 102.00000000000
  51
 168.00000000000
   0
ARC
   5
AD
 100
AcDbEntity
   8
0
   6
BYBLOCK
  62
0
 100
AcDbCircle
  10
-0.44488800000000
  20
 0.91335000000000E-1
  30
0.0
  40
 0.45416700000000
 100
AcDbArc
  50
 282.00000000000
  51
 348.00000000000
   0
ENDBLK
   5
AE
 100
AcDbEntity
   8
0
 100
AcDbBlockEnd
   0
BLOCK
   5
AF
 100
AcDbEntity
   8
0
 100
AcDbBlockBegin
   2
*D1
  70
65
  10
0.0
  20
0.0
  30
0.0
   3
*D1
   0
LINE
   5
B0
 100
AcDbEntity
   8
LEVEL003
 100
AcDbLine
   6
CONTINUOUS
  62
3
  10
 120.04818475679
  20
 1008.9789591430
  30
0.0
  11
 120.04818475679
  21
 1031.2950340599
  31
0.0
   0
LINE
   5
B1
 100
AcDbEntity
   8
LEVEL003
 100
AcDbLine
   6
CONTINUOUS
  62
3
  10
 210.04818475679
  20
 1008.9789591430
  30
0.0
  11
 210.04818475679
  21
 1031.2950340599
  31
0.0
   0
LINE
   5
B2
 100
AcDbEntity
   8
LEVEL003
 100
AcDbLine
   6
CONTINUOUS
  62
3
  10
 120.04818475679
  20
 1029.2950340599
  30
0.0
  11
 165.04818475679
  21
 1029.2950340599
  31
0.0
   0
LINE
   5
B3
 100
AcDbEntity
   8
LEVEL003
 100
AcDbLine
   6
CONTINUOUS
  62
3
  10
 210.04818475679
  20
 1029.2950340599
  30
0.0
  11
 165.04818475679
  21
 1029.2950340599
  31
0.0
   0
INSERT
   5
B4
 100
AcDbEntity
   8
LEVEL003
   6
CONTINUOUS
  62
3
 100
AcDbBlockReference
   2
_OPEN30
  10
 120.04818475679
  20
 1029.2950340599
  30
0.0
  41
 3.0000000000000
  42
 3.0000000000000
  43
 3.0000000000000
  50
 180.00000000000
   0
INSERT
   5
B5
 100
AcDbEntity
   8
LEVEL003
   6
CONTINUOUS
  62
3
 100
AcDbBlockReference
   2
_OPEN30
  10
 210.04818475679
  20
 1029.2950340599
  30
0.0
  41
 3.0000000000000
  42
 3.0000000000000
  43
 3.0000000000000
  50
0.0
   0
MTEXT
   5
B6
 100
AcDbEntity
   8
LEVEL003
  62
3
 100
AcDbMText
  10
 165.04818475679
  20
 1031.0093197742
  30
0.0
  40
 4.0000000000000
  41
0.0
  71
8
  72
1
   1
\A1;90
   7
GMM001
   0
ENDBLK
   5
B7
 100
AcDbEntity
   8
0
 100
AcDbBlockEnd
   0
BLOCK
   5
B8
 100
AcDbEntity
   8
0
 100
AcDbBlockBegin
   2
*D2
  70
65
  10
0.0
  20
0.0
  30
0.0
   3
*D2
   0
LINE
   5
B9
 100
AcDbEntity
   8
LEVEL003
 100
AcDbLine
   6
CONTINUOUS
  62
3
  10
 236.04818475679
  20
 757.97895914296
  30
0.0
  11
 342.68593364861
  21
 757.97895914296
  31
0.0
   0
LINE
   5
BA
 100
AcDbEntity
   8
LEVEL003
 100
AcDbLine
   6
CONTINUOUS
  62
3
  10
 223.92403475679
  20
 887.97895914296
  30
0.0
  11
 342.68593364861
  21
 887.97895914296
  31
0.0
   0
LINE
   5
BB
 100
AcDbEntity
   8
LEVEL003
 100
AcDbLine
   6
CONTINUOUS
  62
3
  10
 340.68593364861
  20
 757.97895914296
  30
0.0
  11
 340.68593364861
  21
 822.97895914296
  31
0.0
   0
LINE
   5
BC
 100
AcDbEntity
   8
LEVEL003
 100
AcDbLine
   6
CONTINUOUS
  62
3
  10
 340.68593364861
  20
 887.97895914296
  30
0.0
  11
 340.68593364861
  21
 822.97895914296
  31
0.0
   0
INSERT
   5
BD
 100
AcDbEntity
   8
LEVEL003
   6
CONTINUOUS
  62
3
 100
AcDbBlockReference
   2
_OPEN30
  10
 340.68593364861
  20
 757.97895914296
  30
0.0
  41
 3.0000000000000
  42
 3.0000000000000
  43
 3.0000000000000
  50
 270.00000000000
   0
INSERT
   5
BE
 100
AcDbEntity
   8
LEVEL003
   6
CONTINUOUS
  62
3
 100
AcDbBlockReference
   2
_OPEN30
  10
 340.68593364861
  20
 887.97895914296
  30
0.0
  41
 3.0000000000000
  42
 3.0000000000000
  43
 3.0000000000000
  50
 90.000000000000
   0
MTEXT
   5
BF
 100
AcDbEntity
   8
LEVEL003
  62
3
 100
AcDbMText
  10
 338.97164793432
  20
 822.97895914296
  30
0.0
  40
 4.0000000000000
  41
0.0
  71
8
  72
1
   1
\A1;130
   7
GMM001
  11
0.0
  21
 1.0000000000000
  31
0.0
   0
ENDBLK
   5
C0
 100
AcDbEntity
   8
0
 100
AcDbBlockEnd
   0
BLOCK
   5
C1
 100
AcDbEntity
   8
0
 100
AcDbBlockBegin
   2
*D3
  70
65
  10
0.0
  20
0.0
  30
0.0
   3
*D3
   0
LINE
   5
C2
 100
AcDbEntity
   8
LEVEL003
 100
AcDbLine
   6
CONTINUOUS
  62
3
  10
 223.92403475679
  20
 887.97895914296
  30
0.0
  11
 342.68593364861
  21
 887.97895914296
  31
0.0
   0
LINE
   5
C3
 100
AcDbEntity
   8
LEVEL003
 100
AcDbLine
   6
CONTINUOUS
  62
3
  10
 236.04818475679
  20
 982.97895914296
  30
0.0
  11
 342.68593364861
  21
 982.97895914296
  31
0.0
   0
LINE
   5
C4
 100
AcDbEntity
   8
LEVEL003
 100
AcDbLine
   6
CONTINUOUS
  62
3
  10
 340.68593364861
  20
 887.97895914296
  30
0.0
  11
 340.68593364861
  21
 935.47895914296
  31
0.0
   0
LINE
   5
C5
 100
AcDbEntity
   8
LEVEL003
 100
AcDbLine
   6
CONTINUOUS
  62
3
  10
 340.68593364861
  20
 982.97895914296
  30
0.0
  11
 340.68593364861
  21
 935.47895914296
  31
0.0
   0
INSERT
   5
C6
 100
AcDbEntity
   8
LEVEL003
   6
CONTINUOUS
  62
3
 100
AcDbBlockReference
   2
_OPEN30
  10
 340.68593364861
  20
 887.97895914296
  30
0.0
  41
 3.0000000000000
  42
 3.0000000000000
  43
 3.0000000000000
  50
 270.00000000000
   0
INSERT
   5
C7
 100
AcDbEntity
   8
LEVEL003
   6
CONTINUOUS
  62
3
 100
AcDbBlockReference
   2
_OPEN30
  10
 340.68593364861
  20
 982.97895914296
  30
0.0
  41
 3.0000000000000
  42
 3.0000000000000
  43
 3.0000000000000
  50
 90.000000000000
   0
MTEXT
   5
C8
 100
AcDbEntity
   8
LEVEL003
  62
3
 100
AcDbMText
  10
 338.97164793432
  20
 935.47895914296
  30
0.0
  40
 4.0000000000000
  41
0.0
  71
8
  72
1
   1
\A1;95
   7
GMM001
  11
0.0
  21
 1.0000000000000
  31
0.0
   0
ENDBLK
   5
C9
 100
AcDbEntity
   8
0
 100
AcDbBlockEnd
   0
BLOCK
   5
CA
 100
AcDbEntity
   8
0
 100
AcDbBlockBegin
   2
*D4
  70
65
  10
0.0
  20
0.0
  30
0.0
   3
*D4
   0
LINE
   5
CB
 100
AcDbEntity
   8
LEVEL003
 100
AcDbLine
   6
CONTINUOUS
  62
3
  10
 310.04818475679
  20
 802.47895914296
  30
0.0
  11
 310.04818475679
  21
 692.20746993553
  31
0.0
   0
LINE
   5
CC
 100
AcDbEntity
   8
LEVEL003
 100
AcDbLine
   6
CONTINUOUS
  62
3
  10
 20.048184756786
  20
 802.47895914296
  30
0.0
  11
 20.048184756786
  21
 692.20746993553
  31
0.0
   0
LINE
   5
CD
 100
AcDbEntity
   8
LEVEL003
 100
AcDbLine
   6
CONTINUOUS
  62
3
  10
 310.04818475679
  20
 694.20746993553
  30
0.0
  11
 165.04818475679
  21
 694.20746993553
  31
0.0
   0
LINE
   5
CE
 100
AcDbEntity
   8
LEVEL003
 100
AcDbLine
   6
CONTINUOUS
  62
3
  10
 20.048184756786
  20
 694.20746993553
  30
0.0
  11
 165.04818475679
  21
 694.20746993553
  31
0.0
   0
INSERT
   5
CF
 100
AcDbEntity
   8
LEVEL003
   6
CONTINUOUS
  62
3
 100
AcDbBlockReference
   2
_OPEN30
  10
 310.04818475679
  20
 694.20746993553
  30
0.0
  41
 3.0000000000000
  42
 3.0000000000000
  43
 3.0000000000000
  50
0.0
   0
INSERT
   5
D0
 100
AcDbEntity
   8
LEVEL003
   6
CONTINUOUS
  62
3
 100
AcDbBlockReference
   2
_OPEN30
  10
 20.048184756786
  20
 694.20746993553
  30
0.0
  41
 3.0000000000000
  42
 3.0000000000000
  43
 3.0000000000000
  50
 180.00000000000
   0
MTEXT
   5
D1
 100
AcDbEntity
   8
LEVEL003
  62
3
 100
AcDbMText
  10
 165.04818475679
  20
 695.92175564982
  30
0.0
  40
 4.0000000000000
  41
0.0
  71
8
  72
1
   1
\A1;290
   7
GMM001
   0
ENDBLK
   5
D2
 100
AcDbEntity
   8
0
 100
AcDbBlockEnd
   0
BLOCK
   5
D3
 100
AcDbEntity
   8
0
 100
AcDbBlockBegin
   2
*D5
  70
65
  10
0.0
  20
0.0
  30
0.0
   3
*D5
   0
LINE
   5
D4
 100
AcDbEntity
   8
LEVEL003
 100
AcDbLine
   6
CONTINUOUS
  62
3
  10
 202.04818475679
  20
 651.35782170814
  30
0.0
  11
 367.05207519006
  21
 651.35782170814
  31
0.0
   0
LINE
   5
D5
 100
AcDbEntity
   8
LEVEL003
 100
AcDbLine
   6
CONTINUOUS
  62
3
  10
 244.04818475679
  20
 130.35782170814
  30
0.0
  11
 367.05207519006
  21
 130.35782170814
  31
0.0
   0
LINE
   5
D6
 100
AcDbEntity
   8
LEVEL003
 100
AcDbLine
   6
CONTINUOUS
  62
3
  10
 365.05207519006
  20
 651.35782170814
  30
0.0
  11
 365.05207519006
  21
 390.85782170814
  31
0.0
   0
LINE
   5
D7
 100
AcDbEntity
   8
LEVEL003
 100
AcDbLine
   6
CONTINUOUS
  62
3
  10
 365.05207519006
  20
 130.35782170814
  30
0.0
  11
 365.05207519006
  21
 390.85782170814
  31
0.0
   0
INSERT
   5
D8
 100
AcDbEntity
   8
LEVEL003
   6
CONTINUOUS
  62
3
 100
AcDbBlockReference
   2
_OPEN30
  10
 365.05207519006
  20
 651.35782170814
  30
0.0
  41
 3.0000000000000
  42
 3.0000000000000
  43
 3.0000000000000
  50
 90.000000000000
   0
INSERT
   5
D9
 100
AcDbEntity
   8
LEVEL003
   6
CONTINUOUS
  62
3
 100
AcDbBlockReference
   2
_OPEN30
  10
 365.05207519006
  20
 130.35782170814
  30
0.0
  41
 3.0000000000000
  42
 3.0000000000000
  43
 3.0000000000000
  50
 270.00000000000
   0
MTEXT
   5
DA
 100
AcDbEntity
   8
LEVEL003
  62
3
 100
AcDbMText
  10
 363.33778947577
  20
 390.85782170814
  30
0.0
  40
 4.0000000000000
  41
0.0
  71
8
  72
1
   1
\A1;171+ストローク
   7
GMM001
  11
0.0
  21
 1.0000000000000
  31
0.0
   0
ENDBLK
   5
DB
 100
AcDbEntity
   8
0
 100
AcDbBlockEnd
   0
BLOCK
   5
DC
 100
AcDbEntity
   8
0
 100
AcDbBlockBegin
   2
*D6
  70
65
  10
0.0
  20
0.0
  30
0.0
   3
*D6
   0
LINE
   5
DD
 100
AcDbEntity
   8
LEVEL003
 100
AcDbLine
   6
CONTINUOUS
  62
3
  10
 274.04818475679
  20
 209.85782170814
  30
0.0
  11
 274.04818475679
  21
 243.17364154909
  31
0.0
   0
LINE
   5
DE
 100
AcDbEntity
   8
LEVEL003
 100
AcDbLine
   6
CONTINUOUS
  62
3
  10
 310.04818475679
  20
 209.85782170814
  30
0.0
  11
 310.04818475679
  21
 243.17364154909
  31
0.0
   0
LINE
   5
DF
 100
AcDbEntity
   8
LEVEL003
 100
AcDbLine
   6
CONTINUOUS
  62
3
  10
 274.04818475679
  20
 241.17364154909
  30
0.0
  11
 292.04818475679
  21
 241.17364154909
  31
0.0
   0
LINE
   5
E0
 100
AcDbEntity
   8
LEVEL003
 100
AcDbLine
   6
CONTINUOUS
  62
3
  10
 310.04818475679
  20
 241.17364154909
  30
0.0
  11
 292.04818475679
  21
 241.17364154909
  31
0.0
   0
INSERT
   5
E1
 100
AcDbEntity
   8
LEVEL003
   6
CONTINUOUS
  62
3
 100
AcDbBlockReference
   2
_OPEN30
  10
 274.04818475679
  20
 241.17364154909
  30
0.0
  41
 3.0000000000000
  42
 3.0000000000000
  43
 3.0000000000000
  50
 180.00000000000
   0
INSERT
   5
E2
 100
AcDbEntity
   8
LEVEL003
   6
CONTINUOUS
  62
3
 100
AcDbBlockReference
   2
_OPEN30
  10
 310.04818475679
  20
 241.17364154909
  30
0.0
  41
 3.0000000000000
  42
 3.0000000000000
  43
 3.0000000000000
  50
0.0
   0
MTEXT
   5
E3
 100
AcDbEntity
   8
LEVEL003
  62
3
 100
AcDbMText
  10
 292.04818475679
  20
 242.88792726338
  30
0.0
  40
 4.0000000000000
  41
0.0
  71
8
  72
1
   1
\A1;36
   7
GMM001
   0
ENDBLK
   5
E4
 100
AcDbEntity
   8
0
 100
AcDbBlockEnd
   0
BLOCK
   5
E5
 100
AcDbEntity
   8
0
 100
AcDbBlockBegin
   2
*D7
  70
65
  10
0.0
  20
0.0
  30
0.0
   3
*D7
   0
LINE
   5
E6
 100
AcDbEntity
   8
LEVEL003
 100
AcDbLine
   6
CONTINUOUS
  62
3
  10
 268.04818475679
  20
 206.20053570814
  30
0.0
  11
 268.04818475679
  21
 264.99827601362
  31
0.0
   0
LINE
   5
E7
 100
AcDbEntity
   8
LEVEL003
 100
AcDbLine
   6
CONTINUOUS
  62
3
  10
 310.04818475679
  20
 209.85782170814
  30
0.0
  11
 310.04818475679
  21
 264.99827601362
  31
0.0
   0
LINE
   5
E8
 100
AcDbEntity
   8
LEVEL003
 100
AcDbLine
   6
CONTINUOUS
  62
3
  10
 268.04818475679
  20
 262.99827601362
  30
0.0
  11
 289.04818475679
  21
 262.99827601362
  31
0.0
   0
LINE
   5
E9
 100
AcDbEntity
   8
LEVEL003
 100
AcDbLine
   6
CONTINUOUS
  62
3
  10
 310.04818475679
  20
 262.99827601362
  30
0.0
  11
 289.04818475679
  21
 262.99827601362
  31
0.0
   0
INSERT
   5
EA
 100
AcDbEntity
   8
LEVEL003
   6
CONTINUOUS
  62
3
 100
AcDbBlockReference
   2
_OPEN30
  10
 268.04818475679
  20
 262.99827601362
  30
0.0
  41
 3.0000000000000
  42
 3.0000000000000
  43
 3.0000000000000
  50
 180.00000000000
   0
INSERT
   5
EB
 100
AcDbEntity
   8
LEVEL003
   6
CONTINUOUS
  62
3
 100
AcDbBlockReference
   2
_OPEN30
  10
 310.04818475679
  20
 262.99827601362
  30
0.0
  41
 3.0000000000000
  42
 3.0000000000000
  43
 3.0000000000000
  50
0.0
   0
MTEXT
   5
EC
 100
AcDbEntity
   8
LEVEL003
  62
3
 100
AcDbMText
  10
 289.04818475679
  20
 264.71256172791
  30
0.0
  40
 4.0000000000000
  41
0.0
  71
8
  72
1
   1
\A1;42
   7
GMM001
   0
ENDBLK
   5
ED
 100
AcDbEntity
   8
0
 100
AcDbBlockEnd
   0
BLOCK
   5
EE
 100
AcDbEntity
   8
0
 100
AcDbBlockBegin
   2
*D8
  70
65
  10
0.0
  20
0.0
  30
0.0
   3
*D8
   0
LINE
   5
EF
 100
AcDbEntity
   8
LEVEL003
 100
AcDbLine
   6
CONTINUOUS
  62
3
  10
 696.79818475679
  20
 130.35782170814
  30
0.0
  11
 729.87415303953
  21
 130.35782170814
  31
0.0
   0
LINE
   5
F0
 100
AcDbEntity
   8
LEVEL003
 100
AcDbLine
   6
CONTINUOUS
  62
3
  10
 693.29818475679
  20
 146.35782170814
  30
0.0
  11
 729.87415303953
  21
 146.35782170814
  31
0.0
   0
LINE
   5
F1
 100
AcDbEntity
   8
LEVEL003
 100
AcDbLine
   6
CONTINUOUS
  62
3
  10
 727.87415303953
  20
 130.35782170814
  30
0.0
  11
 727.87415303953
  21
 138.35782170814
  31
0.0
   0
LINE
   5
F2
 100
AcDbEntity
   8
LEVEL003
 100
AcDbLine
   6
CONTINUOUS
  62
3
  10
 727.87415303953
  20
 146.35782170814
  30
0.0
  11
 727.87415303953
  21
 138.35782170814
  31
0.0
   0
INSERT
   5
F3
 100
AcDbEntity
   8
LEVEL003
   6
CONTINUOUS
  62
3
 100
AcDbBlockReference
   2
_OPEN30
  10
 727.87415303953
  20
 130.35782170814
  30
0.0
  41
 3.0000000000000
  42
 3.0000000000000
  43
 3.0000000000000
  50
 270.00000000000
   0
INSERT
   5
F4
 100
AcDbEntity
   8
LEVEL003
   6
CONTINUOUS
  62
3
 100
AcDbBlockReference
   2
_OPEN30
  10
 727.87415303953
  20
 146.35782170814
  30
0.0
  41
 3.0000000000000
  42
 3.0000000000000
  43
 3.0000000000000
  50
 90.000000000000
   0
MTEXT
   5
F5
 100
AcDbEntity
   8
LEVEL003
  62
3
 100
AcDbMText
  10
 726.15986732524
  20
 138.35782170814
  30
0.0
  40
 4.0000000000000
  41
0.0
  71
8
  72
1
   1
\A1;16
   7
GMM001
  11
0.0
  21
 1.0000000000000
  31
0.0
   0
ENDBLK
   5
F6
 100
AcDbEntity
   8
0
 100
AcDbBlockEnd
   0
BLOCK
   5
F7
 100
AcDbEntity
   8
0
 100
AcDbBlockBegin
   2
*D9
  70
65
  10
0.0
  20
0.0
  30
0.0
   3
*D9
   0
LINE
   5
F8
 100
AcDbEntity
   8
LEVEL003
 100
AcDbLine
   6
CONTINUOUS
  62
3
  10
 696.79818475679
  20
 130.35782170814
  30
0.0
  11
 762.29719336026
  21
 130.35782170814
  31
0.0
   0
LINE
   5
F9
 100
AcDbEntity
   8
LEVEL003
 100
AcDbLine
   6
CONTINUOUS
  62
3
  10
 530.26168875679
  20
 193.35782170814
  30
0.0
  11
 762.29719336026
  21
 193.35782170814
  31
0.0
   0
LINE
   5
FA
 100
AcDbEntity
   8
LEVEL003
 100
AcDbLine
   6
CONTINUOUS
  62
3
  10
 760.29719336026
  20
 130.35782170814
  30
0.0
  11
 760.29719336026
  21
 161.85782170814
  31
0.0
   0
LINE
   5
FB
 100
AcDbEntity
   8
LEVEL003
 100
AcDbLine
   6
CONTINUOUS
  62
3
  10
 760.29719336026
  20
 193.35782170814
  30
0.0
  11
 760.29719336026
  21
 161.85782170814
  31
0.0
   0
INSERT
   5
FC
 100
AcDbEntity
   8
LEVEL003
   6
CONTINUOUS
  62
3
 100
AcDbBlockReference
   2
_OPEN30
  10
 760.29719336026
  20
 130.35782170814
  30
0.0
  41
 3.0000000000000
  42
 3.0000000000000
  43
 3.0000000000000
  50
 270.00000000000
   0
INSERT
   5
FD
 100
AcDbEntity
   8
LEVEL003
   6
CONTINUOUS
  62
3
 100
AcDbBlockReference
   2
_OPEN30
  10
 760.29719336026
  20
 193.35782170814
  30
0.0
  41
 3.0000000000000
  42
 3.0000000000000
  43
 3.0000000000000
  50
 90.000000000000
   0
MTEXT
   5
FE
 100
AcDbEntity
   8
LEVEL003
  62
3
 100
AcDbMText
  10
 758.58290764597
  20
 161.85782170814
  30
0.0
  40
 4.0000000000000
  41
0.0
  71
8
  72
1
   1
\A1;63
   7
GMM001
  11
0.0
  21
 1.0000000000000
  31
0.0
   0
ENDBLK
   5
FF
 100
AcDbEntity
   8
0
 100
AcDbBlockEnd
   0
BLOCK
   5
100
 100
AcDbEntity
   8
0
 100
AcDbBlockBegin
   2
*D10
  70
65
  10
0.0
  20
0.0
  30
0.0
   3
*D10
   0
LINE
   5
101
 100
AcDbEntity
   8
LEVEL003
 100
AcDbLine
   6
CONTINUOUS
  62
3
  10
 600.79818475679
  20
-3.6421782918565
  30
0.0
  11
 762.29719336026
  21
-3.6421782918565
  31
0.0
   0
LINE
   5
102
 100
AcDbEntity
   8
LEVEL003
 100
AcDbLine
   6
CONTINUOUS
  62
3
  10
 696.79818475679
  20
 130.35782170814
  30
0.0
  11
 762.29719336026
  21
 130.35782170814
  31
0.0
   0
LINE
   5
103
 100
AcDbEntity
   8
LEVEL003
 100
AcDbLine
   6
CONTINUOUS
  62
3
  10
 760.29719336026
  20
-3.6421782918565
  30
0.0
  11
 760.29719336026
  21
 63.357821708142
  31
0.0
   0
LINE
   5
104
 100
AcDbEntity
   8
LEVEL003
 100
AcDbLine
   6
CONTINUOUS
  62
3
  10
 760.29719336026
  20
 130.35782170814
  30
0.0
  11
 760.29719336026
  21
 63.357821708142
  31
0.0
   0
INSERT
   5
105
 100
AcDbEntity
   8
LEVEL003
   6
CONTINUOUS
  62
3
 100
AcDbBlockReference
   2
_OPEN30
  10
 760.29719336026
  20
-3.6421782918565
  30
0.0
  41
 3.0000000000000
  42
 3.0000000000000
  43
 3.0000000000000
  50
 270.00000000000
   0
INSERT
   5
106
 100
AcDbEntity
   8
LEVEL003
   6
CONTINUOUS
  62
3
 100
AcDbBlockReference
   2
_OPEN30
  10
 760.29719336026
  20
 130.35782170814
  30
0.0
  41
 3.0000000000000
  42
 3.0000000000000
  43
 3.0000000000000
  50
 90.000000000000
   0
MTEXT
   5
107
 100
AcDbEntity
   8
LEVEL003
  62
3
 100
AcDbMText
  10
 758.58290764597
  20
 63.357821708144
  30
0.0
  40
 4.0000000000000
  41
0.0
  71
8
  72
1
   1
\A1;134
   7
GMM001
  11
0.0
  21
 1.0000000000000
  31
0.0
   0
ENDBLK
   5
108
 100
AcDbEntity
   8
0
 100
AcDbBlockEnd
   0
BLOCK
   5
109
 100
AcDbEntity
   8
0
 100
AcDbBlockBegin
   2
*D11
  70
65
  10
0.0
  20
0.0
  30
0.0
   3
*D11
   0
LINE
   5
10A
 100
AcDbEntity
   8
LEVEL003
 100
AcDbLine
   6
CONTINUOUS
  62
3
  10
 599.79818475679
  20
-3.6421782918565
  30
0.0
  11
 672.79818475679
  21
-3.6421782918565
  31
0.0
   0
LINE
   5
10B
 100
AcDbEntity
   8
LEVEL003
 100
AcDbLine
   6
CONTINUOUS
  62
3
  10
 603.29818475679
  20
 46.357821708144
  30
0.0
  11
 672.79818475679
  21
 46.357821708144
  31
0.0
   0
LINE
   5
10C
 100
AcDbEntity
   8
LEVEL003
 100
AcDbLine
   6
CONTINUOUS
  62
3
  10
 670.79818475679
  20
-3.6421782918565
  30
0.0
  11
 670.79818475679
  21
 21.357821708144
  31
0.0
   0
LINE
   5
10D
 100
AcDbEntity
   8
LEVEL003
 100
AcDbLine
   6
CONTINUOUS
  62
3
  10
 670.79818475679
  20
 46.357821708144
  30
0.0
  11
 670.79818475679
  21
 21.357821708144
  31
0.0
   0
INSERT
   5
10E
 100
AcDbEntity
   8
LEVEL003
   6
CONTINUOUS
  62
3
 100
AcDbBlockReference
   2
_OPEN30
  10
 670.79818475679
  20
-3.6421782918565
  30
0.0
  41
 3.0000000000000
  42
 3.0000000000000
  43
 3.0000000000000
  50
 270.00000000000
   0
INSERT
   5
10F
 100
AcDbEntity
   8
LEVEL003
   6
CONTINUOUS
  62
3
 100
AcDbBlockReference
   2
_OPEN30
  10
 670.79818475679
  20
 46.357821708144
  30
0.0
  41
 3.0000000000000
  42
 3.0000000000000
  43
 3.0000000000000
  50
 90.000000000000
   0
MTEXT
   5
110
 100
AcDbEntity
   8
LEVEL003
  62
3
 100
AcDbMText
  10
 669.08389904250
  20
 21.357821708144
  30
0.0
  40
 4.0000000000000
  41
0.0
  71
8
  72
1
   1
\A1;50
   7
GMM001
  11
0.0
  21
 1.0000000000000
  31
0.0
   0
ENDBLK
   5
111
 100
AcDbEntity
   8
0
 100
AcDbBlockEnd
   0
BLOCK
   5
112
 100
AcDbEntity
   8
0
 100
AcDbBlockBegin
   2
*D12
  70
65
  10
0.0
  20
0.0
  30
0.0
   3
*D12
   0
LINE
   5
113
 100
AcDbEntity
   8
LEVEL003
 100
AcDbLine
   6
CONTINUOUS
  62
3
  10
 550.79818475679
  20
-3.6421782918565
  30
0.0
  11
 550.79818475679
  21
-31.786792511006
  31
0.0
   0
LINE
   5
114
 100
AcDbEntity
   8
LEVEL003
 100
AcDbLine
   6
CONTINUOUS
  62
3
  10
 600.79818475679
  20
-3.6421782918565
  30
0.0
  11
 600.79818475679
  21
-31.786792511006
  31
0.0
   0
LINE
   5
115
 100
AcDbEntity
   8
LEVEL003
 100
AcDbLine
   6
CONTINUOUS
  62
3
  10
 550.79818475679
  20
-29.786792511006
  30
0.0
  11
 575.79818475679
  21
-29.786792511006
  31
0.0
   0
LINE
   5
116
 100
AcDbEntity
   8
LEVEL003
 100
AcDbLine
   6
CONTINUOUS
  62
3
  10
 600.79818475679
  20
-29.786792511006
  30
0.0
  11
 575.79818475679
  21
-29.786792511006
  31
0.0
   0
INSERT
   5
117
 100
AcDbEntity
   8
LEVEL003
   6
CONTINUOUS
  62
3
 100
AcDbBlockReference
   2
_OPEN30
  10
 550.79818475679
  20
-29.786792511006
  30
0.0
  41
 3.0000000000000
  42
 3.0000000000000
  43
 3.0000000000000
  50
 180.00000000000
   0
INSERT
   5
118
 100
AcDbEntity
   8
LEVEL003
   6
CONTINUOUS
  62
3
 100
AcDbBlockReference
   2
_OPEN30
  10
 600.79818475679
  20
-29.786792511006
  30
0.0
  41
 3.0000000000000
  42
 3.0000000000000
  43
 3.0000000000000
  50
0.0
   0
MTEXT
   5
119
 100
AcDbEntity
   8
LEVEL003
  62
3
 100
AcDbMText
  10
 575.79818475679
  20
-28.072506796720
  30
0.0
  40
 4.0000000000000
  41
0.0
  71
8
  72
1
   1
\A1;M50×2
   7
GMM001
   0
ENDBLK
   5
11A
 100
AcDbEntity
   8
0
 100
AcDbBlockEnd
   0
ENDSEC
   0
SECTION
   2
ENTITIES
   0
LINE
   5
11B
 100
AcDbEntity
   8
LEVEL004
 100
AcDbLine
   6
DOT
  62
3
  10
 649.29818475679
  20
 147.35782170814
  30
0.0
  11
 649.29818475679
  21
 146.35782170814
  31
0.0
   0
LINE
   5
11C
 100
AcDbEntity
   8
LEVEL004
 100
AcDbLine
   6
DOT
  62
3
  10
 692.29818475679
  20
 146.35782170814
  30
0.0
  11
 649.29818475679
  21
 146.35782170814
  31
0.0
   0
LINE
   5
11D
 100
AcDbEntity
   8
LEVEL004
 100
AcDbLine
   6
DOT
  62
3
  10
 692.29818475679
  20
 147.35782170814
  30
0.0
  11
 692.29818475679
  21
 146.35782170814
  31
0.0
   0
DIMENSION
   5
11E
 100
AcDbEntity
   8
LEVEL003
   6
CONTINUOUS
  62
3
 100
AcDbDimension
   2
*D1
  10
 210.04818475679
  20
 1029.2950340599
  30
0.0
  11
 165.04818475679
  21
 1029.2950340599
  31
0.0
  70
0
   1
\A1;90
   3
GMM001
 100
AcDbAlignedDimension
  13
 120.04818475679
  23
 1007.9789591430
  33
0.0
  14
 210.04818475679
  24
 1007.9789591430
  34
0.0
 100
AcDbRotatedDimension
   0
DIMENSION
   5
120
 100
AcDbEntity
   8
LEVEL003
   6
CONTINUOUS
  62
3
 100
AcDbDimension
   2
*D2
  10
 340.68593364861
  20
 887.97895914296
  30
0.0
  11
 340.68593364861
  21
 822.97895914296
  31
0.0
  70
0
   1
\A1;130
   3
GMM001
 100
AcDbAlignedDimension
  13
 235.04818475679
  23
 757.97895914296
  33
0.0
  14
 222.92403475679
  24
 887.97895914296
  34
0.0
  50
 90.000000000000
 100
AcDbRotatedDimension
   0
DIMENSION
   5
122
 100
AcDbEntity
   8
LEVEL003
   6
CONTINUOUS
  62
3
 100
AcDbDimension
   2
*D3
  10
 340.68593364861
  20
 982.97895914296
  30
0.0
  11
 340.68593364861
  21
 935.47895914296
  31
0.0
  70
0
   1
\A1;95
   3
GMM001
 100
AcDbAlignedDimension
  13
 222.92403475679
  23
 887.97895914296
  33
0.0
  14
 235.04818475679
  24
 982.97895914296
  34
0.0
  50
 90.000000000000
 100
AcDbRotatedDimension
   0
DIMENSION
   5
124
 100
AcDbEntity
   8
LEVEL003
   6
CONTINUOUS
  62
3
 100
AcDbDimension
   2
*D4
  10
 20.048184756786
  20
 694.20746993553
  30
0.0
  11
 165.04818475679
  21
 694.20746993553
  31
0.0
  70
0
   1
\A1;290
   3
GMM001
 100
AcDbAlignedDimension
  13
 310.04818475679
  23
 803.47895914296
  33
0.0
  14
 20.048184756786
  24
 803.47895914296
  34
0.0
  50
 180.00000000000
 100
AcDbRotatedDimension
   0
DIMENSION
   5
126
 100
AcDbEntity
   8
LEVEL003
   6
CONTINUOUS
  62
3
 100
AcDbDimension
   2
*D5
  10
 365.05207519006
  20
 130.35782170814
  30
0.0
  11
 365.05207519006
  21
 390.85782170814
  31
0.0
  70
0
   1
\A1;171+ストローク
   3
GMM002
 100
AcDbAlignedDimension
  13
 201.04818475679
  23
 651.35782170814
  33
0.0
  14
 243.04818475679
  24
 130.35782170814
  34
0.0
  50
 270.00000000000
 100
AcDbRotatedDimension
   0
DIMENSION
   5
127
 100
AcDbEntity
   8
LEVEL003
   6
CONTINUOUS
  62
3
 100
AcDbDimension
   2
*D6
  10
 310.04818475679
  20
 241.17364154909
  30
0.0
  11
 292.04818475679
  21
 241.17364154909
  31
0.0
  70
0
   1
\A1;36
   3
GMM001
 100
AcDbAlignedDimension
  13
 274.04818475679
  23
 208.85782170814
  33
0.0
  14
 310.04818475679
  24
 208.85782170814
  34
0.0
 100
AcDbRotatedDimension
   0
DIMENSION
   5
129
 100
AcDbEntity
   8
LEVEL003
   6
CONTINUOUS
  62
3
 100
AcDbDimension
   2
*D7
  10
 310.04818475679
  20
 262.99827601362
  30
0.0
  11
 289.04818475679
  21
 262.99827601362
  31
0.0
  70
0
   1
\A1;42
   3
GMM001
 100
AcDbAlignedDimension
  13
 268.04818475679
  23
 205.20053570814
  33
0.0
  14
 310.04818475679
  24
 208.85782170814
  34
0.0
 100
AcDbRotatedDimension
   0
DIMENSION
   5
12B
 100
AcDbEntity
   8
LEVEL003
   6
CONTINUOUS
  62
3
 100
AcDbDimension
   2
*D8
  10
 727.87415303953
  20
 146.35782170814
  30
0.0
  11
 727.87415303953
  21
 138.35782170814
  31
0.0
  70
0
   1
\A1;16
   3
GMM001
 100
AcDbAlignedDimension
  13
 695.79818475679
  23
 130.35782170814
  33
0.0
  14
 692.29818475679
  24
 146.35782170814
  34
0.0
  50
 90.000000000000
 100
AcDbRotatedDimension
   0
DIMENSION
   5
12D
 100
AcDbEntity
   8
LEVEL003
   6
CONTINUOUS
  62
3
 100
AcDbDimension
   2
*D9
  10
 760.29719336026
  20
 193.35782170814
  30
0.0
  11
 760.29719336026
  21
 161.85782170814
  31
0.0
  70
0
   1
\A1;63
   3
GMM001
 100
AcDbAlignedDimension
  13
 695.79818475679
  23
 130.35782170814
  33
0.0
  14
 529.26168875679
  24
 193.35782170814
  34
0.0
  50
 90.000000000000
 100
AcDbRotatedDimension
   0
DIMENSION
   5
12F
 100
AcDbEntity
   8
LEVEL003
   6
CONTINUOUS
  62
3
 100
AcDbDimension
   2
*D10
  10
 760.29719336026
  20
 130.35782170814
  30
0.0
  11
 760.29719336026
  21
 63.357821708144
  31
0.0
  70
0
   1
\A1;134
   3
GMM001
 100
AcDbAlignedDimension
  13
 599.79818475679
  23
-3.6421782918565
  33
0.0
  14
 695.79818475679
  24
 130.35782170814
  34
0.0
  50
 90.000000000000
 100
AcDbRotatedDimension
   0
DIMENSION
   5
131
 100
AcDbEntity
   8
LEVEL003
   6
CONTINUOUS
  62
3
 100
AcDbDimension
   2
*D11
  10
 670.79818475679
  20
 46.357821708144
  30
0.0
  11
 670.79818475679
  21
 21.357821708144
  31
0.0
  70
0
   1
\A1;50
   3
GMM003
 100
AcDbAlignedDimension
  13
 599.79818475679
  23
-3.6421782918565
  33
0.0
  14
 603.29818475679
  24
 46.357821708144
  34
0.0
  50
 90.000000000000
 100
AcDbRotatedDimension
   0
DIMENSION
   5
133
 100
AcDbEntity
   8
LEVEL003
   6
CONTINUOUS
  62
3
 100
AcDbDimension
   2
*D12
  10
 600.79818475679
  20
-29.786792511006
  30
0.0
  11
 575.79818475679
  21
-29.786792511006
  31
0.0
  70
0
   1
\A1;M50×2
   3
GMM002
 100
AcDbAlignedDimension
  13
 550.79818475679
  23
-2.6421782918565
  33
0.0
  14
 600.79818475679
  24
-2.6421782918565
  34
0.0
 100
AcDbRotatedDimension
   0
TEXT
   5
134
 100
AcDbEntity
   8
LEVEL003
  62
7
 100
AcDbText
  10
 843.25798000392
  20
-9.8272188125376
  30
0.0
  40
 30.000000000000
   1
ＯＳＡＫＡ ＪＡＣＫ
   7
STANDARD
 100
AcDbText
   0
CIRCLE
   5
135
 100
AcDbEntity
   8
LEVEL003
 100
AcDbCircle
   6
CONTINUOUS
  62
7
  10
 807.34798000392
  20
 11.324881187462
  30
0.0
  40
 9.0000000000000
   0
LINE
   5
136
 100
AcDbEntity
   8
LEVEL003
 100
AcDbLine
   6
CONTINUOUS
  62
7
  10
 825.00798000392
  20
 20.324881187462
  30
0.0
  11
 813.57798000392
  21
 0.52488118746242
  31
0.0
   0
LINE
   5
137
 100
AcDbEntity
   8
LEVEL003
 100
AcDbLine
   6
CONTINUOUS
  62
7
  10
 813.57798000392
  20
 0.52488118746242
  30
0.0
  11
 790.71798000392
  21
 0.52488118746242
  31
0.0
   0
LINE
   5
138
 100
AcDbEntity
   8
LEVEL003
 100
AcDbLine
   6
CONTINUOUS
  62
7
  10
 788.11798000392
  20
-3.9751188125376
  30
0.0
  11
 828.97798000392
  21
-3.9751188125376
  31
0.0
   0
LINE
   5
139
 100
AcDbEntity
   8
LEVEL003
 100
AcDbLine
   6
CONTINUOUS
  62
7
  10
 828.97798000392
  20
-3.9751188125376
  30
0.0
  11
 843.00798000392
  21
 20.324881187462
  31
0.0
   0
LINE
   5
13A
 100
AcDbEntity
   8
LEVEL003
 100
AcDbLine
   6
CONTINUOUS
  62
7
  10
 843.00798000392
  20
 20.324881187462
  30
0.0
  11
 825.00798000392
  21
 20.324881187462
  31
0.0
   0
LINE
   5
13B
 100
AcDbEntity
   8
LEVEL003
 100
AcDbLine
   6
CONTINUOUS
  62
7
  10
 790.71798000392
  20
 0.52488118746242
  30
0.0
  11
 788.11798000392
  21
-3.9751188125376
  31
0.0
   0
TEXT
   5
13C
 100
AcDbEntity
   8
LEVEL003
  62
7
 100
AcDbText
  10
 851.98798000392
  20
 40.852981187462
  30
0.0
  40
 18.000000000000
   1
Model : ＰＲ１０Ｄ
   7
STANDARD
 100
AcDbText
   0
LINE
   5
13D
 100
AcDbEntity
   8
LEVEL001
 100
AcDbLine
   6
CONTINUOUS
  62
7
  10
 583.79818475679
  20
 40.957821708144
  30
0.0
  11
 600.79818475679
  21
 40.957821708144
  31
0.0
   0
LINE
   5
13E
 100
AcDbEntity
   8
LEVEL001
 100
AcDbLine
   6
CONTINUOUS
  62
7
  10
 550.79818475679
  20
 40.957821708144
  30
0.0
  11
 567.79818475679
  21
 40.957821708144
  31
0.0
   0
LINE
   5
13F
 100
AcDbEntity
   8
LEVEL001
 100
AcDbLine
   6
CONTINUOUS
  62
7
  10
 583.79818475679
  20
 46.357821708144
  30
0.0
  11
 603.29818475679
  21
 46.357821708144
  31
0.0
   0
LINE
   5
140
 100
AcDbEntity
   8
LEVEL001
 100
AcDbLine
   6
CONTINUOUS
  62
7
  10
 548.29818475679
  20
 46.357821708144
  30
0.0
  11
 567.79818475679
  21
 46.357821708144
  31
0.0
   0
LINE
   5
141
 100
AcDbEntity
   8
LEVEL001
 100
AcDbLine
   6
CONTINUOUS
  62
7
  10
 583.79818475679
  20
 78.357821708144
  30
0.0
  11
 603.29818475679
  21
 78.357821708144
  31
0.0
   0
LINE
   5
142
 100
AcDbEntity
   8
LEVEL001
 100
AcDbLine
   6
CONTINUOUS
  62
7
  10
 548.29818475679
  20
 78.357821708144
  30
0.0
  11
 567.79818475679
  21
 78.357821708144
  31
0.0
   0
LINE
   5
143
 100
AcDbEntity
   8
LEVEL001
 100
AcDbLine
   6
CONTINUOUS
  62
7
  10
 567.79818475679
  20
 37.357821708144
  30
0.0
  11
 583.79818475679
  21
 37.357821708144
  31
0.0
   0
LINE
   5
144
 100
AcDbEntity
   8
LEVEL001
 100
AcDbLine
   6
CONTINUOUS
  62
7
  10
 583.79818475679
  20
 81.357821708144
  30
0.0
  11
 583.79818475679
  21
 37.357821708144
  31
0.0
   0
LINE
   5
145
 100
AcDbEntity
   8
LEVEL001
 100
AcDbLine
   6
CONTINUOUS
  62
7
  10
 567.79818475679
  20
 81.357821708144
  30
0.0
  11
 567.79818475679
  21
 37.357821708144
  31
0.0
   0
ARC
   5
146
 100
AcDbEntity
   8
LEVEL001
   6
CONTINUOUS
  62
7
 100
AcDbCircle
  10
 502.79818475679
  20
 193.35782170814
  30
0.0
  40
 39.500000000000
 100
AcDbArc
  50
 115.41800000000
  51
 209.77455800000
   0
LINE
   5
147
 100
AcDbEntity
   8
LEVEL001
 100
AcDbLine
   6
CONTINUOUS
  62
7
  10
 475.10018475679
  20
 162.37082170814
  30
0.0
  11
 468.51273575679
  21
 173.74257270814
  31
0.0
   0
LINE
   5
148
 100
AcDbEntity
   8
LEVEL001
 100
AcDbLine
   6
CONTINUOUS
  62
7
  10
 463.22661675679
  20
 198.22425670814
  30
0.0
  11
 464.61118475679
  21
 203.45882170814
  31
0.0
   0
LINE
   5
149
 100
AcDbEntity
   8
LEVEL001
 100
AcDbLine
   6
CONTINUOUS
  62
7
  10
 456.91118475679
  20
 174.34782170814
  30
0.0
  11
 460.61689775679
  21
 188.35782170814
  31
0.0
   0
LINE
   5
14A
 100
AcDbEntity
   8
LEVEL001
 100
AcDbLine
   6
CONTINUOUS
  62
7
  10
 463.14046775679
  20
 188.91710470814
  30
0.0
  11
 463.14046775679
  21
 197.79853870814
  31
0.0
   0
LINE
   5
14B
 100
AcDbEntity
   8
LEVEL001
 100
AcDbLine
   6
CONTINUOUS
  62
7
  10
 462.69818475679
  20
 188.47482170814
  30
0.0
  11
 463.61364775679
  21
 188.50351870814
  31
0.0
   0
LINE
   5
14C
 100
AcDbEntity
   8
LEVEL001
 100
AcDbLine
   6
CONTINUOUS
  62
7
  10
 463.14046775679
  20
 188.91710470814
  30
0.0
  11
 463.56010675679
  21
 188.93025970814
  31
0.0
   0
LINE
   5
14D
 100
AcDbEntity
   8
LEVEL001
 100
AcDbLine
   6
CONTINUOUS
  62
7
  10
 462.69818475679
  20
 188.47482170814
  30
0.0
  11
 463.14046775679
  21
 188.91710470814
  31
0.0
   0
LINE
   5
14E
 100
AcDbEntity
   8
LEVEL001
 100
AcDbLine
   6
CONTINUOUS
  62
7
  10
 462.69818475679
  20
 198.24082170814
  30
0.0
  11
 463.61364775679
  21
 198.21212470814
  31
0.0
   0
LINE
   5
14F
 100
AcDbEntity
   8
LEVEL001
 100
AcDbLine
   6
CONTINUOUS
  62
7
  10
 463.14046775679
  20
 197.79853870814
  30
0.0
  11
 463.56010675679
  21
 197.78538370814
  31
0.0
   0
ARC
   5
150
 100
AcDbEntity
   8
LEVEL001
   6
CONTINUOUS
  62
7
 100
AcDbCircle
  10
 455.52018475679
  20
 190.85782170814
  30
0.0
  40
 7.2209300000000
 100
AcDbArc
  50
 339.74399999999
  51
 20.373015999989
   0
LINE
   5
151
 100
AcDbEntity
   8
LEVEL001
 100
AcDbLine
   6
CONTINUOUS
  62
7
  10
 462.69818475679
  20
 188.35782170814
  30
0.0
  11
 462.69818475679
  21
 198.35782170814
  31
0.0
   0
LINE
   5
152
 100
AcDbEntity
   8
LEVEL001
 100
AcDbLine
   6
CONTINUOUS
  62
7
  10
 451.67018475679
  20
 188.35782170814
  30
0.0
  11
 462.67903475679
  21
 188.35782170814
  31
0.0
   0
ARC
   5
153
 100
AcDbEntity
   8
LEVEL001
   6
CONTINUOUS
  62
7
 100
AcDbCircle
  10
 455.52018475679
  20
 195.85782170814
  30
0.0
  40
 7.2209300000000
 100
AcDbArc
  50
 339.62698400001
  51
 20.256000000011
   0
LINE
   5
154
 100
AcDbEntity
   8
LEVEL001
 100
AcDbLine
   6
CONTINUOUS
  62
7
  10
 462.69818475679
  20
 198.24082170814
  30
0.0
  11
 463.14046775679
  21
 197.79853870814
  31
0.0
   0
LINE
   5
155
 100
AcDbEntity
   8
LEVEL001
 100
AcDbLine
   6
CONTINUOUS
  62
7
  10
 455.49318475679
  20
 200.89782170814
  30
0.0
  11
 456.17218475679
  21
 199.25782170814
  31
0.0
   0
LINE
   5
156
 100
AcDbEntity
   8
LEVEL001
 100
AcDbLine
   6
CONTINUOUS
  62
7
  10
 454.87318475679
  20
 200.97982170814
  30
0.0
  11
 455.49318475679
  21
 200.89782170814
  31
0.0
   0
LINE
   5
157
 100
AcDbEntity
   8
LEVEL001
 100
AcDbLine
   6
CONTINUOUS
  62
7
  10
 448.40618475679
  20
 198.30082170814
  30
0.0
  11
 454.87318475679
  21
 200.97982170814
  31
0.0
   0
LINE
   5
158
 100
AcDbEntity
   8
LEVEL001
 100
AcDbLine
   6
CONTINUOUS
  62
7
  10
 448.02518475679
  20
 197.80482170814
  30
0.0
  11
 448.40618475679
  21
 198.30082170814
  31
0.0
   0
LINE
   5
159
 100
AcDbEntity
   8
LEVEL001
 100
AcDbLine
   6
CONTINUOUS
  62
7
  10
 448.70418475679
  20
 196.16482170814
  30
0.0
  11
 448.02518475679
  21
 197.80482170814
  31
0.0
   0
LINE
   5
15A
 100
AcDbEntity
   8
LEVEL001
 100
AcDbLine
   6
CONTINUOUS
  62
7
  10
 449.32418475679
  20
 196.08382170814
  30
0.0
  11
 448.70418475679
  21
 196.16482170814
  31
0.0
   0
LINE
   5
15B
 100
AcDbEntity
   8
LEVEL001
 100
AcDbLine
   6
CONTINUOUS
  62
7
  10
 455.79118475679
  20
 198.76182170814
  30
0.0
  11
 449.32418475679
  21
 196.08382170814
  31
0.0
   0
LINE
   5
15C
 100
AcDbEntity
   8
LEVEL001
 100
AcDbLine
   6
CONTINUOUS
  62
7
  10
 456.17218475679
  20
 199.25782170814
  30
0.0
  11
 455.79118475679
  21
 198.76182170814
  31
0.0
   0
LINE
   5
15D
 100
AcDbEntity
   8
LEVEL001
 100
AcDbLine
   6
CONTINUOUS
  62
7
  10
 447.24118475679
  20
 203.98782170814
  30
0.0
  11
 449.45818475679
  21
 204.90582170814
  31
0.0
   0
LINE
   5
15E
 100
AcDbEntity
   8
LEVEL001
 100
AcDbLine
   6
CONTINUOUS
  62
7
  10
 447.44218475679
  20
 201.14882170814
  30
0.0
  11
 447.24118475679
  21
 203.98782170814
  31
0.0
   0
LINE
   5
15F
 100
AcDbEntity
   8
LEVEL001
 100
AcDbLine
   6
CONTINUOUS
  62
7
  10
 450.49118475679
  20
 202.41182170814
  30
0.0
  11
 447.44218475679
  21
 201.14882170814
  31
0.0
   0
LINE
   5
160
 100
AcDbEntity
   8
LEVEL001
 100
AcDbLine
   6
CONTINUOUS
  62
7
  10
 453.54018475679
  20
 203.67482170814
  30
0.0
  11
 450.49118475679
  21
 202.41182170814
  31
0.0
   0
LINE
   5
161
 100
AcDbEntity
   8
LEVEL001
 100
AcDbLine
   6
CONTINUOUS
  62
7
  10
 451.67518475679
  20
 205.82482170814
  30
0.0
  11
 453.54018475679
  21
 203.67482170814
  31
0.0
   0
LINE
   5
162
 100
AcDbEntity
   8
LEVEL001
 100
AcDbLine
   6
CONTINUOUS
  62
7
  10
 449.45818475679
  20
 204.90582170814
  30
0.0
  11
 451.67518475679
  21
 205.82482170814
  31
0.0
   0
LINE
   5
163
 100
AcDbEntity
   8
LEVEL001
 100
AcDbLine
   6
CONTINUOUS
  62
7
  10
 462.69818475679
  20
 198.35782170814
  30
0.0
  11
 455.48918475679
  21
 198.35782170814
  31
0.0
   0
ARC
   5
164
 100
AcDbEntity
   8
LEVEL001
   6
CONTINUOUS
  62
7
 100
AcDbCircle
  10
 458.10118475678
  20
 205.99682170814
  30
0.0
  40
 6.0000000000000
 100
AcDbArc
  50
 227.43200000001
  51
 237.01800000000
   0
ARC
   5
165
 100
AcDbEntity
   8
LEVEL001
   6
CONTINUOUS
  62
7
 100
AcDbCircle
  10
 442.57518475679
  20
 199.56582170813
  30
0.0
  40
 6.0000000000000
 100
AcDbArc
  50
 347.98120000012
  51
 357.56690000012
   0
ARC
   5
166
 100
AcDbEntity
   8
LEVEL001
   6
CONTINUOUS
  62
7
 100
AcDbCircle
  10
 454.24118475679
  20
 193.35782170814
  30
0.0
  40
 5.6222800000000
 100
AcDbArc
  50
 151.00100000000
  51
 242.78800000001
   0
ARC
   5
167
 100
AcDbEntity
   8
LEVEL001
   6
CONTINUOUS
  62
7
 100
AcDbCircle
  10
 450.49118475679
  20
 202.41182170814
  30
0.0
  40
 6.4350600000000
 100
AcDbArc
  50
 259.55100000000
  51
 325.44910000000
   0
ARC
   5
168
 100
AcDbEntity
   8
LEVEL001
   6
CONTINUOUS
  62
7
 100
AcDbCircle
  10
 450.49118475679
  20
 202.41182170814
  30
0.0
  40
 3.3000000000000
 100
AcDbArc
  50
 202.49999999997
  51
 228.41799999996
   0
ARC
   5
169
 100
AcDbEntity
   8
LEVEL001
   6
CONTINUOUS
  62
7
 100
AcDbCircle
  10
 450.49118475679
  20
 202.41182170814
  30
0.0
  40
 3.3000000000000
 100
AcDbArc
  50
 356.58219999994
  51
 22.499999999934
   0
LINE
   5
16A
 100
AcDbEntity
   8
LEVEL001
 100
AcDbLine
   6
CONTINUOUS
  62
7
  10
 450.57118475679
  20
 196.93882170814
  30
0.0
  11
 449.89218475679
  21
 198.57782170814
  31
0.0
   0
LINE
   5
16B
 100
AcDbEntity
   8
LEVEL001
 100
AcDbLine
   6
CONTINUOUS
  62
7
  10
 454.30518475679
  20
 198.48482170814
  30
0.0
  11
 453.62618475679
  21
 200.12482170814
  31
0.0
   0
ARC
   5
16C
 100
AcDbEntity
   8
LEVEL001
   6
CONTINUOUS
  62
7
 100
AcDbCircle
  10
 454.19818475679
  20
 193.46182170814
  30
0.0
  40
 6.6873800000000
 100
AcDbArc
  50
 94.911999999996
  51
 130.08800000000
   0
ARC
   5
16D
 100
AcDbEntity
   8
LEVEL001
   6
CONTINUOUS
  62
7
 100
AcDbCircle
  10
 449.99818475679
  20
 203.60082170814
  30
0.0
  40
 6.6873800000000
 100
AcDbArc
  50
 274.91209000001
  51
 310.08810000001
   0
ARC
   5
16E
 100
AcDbEntity
   8
LEVEL001
   6
CONTINUOUS
  62
7
 100
AcDbCircle
  10
 456.00718475679
  20
 197.98782170815
  30
0.0
  40
 3.2000000000000
 100
AcDbArc
  50
 110.76800000013
  51
 138.09800000015
   0
ARC
   5
16F
 100
AcDbEntity
   8
LEVEL001
   6
CONTINUOUS
  62
7
 100
AcDbCircle
  10
 449.71918475679
  20
 195.38282170814
  30
0.0
  40
 3.2000000000000
 100
AcDbArc
  50
 86.902999999974
  51
 114.23199999997
   0
ARC
   5
170
 100
AcDbEntity
   8
LEVEL001
   6
CONTINUOUS
  62
7
 100
AcDbCircle
  10
 448.18918475679
  20
 199.07582170813
  30
0.0
  40
 3.2000000000000
 100
AcDbArc
  50
 290.76730000012
  51
 318.09670000014
   0
ARC
   5
171
 100
AcDbEntity
   8
LEVEL001
   6
CONTINUOUS
  62
7
 100
AcDbCircle
  10
 454.47818475680
  20
 201.67982170815
  30
0.0
  40
 3.2000000000000
 100
AcDbArc
  50
 266.90299999980
  51
 294.23239999977
   0
LINE
   5
172
 100
AcDbEntity
   8
LEVEL001
 100
AcDbLine
   6
CONTINUOUS
  62
7
  10
 453.84218475679
  20
 201.86682170814
  30
0.0
  11
 448.51818475679
  21
 199.66182170814
  31
0.0
   0
ARC
   5
173
 100
AcDbEntity
   8
LEVEL001
   6
CONTINUOUS
  62
7
 100
AcDbCircle
  10
 449.55318475679
  20
 204.67582170814
  30
0.0
  40
 1.0000000000000
 100
AcDbArc
  50
 36.976999999898
  51
 188.02100000012
   0
ARC
   5
174
 100
AcDbEntity
   8
LEVEL001
   6
CONTINUOUS
  62
7
 100
AcDbCircle
  10
 454.58418475680
  20
 202.16682170813
  30
0.0
  40
 0.80000000000000
 100
AcDbArc
  50
 176.57299999918
  51
 227.42799999869
   0
ARC
   5
175
 100
AcDbEntity
   8
LEVEL001
   6
CONTINUOUS
  62
7
 100
AcDbCircle
  10
 447.77018475678
  20
 199.34482170815
  30
0.0
  40
 0.80000000000000
 100
AcDbArc
  50
 357.57339999990
  51
 48.425999999842
   0
LINE
   5
176
 100
AcDbEntity
   8
LEVEL001
 100
AcDbLine
   6
CONTINUOUS
  62
7
  10
 459.09818475679
  20
 198.35782170814
  30
0.0
  11
 459.09818475679
  21
 188.35782170814
  31
0.0
   0
ARC
   5
177
 100
AcDbEntity
   8
LEVEL001
   6
CONTINUOUS
  62
7
 100
AcDbCircle
  10
 466.31918475679
  20
 195.85782170814
  30
0.0
  40
 7.2207000000000
 100
AcDbArc
  50
 159.74300000000
  51
 200.25700000000
   0
ARC
   5
178
 100
AcDbEntity
   8
LEVEL001
   6
CONTINUOUS
  62
7
 100
AcDbCircle
  10
 466.31918475679
  20
 190.85782170814
  30
0.0
  40
 7.2207000000000
 100
AcDbArc
  50
 159.74300000000
  51
 200.25700000000
   0
ARC
   5
179
 100
AcDbEntity
   8
LEVEL001
   6
CONTINUOUS
  62
7
 100
AcDbCircle
  10
 502.79818475679
  20
 193.35782170814
  30
0.0
  40
 11.500000000000
 100
AcDbArc
  50
 110.43050500000
  51
 69.569495000001
   0
LINE
   5
17A
 100
AcDbEntity
   8
LEVEL001
 100
AcDbLine
   6
CONTINUOUS
  62
7
  10
 579.40373575679
  20
 105.35782170814
  30
0.0
  11
 620.79818475679
  21
 105.35782170814
  31
0.0
   0
LINE
   5
17B
 100
AcDbEntity
   8
LEVEL001
 100
AcDbLine
   6
CONTINUOUS
  62
7
  10
 530.79818475679
  20
 105.35782170814
  30
0.0
  11
 572.19263375679
  21
 105.35782170814
  31
0.0
   0
CIRCLE
   5
17C
 100
AcDbEntity
   8
LEVEL001
 100
AcDbCircle
   6
CONTINUOUS
  62
7
  10
 575.79818475679
  20
 93.357821708144
  30
0.0
  40
 5.8071800000000
   0
CIRCLE
   5
17D
 100
AcDbEntity
   8
LEVEL001
 100
AcDbCircle
   6
CONTINUOUS
  62
7
  10
 575.79818475679
  20
 93.357821708144
  30
0.0
  40
 6.5000000000000
   0
CIRCLE
   5
17E
 100
AcDbEntity
   8
LEVEL001
 100
AcDbCircle
   6
CONTINUOUS
  62
7
  10
 575.79818475679
  20
 111.35782170814
  30
0.0
  40
 5.8071800000000
   0
CIRCLE
   5
17F
 100
AcDbEntity
   8
LEVEL001
 100
AcDbCircle
   6
CONTINUOUS
  62
7
  10
 575.79818475679
  20
 111.35782170814
  30
0.0
  40
 6.5000000000000
   0
LINE
   5
180
 100
AcDbEntity
   8
LEVEL001
 100
AcDbLine
   6
CONTINUOUS
  62
7
  10
 572.79818475679
  20
 113.08982170814
  30
0.0
  11
 575.79818475679
  21
 114.82182170814
  31
0.0
   0
LINE
   5
181
 100
AcDbEntity
   8
LEVEL001
 100
AcDbLine
   6
CONTINUOUS
  62
7
  10
 572.79818475679
  20
 109.62582170814
  30
0.0
  11
 572.79818475679
  21
 113.08982170814
  31
0.0
   0
LINE
   5
182
 100
AcDbEntity
   8
LEVEL001
 100
AcDbLine
   6
CONTINUOUS
  62
7
  10
 575.79818475679
  20
 107.89382170814
  30
0.0
  11
 572.79818475679
  21
 109.62582170814
  31
0.0
   0
LINE
   5
183
 100
AcDbEntity
   8
LEVEL001
 100
AcDbLine
   6
CONTINUOUS
  62
7
  10
 578.79818475679
  20
 109.62582170814
  30
0.0
  11
 575.79818475679
  21
 107.89382170814
  31
0.0
   0
LINE
   5
184
 100
AcDbEntity
   8
LEVEL001
 100
AcDbLine
   6
CONTINUOUS
  62
7
  10
 578.79818475679
  20
 113.08982170814
  30
0.0
  11
 578.79818475679
  21
 109.62582170814
  31
0.0
   0
LINE
   5
185
 100
AcDbEntity
   8
LEVEL001
 100
AcDbLine
   6
CONTINUOUS
  62
7
  10
 575.79818475679
  20
 114.82182170814
  30
0.0
  11
 578.79818475679
  21
 113.08982170814
  31
0.0
   0
LINE
   5
186
 100
AcDbEntity
   8
LEVEL001
 100
AcDbLine
   6
CONTINUOUS
  62
7
  10
 572.79818475679
  20
 95.089821708144
  30
0.0
  11
 575.79818475679
  21
 96.821821708144
  31
0.0
   0
LINE
   5
187
 100
AcDbEntity
   8
LEVEL001
 100
AcDbLine
   6
CONTINUOUS
  62
7
  10
 572.79818475679
  20
 91.625821708144
  30
0.0
  11
 572.79818475679
  21
 95.089821708144
  31
0.0
   0
LINE
   5
188
 100
AcDbEntity
   8
LEVEL001
 100
AcDbLine
   6
CONTINUOUS
  62
7
  10
 575.79818475679
  20
 89.893821708144
  30
0.0
  11
 572.79818475679
  21
 91.625821708144
  31
0.0
   0
LINE
   5
189
 100
AcDbEntity
   8
LEVEL001
 100
AcDbLine
   6
CONTINUOUS
  62
7
  10
 578.79818475679
  20
 91.625821708144
  30
0.0
  11
 575.79818475679
  21
 89.893821708144
  31
0.0
   0
LINE
   5
18A
 100
AcDbEntity
   8
LEVEL001
 100
AcDbLine
   6
CONTINUOUS
  62
7
  10
 578.79818475679
  20
 95.089821708144
  30
0.0
  11
 578.79818475679
  21
 91.625821708144
  31
0.0
   0
LINE
   5
18B
 100
AcDbEntity
   8
LEVEL001
 100
AcDbLine
   6
CONTINUOUS
  62
7
  10
 575.79818475679
  20
 96.821821708144
  30
0.0
  11
 578.79818475679
  21
 95.089821708144
  31
0.0
   0
CIRCLE
   5
18C
 100
AcDbEntity
   8
LEVEL001
 100
AcDbCircle
   6
CONTINUOUS
  62
7
  10
 575.79818475679
  20
 111.35782170814
  30
0.0
  40
 7.0000000000000
   0
CIRCLE
   5
18D
 100
AcDbEntity
   8
LEVEL001
 100
AcDbCircle
   6
CONTINUOUS
  62
7
  10
 575.79818475679
  20
 93.357821708144
  30
0.0
  40
 7.0000000000000
   0
LINE
   5
18E
 100
AcDbEntity
   8
LEVEL001
 100
AcDbLine
   6
CONTINUOUS
  62
7
  10
 613.94818475679
  20
 646.85782170814
  30
0.0
  11
 611.79818475679
  21
 651.35782170814
  31
0.0
   0
LINE
   5
18F
 100
AcDbEntity
   8
LEVEL001
 100
AcDbLine
   6
CONTINUOUS
  62
7
  10
 537.64818475679
  20
 646.85782170814
  30
0.0
  11
 539.79818475679
  21
 651.35782170814
  31
0.0
   0
LINE
   5
190
 100
AcDbEntity
   8
LEVEL001
 100
AcDbLine
   6
CONTINUOUS
  62
7
  10
 539.79818475679
  20
 651.35782170814
  30
0.0
  11
 611.79818475679
  21
 651.35782170814
  31
0.0
   0
LINE
   5
191
 100
AcDbEntity
   8
LEVEL001
 100
AcDbLine
   6
CONTINUOUS
  62
7
  10
 612.29818475679
  20
 277.35782170814
  30
0.0
  11
 613.29818475679
  21
 281.08982170814
  31
0.0
   0
LINE
   5
192
 100
AcDbEntity
   8
LEVEL001
 100
AcDbLine
   6
CONTINUOUS
  62
7
  10
 539.29818475679
  20
 277.35782170814
  30
0.0
  11
 538.29818475679
  21
 281.08982170814
  31
0.0
   0
LINE
   5
193
 100
AcDbEntity
   8
LEVEL001
 100
AcDbLine
   6
CONTINUOUS
  62
7
  10
 603.04818475679
  20
 78.357821708144
  30
0.0
  11
 603.04818475679
  21
 81.357821708144
  31
0.0
   0
LINE
   5
194
 100
AcDbEntity
   8
LEVEL001
 100
AcDbLine
   6
CONTINUOUS
  62
7
  10
 599.79818475679
  20
-3.6421782918565
  30
0.0
  11
 600.79818475679
  21
-2.6421782918565
  31
0.0
   0
LINE
   5
195
 100
AcDbEntity
   8
LEVEL001
 100
AcDbLine
   6
CONTINUOUS
  62
7
  10
 600.79818475679
  20
 40.957821708144
  30
0.0
  11
 599.79818475679
  21
 41.957821708144
  31
0.0
   0
ARC
   5
196
 100
AcDbEntity
   8
LEVEL001
   6
CONTINUOUS
  62
7
 100
AcDbCircle
  10
 601.79818475679
  20
 44.357821708147
  30
0.0
  40
 2.0000000000000
 100
AcDbArc
  50
 89.999999999997
  51
 179.99900000011
   0
LINE
   5
197
 100
AcDbEntity
   8
LEVEL001
 100
AcDbLine
   6
CONTINUOUS
  62
7
  10
 599.79818475679
  20
 41.957821708144
  30
0.0
  11
 599.79818475679
  21
 44.357821708144
  31
0.0
   0
LINE
   5
198
 100
AcDbEntity
   8
LEVEL001
 100
AcDbLine
   6
CONTINUOUS
  62
7
  10
 548.29818475679
  20
 46.357821708144
  30
0.0
  11
 548.29818475679
  21
 78.357821708144
  31
0.0
   0
LINE
   5
199
 100
AcDbEntity
   8
LEVEL001
 100
AcDbLine
   6
CONTINUOUS
  62
7
  10
 548.29818475679
  20
 78.357821708144
  30
0.0
  11
 548.54818475679
  21
 78.357821708144
  31
0.0
   0
LINE
   5
19A
 100
AcDbEntity
   8
LEVEL001
 100
AcDbLine
   6
CONTINUOUS
  62
7
  10
 548.54818475679
  20
 78.357821708144
  30
0.0
  11
 548.54818475679
  21
 81.357821708144
  31
0.0
   0
LINE
   5
19B
 100
AcDbEntity
   8
LEVEL001
 100
AcDbLine
   6
CONTINUOUS
  62
7
  10
 548.54818475679
  20
 81.357821708144
  30
0.0
  11
 548.29818475679
  21
 81.357821708144
  31
0.0
   0
LINE
   5
19C
 100
AcDbEntity
   8
LEVEL001
 100
AcDbLine
   6
CONTINUOUS
  62
7
  10
 551.79818475679
  20
-3.6421782918565
  30
0.0
  11
 550.79818475679
  21
-2.6421782918565
  31
0.0
   0
LINE
   5
19D
 100
AcDbEntity
   8
LEVEL001
 100
AcDbLine
   6
CONTINUOUS
  62
7
  10
 550.79818475679
  20
-2.6421782918565
  30
0.0
  11
 550.79818475679
  21
 40.957821708144
  31
0.0
   0
LINE
   5
19E
 100
AcDbEntity
   8
LEVEL001
 100
AcDbLine
   6
CONTINUOUS
  62
7
  10
 550.79818475679
  20
 40.957821708144
  30
0.0
  11
 551.79818475679
  21
 41.957821708144
  31
0.0
   0
ARC
   5
19F
 100
AcDbEntity
   8
LEVEL001
   6
CONTINUOUS
  62
7
 100
AcDbCircle
  10
 549.79818475679
  20
 44.357821708144
  30
0.0
  40
 2.0000000000000
 100
AcDbArc
  50
 0.89999999982931E-3
  51
 90.000000000169
   0
LINE
   5
1A0
 100
AcDbEntity
   8
LEVEL001
 100
AcDbLine
   6
CONTINUOUS
  62
7
  10
 551.79818475679
  20
-3.6421782918565
  30
0.0
  11
 551.79818475679
  21
 41.957821708144
  31
0.0
   0
LINE
   5
1A1
 100
AcDbEntity
   8
LEVEL001
 100
AcDbLine
   6
CONTINUOUS
  62
7
  10
 551.79818475679
  20
 41.957821708144
  30
0.0
  11
 551.79818475679
  21
 44.357821708144
  31
0.0
   0
LINE
   5
1A2
 100
AcDbEntity
   8
LEVEL001
 100
AcDbLine
   6
CONTINUOUS
  62
7
  10
 548.29818475679
  20
 81.357821708144
  30
0.0
  11
 547.29818475679
  21
 81.357821708144
  31
0.0
   0
ARC
   5
1A3
 100
AcDbEntity
   8
LEVEL001
   6
CONTINUOUS
  62
7
 100
AcDbCircle
  10
 616.29818475679
  20
 83.357821708144
  30
0.0
  40
 2.0000000000000
 100
AcDbArc
  50
 270.00087600000
  51
 0.16999999934348E-2
   0
LINE
   5
1A4
 100
AcDbEntity
   8
LEVEL001
 100
AcDbLine
   6
CONTINUOUS
  62
7
  10
 620.79818475679
  20
 128.35782170814
  30
0.0
  11
 620.79818475679
  21
 105.35782170814
  31
0.0
   0
ARC
   5
1A5
 100
AcDbEntity
   8
LEVEL001
   6
CONTINUOUS
  62
7
 100
AcDbCircle
  10
 620.79818475679
  20
 102.85782170815
  30
0.0
  40
 2.5000000000000
 100
AcDbArc
  50
 89.998999999996
  51
 179.99900000009
   0
LINE
   5
1A6
 100
AcDbEntity
   8
LEVEL001
 100
AcDbLine
   6
CONTINUOUS
  62
7
  10
 618.29818475679
  20
 102.85782170814
  30
0.0
  11
 618.29818475679
  21
 83.357821708144
  31
0.0
   0
ARC
   5
1A7
 100
AcDbEntity
   8
LEVEL001
   6
CONTINUOUS
  62
7
 100
AcDbCircle
  10
 618.79818475680
  20
 274.35782170814
  30
0.0
  40
 2.0000000000000
 100
AcDbArc
  50
0.0
  51
 89.999000000329
   0
LINE
   5
1A8
 100
AcDbEntity
   8
LEVEL001
 100
AcDbLine
   6
CONTINUOUS
  62
7
  10
 620.79818475679
  20
 274.35782170814
  30
0.0
  11
 620.79818475679
  21
 273.35782170814
  31
0.0
   0
ARC
   5
1A9
 100
AcDbEntity
   8
LEVEL001
   6
CONTINUOUS
  62
7
 100
AcDbCircle
  10
 632.79818475679
  20
 273.35782170814
  30
0.0
  40
 12.000000000000
 100
AcDbArc
  50
 180.00000000000
  51
 263.79400000000
   0
LINE
   5
1AA
 100
AcDbEntity
   8
LEVEL001
 100
AcDbLine
   6
CONTINUOUS
  62
7
  10
 530.79818475679
  20
 128.35782170814
  30
0.0
  11
 530.79818475679
  21
 105.35782170814
  31
0.0
   0
ARC
   5
1AB
 100
AcDbEntity
   8
LEVEL001
   6
CONTINUOUS
  62
7
 100
AcDbCircle
  10
 530.79818475677
  20
 102.85782170814
  30
0.0
  40
 2.5000000000000
 100
AcDbArc
  50
 0.13999999996860E-2
  51
 89.999999999719
   0
LINE
   5
1AC
 100
AcDbEntity
   8
LEVEL001
 100
AcDbLine
   6
CONTINUOUS
  62
7
  10
 533.29818475679
  20
 102.85782170814
  30
0.0
  11
 533.29818475679
  21
 83.357821708144
  31
0.0
   0
ARC
   5
1AD
 100
AcDbEntity
   8
LEVEL001
   6
CONTINUOUS
  62
7
 100
AcDbCircle
  10
 535.29818475679
  20
 83.357821708144
  30
0.0
  40
 2.0000000000000
 100
AcDbArc
  50
 179.99800000000
  51
 270.00043499999
   0
ARC
   5
1AE
 100
AcDbEntity
   8
LEVEL001
   6
CONTINUOUS
  62
7
 100
AcDbCircle
  10
 422.79818475679
  20
 145.35782170814
  30
0.0
  40
 2.0000000000000
 100
AcDbArc
  50
 90.000000000000
  51
 179.99900000004
   0
LINE
   5
1AF
 100
AcDbEntity
   8
LEVEL001
 100
AcDbLine
   6
CONTINUOUS
  62
7
  10
 420.79818475679
  20
 145.35782170814
  30
0.0
  11
 420.79818475679
  21
 130.35782170814
  31
0.0
   0
ARC
   5
1B0
 100
AcDbEntity
   8
LEVEL001
   6
CONTINUOUS
  62
7
 100
AcDbCircle
  10
 532.79818475679
  20
 274.35782170815
  30
0.0
  40
 2.0000000000000
 100
AcDbArc
  50
 90.000000000000
  51
 180.00000000034
   0
LINE
   5
1B1
 100
AcDbEntity
   8
LEVEL001
 100
AcDbLine
   6
CONTINUOUS
  62
7
  10
 530.79818475679
  20
 274.35782170814
  30
0.0
  11
 530.79818475679
  21
 273.35782170814
  31
0.0
   0
ARC
   5
1B2
 100
AcDbEntity
   8
LEVEL001
   6
CONTINUOUS
  62
7
 100
AcDbCircle
  10
 518.79818475679
  20
 273.35782170814
  30
0.0
  40
 12.000000000000
 100
AcDbArc
  50
 276.20629000000
  51
 0.30000000549616E-3
   0
LINE
   5
1B3
 100
AcDbEntity
   8
LEVEL001
 100
AcDbLine
   6
CONTINUOUS
  62
7
  10
 613.29818475679
  20
 276.35782170814
  30
0.0
  11
 613.29818475679
  21
 281.08982170814
  31
0.0
   0
LINE
   5
1B4
 100
AcDbEntity
   8
LEVEL001
 100
AcDbLine
   6
CONTINUOUS
  62
7
  10
 612.29818475679
  20
 276.35782170814
  30
0.0
  11
 612.29818475679
  21
 277.35782170814
  31
0.0
   0
LINE
   5
1B5
 100
AcDbEntity
   8
LEVEL001
 100
AcDbLine
   6
CONTINUOUS
  62
7
  10
 612.29818475679
  20
 277.35782170814
  30
0.0
  11
 613.29818475679
  21
 277.35782170814
  31
0.0
   0
LINE
   5
1B6
 100
AcDbEntity
   8
LEVEL001
 100
AcDbLine
   6
CONTINUOUS
  62
7
  10
 539.29818475679
  20
 276.35782170814
  30
0.0
  11
 539.29818475679
  21
 277.35782170814
  31
0.0
   0
LINE
   5
1B7
 100
AcDbEntity
   8
LEVEL001
 100
AcDbLine
   6
CONTINUOUS
  62
7
  10
 539.29818475679
  20
 277.35782170814
  30
0.0
  11
 538.29818475679
  21
 277.35782170814
  31
0.0
   0
LINE
   5
1B8
 100
AcDbEntity
   8
LEVEL001
 100
AcDbLine
   6
CONTINUOUS
  62
7
  10
 538.29818475679
  20
 276.35782170814
  30
0.0
  11
 538.29818475679
  21
 281.08982170814
  31
0.0
   0
CIRCLE
   5
1B9
 100
AcDbEntity
   8
LEVEL001
 100
AcDbCircle
   6
CONTINUOUS
  62
7
  10
 502.79818475679
  20
 193.35782170814
  30
0.0
  40
 39.000000000000
   0
CIRCLE
   5
1BA
 100
AcDbEntity
   8
LEVEL001
 100
AcDbCircle
   6
CONTINUOUS
  62
7
  10
 525.42518475679
  20
 215.98482170814
  30
0.0
  40
 5.0000000000000
   0
CIRCLE
   5
1BB
 100
AcDbEntity
   8
LEVEL001
 100
AcDbCircle
   6
CONTINUOUS
  62
7
  10
 525.42518475679
  20
 215.98482170814
  30
0.0
  40
 4.4803800000000
   0
LINE
   5
1BC
 100
AcDbEntity
   8
LEVEL001
 100
AcDbLine
   6
CONTINUOUS
  62
7
  10
 527.46718475679
  20
 218.02682170814
  30
0.0
  11
 524.67818475679
  21
 218.77382170814
  31
0.0
   0
LINE
   5
1BD
 100
AcDbEntity
   8
LEVEL001
 100
AcDbLine
   6
CONTINUOUS
  62
7
  10
 524.67818475679
  20
 218.77382170814
  30
0.0
  11
 522.63718475679
  21
 216.73282170814
  31
0.0
   0
LINE
   5
1BE
 100
AcDbEntity
   8
LEVEL001
 100
AcDbLine
   6
CONTINUOUS
  62
7
  10
 522.63718475679
  20
 216.73282170814
  30
0.0
  11
 523.38418475679
  21
 213.94382170814
  31
0.0
   0
LINE
   5
1BF
 100
AcDbEntity
   8
LEVEL001
 100
AcDbLine
   6
CONTINUOUS
  62
7
  10
 523.38418475679
  20
 213.94382170814
  30
0.0
  11
 526.17318475679
  21
 213.19682170814
  31
0.0
   0
LINE
   5
1C0
 100
AcDbEntity
   8
LEVEL001
 100
AcDbLine
   6
CONTINUOUS
  62
7
  10
 526.17318475679
  20
 213.19682170814
  30
0.0
  11
 528.21418475679
  21
 215.23782170814
  31
0.0
   0
LINE
   5
1C1
 100
AcDbEntity
   8
LEVEL001
 100
AcDbLine
   6
CONTINUOUS
  62
7
  10
 528.21418475679
  20
 215.23782170814
  30
0.0
  11
 527.46718475679
  21
 218.02682170814
  31
0.0
   0
CIRCLE
   5
1C2
 100
AcDbEntity
   8
LEVEL001
 100
AcDbCircle
   6
CONTINUOUS
  62
7
  10
 480.17118475679
  20
 215.98482170814
  30
0.0
  40
 5.0000000000000
   0
CIRCLE
   5
1C3
 100
AcDbEntity
   8
LEVEL001
 100
AcDbCircle
   6
CONTINUOUS
  62
7
  10
 480.17118475679
  20
 215.98482170814
  30
0.0
  40
 4.4803800000000
   0
LINE
   5
1C4
 100
AcDbEntity
   8
LEVEL001
 100
AcDbLine
   6
CONTINUOUS
  62
7
  10
 478.12918475679
  20
 218.02682170814
  30
0.0
  11
 477.38218475679
  21
 215.23782170814
  31
0.0
   0
LINE
   5
1C5
 100
AcDbEntity
   8
LEVEL001
 100
AcDbLine
   6
CONTINUOUS
  62
7
  10
 477.38218475679
  20
 215.23782170814
  30
0.0
  11
 479.42318475679
  21
 213.19682170814
  31
0.0
   0
LINE
   5
1C6
 100
AcDbEntity
   8
LEVEL001
 100
AcDbLine
   6
CONTINUOUS
  62
7
  10
 479.42318475679
  20
 213.19682170814
  30
0.0
  11
 482.21218475679
  21
 213.94382170814
  31
0.0
   0
LINE
   5
1C7
 100
AcDbEntity
   8
LEVEL001
 100
AcDbLine
   6
CONTINUOUS
  62
7
  10
 482.21218475679
  20
 213.94382170814
  30
0.0
  11
 482.95918475679
  21
 216.73282170814
  31
0.0
   0
LINE
   5
1C8
 100
AcDbEntity
   8
LEVEL001
 100
AcDbLine
   6
CONTINUOUS
  62
7
  10
 482.95918475679
  20
 216.73282170814
  30
0.0
  11
 480.91818475679
  21
 218.77382170814
  31
0.0
   0
LINE
   5
1C9
 100
AcDbEntity
   8
LEVEL001
 100
AcDbLine
   6
CONTINUOUS
  62
7
  10
 480.91818475679
  20
 218.77382170814
  30
0.0
  11
 478.12918475679
  21
 218.02682170814
  31
0.0
   0
CIRCLE
   5
1CA
 100
AcDbEntity
   8
LEVEL001
 100
AcDbCircle
   6
CONTINUOUS
  62
7
  10
 480.17118475679
  20
 170.73082170814
  30
0.0
  40
 5.0000000000000
   0
CIRCLE
   5
1CB
 100
AcDbEntity
   8
LEVEL001
 100
AcDbCircle
   6
CONTINUOUS
  62
7
  10
 480.17118475679
  20
 170.73082170814
  30
0.0
  40
 4.4803800000000
   0
LINE
   5
1CC
 100
AcDbEntity
   8
LEVEL001
 100
AcDbLine
   6
CONTINUOUS
  62
7
  10
 478.12918475679
  20
 168.68882170814
  30
0.0
  11
 480.91818475679
  21
 167.94182170814
  31
0.0
   0
LINE
   5
1CD
 100
AcDbEntity
   8
LEVEL001
 100
AcDbLine
   6
CONTINUOUS
  62
7
  10
 480.91818475679
  20
 167.94182170814
  30
0.0
  11
 482.95918475679
  21
 169.98282170814
  31
0.0
   0
LINE
   5
1CE
 100
AcDbEntity
   8
LEVEL001
 100
AcDbLine
   6
CONTINUOUS
  62
7
  10
 482.95918475679
  20
 169.98282170814
  30
0.0
  11
 482.21218475679
  21
 172.77182170814
  31
0.0
   0
LINE
   5
1CF
 100
AcDbEntity
   8
LEVEL001
 100
AcDbLine
   6
CONTINUOUS
  62
7
  10
 482.21218475679
  20
 172.77182170814
  30
0.0
  11
 479.42318475679
  21
 173.51882170814
  31
0.0
   0
LINE
   5
1D0
 100
AcDbEntity
   8
LEVEL001
 100
AcDbLine
   6
CONTINUOUS
  62
7
  10
 479.42318475679
  20
 173.51882170814
  30
0.0
  11
 477.38218475679
  21
 171.47782170814
  31
0.0
   0
LINE
   5
1D1
 100
AcDbEntity
   8
LEVEL001
 100
AcDbLine
   6
CONTINUOUS
  62
7
  10
 477.38218475679
  20
 171.47782170814
  30
0.0
  11
 478.12918475679
  21
 168.68882170814
  31
0.0
   0
CIRCLE
   5
1D2
 100
AcDbEntity
   8
LEVEL001
 100
AcDbCircle
   6
CONTINUOUS
  62
7
  10
 525.42518475679
  20
 170.73082170814
  30
0.0
  40
 5.0000000000000
   0
CIRCLE
   5
1D3
 100
AcDbEntity
   8
LEVEL001
 100
AcDbCircle
   6
CONTINUOUS
  62
7
  10
 525.42518475679
  20
 170.73082170814
  30
0.0
  40
 4.4803800000000
   0
LINE
   5
1D4
 100
AcDbEntity
   8
LEVEL001
 100
AcDbLine
   6
CONTINUOUS
  62
7
  10
 527.46718475679
  20
 168.68882170814
  30
0.0
  11
 528.21418475679
  21
 171.47782170814
  31
0.0
   0
LINE
   5
1D5
 100
AcDbEntity
   8
LEVEL001
 100
AcDbLine
   6
CONTINUOUS
  62
7
  10
 528.21418475679
  20
 171.47782170814
  30
0.0
  11
 526.17318475679
  21
 173.51882170814
  31
0.0
   0
LINE
   5
1D6
 100
AcDbEntity
   8
LEVEL001
 100
AcDbLine
   6
CONTINUOUS
  62
7
  10
 526.17318475679
  20
 173.51882170814
  30
0.0
  11
 523.38418475679
  21
 172.77182170814
  31
0.0
   0
LINE
   5
1D7
 100
AcDbEntity
   8
LEVEL001
 100
AcDbLine
   6
CONTINUOUS
  62
7
  10
 523.38418475679
  20
 172.77182170814
  30
0.0
  11
 522.63718475679
  21
 169.98282170814
  31
0.0
   0
LINE
   5
1D8
 100
AcDbEntity
   8
LEVEL001
 100
AcDbLine
   6
CONTINUOUS
  62
7
  10
 522.63718475679
  20
 169.98282170814
  30
0.0
  11
 524.67818475679
  21
 167.94182170814
  31
0.0
   0
LINE
   5
1D9
 100
AcDbEntity
   8
LEVEL001
 100
AcDbLine
   6
CONTINUOUS
  62
7
  10
 524.67818475679
  20
 167.94182170814
  30
0.0
  11
 527.46718475679
  21
 168.68882170814
  31
0.0
   0
LINE
   5
1DA
 100
AcDbEntity
   8
LEVEL001
 100
AcDbLine
   6
CONTINUOUS
  62
7
  10
 498.79818475679
  20
 208.85782170814
  30
0.0
  11
 506.79818475679
  21
 208.85782170814
  31
0.0
   0
LINE
   5
1DB
 100
AcDbEntity
   8
LEVEL001
 100
AcDbLine
   6
CONTINUOUS
  62
7
  10
 506.79818475679
  20
 201.85782170814
  30
0.0
  11
 506.79818475679
  21
 208.85782170814
  31
0.0
   0
LINE
   5
1DC
 100
AcDbEntity
   8
LEVEL001
 100
AcDbLine
   6
CONTINUOUS
  62
7
  10
 498.79818475679
  20
 208.85782170814
  30
0.0
  11
 498.79818475679
  21
 201.85782170814
  31
0.0
   0
ARC
   5
1DD
 100
AcDbEntity
   8
LEVEL001
   6
CONTINUOUS
  62
7
 100
AcDbCircle
  10
 502.79818475679
  20
 193.35782170814
  30
0.0
  40
 12.500000000000
 100
AcDbArc
  50
 108.66300000000
  51
 71.336999999995
   0
LINE
   5
1DE
 100
AcDbEntity
   8
LEVEL001
 100
AcDbLine
   6
CONTINUOUS
  62
7
  10
 506.79818475679
  20
 201.85782170814
  30
0.0
  11
 498.79818475679
  21
 201.85782170814
  31
0.0
   0
ARC
   5
1DF
 100
AcDbEntity
   8
LEVEL001
   6
CONTINUOUS
  62
7
 100
AcDbCircle
  10
 502.79818475679
  20
 193.35782170814
  30
0.0
  40
 14.000000000000
 100
AcDbArc
  50
 106.60200000000
  51
 73.398000000001
   0
CIRCLE
   5
1E0
 100
AcDbEntity
   8
LEVEL001
 100
AcDbCircle
   6
CONTINUOUS
  62
7
  10
 502.79818475679
  20
 193.35782170814
  30
0.0
  40
 20.000000000000
   0
CIRCLE
   5
1E1
 100
AcDbEntity
   8
LEVEL001
 100
AcDbCircle
   6
CONTINUOUS
  62
7
  10
 534.79818475679
  20
 193.35782170814
  30
0.0
  40
 2.5000000000000
   0
CIRCLE
   5
1E2
 100
AcDbEntity
   8
LEVEL001
 100
AcDbCircle
   6
CONTINUOUS
  62
7
  10
 534.79818475679
  20
 193.35782170814
  30
0.0
  40
 3.0000000000000
   0
CIRCLE
   5
1E3
 100
AcDbEntity
   8
LEVEL001
 100
AcDbCircle
   6
CONTINUOUS
  62
7
  10
 470.79818475679
  20
 193.35782170814
  30
0.0
  40
 2.5000000000000
   0
CIRCLE
   5
1E4
 100
AcDbEntity
   8
LEVEL001
 100
AcDbCircle
   6
CONTINUOUS
  62
7
  10
 470.79818475679
  20
 193.35782170814
  30
0.0
  40
 3.0000000000000
   0
ARC
   5
1E5
 100
AcDbEntity
   8
LEVEL001
   6
CONTINUOUS
  62
7
 100
AcDbCircle
  10
 623.79818475679
  20
 128.35782170814
  30
0.0
  40
 3.0000000000000
 100
AcDbArc
  50
 138.18999999994
  51
 179.99999999992
   0
ARC
   5
1E6
 100
AcDbEntity
   8
LEVEL001
   6
CONTINUOUS
  62
7
 100
AcDbCircle
  10
 527.79818475679
  20
 128.35782170814
  30
0.0
  40
 3.0000000000000
 100
AcDbArc
  50
 0.81422199845472E-10
  51
 41.810000000109
   0
ARC
   5
1E7
 100
AcDbEntity
   8
LEVEL001
   6
CONTINUOUS
  62
7
 100
AcDbCircle
  10
 693.79818475678
  20
 145.35782170814
  30
0.0
  40
 2.0000000000000
 100
AcDbArc
  50
 0.90000000023575E-3
  51
 89.998999999717
   0
ARC
   5
1E8
 100
AcDbEntity
   8
LEVEL001
   6
CONTINUOUS
  62
7
 100
AcDbCircle
  10
 663.79818475679
  20
 157.35782170814
  30
0.0
  40
 10.000000000000
 100
AcDbArc
  50
 180.00000000000
  51
 270.00017199999
   0
ARC
   5
1E9
 100
AcDbEntity
   8
LEVEL001
   6
CONTINUOUS
  62
7
 100
AcDbCircle
  10
 686.78118475679
  20
 176.16882170814
  30
0.0
  40
 20.000000000000
 100
AcDbArc
  50
 197.10300000000
  51
 236.95300000000
   0
LINE
   5
1EA
 100
AcDbEntity
   8
LEVEL001
 100
AcDbLine
   6
CONTINUOUS
  62
7
  10
 675.87518475679
  20
 159.40482170814
  30
0.0
  11
 694.88918475679
  21
 147.03382170814
  31
0.0
   0
ARC
   5
1EB
 100
AcDbEntity
   8
LEVEL001
   6
CONTINUOUS
  62
7
 100
AcDbCircle
  10
 668.79818475679
  20
 217.61282170814
  30
0.0
  40
 15.000000000000
 100
AcDbArc
  50
 180.00000000000
  51
 197.10300000000
   0
LINE
   5
1EC
 100
AcDbEntity
   8
LEVEL001
 100
AcDbLine
   6
CONTINUOUS
  62
7
  10
 654.46118475679
  20
 213.20182170814
  30
0.0
  11
 667.66618475679
  21
 170.28682170814
  31
0.0
   0
LINE
   5
1ED
 100
AcDbEntity
   8
LEVEL001
 100
AcDbLine
   6
CONTINUOUS
  62
7
  10
 653.79818475679
  20
 236.57482170814
  30
0.0
  11
 653.79818475679
  21
 157.35782170814
  31
0.0
   0
LINE
   5
1EE
 100
AcDbEntity
   8
LEVEL001
 100
AcDbLine
   6
CONTINUOUS
  62
7
  10
 628.79818475679
  20
 261.57482170814
  30
0.0
  11
 522.79818475679
  21
 261.57482170814
  31
0.0
   0
ARC
   5
1EF
 100
AcDbEntity
   8
LEVEL001
   6
CONTINUOUS
  62
7
 100
AcDbCircle
  10
 522.79818475679
  20
 236.57482170814
  30
0.0
  40
 25.000000000000
 100
AcDbArc
  50
 96.205999999999
  51
 164.82200000000
   0
ARC
   5
1F0
 100
AcDbEntity
   8
LEVEL001
   6
CONTINUOUS
  62
7
 100
AcDbCircle
  10
 628.79818475679
  20
 236.57482170814
  30
0.0
  40
 25.000000000000
 100
AcDbArc
  50
 0.10000000022854E-3
  51
 83.794000000001
   0
ARC
   5
1F1
 100
AcDbEntity
   8
LEVEL001
   6
CONTINUOUS
  62
7
 100
AcDbCircle
  10
 475.11318475679
  20
 251.61382170814
  30
0.0
  40
 25.000000000000
 100
AcDbArc
  50
 295.41790000000
  51
 342.49480000000
   0
ARC
   5
1F2
 100
AcDbEntity
   8
LEVEL001
   6
CONTINUOUS
  62
7
 100
AcDbCircle
  10
 466.44718475679
  20
 157.35782170814
  30
0.0
  40
 10.000000000000
 100
AcDbArc
  50
 270.00000000000
  51
 30.086000000005
   0
ARC
   5
1F3
 100
AcDbEntity
   8
LEVEL001
   6
CONTINUOUS
  62
7
 100
AcDbCircle
  10
 437.57618475679
  20
 179.46182170814
  30
0.0
  40
 20.000000000000
 100
AcDbArc
  50
 300.27970000000
  51
 345.18440000000
   0
LINE
   5
1F4
 100
AcDbEntity
   8
LEVEL001
 100
AcDbLine
   6
CONTINUOUS
  62
7
  10
 447.66118475679
  20
 162.19082170814
  30
0.0
  11
 421.79018475679
  21
 147.08482170814
  31
0.0
   0
LINE
   5
1F5
 100
AcDbEntity
   8
LEVEL001
 100
AcDbLine
   6
CONTINUOUS
  62
7
  10
 537.64818475679
  20
 646.85782170814
  30
0.0
  11
 613.94818475679
  21
 646.85782170814
  31
0.0
   0
LINE
   5
1F6
 100
AcDbEntity
   8
LEVEL001
 100
AcDbLine
   6
CONTINUOUS
  62
7
  10
 537.64818475679
  20
 281.08982170814
  30
0.0
  11
 537.64818475679
  21
 646.85782170814
  31
0.0
   0
LINE
   5
1F7
 100
AcDbEntity
   8
LEVEL001
 100
AcDbLine
   6
CONTINUOUS
  62
7
  10
 420.79818475679
  20
 130.35782170814
  30
0.0
  11
 695.79818475679
  21
 130.35782170814
  31
0.0
   0
LINE
   5
1F8
 100
AcDbEntity
   8
LEVEL001
 100
AcDbLine
   6
CONTINUOUS
  62
7
  10
 613.94818475679
  20
 281.08982170814
  30
0.0
  11
 613.94818475679
  21
 646.85782170814
  31
0.0
   0
LINE
   5
1F9
 100
AcDbEntity
   8
LEVEL001
 100
AcDbLine
   6
CONTINUOUS
  62
7
  10
 613.94818475679
  20
 281.08982170814
  30
0.0
  11
 537.64818475679
  21
 281.08982170814
  31
0.0
   0
LINE
   5
1FA
 100
AcDbEntity
   8
LEVEL001
 100
AcDbLine
   6
CONTINUOUS
  62
7
  10
 618.79821975679
  20
 276.35782170814
  30
0.0
  11
 532.79818475679
  21
 276.35782170814
  31
0.0
   0
LINE
   5
1FB
 100
AcDbEntity
   8
LEVEL001
 100
AcDbLine
   6
CONTINUOUS
  62
7
  10
 422.79818475679
  20
 147.35782170814
  30
0.0
  11
 693.95904275679
  21
 147.35782170814
  31
0.0
   0
LINE
   5
1FC
 100
AcDbEntity
   8
LEVEL001
 100
AcDbLine
   6
CONTINUOUS
  62
7
  10
 695.79818475679
  20
 145.53357570814
  30
0.0
  11
 695.79818475679
  21
 130.35782170814
  31
0.0
   0
LINE
   5
1FD
 100
AcDbEntity
   8
LEVEL001
 100
AcDbLine
   6
CONTINUOUS
  62
7
  10
 616.29821575679
  20
 81.357821708144
  30
0.0
  11
 535.29818475679
  21
 81.357821708144
  31
0.0
   0
LINE
   5
1FE
 100
AcDbEntity
   8
LEVEL001
 100
AcDbLine
   6
CONTINUOUS
  62
7
  10
 603.29818475679
  20
 46.357821708144
  30
0.0
  11
 603.29818475679
  21
 78.357821708144
  31
0.0
   0
LINE
   5
1FF
 100
AcDbEntity
   8
LEVEL001
 100
AcDbLine
   6
CONTINUOUS
  62
7
  10
 600.79818475679
  20
-2.6421782918565
  30
0.0
  11
 550.79818475679
  21
-2.6421782918565
  31
0.0
   0
LINE
   5
200
 100
AcDbEntity
   8
LEVEL001
 100
AcDbLine
   6
CONTINUOUS
  62
7
  10
 600.79818475679
  20
-2.6421782918565
  30
0.0
  11
 600.79818475679
  21
 40.957821708144
  31
0.0
   0
LINE
   5
201
 100
AcDbEntity
   8
LEVEL001
 100
AcDbLine
   6
CONTINUOUS
  62
7
  10
 551.79818475679
  20
-3.6421782918565
  30
0.0
  11
 599.79818475679
  21
-3.6421782918565
  31
0.0
   0
LINE
   5
202
 100
AcDbEntity
   8
LEVEL001
 100
AcDbLine
   6
CONTINUOUS
  62
7
  10
 599.79818475679
  20
-3.6421782918565
  30
0.0
  11
 599.79818475679
  21
 41.957821708144
  31
0.0
   0
LINE
   5
203
 100
AcDbEntity
   8
LEVEL001
 100
AcDbLine
   6
CONTINUOUS
  62
7
  10
 180.75103075679
  20
 157.35782170814
  30
0.0
  11
 237.55403375679
  21
 157.35782170814
  31
0.0
   0
LINE
   5
204
 100
AcDbEntity
   8
LEVEL001
 100
AcDbLine
   6
CONTINUOUS
  62
7
  10
 99.042094756786
  20
 157.35782170814
  30
0.0
  11
 150.16479775679
  21
 157.35782170814
  31
0.0
   0
LINE
   5
205
 100
AcDbEntity
   8
LEVEL001
 100
AcDbLine
   6
CONTINUOUS
  62
7
  10
 172.24083175679
  20
 192.72212070814
  30
0.0
  11
 170.32751075679
  21
 152.62272170814
  31
0.0
   0
LINE
   5
206
 100
AcDbEntity
   8
LEVEL001
 100
AcDbLine
   6
CONTINUOUS
  62
7
  10
 157.85553775679
  20
 192.72212070814
  30
0.0
  11
 159.76885875679
  21
 152.62272170814
  31
0.0
   0
ARC
   5
207
 100
AcDbEntity
   8
LEVEL001
   6
CONTINUOUS
  62
7
 100
AcDbCircle
  10
 177.23004675679
  20
 192.39388270814
  30
0.0
  40
 5.0000000000000
 100
AcDbArc
  50
 90.000000000000
  51
 176.23596500000
   0
ARC
   5
208
 100
AcDbEntity
   8
LEVEL001
   6
CONTINUOUS
  62
7
 100
AcDbCircle
  10
 152.86632275679
  20
 192.39388270814
  30
0.0
  40
 5.0000000000000
 100
AcDbArc
  50
 3.7640350000003
  51
 90.000000000008
   0
LINE
   5
209
 100
AcDbEntity
   8
LEVEL001
 100
AcDbLine
   6
CONTINUOUS
  62
7
  10
 86.548184756786
  20
 155.35782170814
  30
0.0
  11
 83.798184756786
  21
 155.35782170814
  31
0.0
   0
ARC
   5
20A
 100
AcDbEntity
   8
LEVEL001
   6
CONTINUOUS
  62
7
 100
AcDbCircle
  10
 86.548184756786
  20
 147.35782170814
  30
0.0
  40
 8.0000000000000
 100
AcDbArc
  50
0.0
  51
 90.000000000001
   0
LINE
   5
20B
 100
AcDbEntity
   8
LEVEL001
 100
AcDbLine
   6
CONTINUOUS
  62
7
  10
 243.04818475679
  20
 155.35782170814
  30
0.0
  11
 246.29818475679
  21
 155.35782170814
  31
0.0
   0
ARC
   5
20C
 100
AcDbEntity
   8
LEVEL001
   6
CONTINUOUS
  62
7
 100
AcDbCircle
  10
 243.54818475679
  20
 147.35782170814
  30
0.0
  40
 8.0000000000000
 100
AcDbArc
  50
 90.000000000000
  51
 180.00000000000
   0
LINE
   5
20D
 100
AcDbEntity
   8
LEVEL001
 100
AcDbLine
   6
CONTINUOUS
  62
7
  10
 181.58408275679
  20
 197.35782170814
  30
0.0
  11
 179.27468175679
  21
 193.35782170814
  31
0.0
   0
LINE
   5
20E
 100
AcDbEntity
   8
LEVEL001
 100
AcDbLine
   6
CONTINUOUS
  62
7
  10
 190.82168775679
  20
 193.35782170814
  30
0.0
  11
 188.51228675679
  21
 197.35782170814
  31
0.0
   0
ARC
   5
20F
 100
AcDbEntity
   8
LEVEL001
   6
CONTINUOUS
  62
7
 100
AcDbCircle
  10
 185.04818475679
  20
 193.35782170814
  30
0.0
  40
 5.0000000000000
 100
AcDbArc
  50
 133.85377900000
  51
 46.146220999998
   0
LINE
   5
210
 100
AcDbEntity
   8
LEVEL001
 100
AcDbLine
   6
CONTINUOUS
  62
7
  10
 185.04818475679
  20
 195.87650870814
  30
0.0
  11
 188.51228675679
  21
 196.64979170814
  31
0.0
   0
LINE
   5
211
 100
AcDbEntity
   8
LEVEL001
 100
AcDbLine
   6
CONTINUOUS
  62
7
  10
 181.58408275679
  20
 196.64979170814
  30
0.0
  11
 185.04818475679
  21
 195.87650870814
  31
0.0
   0
LINE
   5
212
 100
AcDbEntity
   8
LEVEL001
 100
AcDbLine
   6
CONTINUOUS
  62
7
  10
 188.51228675679
  20
 196.64979170814
  30
0.0
  11
 188.51228675679
  21
 200.41369770814
  31
0.0
   0
LINE
   5
213
 100
AcDbEntity
   8
LEVEL001
 100
AcDbLine
   6
CONTINUOUS
  62
7
  10
 181.58408275679
  20
 200.41369770814
  30
0.0
  11
 181.58408275679
  21
 196.64979170814
  31
0.0
   0
LINE
   5
214
 100
AcDbEntity
   8
LEVEL001
 100
AcDbLine
   6
CONTINUOUS
  62
7
  10
 187.92502275679
  20
 200.54480370814
  30
0.0
  11
 188.51228675679
  21
 200.41369770814
  31
0.0
   0
LINE
   5
215
 100
AcDbEntity
   8
LEVEL001
 100
AcDbLine
   6
CONTINUOUS
  62
7
  10
 181.58408275679
  20
 200.41369770814
  30
0.0
  11
 182.17134675679
  21
 200.54480370814
  31
0.0
   0
LINE
   5
216
 100
AcDbEntity
   8
LEVEL001
 100
AcDbLine
   6
CONTINUOUS
  62
7
  10
 185.04818475679
  20
 198.09348070814
  30
0.0
  11
 181.58408275679
  21
 198.86681170814
  31
0.0
   0
LINE
   5
217
 100
AcDbEntity
   8
LEVEL001
 100
AcDbLine
   6
CONTINUOUS
  62
7
  10
 188.51228675679
  20
 198.86681170814
  30
0.0
  11
 185.04818475679
  21
 198.09348070814
  31
0.0
   0
ARC
   5
218
 100
AcDbEntity
   8
LEVEL001
   6
CONTINUOUS
  62
7
 100
AcDbCircle
  10
 181.03543075679
  20
 200.63693170814
  30
0.0
  40
 1.1396460000000
 100
AcDbArc
  50
 299.01395600017
  51
 6.3044070004369
   0
ARC
   5
219
 100
AcDbEntity
   8
LEVEL001
   6
CONTINUOUS
  62
7
 100
AcDbCircle
  10
 187.98668775679
  20
 203.12551970814
  30
0.0
  40
 6.2801940000000
 100
AcDbArc
  50
 187.53631099997
  51
 202.10670999997
   0
ARC
   5
21A
 100
AcDbEntity
   8
LEVEL001
   6
CONTINUOUS
  62
7
 100
AcDbCircle
  10
 189.06093875679
  20
 200.63693170814
  30
0.0
  40
 1.1396460000000
 100
AcDbArc
  50
 173.69559299989
  51
 240.98604399971
   0
ARC
   5
21B
 100
AcDbEntity
   8
LEVEL001
   6
CONTINUOUS
  62
7
 100
AcDbCircle
  10
 182.10968175679
  20
 203.12551970815
  30
0.0
  40
 6.2801940000000
 100
AcDbArc
  50
 337.89328999997
  51
 352.46368899997
   0
LINE
   5
21C
 100
AcDbEntity
   8
LEVEL001
 100
AcDbLine
   6
CONTINUOUS
  62
7
  10
 181.58818475679
  20
 199.64030970814
  30
0.0
  11
 181.59147775679
  21
 199.58255370814
  31
0.0
   0
LINE
   5
21D
 100
AcDbEntity
   8
LEVEL001
 100
AcDbLine
   6
CONTINUOUS
  62
7
  10
 181.59147775679
  20
 199.58255370814
  30
0.0
  11
 181.60135075679
  21
 199.52490770814
  31
0.0
   0
LINE
   5
21E
 100
AcDbEntity
   8
LEVEL001
 100
AcDbLine
   6
CONTINUOUS
  62
7
  10
 181.60135075679
  20
 199.52490770814
  30
0.0
  11
 181.61778575679
  21
 199.46748170814
  31
0.0
   0
LINE
   5
21F
 100
AcDbEntity
   8
LEVEL001
 100
AcDbLine
   6
CONTINUOUS
  62
7
  10
 181.61778575679
  20
 199.46748170814
  30
0.0
  11
 181.64074975679
  21
 199.41038470814
  31
0.0
   0
LINE
   5
220
 100
AcDbEntity
   8
LEVEL001
 100
AcDbLine
   6
CONTINUOUS
  62
7
  10
 181.64074975679
  20
 199.41038470814
  30
0.0
  11
 181.67020075679
  21
 199.35372470814
  31
0.0
   0
LINE
   5
221
 100
AcDbEntity
   8
LEVEL001
 100
AcDbLine
   6
CONTINUOUS
  62
7
  10
 181.67020075679
  20
 199.35372470814
  30
0.0
  11
 181.70608175679
  21
 199.29761070814
  31
0.0
   0
LINE
   5
222
 100
AcDbEntity
   8
LEVEL001
 100
AcDbLine
   6
CONTINUOUS
  62
7
  10
 181.70608175679
  20
 199.29761070814
  30
0.0
  11
 181.74832375679
  21
 199.24214970814
  31
0.0
   0
LINE
   5
223
 100
AcDbEntity
   8
LEVEL001
 100
AcDbLine
   6
CONTINUOUS
  62
7
  10
 181.74832375679
  20
 199.24214970814
  30
0.0
  11
 181.79684875679
  21
 199.18744570814
  31
0.0
   0
LINE
   5
224
 100
AcDbEntity
   8
LEVEL001
 100
AcDbLine
   6
CONTINUOUS
  62
7
  10
 181.79684875679
  20
 199.18744570814
  30
0.0
  11
 181.85156175679
  21
 199.13360470814
  31
0.0
   0
LINE
   5
225
 100
AcDbEntity
   8
LEVEL001
 100
AcDbLine
   6
CONTINUOUS
  62
7
  10
 181.85156175679
  20
 199.13360470814
  30
0.0
  11
 181.91235975679
  21
 199.08072670814
  31
0.0
   0
LINE
   5
226
 100
AcDbEntity
   8
LEVEL001
 100
AcDbLine
   6
CONTINUOUS
  62
7
  10
 181.91235975679
  20
 199.08072670814
  30
0.0
  11
 181.97912775679
  21
 199.02891570814
  31
0.0
   0
LINE
   5
227
 100
AcDbEntity
   8
LEVEL001
 100
AcDbLine
   6
CONTINUOUS
  62
7
  10
 181.97912775679
  20
 199.02891570814
  30
0.0
  11
 182.05173675679
  21
 198.97826670814
  31
0.0
   0
LINE
   5
228
 100
AcDbEntity
   8
LEVEL001
 100
AcDbLine
   6
CONTINUOUS
  62
7
  10
 182.05173675679
  20
 198.97826670814
  30
0.0
  11
 182.13005075679
  21
 198.92887970814
  31
0.0
   0
LINE
   5
229
 100
AcDbEntity
   8
LEVEL001
 100
AcDbLine
   6
CONTINUOUS
  62
7
  10
 182.13005075679
  20
 198.92887970814
  30
0.0
  11
 182.21391875679
  21
 198.88084570814
  31
0.0
   0
LINE
   5
22A
 100
AcDbEntity
   8
LEVEL001
 100
AcDbLine
   6
CONTINUOUS
  62
7
  10
 182.21391875679
  20
 198.88084570814
  30
0.0
  11
 182.30318175679
  21
 198.83425770814
  31
0.0
   0
LINE
   5
22B
 100
AcDbEntity
   8
LEVEL001
 100
AcDbLine
   6
CONTINUOUS
  62
7
  10
 182.30318175679
  20
 198.83425770814
  30
0.0
  11
 182.39767075679
  21
 198.78920470814
  31
0.0
   0
LINE
   5
22C
 100
AcDbEntity
   8
LEVEL001
 100
AcDbLine
   6
CONTINUOUS
  62
7
  10
 182.39767075679
  20
 198.78920470814
  30
0.0
  11
 182.49720475679
  21
 198.74577070814
  31
0.0
   0
LINE
   5
22D
 100
AcDbEntity
   8
LEVEL001
 100
AcDbLine
   6
CONTINUOUS
  62
7
  10
 182.49720475679
  20
 198.74577070814
  30
0.0
  11
 182.60159575679
  21
 198.70404070814
  31
0.0
   0
LINE
   5
22E
 100
AcDbEntity
   8
LEVEL001
 100
AcDbLine
   6
CONTINUOUS
  62
7
  10
 182.60159575679
  20
 198.70404070814
  30
0.0
  11
 182.71064275679
  21
 198.66409170814
  31
0.0
   0
LINE
   5
22F
 100
AcDbEntity
   8
LEVEL001
 100
AcDbLine
   6
CONTINUOUS
  62
7
  10
 182.71064275679
  20
 198.66409170814
  30
0.0
  11
 182.82413975679
  21
 198.62600170814
  31
0.0
   0
LINE
   5
230
 100
AcDbEntity
   8
LEVEL001
 100
AcDbLine
   6
CONTINUOUS
  62
7
  10
 182.82413975679
  20
 198.62600170814
  30
0.0
  11
 182.94186975679
  21
 198.58984270814
  31
0.0
   0
LINE
   5
231
 100
AcDbEntity
   8
LEVEL001
 100
AcDbLine
   6
CONTINUOUS
  62
7
  10
 182.94186975679
  20
 198.58984270814
  30
0.0
  11
 183.06361075679
  21
 198.55568270814
  31
0.0
   0
LINE
   5
232
 100
AcDbEntity
   8
LEVEL001
 100
AcDbLine
   6
CONTINUOUS
  62
7
  10
 183.06361075679
  20
 198.55568270814
  30
0.0
  11
 183.18912775679
  21
 198.52358770814
  31
0.0
   0
LINE
   5
233
 100
AcDbEntity
   8
LEVEL001
 100
AcDbLine
   6
CONTINUOUS
  62
7
  10
 183.18912775679
  20
 198.52358770814
  30
0.0
  11
 183.31818475679
  21
 198.49361870814
  31
0.0
   0
LINE
   5
234
 100
AcDbEntity
   8
LEVEL001
 100
AcDbLine
   6
CONTINUOUS
  62
7
  10
 183.31818475679
  20
 198.49361870814
  30
0.0
  11
 183.45053475679
  21
 198.46583170814
  31
0.0
   0
LINE
   5
235
 100
AcDbEntity
   8
LEVEL001
 100
AcDbLine
   6
CONTINUOUS
  62
7
  10
 183.45053475679
  20
 198.46583170814
  30
0.0
  11
 183.58592575679
  21
 198.44028170814
  31
0.0
   0
LINE
   5
236
 100
AcDbEntity
   8
LEVEL001
 100
AcDbLine
   6
CONTINUOUS
  62
7
  10
 183.58592575679
  20
 198.44028170814
  30
0.0
  11
 183.72409975679
  21
 198.41701470814
  31
0.0
   0
LINE
   5
237
 100
AcDbEntity
   8
LEVEL001
 100
AcDbLine
   6
CONTINUOUS
  62
7
  10
 183.72409975679
  20
 198.41701470814
  30
0.0
  11
 183.86479475679
  21
 198.39607670814
  31
0.0
   0
LINE
   5
238
 100
AcDbEntity
   8
LEVEL001
 100
AcDbLine
   6
CONTINUOUS
  62
7
  10
 183.86479475679
  20
 198.39607670814
  30
0.0
  11
 184.00774275679
  21
 198.37750770814
  31
0.0
   0
LINE
   5
239
 100
AcDbEntity
   8
LEVEL001
 100
AcDbLine
   6
CONTINUOUS
  62
7
  10
 184.00774275679
  20
 198.37750770814
  30
0.0
  11
 184.15267075679
  21
 198.36134170814
  31
0.0
   0
LINE
   5
23A
 100
AcDbEntity
   8
LEVEL001
 100
AcDbLine
   6
CONTINUOUS
  62
7
  10
 184.15267075679
  20
 198.36134170814
  30
0.0
  11
 184.29930375679
  21
 198.34761070814
  31
0.0
   0
LINE
   5
23B
 100
AcDbEntity
   8
LEVEL001
 100
AcDbLine
   6
CONTINUOUS
  62
7
  10
 184.29930375679
  20
 198.34761070814
  30
0.0
  11
 184.44736175679
  21
 198.33634070814
  31
0.0
   0
LINE
   5
23C
 100
AcDbEntity
   8
LEVEL001
 100
AcDbLine
   6
CONTINUOUS
  62
7
  10
 184.44736175679
  20
 198.33634070814
  30
0.0
  11
 184.59656375679
  21
 198.32755270814
  31
0.0
   0
LINE
   5
23D
 100
AcDbEntity
   8
LEVEL001
 100
AcDbLine
   6
CONTINUOUS
  62
7
  10
 184.59656375679
  20
 198.32755270814
  30
0.0
  11
 184.74662575679
  21
 198.32126370814
  31
0.0
   0
LINE
   5
23E
 100
AcDbEntity
   8
LEVEL001
 100
AcDbLine
   6
CONTINUOUS
  62
7
  10
 184.74662575679
  20
 198.32126370814
  30
0.0
  11
 184.89726175679
  21
 198.31748470814
  31
0.0
   0
LINE
   5
23F
 100
AcDbEntity
   8
LEVEL001
 100
AcDbLine
   6
CONTINUOUS
  62
7
  10
 184.89726175679
  20
 198.31748470814
  30
0.0
  11
 185.04818475679
  21
 198.31622470814
  31
0.0
   0
LINE
   5
240
 100
AcDbEntity
   8
LEVEL001
 100
AcDbLine
   6
CONTINUOUS
  62
7
  10
 185.04818475679
  20
 198.31622470814
  30
0.0
  11
 185.19910775679
  21
 198.31748470814
  31
0.0
   0
LINE
   5
241
 100
AcDbEntity
   8
LEVEL001
 100
AcDbLine
   6
CONTINUOUS
  62
7
  10
 185.19910775679
  20
 198.31748470814
  30
0.0
  11
 185.34974375679
  21
 198.32126370814
  31
0.0
   0
LINE
   5
242
 100
AcDbEntity
   8
LEVEL001
 100
AcDbLine
   6
CONTINUOUS
  62
7
  10
 185.34974375679
  20
 198.32126370814
  30
0.0
  11
 185.49980575679
  21
 198.32755270814
  31
0.0
   0
LINE
   5
243
 100
AcDbEntity
   8
LEVEL001
 100
AcDbLine
   6
CONTINUOUS
  62
7
  10
 185.49980575679
  20
 198.32755270814
  30
0.0
  11
 185.64900775679
  21
 198.33634070814
  31
0.0
   0
LINE
   5
244
 100
AcDbEntity
   8
LEVEL001
 100
AcDbLine
   6
CONTINUOUS
  62
7
  10
 185.64900775679
  20
 198.33634070814
  30
0.0
  11
 185.79706575679
  21
 198.34761070814
  31
0.0
   0
LINE
   5
245
 100
AcDbEntity
   8
LEVEL001
 100
AcDbLine
   6
CONTINUOUS
  62
7
  10
 185.79706575679
  20
 198.34761070814
  30
0.0
  11
 185.94369875679
  21
 198.36134170814
  31
0.0
   0
LINE
   5
246
 100
AcDbEntity
   8
LEVEL001
 100
AcDbLine
   6
CONTINUOUS
  62
7
  10
 185.94369875679
  20
 198.36134170814
  30
0.0
  11
 186.08862675679
  21
 198.37750770814
  31
0.0
   0
LINE
   5
247
 100
AcDbEntity
   8
LEVEL001
 100
AcDbLine
   6
CONTINUOUS
  62
7
  10
 186.08862675679
  20
 198.37750770814
  30
0.0
  11
 186.23157475679
  21
 198.39607670814
  31
0.0
   0
LINE
   5
248
 100
AcDbEntity
   8
LEVEL001
 100
AcDbLine
   6
CONTINUOUS
  62
7
  10
 186.23157475679
  20
 198.39607670814
  30
0.0
  11
 186.37226975679
  21
 198.41701470814
  31
0.0
   0
LINE
   5
249
 100
AcDbEntity
   8
LEVEL001
 100
AcDbLine
   6
CONTINUOUS
  62
7
  10
 186.37226975679
  20
 198.41701470814
  30
0.0
  11
 186.51044375679
  21
 198.44028170814
  31
0.0
   0
LINE
   5
24A
 100
AcDbEntity
   8
LEVEL001
 100
AcDbLine
   6
CONTINUOUS
  62
7
  10
 186.51044375679
  20
 198.44028170814
  30
0.0
  11
 186.64583475679
  21
 198.46583170814
  31
0.0
   0
LINE
   5
24B
 100
AcDbEntity
   8
LEVEL001
 100
AcDbLine
   6
CONTINUOUS
  62
7
  10
 186.64583475679
  20
 198.46583170814
  30
0.0
  11
 186.77818475679
  21
 198.49361870814
  31
0.0
   0
LINE
   5
24C
 100
AcDbEntity
   8
LEVEL001
 100
AcDbLine
   6
CONTINUOUS
  62
7
  10
 186.77818475679
  20
 198.49361870814
  30
0.0
  11
 186.90724175679
  21
 198.52358770814
  31
0.0
   0
LINE
   5
24D
 100
AcDbEntity
   8
LEVEL001
 100
AcDbLine
   6
CONTINUOUS
  62
7
  10
 186.90724175679
  20
 198.52358770814
  30
0.0
  11
 187.03275875679
  21
 198.55568270814
  31
0.0
   0
LINE
   5
24E
 100
AcDbEntity
   8
LEVEL001
 100
AcDbLine
   6
CONTINUOUS
  62
7
  10
 187.03275875679
  20
 198.55568270814
  30
0.0
  11
 187.15449975679
  21
 198.58984270814
  31
0.0
   0
LINE
   5
24F
 100
AcDbEntity
   8
LEVEL001
 100
AcDbLine
   6
CONTINUOUS
  62
7
  10
 187.15449975679
  20
 198.58984270814
  30
0.0
  11
 187.27222975679
  21
 198.62600170814
  31
0.0
   0
LINE
   5
250
 100
AcDbEntity
   8
LEVEL001
 100
AcDbLine
   6
CONTINUOUS
  62
7
  10
 187.27222975679
  20
 198.62600170814
  30
0.0
  11
 187.38572675679
  21
 198.66409170814
  31
0.0
   0
LINE
   5
251
 100
AcDbEntity
   8
LEVEL001
 100
AcDbLine
   6
CONTINUOUS
  62
7
  10
 187.38572675679
  20
 198.66409170814
  30
0.0
  11
 187.49477375679
  21
 198.70404070814
  31
0.0
   0
LINE
   5
252
 100
AcDbEntity
   8
LEVEL001
 100
AcDbLine
   6
CONTINUOUS
  62
7
  10
 187.49477375679
  20
 198.70404070814
  30
0.0
  11
 187.59916475679
  21
 198.74577070814
  31
0.0
   0
LINE
   5
253
 100
AcDbEntity
   8
LEVEL001
 100
AcDbLine
   6
CONTINUOUS
  62
7
  10
 187.59916475679
  20
 198.74577070814
  30
0.0
  11
 187.69869875679
  21
 198.78920470814
  31
0.0
   0
LINE
   5
254
 100
AcDbEntity
   8
LEVEL001
 100
AcDbLine
   6
CONTINUOUS
  62
7
  10
 187.69869875679
  20
 198.78920470814
  30
0.0
  11
 187.79318775679
  21
 198.83425770814
  31
0.0
   0
LINE
   5
255
 100
AcDbEntity
   8
LEVEL001
 100
AcDbLine
   6
CONTINUOUS
  62
7
  10
 187.79318775679
  20
 198.83425770814
  30
0.0
  11
 187.88245075679
  21
 198.88084570814
  31
0.0
   0
LINE
   5
256
 100
AcDbEntity
   8
LEVEL001
 100
AcDbLine
   6
CONTINUOUS
  62
7
  10
 187.88245075679
  20
 198.88084570814
  30
0.0
  11
 187.96631875679
  21
 198.92887970814
  31
0.0
   0
LINE
   5
257
 100
AcDbEntity
   8
LEVEL001
 100
AcDbLine
   6
CONTINUOUS
  62
7
  10
 187.96631875679
  20
 198.92887970814
  30
0.0
  11
 188.04463275679
  21
 198.97826670814
  31
0.0
   0
LINE
   5
258
 100
AcDbEntity
   8
LEVEL001
 100
AcDbLine
   6
CONTINUOUS
  62
7
  10
 188.04463275679
  20
 198.97826670814
  30
0.0
  11
 188.11724175679
  21
 199.02891570814
  31
0.0
   0
LINE
   5
259
 100
AcDbEntity
   8
LEVEL001
 100
AcDbLine
   6
CONTINUOUS
  62
7
  10
 188.11724175679
  20
 199.02891570814
  30
0.0
  11
 188.18400975679
  21
 199.08072670814
  31
0.0
   0
LINE
   5
25A
 100
AcDbEntity
   8
LEVEL001
 100
AcDbLine
   6
CONTINUOUS
  62
7
  10
 188.18400975679
  20
 199.08072670814
  30
0.0
  11
 188.24480775679
  21
 199.13360470814
  31
0.0
   0
LINE
   5
25B
 100
AcDbEntity
   8
LEVEL001
 100
AcDbLine
   6
CONTINUOUS
  62
7
  10
 188.24480775679
  20
 199.13360470814
  30
0.0
  11
 188.29952075679
  21
 199.18744570814
  31
0.0
   0
LINE
   5
25C
 100
AcDbEntity
   8
LEVEL001
 100
AcDbLine
   6
CONTINUOUS
  62
7
  10
 188.29952075679
  20
 199.18744570814
  30
0.0
  11
 188.34804575679
  21
 199.24214970814
  31
0.0
   0
LINE
   5
25D
 100
AcDbEntity
   8
LEVEL001
 100
AcDbLine
   6
CONTINUOUS
  62
7
  10
 188.34804575679
  20
 199.24214970814
  30
0.0
  11
 188.39028775679
  21
 199.29761070814
  31
0.0
   0
LINE
   5
25E
 100
AcDbEntity
   8
LEVEL001
 100
AcDbLine
   6
CONTINUOUS
  62
7
  10
 188.39028775679
  20
 199.29761070814
  30
0.0
  11
 188.42616875679
  21
 199.35372470814
  31
0.0
   0
LINE
   5
25F
 100
AcDbEntity
   8
LEVEL001
 100
AcDbLine
   6
CONTINUOUS
  62
7
  10
 188.42616875679
  20
 199.35372470814
  30
0.0
  11
 188.45561975679
  21
 199.41038470814
  31
0.0
   0
LINE
   5
260
 100
AcDbEntity
   8
LEVEL001
 100
AcDbLine
   6
CONTINUOUS
  62
7
  10
 188.45561975679
  20
 199.41038470814
  30
0.0
  11
 188.47858375679
  21
 199.46748170814
  31
0.0
   0
LINE
   5
261
 100
AcDbEntity
   8
LEVEL001
 100
AcDbLine
   6
CONTINUOUS
  62
7
  10
 188.47858375679
  20
 199.46748170814
  30
0.0
  11
 188.49501875679
  21
 199.52490770814
  31
0.0
   0
LINE
   5
262
 100
AcDbEntity
   8
LEVEL001
 100
AcDbLine
   6
CONTINUOUS
  62
7
  10
 188.49501875679
  20
 199.52490770814
  30
0.0
  11
 188.50489175679
  21
 199.58255370814
  31
0.0
   0
LINE
   5
263
 100
AcDbEntity
   8
LEVEL001
 100
AcDbLine
   6
CONTINUOUS
  62
7
  10
 188.50489175679
  20
 199.58255370814
  30
0.0
  11
 188.50818475679
  21
 199.64030970814
  31
0.0
   0
LINE
   5
264
 100
AcDbEntity
   8
LEVEL001
 100
AcDbLine
   6
CONTINUOUS
  62
7
  10
 182.16818475679
  20
 200.76207770814
  30
0.0
  11
 182.17092575679
  21
 200.71400270814
  31
0.0
   0
LINE
   5
265
 100
AcDbEntity
   8
LEVEL001
 100
AcDbLine
   6
CONTINUOUS
  62
7
  10
 182.17092575679
  20
 200.71400270814
  30
0.0
  11
 182.17914375679
  21
 200.66602070814
  31
0.0
   0
LINE
   5
266
 100
AcDbEntity
   8
LEVEL001
 100
AcDbLine
   6
CONTINUOUS
  62
7
  10
 182.17914375679
  20
 200.66602070814
  30
0.0
  11
 182.19282375679
  21
 200.61822070814
  31
0.0
   0
LINE
   5
267
 100
AcDbEntity
   8
LEVEL001
 100
AcDbLine
   6
CONTINUOUS
  62
7
  10
 182.19282375679
  20
 200.61822070814
  30
0.0
  11
 182.21193875679
  21
 200.57069470814
  31
0.0
   0
LINE
   5
268
 100
AcDbEntity
   8
LEVEL001
 100
AcDbLine
   6
CONTINUOUS
  62
7
  10
 182.21193875679
  20
 200.57069470814
  30
0.0
  11
 182.23645175679
  21
 200.52353270814
  31
0.0
   0
LINE
   5
269
 100
AcDbEntity
   8
LEVEL001
 100
AcDbLine
   6
CONTINUOUS
  62
7
  10
 182.23645175679
  20
 200.52353270814
  30
0.0
  11
 182.26631875679
  21
 200.47682570814
  31
0.0
   0
LINE
   5
26A
 100
AcDbEntity
   8
LEVEL001
 100
AcDbLine
   6
CONTINUOUS
  62
7
  10
 182.26631875679
  20
 200.47682570814
  30
0.0
  11
 182.30147975679
  21
 200.43066070814
  31
0.0
   0
LINE
   5
26B
 100
AcDbEntity
   8
LEVEL001
 100
AcDbLine
   6
CONTINUOUS
  62
7
  10
 182.30147975679
  20
 200.43066070814
  30
0.0
  11
 182.34186975679
  21
 200.38512770814
  31
0.0
   0
LINE
   5
26C
 100
AcDbEntity
   8
LEVEL001
 100
AcDbLine
   6
CONTINUOUS
  62
7
  10
 182.34186975679
  20
 200.38512770814
  30
0.0
  11
 182.38741175679
  21
 200.34031070814
  31
0.0
   0
LINE
   5
26D
 100
AcDbEntity
   8
LEVEL001
 100
AcDbLine
   6
CONTINUOUS
  62
7
  10
 182.38741175679
  20
 200.34031070814
  30
0.0
  11
 182.43801875679
  21
 200.29629770814
  31
0.0
   0
LINE
   5
26E
 100
AcDbEntity
   8
LEVEL001
 100
AcDbLine
   6
CONTINUOUS
  62
7
  10
 182.43801875679
  20
 200.29629770814
  30
0.0
  11
 182.49359375679
  21
 200.25317070814
  31
0.0
   0
LINE
   5
26F
 100
AcDbEntity
   8
LEVEL001
 100
AcDbLine
   6
CONTINUOUS
  62
7
  10
 182.49359375679
  20
 200.25317070814
  30
0.0
  11
 182.55403175679
  21
 200.21101270814
  31
0.0
   0
LINE
   5
270
 100
AcDbEntity
   8
LEVEL001
 100
AcDbLine
   6
CONTINUOUS
  62
7
  10
 182.55403175679
  20
 200.21101270814
  30
0.0
  11
 182.61921775679
  21
 200.16990470814
  31
0.0
   0
LINE
   5
271
 100
AcDbEntity
   8
LEVEL001
 100
AcDbLine
   6
CONTINUOUS
  62
7
  10
 182.61921775679
  20
 200.16990470814
  30
0.0
  11
 182.68902675679
  21
 200.12992270814
  31
0.0
   0
LINE
   5
272
 100
AcDbEntity
   8
LEVEL001
 100
AcDbLine
   6
CONTINUOUS
  62
7
  10
 182.68902675679
  20
 200.12992270814
  30
0.0
  11
 182.76332675679
  21
 200.09114370814
  31
0.0
   0
LINE
   5
273
 100
AcDbEntity
   8
LEVEL001
 100
AcDbLine
   6
CONTINUOUS
  62
7
  10
 182.76332675679
  20
 200.09114370814
  30
0.0
  11
 182.84197675679
  21
 200.05364270814
  31
0.0
   0
LINE
   5
274
 100
AcDbEntity
   8
LEVEL001
 100
AcDbLine
   6
CONTINUOUS
  62
7
  10
 182.84197675679
  20
 200.05364270814
  30
0.0
  11
 182.92482575679
  21
 200.01749070814
  31
0.0
   0
LINE
   5
275
 100
AcDbEntity
   8
LEVEL001
 100
AcDbLine
   6
CONTINUOUS
  62
7
  10
 182.92482575679
  20
 200.01749070814
  30
0.0
  11
 183.01171675679
  21
 199.98275470814
  31
0.0
   0
LINE
   5
276
 100
AcDbEntity
   8
LEVEL001
 100
AcDbLine
   6
CONTINUOUS
  62
7
  10
 183.01171675679
  20
 199.98275470814
  30
0.0
  11
 183.10248475679
  21
 199.94950270814
  31
0.0
   0
LINE
   5
277
 100
AcDbEntity
   8
LEVEL001
 100
AcDbLine
   6
CONTINUOUS
  62
7
  10
 183.10248475679
  20
 199.94950270814
  30
0.0
  11
 183.19695675679
  21
 199.91779770814
  31
0.0
   0
LINE
   5
278
 100
AcDbEntity
   8
LEVEL001
 100
AcDbLine
   6
CONTINUOUS
  62
7
  10
 183.19695675679
  20
 199.91779770814
  30
0.0
  11
 183.29495175679
  21
 199.88769970814
  31
0.0
   0
LINE
   5
279
 100
AcDbEntity
   8
LEVEL001
 100
AcDbLine
   6
CONTINUOUS
  62
7
  10
 183.29495175679
  20
 199.88769970814
  30
0.0
  11
 183.39628475679
  21
 199.85926670814
  31
0.0
   0
LINE
   5
27A
 100
AcDbEntity
   8
LEVEL001
 100
AcDbLine
   6
CONTINUOUS
  62
7
  10
 183.39628475679
  20
 199.85926670814
  30
0.0
  11
 183.50076175679
  21
 199.83255170814
  31
0.0
   0
LINE
   5
27B
 100
AcDbEntity
   8
LEVEL001
 100
AcDbLine
   6
CONTINUOUS
  62
7
  10
 183.50076175679
  20
 199.83255170814
  30
0.0
  11
 183.60818475679
  21
 199.80760670814
  31
0.0
   0
LINE
   5
27C
 100
AcDbEntity
   8
LEVEL001
 100
AcDbLine
   6
CONTINUOUS
  62
7
  10
 183.60818475679
  20
 199.80760670814
  30
0.0
  11
 183.71834875679
  21
 199.78447770814
  31
0.0
   0
LINE
   5
27D
 100
AcDbEntity
   8
LEVEL001
 100
AcDbLine
   6
CONTINUOUS
  62
7
  10
 183.71834875679
  20
 199.78447770814
  30
0.0
  11
 183.83104375679
  21
 199.76320970814
  31
0.0
   0
LINE
   5
27E
 100
AcDbEntity
   8
LEVEL001
 100
AcDbLine
   6
CONTINUOUS
  62
7
  10
 183.83104375679
  20
 199.76320970814
  30
0.0
  11
 183.94605675679
  21
 199.74384370814
  31
0.0
   0
LINE
   5
27F
 100
AcDbEntity
   8
LEVEL001
 100
AcDbLine
   6
CONTINUOUS
  62
7
  10
 183.94605675679
  20
 199.74384370814
  30
0.0
  11
 184.06316675679
  21
 199.72641570814
  31
0.0
   0
LINE
   5
280
 100
AcDbEntity
   8
LEVEL001
 100
AcDbLine
   6
CONTINUOUS
  62
7
  10
 184.06316675679
  20
 199.72641570814
  30
0.0
  11
 184.18215175679
  21
 199.71095870814
  31
0.0
   0
LINE
   5
281
 100
AcDbEntity
   8
LEVEL001
 100
AcDbLine
   6
CONTINUOUS
  62
7
  10
 184.18215175679
  20
 199.71095870814
  30
0.0
  11
 184.30278575679
  21
 199.69750270814
  31
0.0
   0
LINE
   5
282
 100
AcDbEntity
   8
LEVEL001
 100
AcDbLine
   6
CONTINUOUS
  62
7
  10
 184.30278575679
  20
 199.69750270814
  30
0.0
  11
 184.42483875679
  21
 199.68607370814
  31
0.0
   0
LINE
   5
283
 100
AcDbEntity
   8
LEVEL001
 100
AcDbLine
   6
CONTINUOUS
  62
7
  10
 184.42483875679
  20
 199.68607370814
  30
0.0
  11
 184.54807775679
  21
 199.67669270814
  31
0.0
   0
LINE
   5
284
 100
AcDbEntity
   8
LEVEL001
 100
AcDbLine
   6
CONTINUOUS
  62
7
  10
 184.54807775679
  20
 199.67669270814
  30
0.0
  11
 184.67226975679
  21
 199.66937770814
  31
0.0
   0
LINE
   5
285
 100
AcDbEntity
   8
LEVEL001
 100
AcDbLine
   6
CONTINUOUS
  62
7
  10
 184.67226975679
  20
 199.66937770814
  30
0.0
  11
 184.79717575679
  21
 199.66414270814
  31
0.0
   0
LINE
   5
286
 100
AcDbEntity
   8
LEVEL001
 100
AcDbLine
   6
CONTINUOUS
  62
7
  10
 184.79717575679
  20
 199.66414270814
  30
0.0
  11
 184.92256075679
  21
 199.66099770814
  31
0.0
   0
LINE
   5
287
 100
AcDbEntity
   8
LEVEL001
 100
AcDbLine
   6
CONTINUOUS
  62
7
  10
 184.92256075679
  20
 199.66099770814
  30
0.0
  11
 185.04818475679
  21
 199.65994870814
  31
0.0
   0
LINE
   5
288
 100
AcDbEntity
   8
LEVEL001
 100
AcDbLine
   6
CONTINUOUS
  62
7
  10
 185.04818475679
  20
 199.65994870814
  30
0.0
  11
 185.17380875679
  21
 199.66099770814
  31
0.0
   0
LINE
   5
289
 100
AcDbEntity
   8
LEVEL001
 100
AcDbLine
   6
CONTINUOUS
  62
7
  10
 185.17380875679
  20
 199.66099770814
  30
0.0
  11
 185.29919375679
  21
 199.66414270814
  31
0.0
   0
LINE
   5
28A
 100
AcDbEntity
   8
LEVEL001
 100
AcDbLine
   6
CONTINUOUS
  62
7
  10
 185.29919375679
  20
 199.66414270814
  30
0.0
  11
 185.42409975679
  21
 199.66937770814
  31
0.0
   0
LINE
   5
28B
 100
AcDbEntity
   8
LEVEL001
 100
AcDbLine
   6
CONTINUOUS
  62
7
  10
 185.42409975679
  20
 199.66937770814
  30
0.0
  11
 185.54829175679
  21
 199.67669270814
  31
0.0
   0
LINE
   5
28C
 100
AcDbEntity
   8
LEVEL001
 100
AcDbLine
   6
CONTINUOUS
  62
7
  10
 185.54829175679
  20
 199.67669270814
  30
0.0
  11
 185.67153075679
  21
 199.68607370814
  31
0.0
   0
LINE
   5
28D
 100
AcDbEntity
   8
LEVEL001
 100
AcDbLine
   6
CONTINUOUS
  62
7
  10
 185.67153075679
  20
 199.68607370814
  30
0.0
  11
 185.79358375679
  21
 199.69750270814
  31
0.0
   0
LINE
   5
28E
 100
AcDbEntity
   8
LEVEL001
 100
AcDbLine
   6
CONTINUOUS
  62
7
  10
 185.79358375679
  20
 199.69750270814
  30
0.0
  11
 185.91421775679
  21
 199.71095870814
  31
0.0
   0
LINE
   5
28F
 100
AcDbEntity
   8
LEVEL001
 100
AcDbLine
   6
CONTINUOUS
  62
7
  10
 185.91421775679
  20
 199.71095870814
  30
0.0
  11
 186.03320275679
  21
 199.72641570814
  31
0.0
   0
LINE
   5
290
 100
AcDbEntity
   8
LEVEL001
 100
AcDbLine
   6
CONTINUOUS
  62
7
  10
 186.03320275679
  20
 199.72641570814
  30
0.0
  11
 186.15031275679
  21
 199.74384370814
  31
0.0
   0
LINE
   5
291
 100
AcDbEntity
   8
LEVEL001
 100
AcDbLine
   6
CONTINUOUS
  62
7
  10
 186.15031275679
  20
 199.74384370814
  30
0.0
  11
 186.26532575679
  21
 199.76320970814
  31
0.0
   0
LINE
   5
292
 100
AcDbEntity
   8
LEVEL001
 100
AcDbLine
   6
CONTINUOUS
  62
7
  10
 186.26532575679
  20
 199.76320970814
  30
0.0
  11
 186.37802075679
  21
 199.78447770814
  31
0.0
   0
LINE
   5
293
 100
AcDbEntity
   8
LEVEL001
 100
AcDbLine
   6
CONTINUOUS
  62
7
  10
 186.37802075679
  20
 199.78447770814
  30
0.0
  11
 186.48818475679
  21
 199.80760670814
  31
0.0
   0
LINE
   5
294
 100
AcDbEntity
   8
LEVEL001
 100
AcDbLine
   6
CONTINUOUS
  62
7
  10
 186.48818475679
  20
 199.80760670814
  30
0.0
  11
 186.59560775679
  21
 199.83255170814
  31
0.0
   0
LINE
   5
295
 100
AcDbEntity
   8
LEVEL001
 100
AcDbLine
   6
CONTINUOUS
  62
7
  10
 186.59560775679
  20
 199.83255170814
  30
0.0
  11
 186.70008475679
  21
 199.85926670814
  31
0.0
   0
LINE
   5
296
 100
AcDbEntity
   8
LEVEL001
 100
AcDbLine
   6
CONTINUOUS
  62
7
  10
 186.70008475679
  20
 199.85926670814
  30
0.0
  11
 186.80141775679
  21
 199.88769970814
  31
0.0
   0
LINE
   5
297
 100
AcDbEntity
   8
LEVEL001
 100
AcDbLine
   6
CONTINUOUS
  62
7
  10
 186.80141775679
  20
 199.88769970814
  30
0.0
  11
 186.89941275679
  21
 199.91779770814
  31
0.0
   0
LINE
   5
298
 100
AcDbEntity
   8
LEVEL001
 100
AcDbLine
   6
CONTINUOUS
  62
7
  10
 186.89941275679
  20
 199.91779770814
  30
0.0
  11
 186.99388475679
  21
 199.94950270814
  31
0.0
   0
LINE
   5
299
 100
AcDbEntity
   8
LEVEL001
 100
AcDbLine
   6
CONTINUOUS
  62
7
  10
 186.99388475679
  20
 199.94950270814
  30
0.0
  11
 187.08465275679
  21
 199.98275470814
  31
0.0
   0
LINE
   5
29A
 100
AcDbEntity
   8
LEVEL001
 100
AcDbLine
   6
CONTINUOUS
  62
7
  10
 187.08465275679
  20
 199.98275470814
  30
0.0
  11
 187.17154375679
  21
 200.01749070814
  31
0.0
   0
LINE
   5
29B
 100
AcDbEntity
   8
LEVEL001
 100
AcDbLine
   6
CONTINUOUS
  62
7
  10
 187.17154375679
  20
 200.01749070814
  30
0.0
  11
 187.25439275679
  21
 200.05364270814
  31
0.0
   0
LINE
   5
29C
 100
AcDbEntity
   8
LEVEL001
 100
AcDbLine
   6
CONTINUOUS
  62
7
  10
 187.25439275679
  20
 200.05364270814
  30
0.0
  11
 187.33304275679
  21
 200.09114370814
  31
0.0
   0
LINE
   5
29D
 100
AcDbEntity
   8
LEVEL001
 100
AcDbLine
   6
CONTINUOUS
  62
7
  10
 187.33304275679
  20
 200.09114370814
  30
0.0
  11
 187.40734275679
  21
 200.12992270814
  31
0.0
   0
LINE
   5
29E
 100
AcDbEntity
   8
LEVEL001
 100
AcDbLine
   6
CONTINUOUS
  62
7
  10
 187.40734275679
  20
 200.12992270814
  30
0.0
  11
 187.47715175679
  21
 200.16990470814
  31
0.0
   0
LINE
   5
29F
 100
AcDbEntity
   8
LEVEL001
 100
AcDbLine
   6
CONTINUOUS
  62
7
  10
 187.47715175679
  20
 200.16990470814
  30
0.0
  11
 187.54233775679
  21
 200.21101270814
  31
0.0
   0
LINE
   5
2A0
 100
AcDbEntity
   8
LEVEL001
 100
AcDbLine
   6
CONTINUOUS
  62
7
  10
 187.54233775679
  20
 200.21101270814
  30
0.0
  11
 187.60277575679
  21
 200.25317070814
  31
0.0
   0
LINE
   5
2A1
 100
AcDbEntity
   8
LEVEL001
 100
AcDbLine
   6
CONTINUOUS
  62
7
  10
 187.60277575679
  20
 200.25317070814
  30
0.0
  11
 187.65835075679
  21
 200.29629770814
  31
0.0
   0
LINE
   5
2A2
 100
AcDbEntity
   8
LEVEL001
 100
AcDbLine
   6
CONTINUOUS
  62
7
  10
 187.65835075679
  20
 200.29629770814
  30
0.0
  11
 187.70895775679
  21
 200.34031070814
  31
0.0
   0
LINE
   5
2A3
 100
AcDbEntity
   8
LEVEL001
 100
AcDbLine
   6
CONTINUOUS
  62
7
  10
 187.70895775679
  20
 200.34031070814
  30
0.0
  11
 187.75449975679
  21
 200.38512770814
  31
0.0
   0
LINE
   5
2A4
 100
AcDbEntity
   8
LEVEL001
 100
AcDbLine
   6
CONTINUOUS
  62
7
  10
 187.75449975679
  20
 200.38512770814
  30
0.0
  11
 187.79488975679
  21
 200.43066070814
  31
0.0
   0
LINE
   5
2A5
 100
AcDbEntity
   8
LEVEL001
 100
AcDbLine
   6
CONTINUOUS
  62
7
  10
 187.79488975679
  20
 200.43066070814
  30
0.0
  11
 187.83005075679
  21
 200.47682570814
  31
0.0
   0
LINE
   5
2A6
 100
AcDbEntity
   8
LEVEL001
 100
AcDbLine
   6
CONTINUOUS
  62
7
  10
 187.83005075679
  20
 200.47682570814
  30
0.0
  11
 187.85991775679
  21
 200.52353270814
  31
0.0
   0
LINE
   5
2A7
 100
AcDbEntity
   8
LEVEL001
 100
AcDbLine
   6
CONTINUOUS
  62
7
  10
 187.85991775679
  20
 200.52353270814
  30
0.0
  11
 187.88443075679
  21
 200.57069470814
  31
0.0
   0
LINE
   5
2A8
 100
AcDbEntity
   8
LEVEL001
 100
AcDbLine
   6
CONTINUOUS
  62
7
  10
 187.88443075679
  20
 200.57069470814
  30
0.0
  11
 187.90354575679
  21
 200.61822070814
  31
0.0
   0
LINE
   5
2A9
 100
AcDbEntity
   8
LEVEL001
 100
AcDbLine
   6
CONTINUOUS
  62
7
  10
 187.90354575679
  20
 200.61822070814
  30
0.0
  11
 187.91722575679
  21
 200.66602070814
  31
0.0
   0
LINE
   5
2AA
 100
AcDbEntity
   8
LEVEL001
 100
AcDbLine
   6
CONTINUOUS
  62
7
  10
 187.91722575679
  20
 200.66602070814
  30
0.0
  11
 187.92544375679
  21
 200.71400270814
  31
0.0
   0
LINE
   5
2AB
 100
AcDbEntity
   8
LEVEL001
 100
AcDbLine
   6
CONTINUOUS
  62
7
  10
 187.92544375679
  20
 200.71400270814
  30
0.0
  11
 187.92818475679
  21
 200.76207770814
  31
0.0
   0
LINE
   5
2AC
 100
AcDbEntity
   8
LEVEL001
 100
AcDbLine
   6
CONTINUOUS
  62
7
  10
 188.34504375679
  20
 202.35682470814
  30
0.0
  11
 187.43905175679
  21
 204.98586870814
  31
0.0
   0
LINE
   5
2AD
 100
AcDbEntity
   8
LEVEL001
 100
AcDbLine
   6
CONTINUOUS
  62
7
  10
 181.74818475679
  20
 202.41190970814
  30
0.0
  11
 182.65046875679
  21
 204.94588370814
  31
0.0
   0
LINE
   5
2AE
 100
AcDbEntity
   8
LEVEL001
 100
AcDbLine
   6
CONTINUOUS
  62
7
  10
 181.74818475679
  20
 202.41190970814
  30
0.0
  11
 181.75132575679
  21
 202.35682470814
  31
0.0
   0
LINE
   5
2AF
 100
AcDbEntity
   8
LEVEL001
 100
AcDbLine
   6
CONTINUOUS
  62
7
  10
 181.75132575679
  20
 202.35682470814
  30
0.0
  11
 181.76074175679
  21
 202.30184470814
  31
0.0
   0
LINE
   5
2B0
 100
AcDbEntity
   8
LEVEL001
 100
AcDbLine
   6
CONTINUOUS
  62
7
  10
 181.76074175679
  20
 202.30184470814
  30
0.0
  11
 181.77641675679
  21
 202.24707370814
  31
0.0
   0
LINE
   5
2B1
 100
AcDbEntity
   8
LEVEL001
 100
AcDbLine
   6
CONTINUOUS
  62
7
  10
 181.77641675679
  20
 202.24707370814
  30
0.0
  11
 181.79831875679
  21
 202.19261670814
  31
0.0
   0
LINE
   5
2B2
 100
AcDbEntity
   8
LEVEL001
 100
AcDbLine
   6
CONTINUOUS
  62
7
  10
 181.79831875679
  20
 202.19261670814
  30
0.0
  11
 181.82640775679
  21
 202.13857770814
  31
0.0
   0
LINE
   5
2B3
 100
AcDbEntity
   8
LEVEL001
 100
AcDbLine
   6
CONTINUOUS
  62
7
  10
 181.82640775679
  20
 202.13857770814
  30
0.0
  11
 181.86062975679
  21
 202.08505870814
  31
0.0
   0
LINE
   5
2B4
 100
AcDbEntity
   8
LEVEL001
 100
AcDbLine
   6
CONTINUOUS
  62
7
  10
 181.86062975679
  20
 202.08505870814
  30
0.0
  11
 181.90091875679
  21
 202.03216170814
  31
0.0
   0
LINE
   5
2B5
 100
AcDbEntity
   8
LEVEL001
 100
AcDbLine
   6
CONTINUOUS
  62
7
  10
 181.90091875679
  20
 202.03216170814
  30
0.0
  11
 181.94719875679
  21
 201.97998770814
  31
0.0
   0
LINE
   5
2B6
 100
AcDbEntity
   8
LEVEL001
 100
AcDbLine
   6
CONTINUOUS
  62
7
  10
 181.94719875679
  20
 201.97998770814
  30
0.0
  11
 181.99938275679
  21
 201.92863570814
  31
0.0
   0
LINE
   5
2B7
 100
AcDbEntity
   8
LEVEL001
 100
AcDbLine
   6
CONTINUOUS
  62
7
  10
 181.99938275679
  20
 201.92863570814
  30
0.0
  11
 182.05736875679
  21
 201.87820370814
  31
0.0
   0
LINE
   5
2B8
 100
AcDbEntity
   8
LEVEL001
 100
AcDbLine
   6
CONTINUOUS
  62
7
  10
 182.05736875679
  20
 201.87820370814
  30
0.0
  11
 182.12104875679
  21
 201.82878770814
  31
0.0
   0
LINE
   5
2B9
 100
AcDbEntity
   8
LEVEL001
 100
AcDbLine
   6
CONTINUOUS
  62
7
  10
 182.12104875679
  20
 201.82878770814
  30
0.0
  11
 182.19030075679
  21
 201.78048170814
  31
0.0
   0
LINE
   5
2BA
 100
AcDbEntity
   8
LEVEL001
 100
AcDbLine
   6
CONTINUOUS
  62
7
  10
 182.19030075679
  20
 201.78048170814
  30
0.0
  11
 182.26499275679
  21
 201.73337770814
  31
0.0
   0
LINE
   5
2BB
 100
AcDbEntity
   8
LEVEL001
 100
AcDbLine
   6
CONTINUOUS
  62
7
  10
 182.26499275679
  20
 201.73337770814
  30
0.0
  11
 182.34498275679
  21
 201.68756570814
  31
0.0
   0
LINE
   5
2BC
 100
AcDbEntity
   8
LEVEL001
 100
AcDbLine
   6
CONTINUOUS
  62
7
  10
 182.34498275679
  20
 201.68756570814
  30
0.0
  11
 182.43011875679
  21
 201.64313170814
  31
0.0
   0
LINE
   5
2BD
 100
AcDbEntity
   8
LEVEL001
 100
AcDbLine
   6
CONTINUOUS
  62
7
  10
 182.43011875679
  20
 201.64313170814
  30
0.0
  11
 182.52023775679
  21
 201.60016170814
  31
0.0
   0
LINE
   5
2BE
 100
AcDbEntity
   8
LEVEL001
 100
AcDbLine
   6
CONTINUOUS
  62
7
  10
 182.52023775679
  20
 201.60016170814
  30
0.0
  11
 182.61516975679
  21
 201.55873670814
  31
0.0
   0
LINE
   5
2BF
 100
AcDbEntity
   8
LEVEL001
 100
AcDbLine
   6
CONTINUOUS
  62
7
  10
 182.61516975679
  20
 201.55873670814
  30
0.0
  11
 182.71473275679
  21
 201.51893570814
  31
0.0
   0
LINE
   5
2C0
 100
AcDbEntity
   8
LEVEL001
 100
AcDbLine
   6
CONTINUOUS
  62
7
  10
 182.71473275679
  20
 201.51893570814
  30
0.0
  11
 182.81873675679
  21
 201.48083470814
  31
0.0
   0
LINE
   5
2C1
 100
AcDbEntity
   8
LEVEL001
 100
AcDbLine
   6
CONTINUOUS
  62
7
  10
 182.81873675679
  20
 201.48083470814
  30
0.0
  11
 182.92698575679
  21
 201.44450670814
  31
0.0
   0
LINE
   5
2C2
 100
AcDbEntity
   8
LEVEL001
 100
AcDbLine
   6
CONTINUOUS
  62
7
  10
 182.92698575679
  20
 201.44450670814
  30
0.0
  11
 183.03927175679
  21
 201.41001870814
  31
0.0
   0
LINE
   5
2C3
 100
AcDbEntity
   8
LEVEL001
 100
AcDbLine
   6
CONTINUOUS
  62
7
  10
 183.03927175679
  20
 201.41001870814
  30
0.0
  11
 183.15538275679
  21
 201.37743870814
  31
0.0
   0
LINE
   5
2C4
 100
AcDbEntity
   8
LEVEL001
 100
AcDbLine
   6
CONTINUOUS
  62
7
  10
 183.15538275679
  20
 201.37743870814
  30
0.0
  11
 183.27509575679
  21
 201.34682770814
  31
0.0
   0
LINE
   5
2C5
 100
AcDbEntity
   8
LEVEL001
 100
AcDbLine
   6
CONTINUOUS
  62
7
  10
 183.27509575679
  20
 201.34682770814
  30
0.0
  11
 183.39818475679
  21
 201.31824470814
  31
0.0
   0
LINE
   5
2C6
 100
AcDbEntity
   8
LEVEL001
 100
AcDbLine
   6
CONTINUOUS
  62
7
  10
 183.39818475679
  20
 201.31824470814
  30
0.0
  11
 183.52441475679
  21
 201.29174270814
  31
0.0
   0
LINE
   5
2C7
 100
AcDbEntity
   8
LEVEL001
 100
AcDbLine
   6
CONTINUOUS
  62
7
  10
 183.52441475679
  20
 201.29174270814
  30
0.0
  11
 183.65354475679
  21
 201.26737370814
  31
0.0
   0
LINE
   5
2C8
 100
AcDbEntity
   8
LEVEL001
 100
AcDbLine
   6
CONTINUOUS
  62
7
  10
 183.65354475679
  20
 201.26737370814
  30
0.0
  11
 183.78532975679
  21
 201.24518370814
  31
0.0
   0
LINE
   5
2C9
 100
AcDbEntity
   8
LEVEL001
 100
AcDbLine
   6
CONTINUOUS
  62
7
  10
 183.78532975679
  20
 201.24518370814
  30
0.0
  11
 183.91951875679
  21
 201.22521370814
  31
0.0
   0
LINE
   5
2CA
 100
AcDbEntity
   8
LEVEL001
 100
AcDbLine
   6
CONTINUOUS
  62
7
  10
 183.91951875679
  20
 201.22521370814
  30
0.0
  11
 184.05585575679
  21
 201.20750270814
  31
0.0
   0
LINE
   5
2CB
 100
AcDbEntity
   8
LEVEL001
 100
AcDbLine
   6
CONTINUOUS
  62
7
  10
 184.05585575679
  20
 201.20750270814
  30
0.0
  11
 184.19408175679
  21
 201.19208470814
  31
0.0
   0
LINE
   5
2CC
 100
AcDbEntity
   8
LEVEL001
 100
AcDbLine
   6
CONTINUOUS
  62
7
  10
 184.19408175679
  20
 201.19208470814
  30
0.0
  11
 184.33393375679
  21
 201.17898870814
  31
0.0
   0
LINE
   5
2CD
 100
AcDbEntity
   8
LEVEL001
 100
AcDbLine
   6
CONTINUOUS
  62
7
  10
 184.33393375679
  20
 201.17898870814
  30
0.0
  11
 184.47514575679
  21
 201.16823970814
  31
0.0
   0
LINE
   5
2CE
 100
AcDbEntity
   8
LEVEL001
 100
AcDbLine
   6
CONTINUOUS
  62
7
  10
 184.47514575679
  20
 201.16823970814
  30
0.0
  11
 184.61744875679
  21
 201.15985770814
  31
0.0
   0
LINE
   5
2CF
 100
AcDbEntity
   8
LEVEL001
 100
AcDbLine
   6
CONTINUOUS
  62
7
  10
 184.61744875679
  20
 201.15985770814
  30
0.0
  11
 184.76057075679
  21
 201.15385970814
  31
0.0
   0
LINE
   5
2D0
 100
AcDbEntity
   8
LEVEL001
 100
AcDbLine
   6
CONTINUOUS
  62
7
  10
 184.76057075679
  20
 201.15385970814
  30
0.0
  11
 184.90424075679
  21
 201.15025570814
  31
0.0
   0
LINE
   5
2D1
 100
AcDbEntity
   8
LEVEL001
 100
AcDbLine
   6
CONTINUOUS
  62
7
  10
 184.90424075679
  20
 201.15025570814
  30
0.0
  11
 185.04818475679
  21
 201.14905370814
  31
0.0
   0
LINE
   5
2D2
 100
AcDbEntity
   8
LEVEL001
 100
AcDbLine
   6
CONTINUOUS
  62
7
  10
 185.04818475679
  20
 201.14905370814
  30
0.0
  11
 185.19212875679
  21
 201.15025570814
  31
0.0
   0
LINE
   5
2D3
 100
AcDbEntity
   8
LEVEL001
 100
AcDbLine
   6
CONTINUOUS
  62
7
  10
 185.19212875679
  20
 201.15025570814
  30
0.0
  11
 185.33579875679
  21
 201.15385970814
  31
0.0
   0
LINE
   5
2D4
 100
AcDbEntity
   8
LEVEL001
 100
AcDbLine
   6
CONTINUOUS
  62
7
  10
 185.33579875679
  20
 201.15385970814
  30
0.0
  11
 185.47892075679
  21
 201.15985770814
  31
0.0
   0
LINE
   5
2D5
 100
AcDbEntity
   8
LEVEL001
 100
AcDbLine
   6
CONTINUOUS
  62
7
  10
 185.47892075679
  20
 201.15985770814
  30
0.0
  11
 185.62122375679
  21
 201.16823970814
  31
0.0
   0
LINE
   5
2D6
 100
AcDbEntity
   8
LEVEL001
 100
AcDbLine
   6
CONTINUOUS
  62
7
  10
 185.62122375679
  20
 201.16823970814
  30
0.0
  11
 185.76243575679
  21
 201.17898870814
  31
0.0
   0
LINE
   5
2D7
 100
AcDbEntity
   8
LEVEL001
 100
AcDbLine
   6
CONTINUOUS
  62
7
  10
 185.76243575679
  20
 201.17898870814
  30
0.0
  11
 185.90228775679
  21
 201.19208470814
  31
0.0
   0
LINE
   5
2D8
 100
AcDbEntity
   8
LEVEL001
 100
AcDbLine
   6
CONTINUOUS
  62
7
  10
 185.90228775679
  20
 201.19208470814
  30
0.0
  11
 186.04051375679
  21
 201.20750270814
  31
0.0
   0
LINE
   5
2D9
 100
AcDbEntity
   8
LEVEL001
 100
AcDbLine
   6
CONTINUOUS
  62
7
  10
 186.04051375679
  20
 201.20750270814
  30
0.0
  11
 186.17685075679
  21
 201.22521370814
  31
0.0
   0
LINE
   5
2DA
 100
AcDbEntity
   8
LEVEL001
 100
AcDbLine
   6
CONTINUOUS
  62
7
  10
 186.17685075679
  20
 201.22521370814
  30
0.0
  11
 186.31103975679
  21
 201.24518370814
  31
0.0
   0
LINE
   5
2DB
 100
AcDbEntity
   8
LEVEL001
 100
AcDbLine
   6
CONTINUOUS
  62
7
  10
 186.31103975679
  20
 201.24518370814
  30
0.0
  11
 186.44282475679
  21
 201.26737370814
  31
0.0
   0
LINE
   5
2DC
 100
AcDbEntity
   8
LEVEL001
 100
AcDbLine
   6
CONTINUOUS
  62
7
  10
 186.44282475679
  20
 201.26737370814
  30
0.0
  11
 186.57195475679
  21
 201.29174270814
  31
0.0
   0
LINE
   5
2DD
 100
AcDbEntity
   8
LEVEL001
 100
AcDbLine
   6
CONTINUOUS
  62
7
  10
 186.57195475679
  20
 201.29174270814
  30
0.0
  11
 186.69818475679
  21
 201.31824470814
  31
0.0
   0
LINE
   5
2DE
 100
AcDbEntity
   8
LEVEL001
 100
AcDbLine
   6
CONTINUOUS
  62
7
  10
 186.69818475679
  20
 201.31824470814
  30
0.0
  11
 186.82127375679
  21
 201.34682770814
  31
0.0
   0
LINE
   5
2DF
 100
AcDbEntity
   8
LEVEL001
 100
AcDbLine
   6
CONTINUOUS
  62
7
  10
 186.82127375679
  20
 201.34682770814
  30
0.0
  11
 186.94098675679
  21
 201.37743870814
  31
0.0
   0
LINE
   5
2E0
 100
AcDbEntity
   8
LEVEL001
 100
AcDbLine
   6
CONTINUOUS
  62
7
  10
 186.94098675679
  20
 201.37743870814
  30
0.0
  11
 187.05709775679
  21
 201.41001870814
  31
0.0
   0
LINE
   5
2E1
 100
AcDbEntity
   8
LEVEL001
 100
AcDbLine
   6
CONTINUOUS
  62
7
  10
 187.05709775679
  20
 201.41001870814
  30
0.0
  11
 187.16938375679
  21
 201.44450670814
  31
0.0
   0
LINE
   5
2E2
 100
AcDbEntity
   8
LEVEL001
 100
AcDbLine
   6
CONTINUOUS
  62
7
  10
 187.16938375679
  20
 201.44450670814
  30
0.0
  11
 187.27763275679
  21
 201.48083470814
  31
0.0
   0
LINE
   5
2E3
 100
AcDbEntity
   8
LEVEL001
 100
AcDbLine
   6
CONTINUOUS
  62
7
  10
 187.27763275679
  20
 201.48083470814
  30
0.0
  11
 187.38163675679
  21
 201.51893570814
  31
0.0
   0
LINE
   5
2E4
 100
AcDbEntity
   8
LEVEL001
 100
AcDbLine
   6
CONTINUOUS
  62
7
  10
 187.38163675679
  20
 201.51893570814
  30
0.0
  11
 187.48119975679
  21
 201.55873670814
  31
0.0
   0
LINE
   5
2E5
 100
AcDbEntity
   8
LEVEL001
 100
AcDbLine
   6
CONTINUOUS
  62
7
  10
 187.48119975679
  20
 201.55873670814
  30
0.0
  11
 187.57613175679
  21
 201.60016170814
  31
0.0
   0
LINE
   5
2E6
 100
AcDbEntity
   8
LEVEL001
 100
AcDbLine
   6
CONTINUOUS
  62
7
  10
 187.57613175679
  20
 201.60016170814
  30
0.0
  11
 187.66625075679
  21
 201.64313170814
  31
0.0
   0
LINE
   5
2E7
 100
AcDbEntity
   8
LEVEL001
 100
AcDbLine
   6
CONTINUOUS
  62
7
  10
 187.66625075679
  20
 201.64313170814
  30
0.0
  11
 187.75138675679
  21
 201.68756570814
  31
0.0
   0
LINE
   5
2E8
 100
AcDbEntity
   8
LEVEL001
 100
AcDbLine
   6
CONTINUOUS
  62
7
  10
 187.75138675679
  20
 201.68756570814
  30
0.0
  11
 187.83137675679
  21
 201.73337770814
  31
0.0
   0
LINE
   5
2E9
 100
AcDbEntity
   8
LEVEL001
 100
AcDbLine
   6
CONTINUOUS
  62
7
  10
 187.83137675679
  20
 201.73337770814
  30
0.0
  11
 187.90606875679
  21
 201.78048170814
  31
0.0
   0
LINE
   5
2EA
 100
AcDbEntity
   8
LEVEL001
 100
AcDbLine
   6
CONTINUOUS
  62
7
  10
 187.90606875679
  20
 201.78048170814
  30
0.0
  11
 187.97532075679
  21
 201.82878770814
  31
0.0
   0
LINE
   5
2EB
 100
AcDbEntity
   8
LEVEL001
 100
AcDbLine
   6
CONTINUOUS
  62
7
  10
 187.97532075679
  20
 201.82878770814
  30
0.0
  11
 188.03900075679
  21
 201.87820370814
  31
0.0
   0
LINE
   5
2EC
 100
AcDbEntity
   8
LEVEL001
 100
AcDbLine
   6
CONTINUOUS
  62
7
  10
 188.03900075679
  20
 201.87820370814
  30
0.0
  11
 188.09698675679
  21
 201.92863570814
  31
0.0
   0
LINE
   5
2ED
 100
AcDbEntity
   8
LEVEL001
 100
AcDbLine
   6
CONTINUOUS
  62
7
  10
 188.09698675679
  20
 201.92863570814
  30
0.0
  11
 188.14917075679
  21
 201.97998770814
  31
0.0
   0
LINE
   5
2EE
 100
AcDbEntity
   8
LEVEL001
 100
AcDbLine
   6
CONTINUOUS
  62
7
  10
 188.14917075679
  20
 201.97998770814
  30
0.0
  11
 188.19545075679
  21
 202.03216170814
  31
0.0
   0
LINE
   5
2EF
 100
AcDbEntity
   8
LEVEL001
 100
AcDbLine
   6
CONTINUOUS
  62
7
  10
 188.19545075679
  20
 202.03216170814
  30
0.0
  11
 188.23573975679
  21
 202.08505870814
  31
0.0
   0
LINE
   5
2F0
 100
AcDbEntity
   8
LEVEL001
 100
AcDbLine
   6
CONTINUOUS
  62
7
  10
 188.23573975679
  20
 202.08505870814
  30
0.0
  11
 188.26996175679
  21
 202.13857770814
  31
0.0
   0
LINE
   5
2F1
 100
AcDbEntity
   8
LEVEL001
 100
AcDbLine
   6
CONTINUOUS
  62
7
  10
 188.26996175679
  20
 202.13857770814
  30
0.0
  11
 188.29805075679
  21
 202.19261670814
  31
0.0
   0
LINE
   5
2F2
 100
AcDbEntity
   8
LEVEL001
 100
AcDbLine
   6
CONTINUOUS
  62
7
  10
 188.29805075679
  20
 202.19261670814
  30
0.0
  11
 188.31995275679
  21
 202.24707370814
  31
0.0
   0
LINE
   5
2F3
 100
AcDbEntity
   8
LEVEL001
 100
AcDbLine
   6
CONTINUOUS
  62
7
  10
 188.31995275679
  20
 202.24707370814
  30
0.0
  11
 188.33562775679
  21
 202.30184470814
  31
0.0
   0
LINE
   5
2F4
 100
AcDbEntity
   8
LEVEL001
 100
AcDbLine
   6
CONTINUOUS
  62
7
  10
 188.33562775679
  20
 202.30184470814
  30
0.0
  11
 188.34504375679
  21
 202.35682470814
  31
0.0
   0
LINE
   5
2F5
 100
AcDbEntity
   8
LEVEL001
 100
AcDbLine
   6
CONTINUOUS
  62
7
  10
 188.34504375679
  20
 202.35682470814
  30
0.0
  11
 188.34818475679
  21
 202.41190970814
  31
0.0
   0
ARC
   5
2F6
 100
AcDbEntity
   8
LEVEL001
   6
CONTINUOUS
  62
7
 100
AcDbCircle
  10
 185.04818475679
  20
 204.67782170814
  30
0.0
  40
 1.0000000000000
 100
AcDbArc
  50
 11.942556000082
  51
 167.15611699991
   0
LINE
   5
2F7
 100
AcDbEntity
   8
LEVEL001
 100
AcDbLine
   6
CONTINUOUS
  62
7
  10
 184.04818475679
  20
 204.90582170814
  30
0.0
  11
 184.04913675679
  21
 204.88912970814
  31
0.0
   0
LINE
   5
2F8
 100
AcDbEntity
   8
LEVEL001
 100
AcDbLine
   6
CONTINUOUS
  62
7
  10
 184.04913675679
  20
 204.88912970814
  30
0.0
  11
 184.05198975679
  21
 204.87246870814
  31
0.0
   0
LINE
   5
2F9
 100
AcDbEntity
   8
LEVEL001
 100
AcDbLine
   6
CONTINUOUS
  62
7
  10
 184.05198975679
  20
 204.87246870814
  30
0.0
  11
 184.05673975679
  21
 204.85587170814
  31
0.0
   0
LINE
   5
2FA
 100
AcDbEntity
   8
LEVEL001
 100
AcDbLine
   6
CONTINUOUS
  62
7
  10
 184.05673975679
  20
 204.85587170814
  30
0.0
  11
 184.06337675679
  21
 204.83936970814
  31
0.0
   0
LINE
   5
2FB
 100
AcDbEntity
   8
LEVEL001
 100
AcDbLine
   6
CONTINUOUS
  62
7
  10
 184.06337675679
  20
 204.83936970814
  30
0.0
  11
 184.07188875679
  21
 204.82299370814
  31
0.0
   0
LINE
   5
2FC
 100
AcDbEntity
   8
LEVEL001
 100
AcDbLine
   6
CONTINUOUS
  62
7
  10
 184.07188875679
  20
 204.82299370814
  30
0.0
  11
 184.08225875679
  21
 204.80677570814
  31
0.0
   0
LINE
   5
2FD
 100
AcDbEntity
   8
LEVEL001
 100
AcDbLine
   6
CONTINUOUS
  62
7
  10
 184.08225875679
  20
 204.80677570814
  30
0.0
  11
 184.09446775679
  21
 204.79074670814
  31
0.0
   0
LINE
   5
2FE
 100
AcDbEntity
   8
LEVEL001
 100
AcDbLine
   6
CONTINUOUS
  62
7
  10
 184.09446775679
  20
 204.79074670814
  30
0.0
  11
 184.10849175679
  21
 204.77493670814
  31
0.0
   0
LINE
   5
2FF
 100
AcDbEntity
   8
LEVEL001
 100
AcDbLine
   6
CONTINUOUS
  62
7
  10
 184.10849175679
  20
 204.77493670814
  30
0.0
  11
 184.12430475679
  21
 204.75937470814
  31
0.0
   0
LINE
   5
300
 100
AcDbEntity
   8
LEVEL001
 100
AcDbLine
   6
CONTINUOUS
  62
7
  10
 184.12430475679
  20
 204.75937470814
  30
0.0
  11
 184.14187675679
  21
 204.74409270814
  31
0.0
   0
LINE
   5
301
 100
AcDbEntity
   8
LEVEL001
 100
AcDbLine
   6
CONTINUOUS
  62
7
  10
 184.14187675679
  20
 204.74409270814
  30
0.0
  11
 184.16117375679
  21
 204.72911770814
  31
0.0
   0
LINE
   5
302
 100
AcDbEntity
   8
LEVEL001
 100
AcDbLine
   6
CONTINUOUS
  62
7
  10
 184.16117375679
  20
 204.72911770814
  30
0.0
  11
 184.18215975679
  21
 204.71447970814
  31
0.0
   0
LINE
   5
303
 100
AcDbEntity
   8
LEVEL001
 100
AcDbLine
   6
CONTINUOUS
  62
7
  10
 184.18215975679
  20
 204.71447970814
  30
0.0
  11
 184.20479375679
  21
 204.70020570814
  31
0.0
   0
LINE
   5
304
 100
AcDbEntity
   8
LEVEL001
 100
AcDbLine
   6
CONTINUOUS
  62
7
  10
 184.20479375679
  20
 204.70020570814
  30
0.0
  11
 184.22903275679
  21
 204.68632370814
  31
0.0
   0
LINE
   5
305
 100
AcDbEntity
   8
LEVEL001
 100
AcDbLine
   6
CONTINUOUS
  62
7
  10
 184.22903275679
  20
 204.68632370814
  30
0.0
  11
 184.25483175679
  21
 204.67285870814
  31
0.0
   0
LINE
   5
306
 100
AcDbEntity
   8
LEVEL001
 100
AcDbLine
   6
CONTINUOUS
  62
7
  10
 184.25483175679
  20
 204.67285870814
  30
0.0
  11
 184.28214075679
  21
 204.65983770814
  31
0.0
   0
LINE
   5
307
 100
AcDbEntity
   8
LEVEL001
 100
AcDbLine
   6
CONTINUOUS
  62
7
  10
 184.28214075679
  20
 204.65983770814
  30
0.0
  11
 184.31090775679
  21
 204.64728470814
  31
0.0
   0
LINE
   5
308
 100
AcDbEntity
   8
LEVEL001
 100
AcDbLine
   6
CONTINUOUS
  62
7
  10
 184.31090775679
  20
 204.64728470814
  30
0.0
  11
 184.34107775679
  21
 204.63522370814
  31
0.0
   0
LINE
   5
309
 100
AcDbEntity
   8
LEVEL001
 100
AcDbLine
   6
CONTINUOUS
  62
7
  10
 184.34107775679
  20
 204.63522370814
  30
0.0
  11
 184.37259475679
  21
 204.62367770814
  31
0.0
   0
LINE
   5
30A
 100
AcDbEntity
   8
LEVEL001
 100
AcDbLine
   6
CONTINUOUS
  62
7
  10
 184.37259475679
  20
 204.62367770814
  30
0.0
  11
 184.40539675679
  21
 204.61266870814
  31
0.0
   0
LINE
   5
30B
 100
AcDbEntity
   8
LEVEL001
 100
AcDbLine
   6
CONTINUOUS
  62
7
  10
 184.40539675679
  20
 204.61266870814
  30
0.0
  11
 184.43942375679
  21
 204.60221870814
  31
0.0
   0
LINE
   5
30C
 100
AcDbEntity
   8
LEVEL001
 100
AcDbLine
   6
CONTINUOUS
  62
7
  10
 184.43942375679
  20
 204.60221870814
  30
0.0
  11
 184.47460875679
  21
 204.59234570814
  31
0.0
   0
LINE
   5
30D
 100
AcDbEntity
   8
LEVEL001
 100
AcDbLine
   6
CONTINUOUS
  62
7
  10
 184.47460875679
  20
 204.59234570814
  30
0.0
  11
 184.51088475679
  21
 204.58306970814
  31
0.0
   0
LINE
   5
30E
 100
AcDbEntity
   8
LEVEL001
 100
AcDbLine
   6
CONTINUOUS
  62
7
  10
 184.51088475679
  20
 204.58306970814
  30
0.0
  11
 184.54818475679
  21
 204.57440770814
  31
0.0
   0
LINE
   5
30F
 100
AcDbEntity
   8
LEVEL001
 100
AcDbLine
   6
CONTINUOUS
  62
7
  10
 184.54818475679
  20
 204.57440770814
  30
0.0
  11
 184.58643575679
  21
 204.56637770814
  31
0.0
   0
LINE
   5
310
 100
AcDbEntity
   8
LEVEL001
 100
AcDbLine
   6
CONTINUOUS
  62
7
  10
 184.58643575679
  20
 204.56637770814
  30
0.0
  11
 184.62556675679
  21
 204.55899270814
  31
0.0
   0
LINE
   5
311
 100
AcDbEntity
   8
LEVEL001
 100
AcDbLine
   6
CONTINUOUS
  62
7
  10
 184.62556675679
  20
 204.55899270814
  30
0.0
  11
 184.66550175679
  21
 204.55226870814
  31
0.0
   0
LINE
   5
312
 100
AcDbEntity
   8
LEVEL001
 100
AcDbLine
   6
CONTINUOUS
  62
7
  10
 184.66550175679
  20
 204.55226870814
  30
0.0
  11
 184.70616475679
  21
 204.54621670814
  31
0.0
   0
LINE
   5
313
 100
AcDbEntity
   8
LEVEL001
 100
AcDbLine
   6
CONTINUOUS
  62
7
  10
 184.70616475679
  20
 204.54621670814
  30
0.0
  11
 184.74747875679
  21
 204.54084970814
  31
0.0
   0
LINE
   5
314
 100
AcDbEntity
   8
LEVEL001
 100
AcDbLine
   6
CONTINUOUS
  62
7
  10
 184.74747875679
  20
 204.54084970814
  30
0.0
  11
 184.78936575679
  21
 204.53617770814
  31
0.0
   0
LINE
   5
315
 100
AcDbEntity
   8
LEVEL001
 100
AcDbLine
   6
CONTINUOUS
  62
7
  10
 184.78936575679
  20
 204.53617770814
  30
0.0
  11
 184.83174475679
  21
 204.53220970814
  31
0.0
   0
LINE
   5
316
 100
AcDbEntity
   8
LEVEL001
 100
AcDbLine
   6
CONTINUOUS
  62
7
  10
 184.83174475679
  20
 204.53220970814
  30
0.0
  11
 184.87453675679
  21
 204.52895170814
  31
0.0
   0
LINE
   5
317
 100
AcDbEntity
   8
LEVEL001
 100
AcDbLine
   6
CONTINUOUS
  62
7
  10
 184.87453675679
  20
 204.52895170814
  30
0.0
  11
 184.91765875679
  21
 204.52641170814
  31
0.0
   0
LINE
   5
318
 100
AcDbEntity
   8
LEVEL001
 100
AcDbLine
   6
CONTINUOUS
  62
7
  10
 184.91765875679
  20
 204.52641170814
  30
0.0
  11
 184.96102875679
  21
 204.52459470814
  31
0.0
   0
LINE
   5
319
 100
AcDbEntity
   8
LEVEL001
 100
AcDbLine
   6
CONTINUOUS
  62
7
  10
 184.96102875679
  20
 204.52459470814
  30
0.0
  11
 185.00456575679
  21
 204.52350270814
  31
0.0
   0
LINE
   5
31A
 100
AcDbEntity
   8
LEVEL001
 100
AcDbLine
   6
CONTINUOUS
  62
7
  10
 185.00456575679
  20
 204.52350270814
  30
0.0
  11
 185.04818475679
  21
 204.52313870814
  31
0.0
   0
LINE
   5
31B
 100
AcDbEntity
   8
LEVEL001
 100
AcDbLine
   6
CONTINUOUS
  62
7
  10
 185.04818475679
  20
 204.52313870814
  30
0.0
  11
 185.09180375679
  21
 204.52350270814
  31
0.0
   0
LINE
   5
31C
 100
AcDbEntity
   8
LEVEL001
 100
AcDbLine
   6
CONTINUOUS
  62
7
  10
 185.09180375679
  20
 204.52350270814
  30
0.0
  11
 185.13534075679
  21
 204.52459470814
  31
0.0
   0
LINE
   5
31D
 100
AcDbEntity
   8
LEVEL001
 100
AcDbLine
   6
CONTINUOUS
  62
7
  10
 185.13534075679
  20
 204.52459470814
  30
0.0
  11
 185.17871075679
  21
 204.52641170814
  31
0.0
   0
LINE
   5
31E
 100
AcDbEntity
   8
LEVEL001
 100
AcDbLine
   6
CONTINUOUS
  62
7
  10
 185.17871075679
  20
 204.52641170814
  30
0.0
  11
 185.22183275679
  21
 204.52895170814
  31
0.0
   0
LINE
   5
31F
 100
AcDbEntity
   8
LEVEL001
 100
AcDbLine
   6
CONTINUOUS
  62
7
  10
 185.22183275679
  20
 204.52895170814
  30
0.0
  11
 185.26462475679
  21
 204.53220970814
  31
0.0
   0
LINE
   5
320
 100
AcDbEntity
   8
LEVEL001
 100
AcDbLine
   6
CONTINUOUS
  62
7
  10
 185.26462475679
  20
 204.53220970814
  30
0.0
  11
 185.30700375679
  21
 204.53617770814
  31
0.0
   0
LINE
   5
321
 100
AcDbEntity
   8
LEVEL001
 100
AcDbLine
   6
CONTINUOUS
  62
7
  10
 185.30700375679
  20
 204.53617770814
  30
0.0
  11
 185.34889075679
  21
 204.54084970814
  31
0.0
   0
LINE
   5
322
 100
AcDbEntity
   8
LEVEL001
 100
AcDbLine
   6
CONTINUOUS
  62
7
  10
 185.34889075679
  20
 204.54084970814
  30
0.0
  11
 185.39020475679
  21
 204.54621670814
  31
0.0
   0
LINE
   5
323
 100
AcDbEntity
   8
LEVEL001
 100
AcDbLine
   6
CONTINUOUS
  62
7
  10
 185.39020475679
  20
 204.54621670814
  30
0.0
  11
 185.43086775679
  21
 204.55226870814
  31
0.0
   0
LINE
   5
324
 100
AcDbEntity
   8
LEVEL001
 100
AcDbLine
   6
CONTINUOUS
  62
7
  10
 185.43086775679
  20
 204.55226870814
  30
0.0
  11
 185.47080275679
  21
 204.55899270814
  31
0.0
   0
LINE
   5
325
 100
AcDbEntity
   8
LEVEL001
 100
AcDbLine
   6
CONTINUOUS
  62
7
  10
 185.47080275679
  20
 204.55899270814
  30
0.0
  11
 185.50993375679
  21
 204.56637770814
  31
0.0
   0
LINE
   5
326
 100
AcDbEntity
   8
LEVEL001
 100
AcDbLine
   6
CONTINUOUS
  62
7
  10
 185.50993375679
  20
 204.56637770814
  30
0.0
  11
 185.54818475679
  21
 204.57440770814
  31
0.0
   0
LINE
   5
327
 100
AcDbEntity
   8
LEVEL001
 100
AcDbLine
   6
CONTINUOUS
  62
7
  10
 185.54818475679
  20
 204.57440770814
  30
0.0
  11
 185.58548475679
  21
 204.58306970814
  31
0.0
   0
LINE
   5
328
 100
AcDbEntity
   8
LEVEL001
 100
AcDbLine
   6
CONTINUOUS
  62
7
  10
 185.58548475679
  20
 204.58306970814
  30
0.0
  11
 185.62176075679
  21
 204.59234570814
  31
0.0
   0
LINE
   5
329
 100
AcDbEntity
   8
LEVEL001
 100
AcDbLine
   6
CONTINUOUS
  62
7
  10
 185.62176075679
  20
 204.59234570814
  30
0.0
  11
 185.65694575679
  21
 204.60221870814
  31
0.0
   0
LINE
   5
32A
 100
AcDbEntity
   8
LEVEL001
 100
AcDbLine
   6
CONTINUOUS
  62
7
  10
 185.65694575679
  20
 204.60221870814
  30
0.0
  11
 185.69097275679
  21
 204.61266870814
  31
0.0
   0
LINE
   5
32B
 100
AcDbEntity
   8
LEVEL001
 100
AcDbLine
   6
CONTINUOUS
  62
7
  10
 185.69097275679
  20
 204.61266870814
  30
0.0
  11
 185.72377475679
  21
 204.62367770814
  31
0.0
   0
LINE
   5
32C
 100
AcDbEntity
   8
LEVEL001
 100
AcDbLine
   6
CONTINUOUS
  62
7
  10
 185.72377475679
  20
 204.62367770814
  30
0.0
  11
 185.75529175679
  21
 204.63522370814
  31
0.0
   0
LINE
   5
32D
 100
AcDbEntity
   8
LEVEL001
 100
AcDbLine
   6
CONTINUOUS
  62
7
  10
 185.75529175679
  20
 204.63522370814
  30
0.0
  11
 185.78546175679
  21
 204.64728470814
  31
0.0
   0
LINE
   5
32E
 100
AcDbEntity
   8
LEVEL001
 100
AcDbLine
   6
CONTINUOUS
  62
7
  10
 185.78546175679
  20
 204.64728470814
  30
0.0
  11
 185.81422875679
  21
 204.65983770814
  31
0.0
   0
LINE
   5
32F
 100
AcDbEntity
   8
LEVEL001
 100
AcDbLine
   6
CONTINUOUS
  62
7
  10
 185.81422875679
  20
 204.65983770814
  30
0.0
  11
 185.84153775679
  21
 204.67285870814
  31
0.0
   0
LINE
   5
330
 100
AcDbEntity
   8
LEVEL001
 100
AcDbLine
   6
CONTINUOUS
  62
7
  10
 185.84153775679
  20
 204.67285870814
  30
0.0
  11
 185.86733675679
  21
 204.68632370814
  31
0.0
   0
LINE
   5
331
 100
AcDbEntity
   8
LEVEL001
 100
AcDbLine
   6
CONTINUOUS
  62
7
  10
 185.86733675679
  20
 204.68632370814
  30
0.0
  11
 185.89157575679
  21
 204.70020570814
  31
0.0
   0
LINE
   5
332
 100
AcDbEntity
   8
LEVEL001
 100
AcDbLine
   6
CONTINUOUS
  62
7
  10
 185.89157575679
  20
 204.70020570814
  30
0.0
  11
 185.91420975679
  21
 204.71447970814
  31
0.0
   0
LINE
   5
333
 100
AcDbEntity
   8
LEVEL001
 100
AcDbLine
   6
CONTINUOUS
  62
7
  10
 185.91420975679
  20
 204.71447970814
  30
0.0
  11
 185.93519575679
  21
 204.72911770814
  31
0.0
   0
LINE
   5
334
 100
AcDbEntity
   8
LEVEL001
 100
AcDbLine
   6
CONTINUOUS
  62
7
  10
 185.93519575679
  20
 204.72911770814
  30
0.0
  11
 185.95449275679
  21
 204.74409270814
  31
0.0
   0
LINE
   5
335
 100
AcDbEntity
   8
LEVEL001
 100
AcDbLine
   6
CONTINUOUS
  62
7
  10
 185.95449275679
  20
 204.74409270814
  30
0.0
  11
 185.97206475679
  21
 204.75937470814
  31
0.0
   0
LINE
   5
336
 100
AcDbEntity
   8
LEVEL001
 100
AcDbLine
   6
CONTINUOUS
  62
7
  10
 185.97206475679
  20
 204.75937470814
  30
0.0
  11
 185.98787775679
  21
 204.77493670814
  31
0.0
   0
LINE
   5
337
 100
AcDbEntity
   8
LEVEL001
 100
AcDbLine
   6
CONTINUOUS
  62
7
  10
 185.98787775679
  20
 204.77493670814
  30
0.0
  11
 186.00190175679
  21
 204.79074670814
  31
0.0
   0
LINE
   5
338
 100
AcDbEntity
   8
LEVEL001
 100
AcDbLine
   6
CONTINUOUS
  62
7
  10
 186.00190175679
  20
 204.79074670814
  30
0.0
  11
 186.01411075679
  21
 204.80677570814
  31
0.0
   0
LINE
   5
339
 100
AcDbEntity
   8
LEVEL001
 100
AcDbLine
   6
CONTINUOUS
  62
7
  10
 186.01411075679
  20
 204.80677570814
  30
0.0
  11
 186.02448075679
  21
 204.82299370814
  31
0.0
   0
LINE
   5
33A
 100
AcDbEntity
   8
LEVEL001
 100
AcDbLine
   6
CONTINUOUS
  62
7
  10
 186.02448075679
  20
 204.82299370814
  30
0.0
  11
 186.03299275679
  21
 204.83936970814
  31
0.0
   0
LINE
   5
33B
 100
AcDbEntity
   8
LEVEL001
 100
AcDbLine
   6
CONTINUOUS
  62
7
  10
 186.03299275679
  20
 204.83936970814
  30
0.0
  11
 186.03962975679
  21
 204.85587170814
  31
0.0
   0
LINE
   5
33C
 100
AcDbEntity
   8
LEVEL001
 100
AcDbLine
   6
CONTINUOUS
  62
7
  10
 186.03962975679
  20
 204.85587170814
  30
0.0
  11
 186.04437975679
  21
 204.87246870814
  31
0.0
   0
LINE
   5
33D
 100
AcDbEntity
   8
LEVEL001
 100
AcDbLine
   6
CONTINUOUS
  62
7
  10
 186.04437975679
  20
 204.87246870814
  30
0.0
  11
 186.04723275679
  21
 204.88912970814
  31
0.0
   0
LINE
   5
33E
 100
AcDbEntity
   8
LEVEL001
 100
AcDbLine
   6
CONTINUOUS
  62
7
  10
 186.04723275679
  20
 204.88912970814
  30
0.0
  11
 186.04818475679
  21
 204.90582170814
  31
0.0
   0
LINE
   5
33F
 100
AcDbEntity
   8
LEVEL001
 100
AcDbLine
   6
CONTINUOUS
  62
7
  10
 187.44818475679
  20
 204.90582170814
  30
0.0
  11
 187.43905175679
  21
 204.98586870814
  31
0.0
   0
LINE
   5
340
 100
AcDbEntity
   8
LEVEL001
 100
AcDbLine
   6
CONTINUOUS
  62
7
  10
 187.43905175679
  20
 204.98586870814
  30
0.0
  11
 187.41172375679
  21
 205.06530670814
  31
0.0
   0
LINE
   5
341
 100
AcDbEntity
   8
LEVEL001
 100
AcDbLine
   6
CONTINUOUS
  62
7
  10
 187.41172375679
  20
 205.06530670814
  30
0.0
  11
 187.36640675679
  21
 205.14353170814
  31
0.0
   0
LINE
   5
342
 100
AcDbEntity
   8
LEVEL001
 100
AcDbLine
   6
CONTINUOUS
  62
7
  10
 187.36640675679
  20
 205.14353170814
  30
0.0
  11
 187.30344675679
  21
 205.21994670814
  31
0.0
   0
LINE
   5
343
 100
AcDbEntity
   8
LEVEL001
 100
AcDbLine
   6
CONTINUOUS
  62
7
  10
 187.30344675679
  20
 205.21994670814
  30
0.0
  11
 187.22332375679
  21
 205.29397170814
  31
0.0
   0
LINE
   5
344
 100
AcDbEntity
   8
LEVEL001
 100
AcDbLine
   6
CONTINUOUS
  62
7
  10
 187.22332375679
  20
 205.29397170814
  30
0.0
  11
 187.12664575679
  21
 205.36504170814
  31
0.0
   0
LINE
   5
345
 100
AcDbEntity
   8
LEVEL001
 100
AcDbLine
   6
CONTINUOUS
  62
7
  10
 187.12664575679
  20
 205.36504170814
  30
0.0
  11
 187.01414975679
  21
 205.43261770814
  31
0.0
   0
LINE
   5
346
 100
AcDbEntity
   8
LEVEL001
 100
AcDbLine
   6
CONTINUOUS
  62
7
  10
 187.01414975679
  20
 205.43261770814
  30
0.0
  11
 186.88669175679
  21
 205.49618370814
  31
0.0
   0
LINE
   5
347
 100
AcDbEntity
   8
LEVEL001
 100
AcDbLine
   6
CONTINUOUS
  62
7
  10
 186.88669175679
  20
 205.49618370814
  30
0.0
  11
 186.74524075679
  21
 205.55525670814
  31
0.0
   0
LINE
   5
348
 100
AcDbEntity
   8
LEVEL001
 100
AcDbLine
   6
CONTINUOUS
  62
7
  10
 186.74524075679
  20
 205.55525670814
  30
0.0
  11
 186.59087475679
  21
 205.60938770814
  31
0.0
   0
LINE
   5
349
 100
AcDbEntity
   8
LEVEL001
 100
AcDbLine
   6
CONTINUOUS
  62
7
  10
 186.59087475679
  20
 205.60938770814
  30
0.0
  11
 186.42476775679
  21
 205.65816370814
  31
0.0
   0
LINE
   5
34A
 100
AcDbEntity
   8
LEVEL001
 100
AcDbLine
   6
CONTINUOUS
  62
7
  10
 186.42476775679
  20
 205.65816370814
  30
0.0
  11
 186.24818475679
  21
 205.70121470814
  31
0.0
   0
LINE
   5
34B
 100
AcDbEntity
   8
LEVEL001
 100
AcDbLine
   6
CONTINUOUS
  62
7
  10
 186.24818475679
  20
 205.70121470814
  30
0.0
  11
 186.06246875679
  21
 205.73821170814
  31
0.0
   0
LINE
   5
34C
 100
AcDbEntity
   8
LEVEL001
 100
AcDbLine
   6
CONTINUOUS
  62
7
  10
 186.06246875679
  20
 205.73821170814
  30
0.0
  11
 185.86903275679
  21
 205.76887370814
  31
0.0
   0
LINE
   5
34D
 100
AcDbEntity
   8
LEVEL001
 100
AcDbLine
   6
CONTINUOUS
  62
7
  10
 185.86903275679
  20
 205.76887370814
  30
0.0
  11
 185.66935075679
  21
 205.79296670814
  31
0.0
   0
LINE
   5
34E
 100
AcDbEntity
   8
LEVEL001
 100
AcDbLine
   6
CONTINUOUS
  62
7
  10
 185.66935075679
  20
 205.79296670814
  30
0.0
  11
 185.46494075679
  21
 205.81030870814
  31
0.0
   0
LINE
   5
34F
 100
AcDbEntity
   8
LEVEL001
 100
AcDbLine
   6
CONTINUOUS
  62
7
  10
 185.46494075679
  20
 205.81030870814
  30
0.0
  11
 185.25735875679
  21
 205.82076670814
  31
0.0
   0
LINE
   5
350
 100
AcDbEntity
   8
LEVEL001
 100
AcDbLine
   6
CONTINUOUS
  62
7
  10
 185.25735875679
  20
 205.82076670814
  30
0.0
  11
 185.04818475679
  21
 205.82426170814
  31
0.0
   0
LINE
   5
351
 100
AcDbEntity
   8
LEVEL001
 100
AcDbLine
   6
CONTINUOUS
  62
7
  10
 185.04818475679
  20
 205.82426170814
  30
0.0
  11
 184.83901075679
  21
 205.82076670814
  31
0.0
   0
LINE
   5
352
 100
AcDbEntity
   8
LEVEL001
 100
AcDbLine
   6
CONTINUOUS
  62
7
  10
 184.83901075679
  20
 205.82076670814
  30
0.0
  11
 184.63142875679
  21
 205.81030870814
  31
0.0
   0
LINE
   5
353
 100
AcDbEntity
   8
LEVEL001
 100
AcDbLine
   6
CONTINUOUS
  62
7
  10
 184.63142875679
  20
 205.81030870814
  30
0.0
  11
 184.42701875679
  21
 205.79296670814
  31
0.0
   0
LINE
   5
354
 100
AcDbEntity
   8
LEVEL001
 100
AcDbLine
   6
CONTINUOUS
  62
7
  10
 184.42701875679
  20
 205.79296670814
  30
0.0
  11
 184.22733675679
  21
 205.76887370814
  31
0.0
   0
LINE
   5
355
 100
AcDbEntity
   8
LEVEL001
 100
AcDbLine
   6
CONTINUOUS
  62
7
  10
 184.22733675679
  20
 205.76887370814
  30
0.0
  11
 184.03390075679
  21
 205.73821170814
  31
0.0
   0
LINE
   5
356
 100
AcDbEntity
   8
LEVEL001
 100
AcDbLine
   6
CONTINUOUS
  62
7
  10
 184.03390075679
  20
 205.73821170814
  30
0.0
  11
 183.84818475679
  21
 205.70121470814
  31
0.0
   0
LINE
   5
357
 100
AcDbEntity
   8
LEVEL001
 100
AcDbLine
   6
CONTINUOUS
  62
7
  10
 183.84818475679
  20
 205.70121470814
  30
0.0
  11
 183.67160175679
  21
 205.65816370814
  31
0.0
   0
LINE
   5
358
 100
AcDbEntity
   8
LEVEL001
 100
AcDbLine
   6
CONTINUOUS
  62
7
  10
 183.67160175679
  20
 205.65816370814
  30
0.0
  11
 183.50549475679
  21
 205.60938770814
  31
0.0
   0
LINE
   5
359
 100
AcDbEntity
   8
LEVEL001
 100
AcDbLine
   6
CONTINUOUS
  62
7
  10
 183.50549475679
  20
 205.60938770814
  30
0.0
  11
 183.35112875679
  21
 205.55525670814
  31
0.0
   0
LINE
   5
35A
 100
AcDbEntity
   8
LEVEL001
 100
AcDbLine
   6
CONTINUOUS
  62
7
  10
 183.35112875679
  20
 205.55525670814
  30
0.0
  11
 183.20967775679
  21
 205.49618370814
  31
0.0
   0
LINE
   5
35B
 100
AcDbEntity
   8
LEVEL001
 100
AcDbLine
   6
CONTINUOUS
  62
7
  10
 183.20967775679
  20
 205.49618370814
  30
0.0
  11
 183.08221975679
  21
 205.43261770814
  31
0.0
   0
LINE
   5
35C
 100
AcDbEntity
   8
LEVEL001
 100
AcDbLine
   6
CONTINUOUS
  62
7
  10
 183.08221975679
  20
 205.43261770814
  30
0.0
  11
 182.96972375679
  21
 205.36504170814
  31
0.0
   0
LINE
   5
35D
 100
AcDbEntity
   8
LEVEL001
 100
AcDbLine
   6
CONTINUOUS
  62
7
  10
 182.96972375679
  20
 205.36504170814
  30
0.0
  11
 182.87304575679
  21
 205.29397170814
  31
0.0
   0
LINE
   5
35E
 100
AcDbEntity
   8
LEVEL001
 100
AcDbLine
   6
CONTINUOUS
  62
7
  10
 182.87304575679
  20
 205.29397170814
  30
0.0
  11
 182.79292275679
  21
 205.21994670814
  31
0.0
   0
LINE
   5
35F
 100
AcDbEntity
   8
LEVEL001
 100
AcDbLine
   6
CONTINUOUS
  62
7
  10
 182.79292275679
  20
 205.21994670814
  30
0.0
  11
 182.72996275679
  21
 205.14353170814
  31
0.0
   0
LINE
   5
360
 100
AcDbEntity
   8
LEVEL001
 100
AcDbLine
   6
CONTINUOUS
  62
7
  10
 182.72996275679
  20
 205.14353170814
  30
0.0
  11
 182.68464575679
  21
 205.06530670814
  31
0.0
   0
LINE
   5
361
 100
AcDbEntity
   8
LEVEL001
 100
AcDbLine
   6
CONTINUOUS
  62
7
  10
 182.68464575679
  20
 205.06530670814
  30
0.0
  11
 182.65731775679
  21
 204.98586870814
  31
0.0
   0
LINE
   5
362
 100
AcDbEntity
   8
LEVEL001
 100
AcDbLine
   6
CONTINUOUS
  62
7
  10
 182.65731775679
  20
 204.98586870814
  30
0.0
  11
 182.64818475679
  21
 204.90582170814
  31
0.0
   0
LINE
   5
363
 100
AcDbEntity
   8
LEVEL001
 100
AcDbLine
   6
CONTINUOUS
  62
7
  10
 182.64818475679
  20
 204.90582170814
  30
0.0
  11
 182.65731775679
  21
 204.82577470814
  31
0.0
   0
LINE
   5
364
 100
AcDbEntity
   8
LEVEL001
 100
AcDbLine
   6
CONTINUOUS
  62
7
  10
 182.65731775679
  20
 204.82577470814
  30
0.0
  11
 182.68464575679
  21
 204.74633670814
  31
0.0
   0
LINE
   5
365
 100
AcDbEntity
   8
LEVEL001
 100
AcDbLine
   6
CONTINUOUS
  62
7
  10
 182.68464575679
  20
 204.74633670814
  30
0.0
  11
 182.72996275679
  21
 204.66811170814
  31
0.0
   0
LINE
   5
366
 100
AcDbEntity
   8
LEVEL001
 100
AcDbLine
   6
CONTINUOUS
  62
7
  10
 182.72996275679
  20
 204.66811170814
  30
0.0
  11
 182.79292275679
  21
 204.59169670814
  31
0.0
   0
LINE
   5
367
 100
AcDbEntity
   8
LEVEL001
 100
AcDbLine
   6
CONTINUOUS
  62
7
  10
 182.79292275679
  20
 204.59169670814
  30
0.0
  11
 182.87304575679
  21
 204.51767170814
  31
0.0
   0
LINE
   5
368
 100
AcDbEntity
   8
LEVEL001
 100
AcDbLine
   6
CONTINUOUS
  62
7
  10
 182.87304575679
  20
 204.51767170814
  30
0.0
  11
 182.96972375679
  21
 204.44660170814
  31
0.0
   0
LINE
   5
369
 100
AcDbEntity
   8
LEVEL001
 100
AcDbLine
   6
CONTINUOUS
  62
7
  10
 182.96972375679
  20
 204.44660170814
  30
0.0
  11
 183.08221975679
  21
 204.37902570814
  31
0.0
   0
LINE
   5
36A
 100
AcDbEntity
   8
LEVEL001
 100
AcDbLine
   6
CONTINUOUS
  62
7
  10
 183.08221975679
  20
 204.37902570814
  30
0.0
  11
 183.20967775679
  21
 204.31545970814
  31
0.0
   0
LINE
   5
36B
 100
AcDbEntity
   8
LEVEL001
 100
AcDbLine
   6
CONTINUOUS
  62
7
  10
 183.20967775679
  20
 204.31545970814
  30
0.0
  11
 183.35112875679
  21
 204.25638670814
  31
0.0
   0
LINE
   5
36C
 100
AcDbEntity
   8
LEVEL001
 100
AcDbLine
   6
CONTINUOUS
  62
7
  10
 183.35112875679
  20
 204.25638670814
  30
0.0
  11
 183.50549475679
  21
 204.20225570814
  31
0.0
   0
LINE
   5
36D
 100
AcDbEntity
   8
LEVEL001
 100
AcDbLine
   6
CONTINUOUS
  62
7
  10
 183.50549475679
  20
 204.20225570814
  30
0.0
  11
 183.67160175679
  21
 204.15347970814
  31
0.0
   0
LINE
   5
36E
 100
AcDbEntity
   8
LEVEL001
 100
AcDbLine
   6
CONTINUOUS
  62
7
  10
 183.67160175679
  20
 204.15347970814
  30
0.0
  11
 183.84818475679
  21
 204.11042870814
  31
0.0
   0
LINE
   5
36F
 100
AcDbEntity
   8
LEVEL001
 100
AcDbLine
   6
CONTINUOUS
  62
7
  10
 183.84818475679
  20
 204.11042870814
  30
0.0
  11
 184.03390075679
  21
 204.07343170814
  31
0.0
   0
LINE
   5
370
 100
AcDbEntity
   8
LEVEL001
 100
AcDbLine
   6
CONTINUOUS
  62
7
  10
 184.03390075679
  20
 204.07343170814
  30
0.0
  11
 184.22733675679
  21
 204.04276970814
  31
0.0
   0
LINE
   5
371
 100
AcDbEntity
   8
LEVEL001
 100
AcDbLine
   6
CONTINUOUS
  62
7
  10
 184.22733675679
  20
 204.04276970814
  30
0.0
  11
 184.42701875679
  21
 204.01867670814
  31
0.0
   0
LINE
   5
372
 100
AcDbEntity
   8
LEVEL001
 100
AcDbLine
   6
CONTINUOUS
  62
7
  10
 184.42701875679
  20
 204.01867670814
  30
0.0
  11
 184.63142875679
  21
 204.00133470814
  31
0.0
   0
LINE
   5
373
 100
AcDbEntity
   8
LEVEL001
 100
AcDbLine
   6
CONTINUOUS
  62
7
  10
 184.63142875679
  20
 204.00133470814
  30
0.0
  11
 184.83901075679
  21
 203.99087670814
  31
0.0
   0
LINE
   5
374
 100
AcDbEntity
   8
LEVEL001
 100
AcDbLine
   6
CONTINUOUS
  62
7
  10
 184.83901075679
  20
 203.99087670814
  30
0.0
  11
 185.04818475679
  21
 203.98738170814
  31
0.0
   0
LINE
   5
375
 100
AcDbEntity
   8
LEVEL001
 100
AcDbLine
   6
CONTINUOUS
  62
7
  10
 185.04818475679
  20
 203.98738170814
  30
0.0
  11
 185.25735875679
  21
 203.99087670814
  31
0.0
   0
LINE
   5
376
 100
AcDbEntity
   8
LEVEL001
 100
AcDbLine
   6
CONTINUOUS
  62
7
  10
 185.25735875679
  20
 203.99087670814
  30
0.0
  11
 185.46494075679
  21
 204.00133470814
  31
0.0
   0
LINE
   5
377
 100
AcDbEntity
   8
LEVEL001
 100
AcDbLine
   6
CONTINUOUS
  62
7
  10
 185.46494075679
  20
 204.00133470814
  30
0.0
  11
 185.66935075679
  21
 204.01867670814
  31
0.0
   0
LINE
   5
378
 100
AcDbEntity
   8
LEVEL001
 100
AcDbLine
   6
CONTINUOUS
  62
7
  10
 185.66935075679
  20
 204.01867670814
  30
0.0
  11
 185.86903275679
  21
 204.04276970814
  31
0.0
   0
LINE
   5
379
 100
AcDbEntity
   8
LEVEL001
 100
AcDbLine
   6
CONTINUOUS
  62
7
  10
 185.86903275679
  20
 204.04276970814
  30
0.0
  11
 186.06246875679
  21
 204.07343170814
  31
0.0
   0
LINE
   5
37A
 100
AcDbEntity
   8
LEVEL001
 100
AcDbLine
   6
CONTINUOUS
  62
7
  10
 186.06246875679
  20
 204.07343170814
  30
0.0
  11
 186.24818475679
  21
 204.11042870814
  31
0.0
   0
LINE
   5
37B
 100
AcDbEntity
   8
LEVEL001
 100
AcDbLine
   6
CONTINUOUS
  62
7
  10
 186.24818475679
  20
 204.11042870814
  30
0.0
  11
 186.42476775679
  21
 204.15347970814
  31
0.0
   0
LINE
   5
37C
 100
AcDbEntity
   8
LEVEL001
 100
AcDbLine
   6
CONTINUOUS
  62
7
  10
 186.42476775679
  20
 204.15347970814
  30
0.0
  11
 186.59087475679
  21
 204.20225570814
  31
0.0
   0
LINE
   5
37D
 100
AcDbEntity
   8
LEVEL001
 100
AcDbLine
   6
CONTINUOUS
  62
7
  10
 186.59087475679
  20
 204.20225570814
  30
0.0
  11
 186.74524075679
  21
 204.25638670814
  31
0.0
   0
LINE
   5
37E
 100
AcDbEntity
   8
LEVEL001
 100
AcDbLine
   6
CONTINUOUS
  62
7
  10
 186.74524075679
  20
 204.25638670814
  30
0.0
  11
 186.88669175679
  21
 204.31545970814
  31
0.0
   0
LINE
   5
37F
 100
AcDbEntity
   8
LEVEL001
 100
AcDbLine
   6
CONTINUOUS
  62
7
  10
 186.88669175679
  20
 204.31545970814
  30
0.0
  11
 187.01414975679
  21
 204.37902570814
  31
0.0
   0
LINE
   5
380
 100
AcDbEntity
   8
LEVEL001
 100
AcDbLine
   6
CONTINUOUS
  62
7
  10
 187.01414975679
  20
 204.37902570814
  30
0.0
  11
 187.12664575679
  21
 204.44660170814
  31
0.0
   0
LINE
   5
381
 100
AcDbEntity
   8
LEVEL001
 100
AcDbLine
   6
CONTINUOUS
  62
7
  10
 187.12664575679
  20
 204.44660170814
  30
0.0
  11
 187.22332375679
  21
 204.51767170814
  31
0.0
   0
LINE
   5
382
 100
AcDbEntity
   8
LEVEL001
 100
AcDbLine
   6
CONTINUOUS
  62
7
  10
 187.22332375679
  20
 204.51767170814
  30
0.0
  11
 187.30344675679
  21
 204.59169670814
  31
0.0
   0
LINE
   5
383
 100
AcDbEntity
   8
LEVEL001
 100
AcDbLine
   6
CONTINUOUS
  62
7
  10
 187.30344675679
  20
 204.59169670814
  30
0.0
  11
 187.36640675679
  21
 204.66811170814
  31
0.0
   0
LINE
   5
384
 100
AcDbEntity
   8
LEVEL001
 100
AcDbLine
   6
CONTINUOUS
  62
7
  10
 187.36640675679
  20
 204.66811170814
  30
0.0
  11
 187.41172375679
  21
 204.74633670814
  31
0.0
   0
LINE
   5
385
 100
AcDbEntity
   8
LEVEL001
 100
AcDbLine
   6
CONTINUOUS
  62
7
  10
 187.41172375679
  20
 204.74633670814
  30
0.0
  11
 187.43905175679
  21
 204.82577470814
  31
0.0
   0
LINE
   5
386
 100
AcDbEntity
   8
LEVEL001
 100
AcDbLine
   6
CONTINUOUS
  62
7
  10
 187.43905175679
  20
 204.82577470814
  30
0.0
  11
 187.44818475679
  21
 204.90582170814
  31
0.0
   0
LINE
   5
387
 100
AcDbEntity
   8
LEVEL001
 100
AcDbLine
   6
CONTINUOUS
  62
7
  10
 187.93493575679
  20
 188.35782170814
  30
0.0
  11
 190.82168775679
  21
 193.35782170814
  31
0.0
   0
LINE
   5
388
 100
AcDbEntity
   8
LEVEL001
 100
AcDbLine
   6
CONTINUOUS
  62
7
  10
 182.16143375679
  20
 188.35782170814
  30
0.0
  11
 187.93493575679
  21
 188.35782170814
  31
0.0
   0
LINE
   5
389
 100
AcDbEntity
   8
LEVEL001
 100
AcDbLine
   6
CONTINUOUS
  62
7
  10
 179.27468175679
  20
 193.35782170814
  30
0.0
  11
 182.16143375679
  21
 188.35782170814
  31
0.0
   0
ARC
   5
38A
 100
AcDbEntity
   8
LEVEL001
   6
CONTINUOUS
  62
7
 100
AcDbCircle
  10
 175.32048875679
  20
 152.35782170814
  30
0.0
  40
 5.0000000000000
 100
AcDbArc
  50
 176.96305100000
  51
 270.00000000000
   0
LINE
   5
38B
 100
AcDbEntity
   8
LEVEL001
 100
AcDbLine
   6
CONTINUOUS
  62
7
  10
 175.32048875679
  20
 147.35782170814
  30
0.0
  11
 243.04818475679
  21
 147.35782170814
  31
0.0
   0
ARC
   5
38C
 100
AcDbEntity
   8
LEVEL001
   6
CONTINUOUS
  62
7
 100
AcDbCircle
  10
 154.77588075679
  20
 152.35782170814
  30
0.0
  40
 5.0000000000000
 100
AcDbArc
  50
 270.00000000000
  51
 3.0369490000023
   0
LINE
   5
38D
 100
AcDbEntity
   8
LEVEL001
 100
AcDbLine
   6
CONTINUOUS
  62
7
  10
 87.048184756786
  20
 147.35782170814
  30
0.0
  11
 154.77588075679
  21
 147.35782170814
  31
0.0
   0
LINE
   5
38E
 100
AcDbEntity
   8
LEVEL001
 100
AcDbLine
   6
CONTINUOUS
  62
7
  10
 71.548184756786
  20
 230.35785670814
  30
0.0
  11
 71.548184756786
  21
 156.35782170814
  31
0.0
   0
LINE
   5
38F
 100
AcDbEntity
   8
LEVEL001
 100
AcDbLine
   6
CONTINUOUS
  62
7
  10
 21.048184756786
  20
 180.85782170814
  30
0.0
  11
 21.048184756786
  21
 205.20053570814
  31
0.0
   0
LINE
   5
390
 100
AcDbEntity
   8
LEVEL001
 100
AcDbLine
   6
CONTINUOUS
  62
7
  10
 62.048184756786
  20
 205.20053570814
  30
0.0
  11
 21.048184756786
  21
 205.20053570814
  31
0.0
   0
LINE
   5
391
 100
AcDbEntity
   8
LEVEL001
 100
AcDbLine
   6
CONTINUOUS
  62
7
  10
 62.048184756786
  20
 180.85782170814
  30
0.0
  11
 62.048184756786
  21
 205.20053570814
  31
0.0
   0
LINE
   5
392
 100
AcDbEntity
   8
LEVEL001
 100
AcDbLine
   6
CONTINUOUS
  62
7
  10
 67.048184756786
  20
 179.35782170814
  30
0.0
  11
 67.048184756786
  21
 207.35782170814
  31
0.0
   0
LINE
   5
393
 100
AcDbEntity
   8
LEVEL001
 100
AcDbLine
   6
CONTINUOUS
  62
7
  10
 71.548184756786
  20
 207.35782170814
  30
0.0
  11
 67.048184756786
  21
 207.35782170814
  31
0.0
   0
LINE
   5
394
 100
AcDbEntity
   8
LEVEL001
 100
AcDbLine
   6
CONTINUOUS
  62
7
  10
 20.048184756786
  20
 208.85782170814
  30
0.0
  11
 20.048184756786
  21
 204.13442870814
  31
0.0
   0
LINE
   5
395
 100
AcDbEntity
   8
LEVEL001
 100
AcDbLine
   6
CONTINUOUS
  62
7
  10
 56.048184756786
  20
 208.85782170814
  30
0.0
  11
 20.048184756786
  21
 208.85782170814
  31
0.0
   0
LINE
   5
396
 100
AcDbEntity
   8
LEVEL001
 100
AcDbLine
   6
CONTINUOUS
  62
7
  10
 56.048184756786
  20
 208.85782170814
  30
0.0
  11
 56.048184756786
  21
 205.20053570814
  31
0.0
   0
LINE
   5
397
 100
AcDbEntity
   8
LEVEL001
 100
AcDbLine
   6
CONTINUOUS
  62
7
  10
 20.048184756786
  20
 204.13442870814
  30
0.0
  11
 21.048184756786
  21
 205.20053570814
  31
0.0
   0
LINE
   5
398
 100
AcDbEntity
   8
LEVEL001
 100
AcDbLine
   6
CONTINUOUS
  62
7
  10
 20.048184756786
  20
 204.13442870814
  30
0.0
  11
 20.048184756786
  21
 193.35782170814
  31
0.0
   0
LINE
   5
399
 100
AcDbEntity
   8
LEVEL001
 100
AcDbLine
   6
CONTINUOUS
  62
7
  10
 67.048184756786
  20
 207.35782170814
  30
0.0
  11
 62.048184756786
  21
 205.20053570814
  31
0.0
   0
LINE
   5
39A
 100
AcDbEntity
   8
LEVEL001
 100
AcDbLine
   6
CONTINUOUS
  62
7
  10
 62.048184756786
  20
 180.85782170814
  30
0.0
  11
 21.048184756786
  21
 180.85782170814
  31
0.0
   0
LINE
   5
39B
 100
AcDbEntity
   8
LEVEL001
 100
AcDbLine
   6
CONTINUOUS
  62
7
  10
 67.048184756786
  20
 179.35782170814
  30
0.0
  11
 62.048184756786
  21
 180.85782170814
  31
0.0
   0
LINE
   5
39C
 100
AcDbEntity
   8
LEVEL001
 100
AcDbLine
   6
CONTINUOUS
  62
7
  10
 20.048184756786
  20
 181.85782170814
  30
0.0
  11
 20.048184756786
  21
 193.35782170814
  31
0.0
   0
LINE
   5
39D
 100
AcDbEntity
   8
LEVEL001
 100
AcDbLine
   6
CONTINUOUS
  62
7
  10
 21.048184756786
  20
 180.85782170814
  30
0.0
  11
 20.048184756786
  21
 181.85782170814
  31
0.0
   0
LINE
   5
39E
 100
AcDbEntity
   8
LEVEL001
 100
AcDbLine
   6
CONTINUOUS
  62
7
  10
 71.548184756786
  20
 179.35782170814
  30
0.0
  11
 67.048184756786
  21
 179.35782170814
  31
0.0
   0
LINE
   5
39F
 100
AcDbEntity
   8
LEVEL001
 100
AcDbLine
   6
CONTINUOUS
  62
7
  10
 258.54818475679
  20
 230.35785670814
  30
0.0
  11
 258.54818475679
  21
 156.35782170814
  31
0.0
   0
LINE
   5
3A0
 100
AcDbEntity
   8
LEVEL001
 100
AcDbLine
   6
CONTINUOUS
  62
7
  10
 309.04818475679
  20
 180.85782170814
  30
0.0
  11
 309.04818475679
  21
 205.20053570814
  31
0.0
   0
LINE
   5
3A1
 100
AcDbEntity
   8
LEVEL001
 100
AcDbLine
   6
CONTINUOUS
  62
7
  10
 268.04818475679
  20
 205.20053570814
  30
0.0
  11
 309.04818475679
  21
 205.20053570814
  31
0.0
   0
LINE
   5
3A2
 100
AcDbEntity
   8
LEVEL001
 100
AcDbLine
   6
CONTINUOUS
  62
7
  10
 268.04818475679
  20
 180.85782170814
  30
0.0
  11
 268.04818475679
  21
 205.20053570814
  31
0.0
   0
LINE
   5
3A3
 100
AcDbEntity
   8
LEVEL001
 100
AcDbLine
   6
CONTINUOUS
  62
7
  10
 263.04818475679
  20
 179.35782170814
  30
0.0
  11
 263.04818475679
  21
 207.35782170814
  31
0.0
   0
LINE
   5
3A4
 100
AcDbEntity
   8
LEVEL001
 100
AcDbLine
   6
CONTINUOUS
  62
7
  10
 258.54818475679
  20
 207.35782170814
  30
0.0
  11
 263.04818475679
  21
 207.35782170814
  31
0.0
   0
LINE
   5
3A5
 100
AcDbEntity
   8
LEVEL001
 100
AcDbLine
   6
CONTINUOUS
  62
7
  10
 310.04818475679
  20
 208.85782170814
  30
0.0
  11
 310.04818475679
  21
 204.13442870814
  31
0.0
   0
LINE
   5
3A6
 100
AcDbEntity
   8
LEVEL001
 100
AcDbLine
   6
CONTINUOUS
  62
7
  10
 274.04818475679
  20
 208.85782170814
  30
0.0
  11
 310.04818475679
  21
 208.85782170814
  31
0.0
   0
LINE
   5
3A7
 100
AcDbEntity
   8
LEVEL001
 100
AcDbLine
   6
CONTINUOUS
  62
7
  10
 274.04818475679
  20
 208.85782170814
  30
0.0
  11
 274.04818475679
  21
 205.20053570814
  31
0.0
   0
LINE
   5
3A8
 100
AcDbEntity
   8
LEVEL001
 100
AcDbLine
   6
CONTINUOUS
  62
7
  10
 310.04818475679
  20
 204.13442870814
  30
0.0
  11
 309.04818475679
  21
 205.20053570814
  31
0.0
   0
LINE
   5
3A9
 100
AcDbEntity
   8
LEVEL001
 100
AcDbLine
   6
CONTINUOUS
  62
7
  10
 310.04818475679
  20
 204.13442870814
  30
0.0
  11
 310.04818475679
  21
 193.35782170814
  31
0.0
   0
LINE
   5
3AA
 100
AcDbEntity
   8
LEVEL001
 100
AcDbLine
   6
CONTINUOUS
  62
7
  10
 263.04818475679
  20
 207.35782170814
  30
0.0
  11
 268.04818475679
  21
 205.20053570814
  31
0.0
   0
LINE
   5
3AB
 100
AcDbEntity
   8
LEVEL001
 100
AcDbLine
   6
CONTINUOUS
  62
7
  10
 243.04818475679
  20
 155.35782170814
  30
0.0
  11
 243.04818475679
  21
 147.35782170814
  31
0.0
   0
LINE
   5
3AC
 100
AcDbEntity
   8
LEVEL001
 100
AcDbLine
   6
CONTINUOUS
  62
7
  10
 243.04818475679
  20
 236.57482170814
  30
0.0
  11
 243.04818475679
  21
 231.41781670814
  31
0.0
   0
LINE
   5
3AD
 100
AcDbEntity
   8
LEVEL001
 100
AcDbLine
   6
CONTINUOUS
  62
7
  10
 87.048184756786
  20
 155.35782170814
  30
0.0
  11
 87.048184756786
  21
 147.35782170814
  31
0.0
   0
LINE
   5
3AE
 100
AcDbEntity
   8
LEVEL001
 100
AcDbLine
   6
CONTINUOUS
  62
7
  10
 87.048184756786
  20
 236.57482170814
  30
0.0
  11
 87.048184756786
  21
 231.41781670814
  31
0.0
   0
ARC
   5
3AF
 100
AcDbEntity
   8
LEVEL001
   6
CONTINUOUS
  62
7
 100
AcDbCircle
  10
 112.04818475679
  20
 236.57482170814
  30
0.0
  40
 25.000000000000
 100
AcDbArc
  50
 96.206000000000
  51
 180.00000000000
   0
LINE
   5
3B0
 100
AcDbEntity
   8
LEVEL001
 100
AcDbLine
   6
CONTINUOUS
  62
7
  10
 243.04818475679
  20
 147.35782170814
  30
0.0
  11
 243.04818475679
  21
 130.35782170814
  31
0.0
   0
LINE
   5
3B1
 100
AcDbEntity
   8
LEVEL001
 100
AcDbLine
   6
CONTINUOUS
  62
7
  10
 87.048184756786
  20
 130.35782170814
  30
0.0
  11
 243.04818475679
  21
 130.35782170814
  31
0.0
   0
LINE
   5
3B2
 100
AcDbEntity
   8
LEVEL001
 100
AcDbLine
   6
CONTINUOUS
  62
7
  10
 87.048184756786
  20
 147.35782170814
  30
0.0
  11
 87.048184756786
  21
 130.35782170814
  31
0.0
   0
LINE
   5
3B3
 100
AcDbEntity
   8
LEVEL001
 100
AcDbLine
   6
CONTINUOUS
  62
7
  10
 268.04818475679
  20
 180.85782170814
  30
0.0
  11
 309.04818475679
  21
 180.85782170814
  31
0.0
   0
LINE
   5
3B4
 100
AcDbEntity
   8
LEVEL001
 100
AcDbLine
   6
CONTINUOUS
  62
7
  10
 263.04818475679
  20
 179.35782170814
  30
0.0
  11
 268.04818475679
  21
 180.85782170814
  31
0.0
   0
LINE
   5
3B5
 100
AcDbEntity
   8
LEVEL001
 100
AcDbLine
   6
CONTINUOUS
  62
7
  10
 310.04818475679
  20
 181.85782170814
  30
0.0
  11
 310.04818475679
  21
 193.35782170814
  31
0.0
   0
LINE
   5
3B6
 100
AcDbEntity
   8
LEVEL001
 100
AcDbLine
   6
CONTINUOUS
  62
7
  10
 309.04818475679
  20
 180.85782170814
  30
0.0
  11
 310.04818475679
  21
 181.85782170814
  31
0.0
   0
LINE
   5
3B7
 100
AcDbEntity
   8
LEVEL001
 100
AcDbLine
   6
CONTINUOUS
  62
7
  10
 152.92018475679
  20
 232.63382170814
  30
0.0
  11
 83.798184756786
  21
 231.35782170814
  31
0.0
   0
LINE
   5
3B8
 100
AcDbEntity
   8
LEVEL001
 100
AcDbLine
   6
CONTINUOUS
  62
7
  10
 177.17618475679
  20
 232.63382170814
  30
0.0
  11
 246.29818475679
  21
 231.35782170814
  31
0.0
   0
ARC
   5
3B9
 100
AcDbEntity
   8
LEVEL001
   6
CONTINUOUS
  62
7
 100
AcDbCircle
  10
 256.54818475679
  20
 230.35782170814
  30
0.0
  40
 2.0000000000000
 100
AcDbArc
  50
 0.99999999972914E-3
  51
 89.999999999976
   0
LINE
   5
3BA
 100
AcDbEntity
   8
LEVEL001
 100
AcDbLine
   6
CONTINUOUS
  62
7
  10
 256.54818475679
  20
 232.35782170814
  30
0.0
  11
 246.54818475679
  21
 232.35782170814
  31
0.0
   0
ARC
   5
3BB
 100
AcDbEntity
   8
LEVEL001
   6
CONTINUOUS
  62
7
 100
AcDbCircle
  10
 256.54818475679
  20
 156.35782170814
  30
0.0
  40
 2.0000000000000
 100
AcDbArc
  50
 270.00020000000
  51
 0.10584885979911E-10
   0
LINE
   5
3BC
 100
AcDbEntity
   8
LEVEL001
 100
AcDbLine
   6
CONTINUOUS
  62
7
  10
 256.54818475679
  20
 154.35782170814
  30
0.0
  11
 246.54818475679
  21
 154.35782170814
  31
0.0
   0
LINE
   5
3BD
 100
AcDbEntity
   8
LEVEL001
 100
AcDbLine
   6
CONTINUOUS
  62
7
  10
 258.54818475679
  20
 179.35782170814
  30
0.0
  11
 263.04818475679
  21
 179.35782170814
  31
0.0
   0
LINE
   5
3BE
 100
AcDbEntity
   8
LEVEL001
 100
AcDbLine
   6
CONTINUOUS
  62
7
  10
 246.54818475679
  20
 232.35782170814
  30
0.0
  11
 246.54818475679
  21
 154.35782170814
  31
0.0
   0
LINE
   5
3BF
 100
AcDbEntity
   8
LEVEL001
 100
AcDbLine
   6
CONTINUOUS
  62
7
  10
 246.29818475679
  20
 155.35782170814
  30
0.0
  11
 246.29818475679
  21
 231.35782170814
  31
0.0
   0
LINE
   5
3C0
 100
AcDbEntity
   8
LEVEL001
 100
AcDbLine
   6
CONTINUOUS
  62
7
  10
 83.548184756786
  20
 232.35782170814
  30
0.0
  11
 83.548184756786
  21
 154.35782170814
  31
0.0
   0
LINE
   5
3C1
 100
AcDbEntity
   8
LEVEL001
 100
AcDbLine
   6
CONTINUOUS
  62
7
  10
 83.798184756786
  20
 155.35782170814
  30
0.0
  11
 83.798184756786
  21
 231.35782170814
  31
0.0
   0
ARC
   5
3C2
 100
AcDbEntity
   8
LEVEL001
   6
CONTINUOUS
  62
7
 100
AcDbCircle
  10
 73.548184756785
  20
 156.35782170814
  30
0.0
  40
 2.0000000000000
 100
AcDbArc
  50
 180.00000000000
  51
 269.99980000002
   0
LINE
   5
3C3
 100
AcDbEntity
   8
LEVEL001
 100
AcDbLine
   6
CONTINUOUS
  62
7
  10
 73.548184756786
  20
 154.35782170814
  30
0.0
  11
 83.548184756786
  21
 154.35782170814
  31
0.0
   0
ARC
   5
3C4
 100
AcDbEntity
   8
LEVEL001
   6
CONTINUOUS
  62
7
 100
AcDbCircle
  10
 73.548184756786
  20
 230.35782170814
  30
0.0
  40
 2.0000000000000
 100
AcDbArc
  50
 90.000000000000
  51
 180.00000000004
   0
LINE
   5
3C5
 100
AcDbEntity
   8
LEVEL001
 100
AcDbLine
   6
CONTINUOUS
  62
7
  10
 73.548184756786
  20
 232.35782170814
  30
0.0
  11
 83.548184756786
  21
 232.35782170814
  31
0.0
   0
LINE
   5
3C6
 100
AcDbEntity
   8
LEVEL001
 100
AcDbLine
   6
CONTINUOUS
  62
7
  10
 203.19818475679
  20
 646.85782170814
  30
0.0
  11
 201.04818475679
  21
 651.35782170814
  31
0.0
   0
LINE
   5
3C7
 100
AcDbEntity
   8
LEVEL001
 100
AcDbLine
   6
CONTINUOUS
  62
7
  10
 126.89818475679
  20
 646.85782170814
  30
0.0
  11
 129.04818475679
  21
 651.35782170814
  31
0.0
   0
LINE
   5
3C8
 100
AcDbEntity
   8
LEVEL001
 100
AcDbLine
   6
CONTINUOUS
  62
7
  10
 129.04818475679
  20
 651.35782170814
  30
0.0
  11
 201.04818475679
  21
 651.35782170814
  31
0.0
   0
LINE
   5
3C9
 100
AcDbEntity
   8
LEVEL001
 100
AcDbLine
   6
CONTINUOUS
  62
7
  10
 201.54818475679
  20
 277.35782170814
  30
0.0
  11
 202.54818475679
  21
 281.08982170814
  31
0.0
   0
LINE
   5
3CA
 100
AcDbEntity
   8
LEVEL001
 100
AcDbLine
   6
CONTINUOUS
  62
7
  10
 128.54818475679
  20
 277.35782170814
  30
0.0
  11
 127.54818475679
  21
 281.08982170814
  31
0.0
   0
LINE
   5
3CB
 100
AcDbEntity
   8
LEVEL001
 100
AcDbLine
   6
CONTINUOUS
  62
7
  10
 192.29818475679
  20
 78.357821708144
  30
0.0
  11
 192.29818475679
  21
 81.357821708144
  31
0.0
   0
LINE
   5
3CC
 100
AcDbEntity
   8
LEVEL001
 100
AcDbLine
   6
CONTINUOUS
  62
7
  10
 189.04818475679
  20
-3.6421782918565
  30
0.0
  11
 190.04818475679
  21
-2.6421782918565
  31
0.0
   0
LINE
   5
3CD
 100
AcDbEntity
   8
LEVEL001
 100
AcDbLine
   6
CONTINUOUS
  62
7
  10
 190.04818475679
  20
 40.957821708144
  30
0.0
  11
 189.04818475679
  21
 41.957821708144
  31
0.0
   0
ARC
   5
3CE
 100
AcDbEntity
   8
LEVEL001
   6
CONTINUOUS
  62
7
 100
AcDbCircle
  10
 191.04818475679
  20
 44.357821708144
  30
0.0
  40
 2.0000000000000
 100
AcDbArc
  50
 90.000000000000
  51
 179.99900000001
   0
LINE
   5
3CF
 100
AcDbEntity
   8
LEVEL001
 100
AcDbLine
   6
CONTINUOUS
  62
7
  10
 189.04818475679
  20
 41.957821708144
  30
0.0
  11
 189.04818475679
  21
 44.357821708144
  31
0.0
   0
LINE
   5
3D0
 100
AcDbEntity
   8
LEVEL001
 100
AcDbLine
   6
CONTINUOUS
  62
7
  10
 137.54818475679
  20
 46.357821708144
  30
0.0
  11
 137.54818475679
  21
 78.357821708144
  31
0.0
   0
LINE
   5
3D1
 100
AcDbEntity
   8
LEVEL001
 100
AcDbLine
   6
CONTINUOUS
  62
7
  10
 137.54818475679
  20
 78.357821708144
  30
0.0
  11
 137.79818475679
  21
 78.357821708144
  31
0.0
   0
LINE
   5
3D2
 100
AcDbEntity
   8
LEVEL001
 100
AcDbLine
   6
CONTINUOUS
  62
7
  10
 137.79818475679
  20
 78.357821708144
  30
0.0
  11
 137.79818475679
  21
 81.357821708144
  31
0.0
   0
LINE
   5
3D3
 100
AcDbEntity
   8
LEVEL001
 100
AcDbLine
   6
CONTINUOUS
  62
7
  10
 137.79818475679
  20
 81.357821708144
  30
0.0
  11
 137.54818475679
  21
 81.357821708144
  31
0.0
   0
LINE
   5
3D4
 100
AcDbEntity
   8
LEVEL001
 100
AcDbLine
   6
CONTINUOUS
  62
7
  10
 141.04818475679
  20
-3.6421782918565
  30
0.0
  11
 140.04818475679
  21
-2.6421782918565
  31
0.0
   0
LINE
   5
3D5
 100
AcDbEntity
   8
LEVEL001
 100
AcDbLine
   6
CONTINUOUS
  62
7
  10
 140.04818475679
  20
-2.6421782918565
  30
0.0
  11
 140.04818475679
  21
 40.957821708144
  31
0.0
   0
LINE
   5
3D6
 100
AcDbEntity
   8
LEVEL001
 100
AcDbLine
   6
CONTINUOUS
  62
7
  10
 140.04818475679
  20
 40.957821708144
  30
0.0
  11
 141.04818475679
  21
 41.957821708144
  31
0.0
   0
ARC
   5
3D7
 100
AcDbEntity
   8
LEVEL001
   6
CONTINUOUS
  62
7
 100
AcDbCircle
  10
 139.04818475679
  20
 44.357821708144
  30
0.0
  40
 2.0000000000000
 100
AcDbArc
  50
 0.89999999982942E-3
  51
 89.999999999972
   0
LINE
   5
3D8
 100
AcDbEntity
   8
LEVEL001
 100
AcDbLine
   6
CONTINUOUS
  62
7
  10
 141.04818475679
  20
-3.6421782918565
  30
0.0
  11
 141.04818475679
  21
 41.957821708144
  31
0.0
   0
LINE
   5
3D9
 100
AcDbEntity
   8
LEVEL001
 100
AcDbLine
   6
CONTINUOUS
  62
7
  10
 141.04818475679
  20
 41.957821708144
  30
0.0
  11
 141.04818475679
  21
 44.357821708144
  31
0.0
   0
LINE
   5
3DA
 100
AcDbEntity
   8
LEVEL001
 100
AcDbLine
   6
CONTINUOUS
  62
7
  10
 137.54818475679
  20
 81.357821708144
  30
0.0
  11
 136.54818475679
  21
 81.357821708144
  31
0.0
   0
ARC
   5
3DB
 100
AcDbEntity
   8
LEVEL001
   6
CONTINUOUS
  62
7
 100
AcDbCircle
  10
 205.54818475679
  20
 83.357821708143
  30
0.0
  40
 2.0000000000000
 100
AcDbArc
  50
 270.00087600000
  51
 0.17000000227468E-2
   0
LINE
   5
3DC
 100
AcDbEntity
   8
LEVEL001
 100
AcDbLine
   6
CONTINUOUS
  62
7
  10
 210.04818475679
  20
 128.35782170814
  30
0.0
  11
 210.04818475679
  21
 105.35782170814
  31
0.0
   0
ARC
   5
3DD
 100
AcDbEntity
   8
LEVEL001
   6
CONTINUOUS
  62
7
 100
AcDbCircle
  10
 210.04818475679
  20
 102.85782170814
  30
0.0
  40
 2.5000000000000
 100
AcDbArc
  50
 89.999000000000
  51
 179.99899999998
   0
LINE
   5
3DE
 100
AcDbEntity
   8
LEVEL001
 100
AcDbLine
   6
CONTINUOUS
  62
7
  10
 207.54818475679
  20
 102.85782170814
  30
0.0
  11
 207.54818475679
  21
 83.357821708144
  31
0.0
   0
ARC
   5
3DF
 100
AcDbEntity
   8
LEVEL001
   6
CONTINUOUS
  62
7
 100
AcDbCircle
  10
 208.04818475679
  20
 274.35782170814
  30
0.0
  40
 2.0000000000000
 100
AcDbArc
  50
0.0
  51
 89.998999999989
   0
LINE
   5
3E0
 100
AcDbEntity
   8
LEVEL001
 100
AcDbLine
   6
CONTINUOUS
  62
7
  10
 210.04818475679
  20
 274.35782170814
  30
0.0
  11
 210.04818475679
  21
 273.35782170814
  31
0.0
   0
ARC
   5
3E1
 100
AcDbEntity
   8
LEVEL001
   6
CONTINUOUS
  62
7
 100
AcDbCircle
  10
 222.04818475679
  20
 273.35782170814
  30
0.0
  40
 12.000000000000
 100
AcDbArc
  50
 180.00000000000
  51
 263.79400000000
   0
LINE
   5
3E2
 100
AcDbEntity
   8
LEVEL001
 100
AcDbLine
   6
CONTINUOUS
  62
7
  10
 120.04818475679
  20
 128.35782170814
  30
0.0
  11
 120.04818475679
  21
 105.35782170814
  31
0.0
   0
ARC
   5
3E3
 100
AcDbEntity
   8
LEVEL001
   6
CONTINUOUS
  62
7
 100
AcDbCircle
  10
 120.04818475679
  20
 102.85782170814
  30
0.0
  40
 2.5000000000000
 100
AcDbArc
  50
 0.13999999996904E-2
  51
 89.999999999990
   0
LINE
   5
3E4
 100
AcDbEntity
   8
LEVEL001
 100
AcDbLine
   6
CONTINUOUS
  62
7
  10
 122.54818475679
  20
 102.85782170814
  30
0.0
  11
 122.54818475679
  21
 83.357821708144
  31
0.0
   0
ARC
   5
3E5
 100
AcDbEntity
   8
LEVEL001
   6
CONTINUOUS
  62
7
 100
AcDbCircle
  10
 124.54818475679
  20
 83.357821708144
  30
0.0
  40
 2.0000000000000
 100
AcDbArc
  50
 179.99800000000
  51
 270.00043500000
   0
ARC
   5
3E6
 100
AcDbEntity
   8
LEVEL001
   6
CONTINUOUS
  62
7
 100
AcDbCircle
  10
 122.04818475679
  20
 274.35782170814
  30
0.0
  40
 2.0000000000000
 100
AcDbArc
  50
 90.000000000000
  51
 180.00000000003
   0
LINE
   5
3E7
 100
AcDbEntity
   8
LEVEL001
 100
AcDbLine
   6
CONTINUOUS
  62
7
  10
 120.04818475679
  20
 274.35782170814
  30
0.0
  11
 120.04818475679
  21
 273.35782170814
  31
0.0
   0
ARC
   5
3E8
 100
AcDbEntity
   8
LEVEL001
   6
CONTINUOUS
  62
7
 100
AcDbCircle
  10
 108.04818475679
  20
 273.35782170814
  30
0.0
  40
 12.000000000000
 100
AcDbArc
  50
 276.20629000000
  51
 0.30000000169646E-3
   0
LINE
   5
3E9
 100
AcDbEntity
   8
LEVEL001
 100
AcDbLine
   6
CONTINUOUS
  62
7
  10
 202.54818475679
  20
 276.35782170814
  30
0.0
  11
 202.54818475679
  21
 281.08982170814
  31
0.0
   0
LINE
   5
3EA
 100
AcDbEntity
   8
LEVEL001
 100
AcDbLine
   6
CONTINUOUS
  62
7
  10
 201.54818475679
  20
 276.35782170814
  30
0.0
  11
 201.54818475679
  21
 277.35782170814
  31
0.0
   0
LINE
   5
3EB
 100
AcDbEntity
   8
LEVEL001
 100
AcDbLine
   6
CONTINUOUS
  62
7
  10
 201.54818475679
  20
 277.35782170814
  30
0.0
  11
 202.54818475679
  21
 277.35782170814
  31
0.0
   0
LINE
   5
3EC
 100
AcDbEntity
   8
LEVEL001
 100
AcDbLine
   6
CONTINUOUS
  62
7
  10
 128.54818475679
  20
 276.35782170814
  30
0.0
  11
 128.54818475679
  21
 277.35782170814
  31
0.0
   0
LINE
   5
3ED
 100
AcDbEntity
   8
LEVEL001
 100
AcDbLine
   6
CONTINUOUS
  62
7
  10
 128.54818475679
  20
 277.35782170814
  30
0.0
  11
 127.54818475679
  21
 277.35782170814
  31
0.0
   0
LINE
   5
3EE
 100
AcDbEntity
   8
LEVEL001
 100
AcDbLine
   6
CONTINUOUS
  62
7
  10
 127.54818475679
  20
 276.35782170814
  30
0.0
  11
 127.54818475679
  21
 281.08982170814
  31
0.0
   0
LINE
   5
3EF
 100
AcDbEntity
   8
LEVEL001
 100
AcDbLine
   6
CONTINUOUS
  62
7
  10
 120.04818475679
  20
 105.35782170814
  30
0.0
  11
 210.04818475679
  21
 105.35782170814
  31
0.0
   0
ARC
   5
3F0
 100
AcDbEntity
   8
LEVEL001
   6
CONTINUOUS
  62
7
 100
AcDbCircle
  10
 213.04818475679
  20
 128.35782170814
  30
0.0
  40
 3.0000000000000
 100
AcDbArc
  50
 138.19000000000
  51
 180.00000000001
   0
ARC
   5
3F1
 100
AcDbEntity
   8
LEVEL001
   6
CONTINUOUS
  62
7
 100
AcDbCircle
  10
 117.04818475679
  20
 128.35782170814
  30
0.0
  40
 3.0000000000000
 100
AcDbArc
  50
0.0
  51
 41.809999999991
   0
LINE
   5
3F2
 100
AcDbEntity
   8
LEVEL001
 100
AcDbLine
   6
CONTINUOUS
  62
7
  10
 218.04818475679
  20
 261.57482170814
  30
0.0
  11
 112.04818475679
  21
 261.57482170814
  31
0.0
   0
ARC
   5
3F3
 100
AcDbEntity
   8
LEVEL001
   6
CONTINUOUS
  62
7
 100
AcDbCircle
  10
 218.04818475679
  20
 236.57482170814
  30
0.0
  40
 25.000000000000
 100
AcDbArc
  50
 0.99999999967984E-4
  51
 83.794000000000
   0
LINE
   5
3F4
 100
AcDbEntity
   8
LEVEL001
 100
AcDbLine
   6
CONTINUOUS
  62
7
  10
 126.89818475679
  20
 646.85782170814
  30
0.0
  11
 203.19818475679
  21
 646.85782170814
  31
0.0
   0
LINE
   5
3F5
 100
AcDbEntity
   8
LEVEL001
 100
AcDbLine
   6
CONTINUOUS
  62
7
  10
 126.89818475679
  20
 281.08982170814
  30
0.0
  11
 126.89818475679
  21
 646.85782170814
  31
0.0
   0
LINE
   5
3F6
 100
AcDbEntity
   8
LEVEL001
 100
AcDbLine
   6
CONTINUOUS
  62
7
  10
 203.19818475679
  20
 281.08982170814
  30
0.0
  11
 203.19818475679
  21
 646.85782170814
  31
0.0
   0
LINE
   5
3F7
 100
AcDbEntity
   8
LEVEL001
 100
AcDbLine
   6
CONTINUOUS
  62
7
  10
 203.19818475679
  20
 281.08982170814
  30
0.0
  11
 126.89818475679
  21
 281.08982170814
  31
0.0
   0
LINE
   5
3F8
 100
AcDbEntity
   8
LEVEL001
 100
AcDbLine
   6
CONTINUOUS
  62
7
  10
 208.04821975679
  20
 276.35782170814
  30
0.0
  11
 122.04818475679
  21
 276.35782170814
  31
0.0
   0
LINE
   5
3F9
 100
AcDbEntity
   8
LEVEL001
 100
AcDbLine
   6
CONTINUOUS
  62
7
  10
 205.54821575679
  20
 81.357821708144
  30
0.0
  11
 124.54818475679
  21
 81.357821708144
  31
0.0
   0
LINE
   5
3FA
 100
AcDbEntity
   8
LEVEL001
 100
AcDbLine
   6
CONTINUOUS
  62
7
  10
 137.54818475679
  20
 78.357821708144
  30
0.0
  11
 192.54818475679
  21
 78.357821708144
  31
0.0
   0
LINE
   5
3FB
 100
AcDbEntity
   8
LEVEL001
 100
AcDbLine
   6
CONTINUOUS
  62
7
  10
 137.54818475679
  20
 46.357821708144
  30
0.0
  11
 192.54818475679
  21
 46.357821708144
  31
0.0
   0
LINE
   5
3FC
 100
AcDbEntity
   8
LEVEL001
 100
AcDbLine
   6
CONTINUOUS
  62
7
  10
 192.54818475679
  20
 46.357821708144
  30
0.0
  11
 192.54818475679
  21
 78.357821708144
  31
0.0
   0
LINE
   5
3FD
 100
AcDbEntity
   8
LEVEL001
 100
AcDbLine
   6
CONTINUOUS
  62
7
  10
 140.04818475679
  20
 40.957821708144
  30
0.0
  11
 190.04818475679
  21
 40.957821708144
  31
0.0
   0
LINE
   5
3FE
 100
AcDbEntity
   8
LEVEL001
 100
AcDbLine
   6
CONTINUOUS
  62
7
  10
 190.04818475679
  20
-2.6421782918565
  30
0.0
  11
 140.04818475679
  21
-2.6421782918565
  31
0.0
   0
LINE
   5
3FF
 100
AcDbEntity
   8
LEVEL001
 100
AcDbLine
   6
CONTINUOUS
  62
7
  10
 190.04818475679
  20
-2.6421782918565
  30
0.0
  11
 190.04818475679
  21
 40.957821708144
  31
0.0
   0
LINE
   5
400
 100
AcDbEntity
   8
LEVEL001
 100
AcDbLine
   6
CONTINUOUS
  62
7
  10
 141.04818475679
  20
-3.6421782918565
  30
0.0
  11
 189.04818475679
  21
-3.6421782918565
  31
0.0
   0
LINE
   5
401
 100
AcDbEntity
   8
LEVEL001
 100
AcDbLine
   6
CONTINUOUS
  62
7
  10
 189.04818475679
  20
-3.6421782918565
  30
0.0
  11
 189.04818475679
  21
 41.957821708144
  31
0.0
   0
ARC
   5
402
 100
AcDbEntity
   8
LEVEL001
   6
CONTINUOUS
  62
7
 100
AcDbCircle
  10
 185.04818475679
  20
 762.00795913830
  30
0.0
  40
 1.0001120000000
 100
AcDbArc
  50
 179.14062773318
  51
 0.26685254228074E-6
   0
CIRCLE
   5
403
 100
AcDbEntity
   8
LEVEL001
 100
AcDbCircle
   6
CONTINUOUS
  62
7
  10
 210.04818475679
  20
 757.97895914296
  30
0.0
  40
 11.000000000000
   0
ARC
   5
404
 100
AcDbEntity
   8
LEVEL001
   6
CONTINUOUS
  62
7
 100
AcDbCircle
  10
 120.04818475678
  20
 757.97895914296
  30
0.0
  40
 21.500000000000
 100
AcDbArc
  50
 120.46300000000
  51
 57.421399999996
   0
LINE
   5
405
 100
AcDbEntity
   8
LEVEL001
 100
AcDbLine
   6
CONTINUOUS
  62
7
  10
 62.048184756786
  20
 827.47895914296
  30
0.0
  11
 21.048184756786
  21
 827.47895914296
  31
0.0
   0
LINE
   5
406
 100
AcDbEntity
   8
LEVEL001
 100
AcDbLine
   6
CONTINUOUS
  62
7
  10
 67.048184756786
  20
 828.97895914296
  30
0.0
  11
 62.048184756786
  21
 827.47895914296
  31
0.0
   0
LINE
   5
407
 100
AcDbEntity
   8
LEVEL001
 100
AcDbLine
   6
CONTINUOUS
  62
7
  10
 67.048184756786
  20
 828.97895914296
  30
0.0
  11
 67.048184756786
  21
 814.97895914296
  31
0.0
   0
LINE
   5
408
 100
AcDbEntity
   8
LEVEL001
 100
AcDbLine
   6
CONTINUOUS
  62
7
  10
 66.548184756786
  20
 810.97895914296
  30
0.0
  11
 66.548184756786
  21
 814.97895914296
  31
0.0
   0
LINE
   5
409
 100
AcDbEntity
   8
LEVEL001
 100
AcDbLine
   6
CONTINUOUS
  62
7
  10
 67.048184756786
  20
 800.97895914296
  30
0.0
  11
 67.048184756786
  21
 814.97895914296
  31
0.0
   0
LINE
   5
40A
 100
AcDbEntity
   8
LEVEL001
 100
AcDbLine
   6
CONTINUOUS
  62
7
  10
 66.548184756786
  20
 818.97895914296
  30
0.0
  11
 66.548184756786
  21
 814.97895914296
  31
0.0
   0
LINE
   5
40B
 100
AcDbEntity
   8
LEVEL001
 100
AcDbLine
   6
CONTINUOUS
  62
7
  10
 62.048184756786
  20
 827.47895914296
  30
0.0
  11
 62.048184756786
  21
 818.97895914296
  31
0.0
   0
LINE
   5
40C
 100
AcDbEntity
   8
LEVEL001
 100
AcDbLine
   6
CONTINUOUS
  62
7
  10
 66.548184756786
  20
 818.97895914296
  30
0.0
  11
 20.048184756786
  21
 818.97895914296
  31
0.0
   0
LINE
   5
40D
 100
AcDbEntity
   8
LEVEL001
 100
AcDbLine
   6
CONTINUOUS
  62
7
  10
 66.548184756786
  20
 810.97895914296
  30
0.0
  11
 20.048184756786
  21
 810.97895914296
  31
0.0
   0
LINE
   5
40E
 100
AcDbEntity
   8
LEVEL001
 100
AcDbLine
   6
CONTINUOUS
  62
7
  10
 62.048184756786
  20
 802.47895914296
  30
0.0
  11
 62.048184756786
  21
 810.97895914296
  31
0.0
   0
LINE
   5
40F
 100
AcDbEntity
   8
LEVEL001
 100
AcDbLine
   6
CONTINUOUS
  62
7
  10
 62.048184756786
  20
 802.47895914296
  30
0.0
  11
 21.048184756786
  21
 802.47895914296
  31
0.0
   0
LINE
   5
410
 100
AcDbEntity
   8
LEVEL001
 100
AcDbLine
   6
CONTINUOUS
  62
7
  10
 67.048184756786
  20
 800.97895914296
  30
0.0
  11
 62.048184756786
  21
 802.47895914296
  31
0.0
   0
LINE
   5
411
 100
AcDbEntity
   8
LEVEL001
 100
AcDbLine
   6
CONTINUOUS
  62
7
  10
 21.048184756786
  20
 802.47895914296
  30
0.0
  11
 21.048184756786
  21
 810.97895914296
  31
0.0
   0
LINE
   5
412
 100
AcDbEntity
   8
LEVEL001
 100
AcDbLine
   6
CONTINUOUS
  62
7
  10
 20.048184756786
  20
 803.47895914296
  30
0.0
  11
 20.048184756786
  21
 814.97895914296
  31
0.0
   0
LINE
   5
413
 100
AcDbEntity
   8
LEVEL001
 100
AcDbLine
   6
CONTINUOUS
  62
7
  10
 20.048184756786
  20
 826.47895914296
  30
0.0
  11
 20.048184756786
  21
 814.97895914296
  31
0.0
   0
LINE
   5
414
 100
AcDbEntity
   8
LEVEL001
 100
AcDbLine
   6
CONTINUOUS
  62
7
  10
 21.048184756786
  20
 827.47895914296
  30
0.0
  11
 21.048184756786
  21
 818.97895914296
  31
0.0
   0
LINE
   5
415
 100
AcDbEntity
   8
LEVEL001
 100
AcDbLine
   6
CONTINUOUS
  62
7
  10
 21.048184756786
  20
 827.47895914296
  30
0.0
  11
 20.048184756786
  21
 826.47895914296
  31
0.0
   0
LINE
   5
416
 100
AcDbEntity
   8
LEVEL001
 100
AcDbLine
   6
CONTINUOUS
  62
7
  10
 56.048184756786
  20
 818.97895914296
  30
0.0
  11
 56.048184756786
  21
 810.97895914296
  31
0.0
   0
LINE
   5
417
 100
AcDbEntity
   8
LEVEL001
 100
AcDbLine
   6
CONTINUOUS
  62
7
  10
 235.39818475679
  20
 776.77795914296
  30
0.0
  11
 233.99118475679
  21
 756.33195914296
  31
0.0
   0
LINE
   5
418
 100
AcDbEntity
   8
LEVEL001
 100
AcDbLine
   6
CONTINUOUS
  62
7
  10
 94.698184756787
  20
 776.77795914296
  30
0.0
  11
 96.105184756786
  21
 756.33195914296
  31
0.0
   0
CIRCLE
   5
419
 100
AcDbEntity
   8
LEVEL001
 100
AcDbCircle
   6
CONTINUOUS
  62
7
  10
 120.04818475679
  20
 757.97895914296
  30
0.0
  40
 11.000000000000
   0
LINE
   5
41A
 100
AcDbEntity
   8
LEVEL001
 100
AcDbLine
   6
CONTINUOUS
  62
7
  10
 165.04818475679
  20
 732.97895914296
  30
0.0
  11
 210.57818475679
  21
 733.98495914296
  31
0.0
   0
ARC
   5
41B
 100
AcDbEntity
   8
LEVEL001
   6
CONTINUOUS
  62
7
 100
AcDbCircle
  10
 210.04818475679
  20
 757.97895914296
  30
0.0
  40
 24.000000000000
 100
AcDbArc
  50
 271.26600000000
  51
 356.06400000000
   0
LINE
   5
41C
 100
AcDbEntity
   8
LEVEL001
 100
AcDbLine
   6
CONTINUOUS
  62
7
  10
 165.04818475679
  20
 732.97895914296
  30
0.0
  11
 119.51818475679
  21
 733.98495914296
  31
0.0
   0
ARC
   5
41D
 100
AcDbEntity
   8
LEVEL001
   6
CONTINUOUS
  62
7
 100
AcDbCircle
  10
 120.04818475679
  20
 757.97895914296
  30
0.0
  40
 24.000000000000
 100
AcDbArc
  50
 183.93600000000
  51
 268.73400000000
   0
LINE
   5
41E
 100
AcDbEntity
   8
LEVEL001
 100
AcDbLine
   6
CONTINUOUS
  62
7
  10
 20.048184756786
  20
 803.47895914296
  30
0.0
  11
 21.048184756786
  21
 802.47895914296
  31
0.0
   0
ARC
   5
41F
 100
AcDbEntity
   8
LEVEL001
   6
CONTINUOUS
  62
7
 100
AcDbCircle
  10
 242.43718475679
  20
 857.97895914296
  30
0.0
  40
 5.0000000000000
 100
AcDbArc
  50
 158.81100000003
  51
 269.99999999992
   0
LINE
   5
420
 100
AcDbEntity
   8
LEVEL001
 100
AcDbLine
   6
CONTINUOUS
  62
7
  10
 242.43718475679
  20
 852.97895914296
  30
0.0
  11
 246.29818475679
  21
 852.97895914296
  31
0.0
   0
ARC
   5
421
 100
AcDbEntity
   8
LEVEL001
   6
CONTINUOUS
  62
7
 100
AcDbCircle
  10
 87.659184756794
  20
 857.97895914294
  30
0.0
  40
 5.0000000000000
 100
AcDbArc
  50
 269.99999999992
  51
 21.189500000228
   0
LINE
   5
422
 100
AcDbEntity
   8
LEVEL001
 100
AcDbLine
   6
CONTINUOUS
  62
7
  10
 87.659184756787
  20
 852.97895914296
  30
0.0
  11
 83.798184756787
  21
 852.97895914296
  31
0.0
   0
LINE
   5
423
 100
AcDbEntity
   8
LEVEL001
 100
AcDbLine
   6
CONTINUOUS
  62
7
  10
 96.161184756786
  20
 985.30595914296
  30
0.0
  11
 87.416184756786
  21
 895.54295914296
  31
0.0
   0
LINE
   5
424
 100
AcDbEntity
   8
LEVEL001
 100
AcDbLine
   6
CONTINUOUS
  62
7
  10
 233.93518475679
  20
 985.30595914296
  30
0.0
  11
 242.68018475679
  21
 895.54295914296
  31
0.0
   0
ARC
   5
425
 100
AcDbEntity
   8
LEVEL001
   6
CONTINUOUS
  62
7
 100
AcDbCircle
  10
 175.35718475680
  20
 738.20795914296
  30
0.0
  40
 5.0000000000000
 100
AcDbArc
  50
 176.63300000002
  51
 271.26599999981
   0
ARC
   5
426
 100
AcDbEntity
   8
LEVEL001
   6
CONTINUOUS
  62
7
 100
AcDbCircle
  10
 154.73918475679
  20
 738.20795914294
  30
0.0
  40
 5.0000000000000
 100
AcDbArc
  50
 268.73399999998
  51
 3.3669700002082
   0
ARC
   5
427
 100
AcDbEntity
   8
LEVEL001
   6
CONTINUOUS
  62
7
 100
AcDbCircle
  10
 152.82718475678
  20
 770.70395914296
  30
0.0
  40
 5.0000000000000
 100
AcDbArc
  50
 3.3675399999907
  51
 88.942699999890
   0
ARC
   5
428
 100
AcDbEntity
   8
LEVEL001
   6
CONTINUOUS
  62
7
 100
AcDbCircle
  10
 177.26918475679
  20
 770.70395914296
  30
0.0
  40
 5.0000000000000
 100
AcDbArc
  50
 91.058399999995
  51
 176.63199999996
   0
LINE
   5
429
 100
AcDbEntity
   8
LEVEL001
 100
AcDbLine
   6
CONTINUOUS
  62
7
  10
 240.80118475679
  20
 853.25395914296
  30
0.0
  11
 242.85618475679
  21
 882.51295914296
  31
0.0
   0
LINE
   5
42A
 100
AcDbEntity
   8
LEVEL001
 100
AcDbLine
   6
CONTINUOUS
  62
7
  10
 159.73118475679
  20
 738.50195914296
  30
0.0
  11
 157.54718475679
  21
 775.61695914296
  31
0.0
   0
LINE
   5
42B
 100
AcDbEntity
   8
LEVEL001
 100
AcDbLine
   6
CONTINUOUS
  62
7
  10
 170.36518475679
  20
 738.50195914296
  30
0.0
  11
 172.54918475679
  21
 775.61695914296
  31
0.0
   0
LINE
   5
42C
 100
AcDbEntity
   8
LEVEL001
 100
AcDbLine
   6
CONTINUOUS
  62
7
  10
 177.17618475679
  20
 775.70295914296
  30
0.0
  11
 246.29818475679
  21
 776.97895914296
  31
0.0
   0
LINE
   5
42D
 100
AcDbEntity
   8
LEVEL001
 100
AcDbLine
   6
CONTINUOUS
  62
7
  10
 152.92018475679
  20
 775.70295914296
  30
0.0
  11
 83.798184756787
  21
 776.97895914296
  31
0.0
   0
ARC
   5
42E
 100
AcDbEntity
   8
LEVEL001
   6
CONTINUOUS
  62
7
 100
AcDbCircle
  10
 152.55618475680
  20
 775.32395914296
  30
0.0
  40
 5.0000000000000
 100
AcDbArc
  50
 60.100900000040
  51
 88.942800000047
   0
ARC
   5
42F
 100
AcDbEntity
   8
LEVEL001
   6
CONTINUOUS
  62
7
 100
AcDbCircle
  10
 177.54018475677
  20
 775.32395914296
  30
0.0
  40
 5.0000000000000
 100
AcDbArc
  50
 91.058199999829
  51
 119.89899999980
   0
ARC
   5
430
 100
AcDbEntity
   8
LEVEL001
   6
CONTINUOUS
  62
7
 100
AcDbCircle
  10
 152.55618475680
  20
 775.32395914295
  30
0.0
  40
 5.0000000000000
 100
AcDbArc
  50
 3.3667400000763
  51
 60.100300000138
   0
ARC
   5
431
 100
AcDbEntity
   8
LEVEL001
   6
CONTINUOUS
  62
7
 100
AcDbCircle
  10
 177.54018475679
  20
 775.32395914295
  30
0.0
  40
 5.0000000000000
 100
AcDbArc
  50
 91.058399999992
  51
 176.63199999989
   0
LINE
   5
432
 100
AcDbEntity
   8
LEVEL001
 100
AcDbLine
   6
CONTINUOUS
  62
7
  10
 89.295184756787
  20
 853.25395914296
  30
0.0
  11
 87.240184756786
  21
 882.51295914296
  31
0.0
   0
CIRCLE
   5
433
 100
AcDbEntity
   8
LEVEL001
 100
AcDbCircle
   6
CONTINUOUS
  62
7
  10
 165.04818475679
  20
 887.97895914296
  30
0.0
  40
 36.000000000000
   0
CIRCLE
   5
434
 100
AcDbEntity
   8
LEVEL001
 100
AcDbCircle
   6
CONTINUOUS
  62
7
  10
 165.04818475679
  20
 887.97895914296
  30
0.0
  40
 38.150000000000
   0
CIRCLE
   5
435
 100
AcDbEntity
   8
LEVEL001
 100
AcDbCircle
   6
CONTINUOUS
  62
7
  10
 165.04818475679
  20
 887.97895914296
  30
0.0
  40
 45.000000000000
   0
CIRCLE
   5
436
 100
AcDbEntity
   8
LEVEL001
 100
AcDbCircle
   6
CONTINUOUS
  62
7
  10
 165.04818475679
  20
 887.97895914296
  30
0.0
  40
 78.000000000000
   0
ARC
   5
437
 100
AcDbEntity
   8
LEVEL001
   6
CONTINUOUS
  62
7
 100
AcDbCircle
  10
 73.548184756764
  20
 777.97895914296
  30
0.0
  40
 2.0000000000000
 100
AcDbArc
  50
 180.00100000000
  51
 270.00000000064
   0
LINE
   5
438
 100
AcDbEntity
   8
LEVEL001
 100
AcDbLine
   6
CONTINUOUS
  62
7
  10
 73.548184756786
  20
 775.97895914296
  30
0.0
  11
 83.548184756786
  21
 775.97895914296
  31
0.0
   0
LINE
   5
439
 100
AcDbEntity
   8
LEVEL001
 100
AcDbLine
   6
CONTINUOUS
  62
7
  10
 71.548184756786
  20
 814.97895914296
  30
0.0
  11
 71.548184756786
  21
 777.97895914296
  31
0.0
   0
ARC
   5
43A
 100
AcDbEntity
   8
LEVEL001
   6
CONTINUOUS
  62
7
 100
AcDbCircle
  10
 73.548184756786
  20
 851.97895914294
  30
0.0
  40
 2.0000000000000
 100
AcDbArc
  50
 90.000200000001
  51
 179.99999999936
   0
LINE
   5
43B
 100
AcDbEntity
   8
LEVEL001
 100
AcDbLine
   6
CONTINUOUS
  62
7
  10
 71.548184756786
  20
 814.97895914296
  30
0.0
  11
 71.548184756786
  21
 851.97895914296
  31
0.0
   0
LINE
   5
43C
 100
AcDbEntity
   8
LEVEL001
 100
AcDbLine
   6
CONTINUOUS
  62
7
  10
 73.548184756786
  20
 853.97895914296
  30
0.0
  11
 83.548184756786
  21
 853.97895914296
  31
0.0
   0
LINE
   5
43D
 100
AcDbEntity
   8
LEVEL001
 100
AcDbLine
   6
CONTINUOUS
  62
7
  10
 71.548184756786
  20
 828.97895914296
  30
0.0
  11
 67.048184756786
  21
 828.97895914296
  31
0.0
   0
LINE
   5
43E
 100
AcDbEntity
   8
LEVEL001
 100
AcDbLine
   6
CONTINUOUS
  62
7
  10
 71.548184756786
  20
 800.97895914296
  30
0.0
  11
 67.048184756786
  21
 800.97895914296
  31
0.0
   0
LINE
   5
43F
 100
AcDbEntity
   8
LEVEL001
 100
AcDbLine
   6
CONTINUOUS
  62
7
  10
 83.548184756786
  20
 775.97895914296
  30
0.0
  11
 83.548184756786
  21
 853.97895914296
  31
0.0
   0
LINE
   5
440
 100
AcDbEntity
   8
LEVEL001
 100
AcDbLine
   6
CONTINUOUS
  62
7
  10
 83.798184756787
  20
 852.97895914296
  30
0.0
  11
 83.798184756787
  21
 776.97895914296
  31
0.0
   0
LINE
   5
441
 100
AcDbEntity
   8
LEVEL001
 100
AcDbLine
   6
CONTINUOUS
  62
7
  10
 268.04818475679
  20
 827.47895914296
  30
0.0
  11
 309.04818475679
  21
 827.47895914296
  31
0.0
   0
LINE
   5
442
 100
AcDbEntity
   8
LEVEL001
 100
AcDbLine
   6
CONTINUOUS
  62
7
  10
 263.04818475679
  20
 828.97895914296
  30
0.0
  11
 268.04818475679
  21
 827.47895914296
  31
0.0
   0
LINE
   5
443
 100
AcDbEntity
   8
LEVEL001
 100
AcDbLine
   6
CONTINUOUS
  62
7
  10
 263.04818475679
  20
 828.97895914296
  30
0.0
  11
 263.04818475679
  21
 814.97895914296
  31
0.0
   0
LINE
   5
444
 100
AcDbEntity
   8
LEVEL001
 100
AcDbLine
   6
CONTINUOUS
  62
7
  10
 263.54818475679
  20
 810.97895914296
  30
0.0
  11
 263.54818475679
  21
 814.97895914296
  31
0.0
   0
LINE
   5
445
 100
AcDbEntity
   8
LEVEL001
 100
AcDbLine
   6
CONTINUOUS
  62
7
  10
 263.04818475679
  20
 800.97895914296
  30
0.0
  11
 263.04818475679
  21
 814.97895914296
  31
0.0
   0
LINE
   5
446
 100
AcDbEntity
   8
LEVEL001
 100
AcDbLine
   6
CONTINUOUS
  62
7
  10
 263.54818475679
  20
 818.97895914296
  30
0.0
  11
 263.54818475679
  21
 814.97895914296
  31
0.0
   0
LINE
   5
447
 100
AcDbEntity
   8
LEVEL001
 100
AcDbLine
   6
CONTINUOUS
  62
7
  10
 268.04818475679
  20
 827.47895914296
  30
0.0
  11
 268.04818475679
  21
 818.97895914296
  31
0.0
   0
LINE
   5
448
 100
AcDbEntity
   8
LEVEL001
 100
AcDbLine
   6
CONTINUOUS
  62
7
  10
 263.54818475679
  20
 818.97895914296
  30
0.0
  11
 310.04818475679
  21
 818.97895914296
  31
0.0
   0
LINE
   5
449
 100
AcDbEntity
   8
LEVEL001
 100
AcDbLine
   6
CONTINUOUS
  62
7
  10
 263.54818475679
  20
 810.97895914296
  30
0.0
  11
 310.04818475679
  21
 810.97895914296
  31
0.0
   0
LINE
   5
44A
 100
AcDbEntity
   8
LEVEL001
 100
AcDbLine
   6
CONTINUOUS
  62
7
  10
 268.04818475679
  20
 802.47895914296
  30
0.0
  11
 268.04818475679
  21
 810.97895914296
  31
0.0
   0
LINE
   5
44B
 100
AcDbEntity
   8
LEVEL001
 100
AcDbLine
   6
CONTINUOUS
  62
7
  10
 268.04818475679
  20
 802.47895914296
  30
0.0
  11
 309.04818475679
  21
 802.47895914296
  31
0.0
   0
LINE
   5
44C
 100
AcDbEntity
   8
LEVEL001
 100
AcDbLine
   6
CONTINUOUS
  62
7
  10
 263.04818475679
  20
 800.97895914296
  30
0.0
  11
 268.04818475679
  21
 802.47895914296
  31
0.0
   0
LINE
   5
44D
 100
AcDbEntity
   8
LEVEL001
 100
AcDbLine
   6
CONTINUOUS
  62
7
  10
 309.04818475679
  20
 802.47895914296
  30
0.0
  11
 309.04818475679
  21
 810.97895914296
  31
0.0
   0
LINE
   5
44E
 100
AcDbEntity
   8
LEVEL001
 100
AcDbLine
   6
CONTINUOUS
  62
7
  10
 310.04818475679
  20
 803.47895914296
  30
0.0
  11
 310.04818475679
  21
 814.97895914296
  31
0.0
   0
LINE
   5
44F
 100
AcDbEntity
   8
LEVEL001
 100
AcDbLine
   6
CONTINUOUS
  62
7
  10
 310.04818475679
  20
 826.47895914296
  30
0.0
  11
 310.04818475679
  21
 814.97895914296
  31
0.0
   0
LINE
   5
450
 100
AcDbEntity
   8
LEVEL001
 100
AcDbLine
   6
CONTINUOUS
  62
7
  10
 309.04818475679
  20
 827.47895914296
  30
0.0
  11
 309.04818475679
  21
 818.97895914296
  31
0.0
   0
LINE
   5
451
 100
AcDbEntity
   8
LEVEL001
 100
AcDbLine
   6
CONTINUOUS
  62
7
  10
 309.04818475679
  20
 827.47895914296
  30
0.0
  11
 310.04818475679
  21
 826.47895914296
  31
0.0
   0
LINE
   5
452
 100
AcDbEntity
   8
LEVEL001
 100
AcDbLine
   6
CONTINUOUS
  62
7
  10
 274.04818475679
  20
 818.97895914296
  30
0.0
  11
 274.04818475679
  21
 810.97895914296
  31
0.0
   0
LINE
   5
453
 100
AcDbEntity
   8
LEVEL001
 100
AcDbLine
   6
CONTINUOUS
  62
7
  10
 310.04818475679
  20
 803.47895914296
  30
0.0
  11
 309.04818475679
  21
 802.47895914296
  31
0.0
   0
LINE
   5
454
 100
AcDbEntity
   8
LEVEL001
 100
AcDbLine
   6
CONTINUOUS
  62
7
  10
 258.54818475679
  20
 814.97895914296
  30
0.0
  11
 258.54818475679
  21
 777.97895914296
  31
0.0
   0
LINE
   5
455
 100
AcDbEntity
   8
LEVEL001
 100
AcDbLine
   6
CONTINUOUS
  62
7
  10
 258.54818475679
  20
 814.97895914296
  30
0.0
  11
 258.54818475679
  21
 851.97895914296
  31
0.0
   0
LINE
   5
456
 100
AcDbEntity
   8
LEVEL001
 100
AcDbLine
   6
CONTINUOUS
  62
7
  10
 258.54818475679
  20
 828.97895914296
  30
0.0
  11
 263.04818475679
  21
 828.97895914296
  31
0.0
   0
LINE
   5
457
 100
AcDbEntity
   8
LEVEL001
 100
AcDbLine
   6
CONTINUOUS
  62
7
  10
 258.54818475679
  20
 800.97895914296
  30
0.0
  11
 263.04818475679
  21
 800.97895914296
  31
0.0
   0
LINE
   5
458
 100
AcDbEntity
   8
LEVEL001
 100
AcDbLine
   6
CONTINUOUS
  62
7
  10
 246.54818475679
  20
 775.97895914296
  30
0.0
  11
 246.54818475679
  21
 853.97895914296
  31
0.0
   0
LINE
   5
459
 100
AcDbEntity
   8
LEVEL001
 100
AcDbLine
   6
CONTINUOUS
  62
7
  10
 246.29818475679
  20
 852.97895914296
  30
0.0
  11
 246.29818475679
  21
 776.97895914296
  31
0.0
   0
ARC
   5
45A
 100
AcDbEntity
   8
LEVEL001
   6
CONTINUOUS
  62
7
 100
AcDbCircle
  10
 256.54818475676
  20
 851.97895914296
  30
0.0
  40
 2.0000000000000
 100
AcDbArc
  50
0.0
  51
 89.999799999003
   0
LINE
   5
45B
 100
AcDbEntity
   8
LEVEL001
 100
AcDbLine
   6
CONTINUOUS
  62
7
  10
 256.54818475679
  20
 853.97895914296
  30
0.0
  11
 246.54818475679
  21
 853.97895914296
  31
0.0
   0
ARC
   5
45C
 100
AcDbEntity
   8
LEVEL001
   6
CONTINUOUS
  62
7
 100
AcDbCircle
  10
 256.54818475679
  20
 777.97895914291
  30
0.0
  40
 2.0000000000000
 100
AcDbArc
  50
 270.00000000000
  51
 0.13418378534533E-8
   0
LINE
   5
45D
 100
AcDbEntity
   8
LEVEL001
 100
AcDbLine
   6
CONTINUOUS
  62
7
  10
 256.54818475679
  20
 775.97895914296
  30
0.0
  11
 246.54818475679
  21
 775.97895914296
  31
0.0
   0
LINE
   5
45E
 100
AcDbEntity
   8
LEVEL001
 100
AcDbLine
   6
CONTINUOUS
  62
7
  10
 179.27518475679
  20
 774.80195914296
  30
0.0
  11
 180.04818475679
  21
 775.24795914296
  31
0.0
   0
LINE
   5
45F
 100
AcDbEntity
   8
LEVEL001
 100
AcDbLine
   6
CONTINUOUS
  62
7
  10
 180.04818475679
  20
 775.24795914296
  30
0.0
  11
 190.04818475679
  21
 775.24795914296
  31
0.0
   0
LINE
   5
460
 100
AcDbEntity
   8
LEVEL001
 100
AcDbLine
   6
CONTINUOUS
  62
7
  10
 190.04818475679
  20
 775.24795914296
  30
0.0
  11
 190.82218475679
  21
 774.80195914296
  31
0.0
   0
LINE
   5
461
 100
AcDbEntity
   8
LEVEL001
 100
AcDbLine
   6
CONTINUOUS
  62
7
  10
 190.82218475679
  20
 774.80195914296
  30
0.0
  11
 190.82218475679
  21
 772.09495914296
  31
0.0
   0
LINE
   5
462
 100
AcDbEntity
   8
LEVEL001
 100
AcDbLine
   6
CONTINUOUS
  62
7
  10
 190.82218475679
  20
 772.09495914296
  30
0.0
  11
 190.04818475679
  21
 771.64795914296
  31
0.0
   0
LINE
   5
463
 100
AcDbEntity
   8
LEVEL001
 100
AcDbLine
   6
CONTINUOUS
  62
7
  10
 190.04818475679
  20
 771.64795914296
  30
0.0
  11
 180.04818475679
  21
 771.64795914296
  31
0.0
   0
LINE
   5
464
 100
AcDbEntity
   8
LEVEL001
 100
AcDbLine
   6
CONTINUOUS
  62
7
  10
 180.04818475679
  20
 771.64795914296
  30
0.0
  11
 179.27518475679
  21
 772.09495914296
  31
0.0
   0
LINE
   5
465
 100
AcDbEntity
   8
LEVEL001
 100
AcDbLine
   6
CONTINUOUS
  62
7
  10
 179.27518475679
  20
 772.09495914296
  30
0.0
  11
 179.27518475679
  21
 774.80195914296
  31
0.0
   0
ARC
   5
466
 100
AcDbEntity
   8
LEVEL001
   6
CONTINUOUS
  62
7
 100
AcDbCircle
  10
 180.13818475677
  20
 770.44895914296
  30
0.0
  40
 4.8000000000000
 100
AcDbArc
  50
 65.064799999783
  51
 91.069599999759
   0
ARC
   5
467
 100
AcDbEntity
   8
LEVEL001
   6
CONTINUOUS
  62
7
 100
AcDbCircle
  10
 189.95818475674
  20
 770.44895914295
  30
0.0
  40
 4.8000000000000
 100
AcDbArc
  50
 88.930399999534
  51
 114.93499999948
   0
ARC
   5
468
 100
AcDbEntity
   8
LEVEL001
   6
CONTINUOUS
  62
7
 100
AcDbCircle
  10
 189.95818475679
  20
 776.44795914296
  30
0.0
  40
 4.8000000000000
 100
AcDbArc
  50
 245.06499999998
  51
 271.06999999998
   0
ARC
   5
469
 100
AcDbEntity
   8
LEVEL001
   6
CONTINUOUS
  62
7
 100
AcDbCircle
  10
 180.13818475677
  20
 776.44795914296
  30
0.0
  40
 4.8000000000000
 100
AcDbArc
  50
 268.93000000022
  51
 294.93500000024
   0
ARC
   5
46A
 100
AcDbEntity
   8
LEVEL001
   6
CONTINUOUS
  62
7
 100
AcDbCircle
  10
 185.04818475679
  20
 765.69495914296
  30
0.0
  40
 9.5531600000000
 100
AcDbArc
  50
 72.411600000024
  51
 107.58800000002
   0
ARC
   5
46B
 100
AcDbEntity
   8
LEVEL001
   6
CONTINUOUS
  62
7
 100
AcDbCircle
  10
 185.04818475678
  20
 781.20195914296
  30
0.0
  40
 9.5531300000000
 100
AcDbArc
  50
 252.41200000003
  51
 287.58800000004
   0
LINE
   5
46C
 100
AcDbEntity
   8
LEVEL001
 100
AcDbLine
   6
CONTINUOUS
  62
7
  10
 182.16118475679
  20
 774.80195914296
  30
0.0
  11
 182.16118475679
  21
 772.09495914296
  31
0.0
   0
LINE
   5
46D
 100
AcDbEntity
   8
LEVEL001
 100
AcDbLine
   6
CONTINUOUS
  62
7
  10
 187.93518475679
  20
 774.80195914296
  30
0.0
  11
 187.93518475679
  21
 772.09495914296
  31
0.0
   0
LINE
   5
46E
 100
AcDbEntity
   8
LEVEL001
 100
AcDbLine
   6
CONTINUOUS
  62
7
  10
 181.54818475679
  20
 766.05595914296
  30
0.0
  11
 181.54818475679
  21
 766.97495914296
  31
0.0
   0
LINE
   5
46F
 100
AcDbEntity
   8
LEVEL001
 100
AcDbLine
   6
CONTINUOUS
  62
7
  10
 181.54818475679
  20
 766.97495914296
  30
0.0
  11
 185.04818475679
  21
 768.84195914296
  31
0.0
   0
LINE
   5
470
 100
AcDbEntity
   8
LEVEL001
 100
AcDbLine
   6
CONTINUOUS
  62
7
  10
 185.04818475679
  20
 768.84195914296
  30
0.0
  11
 188.54818475679
  21
 766.97495914296
  31
0.0
   0
LINE
   5
471
 100
AcDbEntity
   8
LEVEL001
 100
AcDbLine
   6
CONTINUOUS
  62
7
  10
 188.54818475679
  20
 766.97495914296
  30
0.0
  11
 188.54818475679
  21
 766.05595914296
  31
0.0
   0
LINE
   5
472
 100
AcDbEntity
   8
LEVEL001
 100
AcDbLine
   6
CONTINUOUS
  62
7
  10
 185.04818475679
  20
 767.92295914296
  30
0.0
  11
 185.04818475679
  21
 768.84195914296
  31
0.0
   0
LINE
   5
473
 100
AcDbEntity
   8
LEVEL001
 100
AcDbLine
   6
CONTINUOUS
  62
7
  10
 186.04818475679
  20
 762.00795914296
  30
0.0
  11
 186.04018475679
  21
 762.12295914296
  31
0.0
   0
LINE
   5
474
 100
AcDbEntity
   8
LEVEL001
 100
AcDbLine
   6
CONTINUOUS
  62
7
  10
 186.04018475679
  20
 762.12295914296
  30
0.0
  11
 186.01718475679
  21
 762.23695914296
  31
0.0
   0
LINE
   5
475
 100
AcDbEntity
   8
LEVEL001
 100
AcDbLine
   6
CONTINUOUS
  62
7
  10
 186.01718475679
  20
 762.23695914296
  30
0.0
  11
 185.97918475679
  21
 762.34595914296
  31
0.0
   0
LINE
   5
476
 100
AcDbEntity
   8
LEVEL001
 100
AcDbLine
   6
CONTINUOUS
  62
7
  10
 185.97918475679
  20
 762.34595914296
  30
0.0
  11
 185.92618475679
  21
 762.45095914296
  31
0.0
   0
LINE
   5
477
 100
AcDbEntity
   8
LEVEL001
 100
AcDbLine
   6
CONTINUOUS
  62
7
  10
 185.92618475679
  20
 762.45095914296
  30
0.0
  11
 185.85918475679
  21
 762.54895914296
  31
0.0
   0
LINE
   5
478
 100
AcDbEntity
   8
LEVEL001
 100
AcDbLine
   6
CONTINUOUS
  62
7
  10
 185.85918475679
  20
 762.54895914296
  30
0.0
  11
 185.78018475679
  21
 762.63795914296
  31
0.0
   0
LINE
   5
479
 100
AcDbEntity
   8
LEVEL001
 100
AcDbLine
   6
CONTINUOUS
  62
7
  10
 185.78018475679
  20
 762.63795914296
  30
0.0
  11
 185.68918475679
  21
 762.71695914296
  31
0.0
   0
LINE
   5
47A
 100
AcDbEntity
   8
LEVEL001
 100
AcDbLine
   6
CONTINUOUS
  62
7
  10
 185.68918475679
  20
 762.71695914296
  30
0.0
  11
 185.58818475679
  21
 762.78495914296
  31
0.0
   0
LINE
   5
47B
 100
AcDbEntity
   8
LEVEL001
 100
AcDbLine
   6
CONTINUOUS
  62
7
  10
 185.58818475679
  20
 762.78495914296
  30
0.0
  11
 185.47918475679
  21
 762.84195914296
  31
0.0
   0
LINE
   5
47C
 100
AcDbEntity
   8
LEVEL001
 100
AcDbLine
   6
CONTINUOUS
  62
7
  10
 185.47918475679
  20
 762.84195914296
  30
0.0
  11
 185.36318475679
  21
 762.88495914296
  31
0.0
   0
LINE
   5
47D
 100
AcDbEntity
   8
LEVEL001
 100
AcDbLine
   6
CONTINUOUS
  62
7
  10
 185.36318475679
  20
 762.88495914296
  30
0.0
  11
 185.24318475679
  21
 762.91395914296
  31
0.0
   0
LINE
   5
47E
 100
AcDbEntity
   8
LEVEL001
 100
AcDbLine
   6
CONTINUOUS
  62
7
  10
 185.24318475679
  20
 762.91395914296
  30
0.0
  11
 185.11918475679
  21
 762.92995914296
  31
0.0
   0
LINE
   5
47F
 100
AcDbEntity
   8
LEVEL001
 100
AcDbLine
   6
CONTINUOUS
  62
7
  10
 185.11918475679
  20
 762.92995914296
  30
0.0
  11
 184.99418475679
  21
 762.93095914296
  31
0.0
   0
LINE
   5
480
 100
AcDbEntity
   8
LEVEL001
 100
AcDbLine
   6
CONTINUOUS
  62
7
  10
 184.99418475679
  20
 762.93095914296
  30
0.0
  11
 184.87018475679
  21
 762.91695914296
  31
0.0
   0
LINE
   5
481
 100
AcDbEntity
   8
LEVEL001
 100
AcDbLine
   6
CONTINUOUS
  62
7
  10
 184.87018475679
  20
 762.91695914296
  30
0.0
  11
 184.74818475679
  21
 762.88895914296
  31
0.0
   0
LINE
   5
482
 100
AcDbEntity
   8
LEVEL001
 100
AcDbLine
   6
CONTINUOUS
  62
7
  10
 184.74818475679
  20
 762.88895914296
  30
0.0
  11
 184.63218475679
  21
 762.84795914296
  31
0.0
   0
LINE
   5
483
 100
AcDbEntity
   8
LEVEL001
 100
AcDbLine
   6
CONTINUOUS
  62
7
  10
 184.63218475679
  20
 762.84795914296
  30
0.0
  11
 184.52218475679
  21
 762.79395914296
  31
0.0
   0
LINE
   5
484
 100
AcDbEntity
   8
LEVEL001
 100
AcDbLine
   6
CONTINUOUS
  62
7
  10
 184.52218475679
  20
 762.79395914296
  30
0.0
  11
 184.42018475679
  21
 762.72695914296
  31
0.0
   0
LINE
   5
485
 100
AcDbEntity
   8
LEVEL001
 100
AcDbLine
   6
CONTINUOUS
  62
7
  10
 184.42018475679
  20
 762.72695914296
  30
0.0
  11
 184.32818475679
  21
 762.64895914296
  31
0.0
   0
LINE
   5
486
 100
AcDbEntity
   8
LEVEL001
 100
AcDbLine
   6
CONTINUOUS
  62
7
  10
 184.32818475679
  20
 762.64895914296
  30
0.0
  11
 184.24718475679
  21
 762.56095914296
  31
0.0
   0
LINE
   5
487
 100
AcDbEntity
   8
LEVEL001
 100
AcDbLine
   6
CONTINUOUS
  62
7
  10
 184.24718475679
  20
 762.56095914296
  30
0.0
  11
 184.17918475679
  21
 762.46395914296
  31
0.0
   0
LINE
   5
488
 100
AcDbEntity
   8
LEVEL001
 100
AcDbLine
   6
CONTINUOUS
  62
7
  10
 184.17918475679
  20
 762.46395914296
  30
0.0
  11
 184.12418475679
  21
 762.36095914296
  31
0.0
   0
LINE
   5
489
 100
AcDbEntity
   8
LEVEL001
 100
AcDbLine
   6
CONTINUOUS
  62
7
  10
 184.12418475679
  20
 762.36095914296
  30
0.0
  11
 184.08318475679
  21
 762.25095914296
  31
0.0
   0
LINE
   5
48A
 100
AcDbEntity
   8
LEVEL001
 100
AcDbLine
   6
CONTINUOUS
  62
7
  10
 184.08318475679
  20
 762.25095914296
  30
0.0
  11
 184.05818475679
  21
 762.13795914296
  31
0.0
   0
LINE
   5
48B
 100
AcDbEntity
   8
LEVEL001
 100
AcDbLine
   6
CONTINUOUS
  62
7
  10
 184.05818475679
  20
 762.13795914296
  30
0.0
  11
 184.04818475679
  21
 762.02295914296
  31
0.0
   0
LINE
   5
48C
 100
AcDbEntity
   8
LEVEL001
 100
AcDbLine
   6
CONTINUOUS
  62
7
  10
 187.44818475679
  20
 762.00795914296
  30
0.0
  11
 187.42918475679
  21
 762.28395914296
  31
0.0
   0
LINE
   5
48D
 100
AcDbEntity
   8
LEVEL001
 100
AcDbLine
   6
CONTINUOUS
  62
7
  10
 187.42918475679
  20
 762.28395914296
  30
0.0
  11
 187.37318475679
  21
 762.55695914296
  31
0.0
   0
LINE
   5
48E
 100
AcDbEntity
   8
LEVEL001
 100
AcDbLine
   6
CONTINUOUS
  62
7
  10
 187.37318475679
  20
 762.55695914296
  30
0.0
  11
 187.28118475679
  21
 762.81995914296
  31
0.0
   0
LINE
   5
48F
 100
AcDbEntity
   8
LEVEL001
 100
AcDbLine
   6
CONTINUOUS
  62
7
  10
 187.28118475679
  20
 762.81995914296
  30
0.0
  11
 187.15418475679
  21
 763.07095914296
  31
0.0
   0
LINE
   5
490
 100
AcDbEntity
   8
LEVEL001
 100
AcDbLine
   6
CONTINUOUS
  62
7
  10
 187.15418475679
  20
 763.07095914296
  30
0.0
  11
 186.99418475679
  21
 763.30495914296
  31
0.0
   0
LINE
   5
491
 100
AcDbEntity
   8
LEVEL001
 100
AcDbLine
   6
CONTINUOUS
  62
7
  10
 186.99418475679
  20
 763.30495914296
  30
0.0
  11
 186.80418475679
  21
 763.51895914296
  31
0.0
   0
LINE
   5
492
 100
AcDbEntity
   8
LEVEL001
 100
AcDbLine
   6
CONTINUOUS
  62
7
  10
 186.80418475679
  20
 763.51895914296
  30
0.0
  11
 186.58618475679
  21
 763.70995914296
  31
0.0
   0
LINE
   5
493
 100
AcDbEntity
   8
LEVEL001
 100
AcDbLine
   6
CONTINUOUS
  62
7
  10
 186.58618475679
  20
 763.70995914296
  30
0.0
  11
 186.34518475679
  21
 763.87395914296
  31
0.0
   0
LINE
   5
494
 100
AcDbEntity
   8
LEVEL001
 100
AcDbLine
   6
CONTINUOUS
  62
7
  10
 186.34518475679
  20
 763.87395914296
  30
0.0
  11
 186.08318475679
  21
 764.00895914296
  31
0.0
   0
LINE
   5
495
 100
AcDbEntity
   8
LEVEL001
 100
AcDbLine
   6
CONTINUOUS
  62
7
  10
 186.08318475679
  20
 764.00895914296
  30
0.0
  11
 185.80518475679
  21
 764.11195914296
  31
0.0
   0
LINE
   5
496
 100
AcDbEntity
   8
LEVEL001
 100
AcDbLine
   6
CONTINUOUS
  62
7
  10
 185.80518475679
  20
 764.11195914296
  30
0.0
  11
 185.51518475679
  21
 764.18295914296
  31
0.0
   0
LINE
   5
497
 100
AcDbEntity
   8
LEVEL001
 100
AcDbLine
   6
CONTINUOUS
  62
7
  10
 185.51518475679
  20
 764.18295914296
  30
0.0
  11
 185.21818475679
  21
 764.21995914296
  31
0.0
   0
LINE
   5
498
 100
AcDbEntity
   8
LEVEL001
 100
AcDbLine
   6
CONTINUOUS
  62
7
  10
 185.21818475679
  20
 764.21995914296
  30
0.0
  11
 184.91818475679
  21
 764.22195914296
  31
0.0
   0
LINE
   5
499
 100
AcDbEntity
   8
LEVEL001
 100
AcDbLine
   6
CONTINUOUS
  62
7
  10
 184.91818475679
  20
 764.22195914296
  30
0.0
  11
 184.62018475679
  21
 764.18995914296
  31
0.0
   0
LINE
   5
49A
 100
AcDbEntity
   8
LEVEL001
 100
AcDbLine
   6
CONTINUOUS
  62
7
  10
 184.62018475679
  20
 764.18995914296
  30
0.0
  11
 184.32918475679
  21
 764.12395914296
  31
0.0
   0
LINE
   5
49B
 100
AcDbEntity
   8
LEVEL001
 100
AcDbLine
   6
CONTINUOUS
  62
7
  10
 184.32918475679
  20
 764.12395914296
  30
0.0
  11
 184.04918475679
  21
 764.02395914296
  31
0.0
   0
LINE
   5
49C
 100
AcDbEntity
   8
LEVEL001
 100
AcDbLine
   6
CONTINUOUS
  62
7
  10
 184.04918475679
  20
 764.02395914296
  30
0.0
  11
 183.78518475679
  21
 763.89295914296
  31
0.0
   0
LINE
   5
49D
 100
AcDbEntity
   8
LEVEL001
 100
AcDbLine
   6
CONTINUOUS
  62
7
  10
 183.78518475679
  20
 763.89295914296
  30
0.0
  11
 183.54018475679
  21
 763.73295914296
  31
0.0
   0
LINE
   5
49E
 100
AcDbEntity
   8
LEVEL001
 100
AcDbLine
   6
CONTINUOUS
  62
7
  10
 183.54018475679
  20
 763.73295914296
  30
0.0
  11
 183.31918475679
  21
 763.54595914296
  31
0.0
   0
LINE
   5
49F
 100
AcDbEntity
   8
LEVEL001
 100
AcDbLine
   6
CONTINUOUS
  62
7
  10
 183.31918475679
  20
 763.54595914296
  30
0.0
  11
 183.12518475679
  21
 763.33495914296
  31
0.0
   0
LINE
   5
4A0
 100
AcDbEntity
   8
LEVEL001
 100
AcDbLine
   6
CONTINUOUS
  62
7
  10
 183.12518475679
  20
 763.33495914296
  30
0.0
  11
 182.96118475679
  21
 763.10295914296
  31
0.0
   0
LINE
   5
4A1
 100
AcDbEntity
   8
LEVEL001
 100
AcDbLine
   6
CONTINUOUS
  62
7
  10
 182.96118475679
  20
 763.10295914296
  30
0.0
  11
 182.83018475679
  21
 762.85395914296
  31
0.0
   0
LINE
   5
4A2
 100
AcDbEntity
   8
LEVEL001
 100
AcDbLine
   6
CONTINUOUS
  62
7
  10
 182.83018475679
  20
 762.85395914296
  30
0.0
  11
 182.73318475679
  21
 762.59195914296
  31
0.0
   0
LINE
   5
4A3
 100
AcDbEntity
   8
LEVEL001
 100
AcDbLine
   6
CONTINUOUS
  62
7
  10
 182.73318475679
  20
 762.59195914296
  30
0.0
  11
 182.67218475679
  21
 762.32095914296
  31
0.0
   0
LINE
   5
4A4
 100
AcDbEntity
   8
LEVEL001
 100
AcDbLine
   6
CONTINUOUS
  62
7
  10
 182.67218475679
  20
 762.32095914296
  30
0.0
  11
 182.64818475679
  21
 762.04495914296
  31
0.0
   0
LINE
   5
4A5
 100
AcDbEntity
   8
LEVEL001
 100
AcDbLine
   6
CONTINUOUS
  62
7
  10
 182.64818475679
  20
 762.04495914296
  30
0.0
  11
 182.66218475679
  21
 761.76795914296
  31
0.0
   0
LINE
   5
4A6
 100
AcDbEntity
   8
LEVEL001
 100
AcDbLine
   6
CONTINUOUS
  62
7
  10
 182.66218475679
  20
 761.76795914296
  30
0.0
  11
 182.71318475679
  21
 761.49495914296
  31
0.0
   0
LINE
   5
4A7
 100
AcDbEntity
   8
LEVEL001
 100
AcDbLine
   6
CONTINUOUS
  62
7
  10
 182.71318475679
  20
 761.49495914296
  30
0.0
  11
 182.80118475679
  21
 761.22995914296
  31
0.0
   0
LINE
   5
4A8
 100
AcDbEntity
   8
LEVEL001
 100
AcDbLine
   6
CONTINUOUS
  62
7
  10
 182.80118475679
  20
 761.22995914296
  30
0.0
  11
 182.92318475679
  21
 760.97695914296
  31
0.0
   0
LINE
   5
4A9
 100
AcDbEntity
   8
LEVEL001
 100
AcDbLine
   6
CONTINUOUS
  62
7
  10
 182.92318475679
  20
 760.97695914296
  30
0.0
  11
 183.07918475679
  21
 760.74095914296
  31
0.0
   0
LINE
   5
4AA
 100
AcDbEntity
   8
LEVEL001
 100
AcDbLine
   6
CONTINUOUS
  62
7
  10
 183.07918475679
  20
 760.74095914296
  30
0.0
  11
 183.26518475679
  21
 760.52395914296
  31
0.0
   0
LINE
   5
4AB
 100
AcDbEntity
   8
LEVEL001
 100
AcDbLine
   6
CONTINUOUS
  62
7
  10
 183.26518475679
  20
 760.52395914296
  30
0.0
  11
 183.47918475679
  21
 760.32995914296
  31
0.0
   0
LINE
   5
4AC
 100
AcDbEntity
   8
LEVEL001
 100
AcDbLine
   6
CONTINUOUS
  62
7
  10
 183.47918475679
  20
 760.32995914296
  30
0.0
  11
 183.71818475679
  21
 760.16195914296
  31
0.0
   0
LINE
   5
4AD
 100
AcDbEntity
   8
LEVEL001
 100
AcDbLine
   6
CONTINUOUS
  62
7
  10
 183.71818475679
  20
 760.16195914296
  30
0.0
  11
 183.97718475679
  21
 760.02395914296
  31
0.0
   0
LINE
   5
4AE
 100
AcDbEntity
   8
LEVEL001
 100
AcDbLine
   6
CONTINUOUS
  62
7
  10
 183.97718475679
  20
 760.02395914296
  30
0.0
  11
 184.25418475679
  21
 759.91595914296
  31
0.0
   0
LINE
   5
4AF
 100
AcDbEntity
   8
LEVEL001
 100
AcDbLine
   6
CONTINUOUS
  62
7
  10
 184.25418475679
  20
 759.91595914296
  30
0.0
  11
 184.54218475679
  21
 759.84095914296
  31
0.0
   0
LINE
   5
4B0
 100
AcDbEntity
   8
LEVEL001
 100
AcDbLine
   6
CONTINUOUS
  62
7
  10
 184.54218475679
  20
 759.84095914296
  30
0.0
  11
 184.83918475679
  21
 759.79895914296
  31
0.0
   0
LINE
   5
4B1
 100
AcDbEntity
   8
LEVEL001
 100
AcDbLine
   6
CONTINUOUS
  62
7
  10
 184.83918475679
  20
 759.79895914296
  30
0.0
  11
 185.13818475679
  21
 759.79195914296
  31
0.0
   0
LINE
   5
4B2
 100
AcDbEntity
   8
LEVEL001
 100
AcDbLine
   6
CONTINUOUS
  62
7
  10
 185.13818475679
  20
 759.79195914296
  30
0.0
  11
 185.43718475679
  21
 759.81995914296
  31
0.0
   0
LINE
   5
4B3
 100
AcDbEntity
   8
LEVEL001
 100
AcDbLine
   6
CONTINUOUS
  62
7
  10
 185.43718475679
  20
 759.81995914296
  30
0.0
  11
 185.72918475679
  21
 759.88195914296
  31
0.0
   0
LINE
   5
4B4
 100
AcDbEntity
   8
LEVEL001
 100
AcDbLine
   6
CONTINUOUS
  62
7
  10
 185.72918475679
  20
 759.88195914296
  30
0.0
  11
 186.01018475679
  21
 759.97695914296
  31
0.0
   0
LINE
   5
4B5
 100
AcDbEntity
   8
LEVEL001
 100
AcDbLine
   6
CONTINUOUS
  62
7
  10
 186.01018475679
  20
 759.97695914296
  30
0.0
  11
 186.27718475679
  21
 760.10395914296
  31
0.0
   0
LINE
   5
4B6
 100
AcDbEntity
   8
LEVEL001
 100
AcDbLine
   6
CONTINUOUS
  62
7
  10
 186.27718475679
  20
 760.10395914296
  30
0.0
  11
 186.52418475679
  21
 760.25995914296
  31
0.0
   0
LINE
   5
4B7
 100
AcDbEntity
   8
LEVEL001
 100
AcDbLine
   6
CONTINUOUS
  62
7
  10
 186.52418475679
  20
 760.25995914296
  30
0.0
  11
 186.74918475679
  21
 760.44395914296
  31
0.0
   0
LINE
   5
4B8
 100
AcDbEntity
   8
LEVEL001
 100
AcDbLine
   6
CONTINUOUS
  62
7
  10
 186.74918475679
  20
 760.44395914296
  30
0.0
  11
 186.94718475679
  21
 760.65195914296
  31
0.0
   0
LINE
   5
4B9
 100
AcDbEntity
   8
LEVEL001
 100
AcDbLine
   6
CONTINUOUS
  62
7
  10
 186.94718475679
  20
 760.65195914296
  30
0.0
  11
 187.11518475679
  21
 760.88095914296
  31
0.0
   0
LINE
   5
4BA
 100
AcDbEntity
   8
LEVEL001
 100
AcDbLine
   6
CONTINUOUS
  62
7
  10
 187.11518475679
  20
 760.88095914296
  30
0.0
  11
 187.25118475679
  21
 761.12795914296
  31
0.0
   0
LINE
   5
4BB
 100
AcDbEntity
   8
LEVEL001
 100
AcDbLine
   6
CONTINUOUS
  62
7
  10
 187.25118475679
  20
 761.12795914296
  30
0.0
  11
 187.35218475679
  21
 761.38795914296
  31
0.0
   0
LINE
   5
4BC
 100
AcDbEntity
   8
LEVEL001
 100
AcDbLine
   6
CONTINUOUS
  62
7
  10
 187.35218475679
  20
 761.38795914296
  30
0.0
  11
 187.41818475679
  21
 761.65895914296
  31
0.0
   0
LINE
   5
4BD
 100
AcDbEntity
   8
LEVEL001
 100
AcDbLine
   6
CONTINUOUS
  62
7
  10
 187.41818475679
  20
 761.65895914296
  30
0.0
  11
 187.44718475679
  21
 761.93395914296
  31
0.0
   0
LINE
   5
4BE
 100
AcDbEntity
   8
LEVEL001
 100
AcDbLine
   6
CONTINUOUS
  62
7
  10
 187.44718475679
  20
 761.93395914296
  30
0.0
  11
 187.44818475679
  21
 762.00795914296
  31
0.0
   0
LINE
   5
4BF
 100
AcDbEntity
   8
LEVEL001
 100
AcDbLine
   6
CONTINUOUS
  62
7
  10
 190.04818475679
  20
 764.22095914296
  30
0.0
  11
 190.04818475679
  21
 771.64795914296
  31
0.0
   0
LINE
   5
4C0
 100
AcDbEntity
   8
LEVEL001
 100
AcDbLine
   6
CONTINUOUS
  62
7
  10
 180.04818475679
  20
 771.64795914296
  30
0.0
  11
 180.04818475679
  21
 764.22095914296
  31
0.0
   0
ARC
   5
4C1
 100
AcDbEntity
   8
LEVEL001
   6
CONTINUOUS
  62
7
 100
AcDbCircle
  10
 185.04818475678
  20
 766.79195914295
  30
0.0
  40
 5.6222800000000
 100
AcDbArc
  50
 308.50100000011
  51
 332.78800000012
   0
ARC
   5
4C2
 100
AcDbEntity
   8
LEVEL001
   6
CONTINUOUS
  62
7
 100
AcDbCircle
  10
 185.04818475681
  20
 766.79195914294
  30
0.0
  40
 5.6222800000000
 100
AcDbArc
  50
 207.21199999970
  51
 231.49899999967
   0
LINE
   5
4C3
 100
AcDbEntity
   8
LEVEL001
 100
AcDbLine
   6
CONTINUOUS
  62
7
  10
 181.89718475679
  20
 762.13595914296
  30
0.0
  11
 181.54818475679
  21
 762.32195914296
  31
0.0
   0
LINE
   5
4C4
 100
AcDbEntity
   8
LEVEL001
 100
AcDbLine
   6
CONTINUOUS
  62
7
  10
 181.54818475679
  20
 762.32195914296
  30
0.0
  11
 181.54818475679
  21
 766.05595914296
  31
0.0
   0
LINE
   5
4C5
 100
AcDbEntity
   8
LEVEL001
 100
AcDbLine
   6
CONTINUOUS
  62
7
  10
 181.54818475679
  20
 766.05595914296
  30
0.0
  11
 185.04818475679
  21
 767.92295914296
  31
0.0
   0
LINE
   5
4C6
 100
AcDbEntity
   8
LEVEL001
 100
AcDbLine
   6
CONTINUOUS
  62
7
  10
 185.04818475679
  20
 767.92295914296
  30
0.0
  11
 188.54818475679
  21
 766.05595914296
  31
0.0
   0
LINE
   5
4C7
 100
AcDbEntity
   8
LEVEL001
 100
AcDbLine
   6
CONTINUOUS
  62
7
  10
 188.54818475679
  20
 766.05595914296
  30
0.0
  11
 188.54818475679
  21
 762.32195914296
  31
0.0
   0
LINE
   5
4C8
 100
AcDbEntity
   8
LEVEL001
 100
AcDbLine
   6
CONTINUOUS
  62
7
  10
 188.54818475679
  20
 762.32195914296
  30
0.0
  11
 188.19918475679
  21
 762.13595914296
  31
0.0
   0
LINE
   5
4C9
 100
AcDbEntity
   8
LEVEL001
 100
AcDbLine
   6
CONTINUOUS
  62
7
  10
 186.70618475679
  20
 760.40495914296
  30
0.0
  11
 187.04918475679
  21
 760.61695914296
  31
0.0
   0
LINE
   5
4CA
 100
AcDbEntity
   8
LEVEL001
 100
AcDbLine
   6
CONTINUOUS
  62
7
  10
 187.04918475679
  20
 760.61695914296
  30
0.0
  11
 187.36018475679
  21
 760.86595914296
  31
0.0
   0
LINE
   5
4CB
 100
AcDbEntity
   8
LEVEL001
 100
AcDbLine
   6
CONTINUOUS
  62
7
  10
 187.36018475679
  20
 760.86595914296
  30
0.0
  11
 187.63618475679
  21
 761.14895914296
  31
0.0
   0
LINE
   5
4CC
 100
AcDbEntity
   8
LEVEL001
 100
AcDbLine
   6
CONTINUOUS
  62
7
  10
 187.63618475679
  20
 761.14895914296
  30
0.0
  11
 187.87118475679
  21
 761.46195914296
  31
0.0
   0
LINE
   5
4CD
 100
AcDbEntity
   8
LEVEL001
 100
AcDbLine
   6
CONTINUOUS
  62
7
  10
 187.87118475679
  20
 761.46195914296
  30
0.0
  11
 188.06218475679
  21
 761.79895914296
  31
0.0
   0
LINE
   5
4CE
 100
AcDbEntity
   8
LEVEL001
 100
AcDbLine
   6
CONTINUOUS
  62
7
  10
 188.06218475679
  20
 761.79895914296
  30
0.0
  11
 188.20618475679
  21
 762.15595914296
  31
0.0
   0
LINE
   5
4CF
 100
AcDbEntity
   8
LEVEL001
 100
AcDbLine
   6
CONTINUOUS
  62
7
  10
 188.20618475679
  20
 762.15595914296
  30
0.0
  11
 188.30118475679
  21
 762.52695914296
  31
0.0
   0
LINE
   5
4D0
 100
AcDbEntity
   8
LEVEL001
 100
AcDbLine
   6
CONTINUOUS
  62
7
  10
 188.30118475679
  20
 762.52695914296
  30
0.0
  11
 188.34518475679
  21
 762.90595914296
  31
0.0
   0
LINE
   5
4D1
 100
AcDbEntity
   8
LEVEL001
 100
AcDbLine
   6
CONTINUOUS
  62
7
  10
 188.34518475679
  20
 762.90595914296
  30
0.0
  11
 188.33718475679
  21
 763.28595914296
  31
0.0
   0
LINE
   5
4D2
 100
AcDbEntity
   8
LEVEL001
 100
AcDbLine
   6
CONTINUOUS
  62
7
  10
 188.33718475679
  20
 763.28595914296
  30
0.0
  11
 188.27918475679
  21
 763.66295914296
  31
0.0
   0
LINE
   5
4D3
 100
AcDbEntity
   8
LEVEL001
 100
AcDbLine
   6
CONTINUOUS
  62
7
  10
 188.27918475679
  20
 763.66295914296
  30
0.0
  11
 188.16918475679
  21
 764.03095914296
  31
0.0
   0
LINE
   5
4D4
 100
AcDbEntity
   8
LEVEL001
 100
AcDbLine
   6
CONTINUOUS
  62
7
  10
 188.16918475679
  20
 764.03095914296
  30
0.0
  11
 188.01218475679
  21
 764.38195914296
  31
0.0
   0
LINE
   5
4D5
 100
AcDbEntity
   8
LEVEL001
 100
AcDbLine
   6
CONTINUOUS
  62
7
  10
 188.01218475679
  20
 764.38195914296
  30
0.0
  11
 187.80718475679
  21
 764.71295914296
  31
0.0
   0
LINE
   5
4D6
 100
AcDbEntity
   8
LEVEL001
 100
AcDbLine
   6
CONTINUOUS
  62
7
  10
 187.80718475679
  20
 764.71295914296
  30
0.0
  11
 187.56018475679
  21
 765.01795914296
  31
0.0
   0
LINE
   5
4D7
 100
AcDbEntity
   8
LEVEL001
 100
AcDbLine
   6
CONTINUOUS
  62
7
  10
 187.56018475679
  20
 765.01795914296
  30
0.0
  11
 187.27418475679
  21
 765.29195914296
  31
0.0
   0
LINE
   5
4D8
 100
AcDbEntity
   8
LEVEL001
 100
AcDbLine
   6
CONTINUOUS
  62
7
  10
 187.27418475679
  20
 765.29195914296
  30
0.0
  11
 186.95318475679
  21
 765.53095914296
  31
0.0
   0
LINE
   5
4D9
 100
AcDbEntity
   8
LEVEL001
 100
AcDbLine
   6
CONTINUOUS
  62
7
  10
 186.95318475679
  20
 765.53095914296
  30
0.0
  11
 186.60218475679
  21
 765.73095914296
  31
0.0
   0
LINE
   5
4DA
 100
AcDbEntity
   8
LEVEL001
 100
AcDbLine
   6
CONTINUOUS
  62
7
  10
 186.60218475679
  20
 765.73095914296
  30
0.0
  11
 186.22718475679
  21
 765.88895914296
  31
0.0
   0
LINE
   5
4DB
 100
AcDbEntity
   8
LEVEL001
 100
AcDbLine
   6
CONTINUOUS
  62
7
  10
 186.22718475679
  20
 765.88895914296
  30
0.0
  11
 185.83318475679
  21
 766.00195914296
  31
0.0
   0
LINE
   5
4DC
 100
AcDbEntity
   8
LEVEL001
 100
AcDbLine
   6
CONTINUOUS
  62
7
  10
 185.83318475679
  20
 766.00195914296
  30
0.0
  11
 185.42818475679
  21
 766.06995914296
  31
0.0
   0
LINE
   5
4DD
 100
AcDbEntity
   8
LEVEL001
 100
AcDbLine
   6
CONTINUOUS
  62
7
  10
 185.42818475679
  20
 766.06995914296
  30
0.0
  11
 185.01618475679
  21
 766.08995914296
  31
0.0
   0
LINE
   5
4DE
 100
AcDbEntity
   8
LEVEL001
 100
AcDbLine
   6
CONTINUOUS
  62
7
  10
 185.01618475679
  20
 766.08995914296
  30
0.0
  11
 184.60518475679
  21
 766.06195914296
  31
0.0
   0
LINE
   5
4DF
 100
AcDbEntity
   8
LEVEL001
 100
AcDbLine
   6
CONTINUOUS
  62
7
  10
 184.60518475679
  20
 766.06195914296
  30
0.0
  11
 184.20118475679
  21
 765.98795914296
  31
0.0
   0
LINE
   5
4E0
 100
AcDbEntity
   8
LEVEL001
 100
AcDbLine
   6
CONTINUOUS
  62
7
  10
 184.20118475679
  20
 765.98795914296
  30
0.0
  11
 183.81018475679
  21
 765.86695914296
  31
0.0
   0
LINE
   5
4E1
 100
AcDbEntity
   8
LEVEL001
 100
AcDbLine
   6
CONTINUOUS
  62
7
  10
 183.81018475679
  20
 765.86695914296
  30
0.0
  11
 183.43818475679
  21
 765.70295914296
  31
0.0
   0
LINE
   5
4E2
 100
AcDbEntity
   8
LEVEL001
 100
AcDbLine
   6
CONTINUOUS
  62
7
  10
 183.43818475679
  20
 765.70295914296
  30
0.0
  11
 183.09118475679
  21
 765.49595914296
  31
0.0
   0
LINE
   5
4E3
 100
AcDbEntity
   8
LEVEL001
 100
AcDbLine
   6
CONTINUOUS
  62
7
  10
 183.09118475679
  20
 765.49595914296
  30
0.0
  11
 182.77518475679
  21
 765.25195914296
  31
0.0
   0
LINE
   5
4E4
 100
AcDbEntity
   8
LEVEL001
 100
AcDbLine
   6
CONTINUOUS
  62
7
  10
 182.77518475679
  20
 765.25195914296
  30
0.0
  11
 182.49518475679
  21
 764.97295914296
  31
0.0
   0
LINE
   5
4E5
 100
AcDbEntity
   8
LEVEL001
 100
AcDbLine
   6
CONTINUOUS
  62
7
  10
 182.49518475679
  20
 764.97295914296
  30
0.0
  11
 182.25418475679
  21
 764.66395914296
  31
0.0
   0
LINE
   5
4E6
 100
AcDbEntity
   8
LEVEL001
 100
AcDbLine
   6
CONTINUOUS
  62
7
  10
 182.25418475679
  20
 764.66395914296
  30
0.0
  11
 182.05718475679
  21
 764.32895914296
  31
0.0
   0
LINE
   5
4E7
 100
AcDbEntity
   8
LEVEL001
 100
AcDbLine
   6
CONTINUOUS
  62
7
  10
 182.05718475679
  20
 764.32895914296
  30
0.0
  11
 181.90618475679
  21
 763.97495914296
  31
0.0
   0
LINE
   5
4E8
 100
AcDbEntity
   8
LEVEL001
 100
AcDbLine
   6
CONTINUOUS
  62
7
  10
 181.90618475679
  20
 763.97495914296
  30
0.0
  11
 181.80518475679
  21
 763.60495914296
  31
0.0
   0
LINE
   5
4E9
 100
AcDbEntity
   8
LEVEL001
 100
AcDbLine
   6
CONTINUOUS
  62
7
  10
 181.80518475679
  20
 763.60495914296
  30
0.0
  11
 181.75418475679
  21
 763.22695914296
  31
0.0
   0
LINE
   5
4EA
 100
AcDbEntity
   8
LEVEL001
 100
AcDbLine
   6
CONTINUOUS
  62
7
  10
 181.75418475679
  20
 763.22695914296
  30
0.0
  11
 181.75518475679
  21
 762.84695914296
  31
0.0
   0
LINE
   5
4EB
 100
AcDbEntity
   8
LEVEL001
 100
AcDbLine
   6
CONTINUOUS
  62
7
  10
 181.75518475679
  20
 762.84695914296
  30
0.0
  11
 181.80718475679
  21
 762.46895914296
  31
0.0
   0
LINE
   5
4EC
 100
AcDbEntity
   8
LEVEL001
 100
AcDbLine
   6
CONTINUOUS
  62
7
  10
 181.80718475679
  20
 762.46895914296
  30
0.0
  11
 181.90918475679
  21
 762.09995914296
  31
0.0
   0
LINE
   5
4ED
 100
AcDbEntity
   8
LEVEL001
 100
AcDbLine
   6
CONTINUOUS
  62
7
  10
 181.90918475679
  20
 762.09995914296
  30
0.0
  11
 182.06118475679
  21
 761.74595914296
  31
0.0
   0
LINE
   5
4EE
 100
AcDbEntity
   8
LEVEL001
 100
AcDbLine
   6
CONTINUOUS
  62
7
  10
 182.06118475679
  20
 761.74595914296
  30
0.0
  11
 182.25918475679
  21
 761.41195914296
  31
0.0
   0
LINE
   5
4EF
 100
AcDbEntity
   8
LEVEL001
 100
AcDbLine
   6
CONTINUOUS
  62
7
  10
 182.25918475679
  20
 761.41195914296
  30
0.0
  11
 182.50118475679
  21
 761.10295914296
  31
0.0
   0
LINE
   5
4F0
 100
AcDbEntity
   8
LEVEL001
 100
AcDbLine
   6
CONTINUOUS
  62
7
  10
 182.50118475679
  20
 761.10295914296
  30
0.0
  11
 182.78218475679
  21
 760.82495914296
  31
0.0
   0
LINE
   5
4F1
 100
AcDbEntity
   8
LEVEL001
 100
AcDbLine
   6
CONTINUOUS
  62
7
  10
 182.78218475679
  20
 760.82495914296
  30
0.0
  11
 183.09918475679
  21
 760.58095914296
  31
0.0
   0
LINE
   5
4F2
 100
AcDbEntity
   8
LEVEL001
 100
AcDbLine
   6
CONTINUOUS
  62
7
  10
 183.09918475679
  20
 760.58095914296
  30
0.0
  11
 183.39018475679
  21
 760.40495914296
  31
0.0
   0
LINE
   5
4F3
 100
AcDbEntity
   8
LEVEL001
 100
AcDbLine
   6
CONTINUOUS
  62
7
  10
 180.16518475679
  20
 775.24795914296
  30
0.0
  11
 180.18118475679
  21
 775.75795914296
  31
0.0
   0
LINE
   5
4F4
 100
AcDbEntity
   8
LEVEL001
 100
AcDbLine
   6
CONTINUOUS
  62
7
  10
 189.90918475679
  20
 775.93795914296
  30
0.0
  11
 189.93118475679
  21
 775.24795914296
  31
0.0
   0
LINE
   5
4F5
 100
AcDbEntity
   8
LEVEL001
 100
AcDbLine
   6
CONTINUOUS
  62
7
  10
 189.93118475679
  20
 775.24795914296
  30
0.0
  11
 189.33118475679
  21
 775.84795914296
  31
0.0
   0
LINE
   5
4F6
 100
AcDbEntity
   8
LEVEL001
 100
AcDbLine
   6
CONTINUOUS
  62
7
  10
 189.33118475679
  20
 775.84795914296
  30
0.0
  11
 189.32918475679
  21
 775.92695914296
  31
0.0
   0
LINE
   5
4F7
 100
AcDbEntity
   8
LEVEL001
 100
AcDbLine
   6
CONTINUOUS
  62
7
  10
 180.16518475679
  20
 775.24795914296
  30
0.0
  11
 180.68418475679
  21
 775.76795914296
  31
0.0
   0
LINE
   5
4F8
 100
AcDbEntity
   8
LEVEL001
 100
AcDbLine
   6
CONTINUOUS
  62
7
  10
 185.04818475679
  20
 775.84795914296
  30
0.0
  11
 189.33118475679
  21
 775.84795914296
  31
0.0
   0
ARC
   5
4F9
 100
AcDbEntity
   8
LEVEL001
   6
CONTINUOUS
  62
7
 100
AcDbCircle
  10
 210.04818475679
  20
 757.97895914296
  30
0.0
  40
 21.500000000000
 100
AcDbArc
  50
 122.57900000001
  51
 158.47100000002
   0
ARC
   5
4FA
 100
AcDbEntity
   8
LEVEL001
   6
CONTINUOUS
  62
7
 100
AcDbCircle
  10
 210.04818475679
  20
 757.97895914296
  30
0.0
  40
 21.500000000000
 100
AcDbArc
  50
 166.71900000000
  51
 59.536600000004
   0
LINE
   5
4FB
 100
AcDbEntity
   8
LEVEL001
 100
AcDbLine
   6
CONTINUOUS
  62
7
  10
 165.04818475679
  20
 1007.9789591430
  30
0.0
  11
 210.57818475679
  21
 1006.9729591430
  31
0.0
   0
CIRCLE
   5
4FC
 100
AcDbEntity
   8
LEVEL001
 100
AcDbCircle
   6
CONTINUOUS
  62
7
  10
 210.04818475679
  20
 982.97895914296
  30
0.0
  40
 11.000000000000
   0
ARC
   5
4FD
 100
AcDbEntity
   8
LEVEL001
   6
CONTINUOUS
  62
7
 100
AcDbCircle
  10
 210.04818475679
  20
 982.97895914296
  30
0.0
  40
 24.000000000000
 100
AcDbArc
  50
 5.3493199999992
  51
 88.734399999993
   0
LINE
   5
4FE
 100
AcDbEntity
   8
LEVEL001
 100
AcDbLine
   6
CONTINUOUS
  62
7
  10
 165.04818475679
  20
 1007.9789591430
  30
0.0
  11
 119.51818475679
  21
 1006.9729591430
  31
0.0
   0
CIRCLE
   5
4FF
 100
AcDbEntity
   8
LEVEL001
 100
AcDbCircle
   6
CONTINUOUS
  62
7
  10
 120.04818475679
  20
 982.97895914296
  30
0.0
  40
 11.000000000000
   0
ARC
   5
500
 100
AcDbEntity
   8
LEVEL001
   6
CONTINUOUS
  62
7
 100
AcDbCircle
  10
 120.04818475679
  20
 982.97895914296
  30
0.0
  40
 24.000000000000
 100
AcDbArc
  50
 91.265600000000
  51
 174.65100000000
   0
CIRCLE
   5
501
 100
AcDbEntity
   8
LEVEL001
 100
AcDbCircle
   6
CONTINUOUS
  62
7
  10
 210.04818475679
  20
 982.97895914296
  30
0.0
  40
 21.500000000000
   0
CIRCLE
   5
502
 100
AcDbEntity
   8
LEVEL001
 100
AcDbCircle
   6
CONTINUOUS
  62
7
  10
 120.04818475679
  20
 982.97895914296
  30
0.0
  40
 21.500000000000
   0
ARC
   5
503
 100
AcDbEntity
   8
LEVEL001
   6
CONTINUOUS
  62
7
 100
AcDbCircle
  10
 177.28518475678
  20
 970.07195914296
  30
0.0
  40
 5.0000000000000
 100
AcDbArc
  50
 183.37600000001
  51
 261.52100000005
   0
ARC
   5
504
 100
AcDbEntity
   8
LEVEL001
   6
CONTINUOUS
  62
7
 100
AcDbCircle
  10
 152.81118475679
  20
 970.07195914296
  30
0.0
  40
 5.0000000000000
 100
AcDbArc
  50
 278.47800000001
  51
 356.62400000009
   0
ARC
   5
505
 100
AcDbEntity
   8
LEVEL001
   6
CONTINUOUS
  62
7
 100
AcDbCircle
  10
 175.35718475679
  20
 1002.7499591430
  30
0.0
  40
 5.0000000000000
 100
AcDbArc
  50
 88.734200000003
  51
 183.37599999997
   0
ARC
   5
506
 100
AcDbEntity
   8
LEVEL001
   6
CONTINUOUS
  62
7
 100
AcDbCircle
  10
 154.73918475678
  20
 1002.7499591430
  30
0.0
  40
 5.0000000000000
 100
AcDbArc
  50
 356.62300000000
  51
 91.265599999947
   0
LINE
   5
507
 100
AcDbEntity
   8
LEVEL001
 100
AcDbLine
   6
CONTINUOUS
  62
7
  10
 157.80218475679
  20
 969.77695914296
  30
0.0
  11
 159.73018475679
  21
 1002.4549591430
  31
0.0
   0
LINE
   5
508
 100
AcDbEntity
   8
LEVEL001
 100
AcDbLine
   6
CONTINUOUS
  62
7
  10
 172.29418475679
  20
 969.77695914296
  30
0.0
  11
 170.36618475679
  21
 1002.4559591430
  31
0.0
   0
LINE
   5
509
 100
AcDbEntity
   8
LEVEL001
 100
AcDbLine
   6
DASHDOT
  62
1
  10
 477.20400375679
  20
 193.35782170814
  30
0.0
  11
 529.26168875679
  21
 193.35782170814
  31
0.0
   0
LINE
   5
50A
 100
AcDbEntity
   8
LEVEL001
 100
AcDbLine
   6
DASHDOT
  62
1
  10
 502.79818475679
  20
 220.01765770814
  30
0.0
  11
 502.79818475679
  21
 168.21145870814
  31
0.0
   0
LINE
   5
50B
 100
AcDbEntity
   8
LEVEL001
 100
AcDbLine
   6
DASHDOT
  62
1
  10
 445.79818475679
  20
 151.85782170814
  30
0.0
  11
 445.79818475679
  21
 127.85782170814
  31
0.0
   0
LINE
   5
50C
 100
AcDbEntity
   8
LEVEL001
 100
AcDbLine
   6
DASHDOT
  62
1
  10
 315.04818475679
  20
 193.35782170814
  30
0.0
  11
 15.048184756786
  21
 193.35782170814
  31
0.0
   0
LINE
   5
50D
 100
AcDbEntity
   8
LEVEL001
 100
AcDbLine
   6
DASHDOT
  62
1
  10
 210.04818475679
  20
 151.85782170814
  30
0.0
  11
 210.04818475679
  21
 127.85782170814
  31
0.0
   0
LINE
   5
50E
 100
AcDbEntity
   8
LEVEL001
 100
AcDbLine
   6
DASHDOT
  62
1
  10
 120.04818475679
  20
 151.85782170814
  30
0.0
  11
 120.04818475679
  21
 127.85782170814
  31
0.0
   0
LINE
   5
50F
 100
AcDbEntity
   8
LEVEL001
 100
AcDbLine
   6
DASHDOT
  62
1
  10
 15.048184756786
  20
 814.97895914296
  30
0.0
  11
 315.04818475679
  21
 814.97895914296
  31
0.0
   0
LINE
   5
510
 100
AcDbEntity
   8
LEVEL001
 100
AcDbLine
   6
DASHDOT
  62
1
  10
 120.04818475679
  20
 778.49988714296
  30
0.0
  11
 120.04818475679
  21
 727.97895914296
  31
0.0
   0
LINE
   5
511
 100
AcDbEntity
   8
LEVEL001
 100
AcDbLine
   6
DASHDOT
  62
1
  10
 95.048184756786
  20
 757.97895914296
  30
0.0
  11
 145.04818475679
  21
 757.97895914296
  31
0.0
   0
LINE
   5
512
 100
AcDbEntity
   8
LEVEL001
 100
AcDbLine
   6
DASHDOT
  62
1
  10
 210.04818475679
  20
 779.32692414296
  30
0.0
  11
 210.04818475679
  21
 727.97895914296
  31
0.0
   0
LINE
   5
513
 100
AcDbEntity
   8
LEVEL001
 100
AcDbLine
   6
DASHDOT
  62
1
  10
 185.04818475679
  20
 757.97895914296
  30
0.0
  11
 235.04818475679
  21
 757.97895914296
  31
0.0
   0
LINE
   5
514
 100
AcDbEntity
   8
LEVEL001
 100
AcDbLine
   6
DASHDOT
  62
1
  10
 112.24267375679
  20
 887.97895914296
  30
0.0
  11
 222.92403475679
  21
 887.97895914296
  31
0.0
   0
LINE
   5
515
 100
AcDbEntity
   8
LEVEL001
 100
AcDbLine
   6
DASHDOT
  62
1
  10
 185.04818475679
  20
 982.97895914296
  30
0.0
  11
 235.04818475679
  21
 982.97895914296
  31
0.0
   0
LINE
   5
516
 100
AcDbEntity
   8
LEVEL001
 100
AcDbLine
   6
DASHDOT
  62
1
  10
 210.04818475679
  20
 1007.9789591430
  30
0.0
  11
 210.04818475679
  21
 957.97895914296
  31
0.0
   0
LINE
   5
517
 100
AcDbEntity
   8
LEVEL001
 100
AcDbLine
   6
DASHDOT
  62
1
  10
 120.04818475679
  20
 957.97895914296
  30
0.0
  11
 120.04818475679
  21
 1007.9789591430
  31
0.0
   0
LINE
   5
518
 100
AcDbEntity
   8
LEVEL001
 100
AcDbLine
   6
DASHDOT
  62
1
  10
 95.048184756786
  20
 982.97895914296
  30
0.0
  11
 145.04818475679
  21
 982.97895914296
  31
0.0
   0
LINE
   5
519
 100
AcDbEntity
   8
LEVEL001
 100
AcDbLine
   6
DASHDOT
  62
1
  10
 165.04818475679
  20
 1017.2303495250
  30
0.0
  11
 165.04818475679
  21
 723.53016578944
  31
0.0
   0
LINE
   5
51A
 100
AcDbEntity
   8
LEVEL001
 100
AcDbLine
   6
DASHDOT
  62
1
  10
 575.79818475679
  20
 661.35782170814
  30
0.0
  11
 575.79818475679
  21
-11.967945384898
  31
0.0
   0
LINE
   5
51B
 100
AcDbEntity
   8
LEVEL001
 100
AcDbLine
   6
DASHDOT
  62
1
  10
 165.04818475679
  20
 661.35782170814
  30
0.0
  11
 165.04818475679
  21
-11.967945384898
  31
0.0
   0
LINE
   5
51C
 100
AcDbEntity
   8
LEVEL001
 100
AcDbLine
   6
DASHDOT
  62
1
  10
 670.79818475679
  20
 151.85782170814
  30
0.0
  11
 670.79818475679
  21
 127.85782170814
  31
0.0
   0
ENDSEC
  0
SECTION
  2
OBJECTS
  0
DICTIONARY
  5
C
100
AcDbDictionary
  3
ACAD_GROUP
350
D
  3
ACAD_MLINESTYLE
350
1B
  0
DICTIONARY
  5
D
102
{ACAD_REACTORS
330
C
102
}
100
AcDbDictionary
  0
DICTIONARY
  5
1B
102
{ACAD_REACTORS
330
C
102
}
100
AcDbDictionary
  3
STANDARD
350
1C
  0
MLINESTYLE
  5
1C
102
{ACAD_REACTORS
330
1B
102
}
100
AcDbMlineStyle
  2
STANDARD
 70
     0
  3

 62
   256
 51
90.0
 52
90.0
 71
     2
 49
0.5
 62
   256
  6
BYLAYER
 49
-0.5
 62
   256
  6
BYLAYER
  0
ENDSEC
   0
EOF
