   0
SECTION
   2
HEADER
   9
$ACADVER
   1
AC1014
   9
$LIMMIN
  10
0.0
  20
0.0
   9
$LIMMAX
  10
 420.00000000000
  20
 297.00000000000
   9
$EXTMIN
  10
0.0
  20
0.0
  30
0.0
   9
$EXTMAX
  10
 420.00000000000
  20
 297.00000000000
  30
0.0
   9
$LTSCALE
  40
 8.4000000000000
   9
$HANDSEED
   5
233
   0
ENDSEC
   0
SECTION
   2
TABLES
  0
TABLE
  2
VPORT
  5
8
100
AcDbSymbolTable
 70
     1
  0
VPORT
  5
232
100
AcDbSymbolTableRecord
100
AcDbViewportTableRecord
  2
*ACTIVE
 70
     0
 10
0.0
 20
0.0
 11
1.0
 21
1.0
  12
 210.00000000000
  22
 148.50000000000
 13
0.0
 23
0.0
 14
1.0
 24
1.0
 15
0.0
 25
0.0
 16
0.0
 26
0.0
 36
1.0
 17
0.0
 27
0.0
 37
0.0
  40
 420.00000000000
  41
 1.4787878787879
 42
50.0
 43
0.0
 44
0.0
 50
0.0
 51
0.0
 71
     0
 72
   100
 73
     1
 74
     1
 75
     0
 76
     0
 77
     0
 78
     0
  0
ENDTAB
  0
TABLE
  2
LTYPE
  5
5
100
AcDbSymbolTable
 70
    25
  0
LTYPE
  5
12
100
AcDbSymbolTableRecord
100
AcDbLinetypeTableRecord
  2
BYBLOCK
 70
     0
  3

 72
    65
 73
     0
 40
0.0
  0
LTYPE
  5
13
100
AcDbSymbolTableRecord
100
AcDbLinetypeTableRecord
  2
BYLAYER
 70
     0
  3

 72
    65
 73
     0
 40
0.0
  0
LTYPE
  5
14
100
AcDbSymbolTableRecord
100
AcDbLinetypeTableRecord
  2
CONTINUOUS
 70
     0
  3
Solid line
 72
    65
 73
     0
 40
0.0
  0
LTYPE
  5
20
100
AcDbSymbolTableRecord
100
AcDbLinetypeTableRecord
  2
BORDER
 70
     0
  3
__ __ . __ __ . __ __ . __ __ . __ __ . __ __ .
 72
    65
 73
     6
 40
1.75
 49
0.5
 74
     0
 49
-0.25
 74
     0
 49
0.5
 74
     0
 49
-0.25
 74
     0
 49
0.0
 74
     0
 49
-0.25
 74
     0
  0
LTYPE
  5
21
100
AcDbSymbolTableRecord
100
AcDbLinetypeTableRecord
  2
BORDER2
 70
     0
  3
__.__.__.__.__.__.__.__.__.__.__.__.__.__.__.__
 72
    65
 73
     6
 40
0.875
 49
0.25
 74
     0
 49
-0.125
 74
     0
 49
0.25
 74
     0
 49
-0.125
 74
     0
 49
0.0
 74
     0
 49
-0.125
 74
     0
  0
LTYPE
  5
22
100
AcDbSymbolTableRecord
100
AcDbLinetypeTableRecord
  2
BORDERX2
 70
     0
  3
____  ____  .  ____  ____  .  ____  ____  .  __
 72
    65
 73
     6
 40
3.5
 49
1.0
 74
     0
 49
-0.5
 74
     0
 49
1.0
 74
     0
 49
-0.5
 74
     0
 49
0.0
 74
     0
 49
-0.5
 74
     0
  0
LTYPE
  5
23
100
AcDbSymbolTableRecord
100
AcDbLinetypeTableRecord
  2
CENTER
 70
     0
  3
____ _ ____ _ ____ _ ____ _ ____ _ ____ _ ____ 
 72
    65
 73
     4
 40
2.0
 49
1.25
 74
     0
 49
-0.25
 74
     0
 49
0.25
 74
     0
 49
-0.25
 74
     0
  0
LTYPE
  5
24
100
AcDbSymbolTableRecord
100
AcDbLinetypeTableRecord
  2
CENTER2
 70
     0
  3
___ _ ___ _ ___ _ ___ _ ___ _ ___ _ ___ _ ___ _
 72
    65
 73
     4
 40
1.125
 49
0.75
 74
     0
 49
-0.125
 74
     0
 49
0.125
 74
     0
 49
-0.125
 74
     0
  0
LTYPE
  5
25
100
AcDbSymbolTableRecord
100
AcDbLinetypeTableRecord
  2
CENTERX2
 70
     0
  3
________  __  ________  __  ________  __  _____
 72
    65
 73
     4
 40
4.0
 49
2.5
 74
     0
 49
-0.5
 74
     0
 49
0.5
 74
     0
 49
-0.5
 74
     0
  0
LTYPE
  5
26
100
AcDbSymbolTableRecord
100
AcDbLinetypeTableRecord
  2
DASHDOT
 70
     0
  3
__ . __ . __ . __ . __ . __ . __ . __ . __ . __
 72
    65
 73
     4
 40
1.0
 49
0.5
 74
     0
 49
-0.25
 74
     0
 49
0.0
 74
     0
 49
-0.25
 74
     0
  0
LTYPE
  5
27
100
AcDbSymbolTableRecord
100
AcDbLinetypeTableRecord
  2
DASHDOT2
 70
     0
  3
_._._._._._._._._._._._._._._._._._._._._._._._
 72
    65
 73
     4
 40
0.5
 49
0.25
 74
     0
 49
-0.125
 74
     0
 49
0.0
 74
     0
 49
-0.125
 74
     0
  0
LTYPE
  5
28
100
AcDbSymbolTableRecord
100
AcDbLinetypeTableRecord
  2
DASHDOTX2
 70
     0
  3
____  .  ____  .  ____  .  ____  .  ____  .  __
 72
    65
 73
     4
 40
2.0
 49
1.0
 74
     0
 49
-0.5
 74
     0
 49
0.0
 74
     0
 49
-0.5
 74
     0
  0
LTYPE
  5
29
100
AcDbSymbolTableRecord
100
AcDbLinetypeTableRecord
  2
DASHED
 70
     0
  3
__ __ __ __ __ __ __ __ __ __ __ __ __ __ __ __
 72
    65
 73
     2
 40
0.75
 49
0.5
 74
     0
 49
-0.25
 74
     0
  0
LTYPE
  5
2A
100
AcDbSymbolTableRecord
100
AcDbLinetypeTableRecord
  2
DASHED2
 70
     0
  3
_ _ _ _ _ _ _ _ _ _ _ _ _ _ _ _ _ _ _ _ _ _ _ _
 72
    65
 73
     2
 40
0.375
 49
0.25
 74
     0
 49
-0.125
 74
     0
  0
LTYPE
  5
2B
100
AcDbSymbolTableRecord
100
AcDbLinetypeTableRecord
  2
DASHEDX2
 70
     0
  3
____  ____  ____  ____  ____  ____  ____  ____ 
 72
    65
 73
     2
 40
1.5
 49
1.0
 74
     0
 49
-0.5
 74
     0
  0
LTYPE
  5
2C
100
AcDbSymbolTableRecord
100
AcDbLinetypeTableRecord
  2
DIVIDE
 70
     0
  3
____ . . ____ . . ____ . . ____ . . ____ . . __
 72
    65
 73
     6
 40
1.25
 49
0.5
 74
     0
 49
-0.25
 74
     0
 49
0.0
 74
     0
 49
-0.25
 74
     0
 49
0.0
 74
     0
 49
-0.25
 74
     0
  0
LTYPE
  5
2D
100
AcDbSymbolTableRecord
100
AcDbLinetypeTableRecord
  2
DIVIDE2
 70
     0
  3
__..__..__..__..__..__..__..__..__..__..__..__.
 72
    65
 73
     6
 40
0.625
 49
0.25
 74
     0
 49
-0.125
 74
     0
 49
0.0
 74
     0
 49
-0.125
 74
     0
 49
0.0
 74
     0
 49
-0.125
 74
     0
  0
LTYPE
  5
2E
100
AcDbSymbolTableRecord
100
AcDbLinetypeTableRecord
  2
DIVIDEX2
 70
     0
  3
________  .  .  ________  .  .  ________  .  . 
 72
    65
 73
     6
 40
2.5
 49
1.0
 74
     0
 49
-0.5
 74
     0
 49
0.0
 74
     0
 49
-0.5
 74
     0
 49
0.0
 74
     0
 49
-0.5
 74
     0
  0
LTYPE
  5
2F
100
AcDbSymbolTableRecord
100
AcDbLinetypeTableRecord
  2
DOT
 70
     0
  3
. . . . . . . . . . . . . . . . . . . . . . . .
 72
    65
 73
     2
 40
0.25
 49
0.0
 74
     0
 49
-0.25
 74
     0
  0
LTYPE
  5
30
100
AcDbSymbolTableRecord
100
AcDbLinetypeTableRecord
  2
DOT2
 70
     0
  3
...............................................
 72
    65
 73
     2
 40
0.125
 49
0.0
 74
     0
 49
-0.125
 74
     0
  0
LTYPE
  5
31
100
AcDbSymbolTableRecord
100
AcDbLinetypeTableRecord
  2
DOTX2
 70
     0
  3
.  .  .  .  .  .  .  .  .  .  .  .  .  .  .  . 
 72
    65
 73
     2
 40
0.5
 49
0.0
 74
     0
 49
-0.5
 74
     0
  0
LTYPE
  5
32
100
AcDbSymbolTableRecord
100
AcDbLinetypeTableRecord
  2
HIDDEN
 70
     0
  3
__ __ __ __ __ __ __ __ __ __ __ __ __ __ __ __
 72
    65
 73
     2
 40
0.375
 49
0.25
 74
     0
 49
-0.125
 74
     0
  0
LTYPE
  5
33
100
AcDbSymbolTableRecord
100
AcDbLinetypeTableRecord
  2
HIDDEN2
 70
     0
  3
_ _ _ _ _ _ _ _ _ _ _ _ _ _ _ _ _ _ _ _ _ _ _ _
 72
    65
 73
     2
 40
0.1875
 49
0.125
 74
     0
 49
-0.0625
 74
     0
  0
LTYPE
  5
34
100
AcDbSymbolTableRecord
100
AcDbLinetypeTableRecord
  2
HIDDENX2
 70
     0
  3
____ ____ ____ ____ ____ ____ ____ ____ ____ __
 72
    65
 73
     2
 40
0.75
 49
0.5
 74
     0
 49
-0.25
 74
     0
  0
LTYPE
  5
35
100
AcDbSymbolTableRecord
100
AcDbLinetypeTableRecord
  2
PHANTOM
 70
     0
  3
______  __  __  ______  __  __  ______  __  __ 
 72
    65
 73
     6
 40
2.5
 49
1.25
 74
     0
 49
-0.25
 74
     0
 49
0.25
 74
     0
 49
-0.25
 74
     0
 49
0.25
 74
     0
 49
-0.25
 74
     0
  0
LTYPE
  5
36
100
AcDbSymbolTableRecord
100
AcDbLinetypeTableRecord
  2
PHANTOM2
 70
     0
  3
___ _ _ ___ _ _ ___ _ _ ___ _ _ ___ _ _ ___ _ _
 72
    65
 73
     6
 40
1.25
 49
0.625
 74
     0
 49
-0.125
 74
     0
 49
0.125
 74
     0
 49
-0.125
 74
     0
 49
0.125
 74
     0
 49
-0.125
 74
     0
  0
LTYPE
  5
37
100
AcDbSymbolTableRecord
100
AcDbLinetypeTableRecord
  2
PHANTOMX2
 70
     0
  3
____________    ____    ____    ____________   
 72
    65
 73
     6
 40
5.0
 49
2.5
 74
     0
 49
-0.5
 74
     0
 49
0.5
 74
     0
 49
-0.5
 74
     0
 49
0.5
 74
     0
 49
-0.5
 74
     0
  0
ENDTAB
   0
TABLE
   2
LAYER
   5
2
 100
AcDbSymbolTable
  70
3
   0
LAYER
   5
E
 100
AcDbSymbolTableRecord
 100
AcDbLayerTableRecord
   2
0
  70
0
  62
7
   6
CONTINUOUS
   0
LAYER
   5
39
 100
AcDbSymbolTableRecord
 100
AcDbLayerTableRecord
   2
LEVEL001
  70
0
  62
7
   6
CONTINUOUS
   0
LAYER
   5
3A
 100
AcDbSymbolTableRecord
 100
AcDbLayerTableRecord
   2
LEVEL003
  70
0
  62
7
   6
CONTINUOUS
   0
ENDTAB
  0
TABLE
  2
STYLE
  5
3
100
AcDbSymbolTable
  70
3
  0
STYLE
  5
F
100
AcDbSymbolTableRecord
100
AcDbTextStyleTableRecord
  2
STANDARD
 70
     0
 40
0.0
 41
1.0
 50
0.0
 71
     0
 42
0.2
  3
TXT
  4
BIGFONT
  0
STYLE
  5
38
100
AcDbSymbolTableRecord
100
AcDbTextStyleTableRecord
  2
STANDARD1
 70
     4
 40
0.0
 41
1.0
 50
0.0
 71
     0
 42
0.2
  3
TXT
  4
BIGFONT
   0
STYLE
   5
3B
 100
AcDbSymbolTableRecord
 100
AcDbTextStyleTableRecord
   2
GMM001
  70
0
  40
0.0
  41
 1.0000000000000
  50
0.0
  71
     0
  42
1.0
   3
txt.shx
   4
bigfont.shx
   0
ENDTAB
  0
TABLE
  2
VIEW
  5
6
100
AcDbSymbolTable
 70
     0
  0
ENDTAB
  0
TABLE
  2
UCS
  5
7
100
AcDbSymbolTable
 70
     0
  0
ENDTAB
  0
TABLE
  2
APPID
  5
9
100
AcDbSymbolTable
 70
     1
  0
APPID
  5
10
100
AcDbSymbolTableRecord
100
AcDbRegAppTableRecord
  2
ACAD
 70
     0
  0
ENDTAB
   0
TABLE
   2
DIMSTYLE
   5
A
 100
AcDbSymbolTable
  70
14
  0
DIMSTYLE
105
1D
100
AcDbSymbolTableRecord
100
AcDbDimStyleTableRecord
  2
STANDARD
 70
     0
  3

  4

  5

  6

  7

 40
1.0
 41
0.18
 42
0.0625
 43
0.38
 44
0.18
 45
0.0
 46
0.0
 47
0.0
 48
0.0
140
0.18
141
0.09
142
0.0
143
25.4
144
1.0
145
0.0
146
1.0
147
0.09
 71
     0
 72
     0
 73
     1
 74
     1
 75
     0
 76
     0
 77
     0
 78
     0
170
     0
171
     2
172
     0
173
     0
174
     0
175
     0
176
     0
177
     0
178
     0
270
     2
271
     4
272
     4
273
     2
274
     2
340
F
275
     0
280
     0
281
     0
282
     0
283
     1
284
     0
285
     0
286
     0
287
     3
288
     0
   0
DIMSTYLE
 105
3C
 100
AcDbSymbolTableRecord
 100
AcDbDimStyleTableRecord
   2
GMM001
  70
0
   3

   4

   5

   6
_OPEN
   7
_OPEN
  40
 1.0000000000000
  41
 2.5000000000000
  42
 0.50000000000000
  43
 8.0000000000000
  44
 2.0000000000000
  45
0.0
  46
 3.1250000000000
  47
0.0
  48
0.0
 140
 3.1500000000000
 141
 1.0000000000000
 142
0.0
 143
 0.39400000000000E-1
 144
 1.0000000000000
 145
0.0
 146
 0.62500000000000
 147
 0.50000000000000
  71
0
  72
0
  73
0
  74
0
  75
0
  76
0
  77
1
  78
8
 170
0
 171
2
 172
1
 173
1
 174
0
 175
0
 176
3
 177
3
 178
3
 270
2
 271
2
 272
0
 273
2
 274
2
 340
3B
 275
0
 280
0
 281
0
 282
0
 283
1
 284
0
 285
0
 286
0
 287
3
 288
0
   0
DIMSTYLE
 105
3D
 100
AcDbSymbolTableRecord
 100
AcDbDimStyleTableRecord
   2
GMM002
  70
0
   3

   4

   5

   6
_OPEN
   7
_OPEN
  40
 1.0000000000000
  41
 2.5000000000000
  42
 0.50000000000000
  43
 8.0000000000000
  44
 2.0000000000000
  45
0.0
  46
 3.1250000000000
  47
0.0
  48
0.0
 140
 3.1500000000000
 141
 1.0000000000000
 142
0.0
 143
 0.39400000000000E-1
 144
 1.0000000000000
 145
0.0
 146
 0.62500000000000
 147
0.0
  71
0
  72
0
  73
0
  74
0
  75
1
  76
1
  77
1
  78
8
 170
0
 171
2
 172
1
 173
1
 174
0
 175
0
 176
3
 177
3
 178
3
 270
2
 271
2
 272
0
 273
2
 274
2
 340
F
 275
0
 280
0
 281
0
 282
0
 283
1
 284
0
 285
0
 286
0
 287
3
 288
0
   0
DIMSTYLE
 105
3E
 100
AcDbSymbolTableRecord
 100
AcDbDimStyleTableRecord
   2
GMM003
  70
0
   3

   4

   5

   6
_OPEN
   7
_OPEN
  40
 1.0000000000000
  41
 2.5000000000000
  42
 0.50000000000000
  43
 8.0000000000000
  44
 2.0000000000000
  45
0.0
  46
 3.1250000000000
  47
0.0
  48
0.0
 140
 3.1500000000000
 141
 1.0000000000000
 142
0.0
 143
 0.39400000000000E-1
 144
 1.0000000000000
 145
0.0
 146
 0.62500000000000
 147
 0.50000000000000
  71
0
  72
0
  73
0
  74
0
  75
0
  76
0
  77
1
  78
8
 170
0
 171
2
 172
1
 173
1
 174
0
 175
0
 176
3
 177
3
 178
3
 270
2
 271
2
 272
0
 273
2
 274
2
 340
3B
 275
0
 280
0
 281
0
 282
0
 283
1
 284
0
 285
0
 286
0
 287
3
 288
0
   0
DIMSTYLE
 105
3F
 100
AcDbSymbolTableRecord
 100
AcDbDimStyleTableRecord
   2
GMM004
  70
0
   3

   4

   5

   6
_DOT
   7
_DOT
  40
 1.0000000000000
  41
 0.80000000000000
  42
 0.50000000000000
  43
 8.0000000000000
  44
 2.0000000000000
  45
0.0
  46
 3.7500000000000
  47
0.0
  48
0.0
 140
 3.1500000000000
 141
 1.0000000000000
 142
0.0
 143
 0.39400000000000E-1
 144
 1.0000000000000
 145
0.0
 146
 0.62500000000000
 147
0.0
  71
0
  72
0
  73
0
  74
0
  75
1
  76
1
  77
0
  78
8
 170
0
 171
2
 172
1
 173
1
 174
0
 175
0
 176
3
 177
3
 178
3
 270
2
 271
2
 272
0
 273
2
 274
2
 340
F
 275
0
 280
0
 281
0
 282
0
 283
1
 284
0
 285
0
 286
0
 287
3
 288
0
   0
DIMSTYLE
 105
40
 100
AcDbSymbolTableRecord
 100
AcDbDimStyleTableRecord
   2
GMM005
  70
0
   3

   4

   5

   6
_OPEN
   7
_OPEN
  40
 1.0000000000000
  41
 2.5000000000000
  42
 0.50000000000000
  43
 8.0000000000000
  44
 2.0000000000000
  45
0.0
  46
 3.1250000000000
  47
0.0
  48
0.0
 140
 3.1500000000000
 141
 1.0000000000000
 142
0.0
 143
 0.39400000000000E-1
 144
 1.0000000000000
 145
0.0
 146
 0.62500000000000
 147
 0.50000000000000
  71
0
  72
0
  73
0
  74
0
  75
0
  76
0
  77
1
  78
8
 170
0
 171
2
 172
1
 173
1
 174
0
 175
0
 176
3
 177
3
 178
3
 270
2
 271
2
 272
0
 273
2
 274
2
 340
3B
 275
0
 280
0
 281
0
 282
0
 283
1
 284
0
 285
0
 286
0
 287
3
 288
0
   0
DIMSTYLE
 105
41
 100
AcDbSymbolTableRecord
 100
AcDbDimStyleTableRecord
   2
GMM006
  70
0
   3
<>P9h9
   4

   5

   6
_OPEN
   7
_OPEN
  40
 1.0000000000000
  41
 2.5000000000000
  42
 0.50000000000000
  43
 8.0000000000000
  44
 2.0000000000000
  45
0.0
  46
 3.1250000000000
  47
0.0
  48
0.0
 140
 3.1500000000000
 141
 1.0000000000000
 142
0.0
 143
 0.39400000000000E-1
 144
 1.0000000000000
 145
0.0
 146
 0.62500000000000
 147
 0.50000000000000
  71
0
  72
0
  73
0
  74
0
  75
0
  76
0
  77
1
  78
8
 170
0
 171
2
 172
1
 173
1
 174
0
 175
0
 176
3
 177
3
 178
3
 270
2
 271
2
 272
0
 273
2
 274
2
 340
3B
 275
0
 280
0
 281
0
 282
0
 283
1
 284
0
 285
0
 286
0
 287
3
 288
1
   0
DIMSTYLE
 105
42
 100
AcDbSymbolTableRecord
 100
AcDbDimStyleTableRecord
   2
GMM007
  70
0
   3
%%c<>h7
   4

   5

   6
_OPEN
   7
_OPEN
  40
 1.0000000000000
  41
 2.5000000000000
  42
 0.50000000000000
  43
 8.0000000000000
  44
 2.0000000000000
  45
0.0
  46
 3.1250000000000
  47
0.0
  48
0.0
 140
 3.1500000000000
 141
 1.0000000000000
 142
0.0
 143
 0.39400000000000E-1
 144
 1.0000000000000
 145
0.0
 146
 0.62500000000000
 147
 0.50000000000000
  71
0
  72
0
  73
1
  74
1
  75
1
  76
1
  77
1
  78
8
 170
0
 171
2
 172
1
 173
1
 174
0
 175
0
 176
3
 177
3
 178
3
 270
2
 271
2
 272
0
 273
2
 274
2
 340
3B
 275
0
 280
0
 281
0
 282
0
 283
1
 284
0
 285
0
 286
0
 287
3
 288
1
   0
DIMSTYLE
 105
43
 100
AcDbSymbolTableRecord
 100
AcDbDimStyleTableRecord
   2
GMM008
  70
0
   3

   4

   5

   6
_OPEN
   7
_OPEN
  40
 1.0000000000000
  41
 2.5000000000000
  42
 0.50000000000000
  43
 8.0000000000000
  44
 2.0000000000000
  45
0.0
  46
 3.1250000000000
  47
0.0
  48
0.0
 140
 3.1500000000000
 141
 1.0000000000000
 142
0.0
 143
 0.39400000000000E-1
 144
 1.0000000000000
 145
0.0
 146
 0.62500000000000
 147
0.0
  71
0
  72
0
  73
0
  74
0
  75
1
  76
1
  77
1
  78
8
 170
0
 171
2
 172
1
 173
1
 174
0
 175
0
 176
3
 177
3
 178
3
 270
2
 271
2
 272
0
 273
2
 274
2
 340
F
 275
0
 280
0
 281
0
 282
0
 283
1
 284
0
 285
0
 286
0
 287
3
 288
0
   0
DIMSTYLE
 105
44
 100
AcDbSymbolTableRecord
 100
AcDbDimStyleTableRecord
   2
GMM009
  70
0
   3

   4

   5

   6
_OPEN
   7
_OPEN
  40
 1.0000000000000
  41
 2.5000000000000
  42
 0.50000000000000
  43
 8.0000000000000
  44
 2.0000000000000
  45
0.0
  46
 3.1250000000000
  47
0.0
  48
0.0
 140
 3.1500000000000
 141
 1.0000000000000
 142
0.0
 143
 0.39400000000000E-1
 144
 1.0000000000000
 145
0.0
 146
 0.62500000000000
 147
 0.50000000000000
  71
0
  72
0
  73
0
  74
0
  75
0
  76
0
  77
1
  78
8
 170
0
 171
2
 172
1
 173
1
 174
0
 175
0
 176
3
 177
3
 178
3
 270
2
 271
2
 272
0
 273
2
 274
2
 340
3B
 275
0
 280
0
 281
0
 282
0
 283
1
 284
0
 285
0
 286
0
 287
3
 288
0
   0
DIMSTYLE
 105
45
 100
AcDbSymbolTableRecord
 100
AcDbDimStyleTableRecord
   2
GMM010
  70
0
   3
%%c<>
   4

   5

   6
_OPEN
   7
_OPEN
  40
 1.0000000000000
  41
 2.5000000000000
  42
 0.50000000000000
  43
 8.0000000000000
  44
 2.0000000000000
  45
0.0
  46
 3.1250000000000
  47
0.0
  48
0.0
 140
 3.1500000000000
 141
 1.0000000000000
 142
0.0
 143
 0.39400000000000E-1
 144
 1.0000000000000
 145
0.0
 146
 0.62500000000000
 147
 0.50000000000000
  71
0
  72
0
  73
0
  74
0
  75
0
  76
0
  77
1
  78
8
 170
0
 171
2
 172
1
 173
1
 174
0
 175
0
 176
3
 177
3
 178
3
 270
2
 271
2
 272
0
 273
2
 274
2
 340
3B
 275
0
 280
0
 281
0
 282
0
 283
1
 284
0
 285
0
 286
0
 287
3
 288
0
   0
DIMSTYLE
 105
46
 100
AcDbSymbolTableRecord
 100
AcDbDimStyleTableRecord
   2
GMM011
  70
0
   3
□<>
   4

   5

   6
_OPEN
   7
_OPEN
  40
 1.0000000000000
  41
 2.5000000000000
  42
 0.50000000000000
  43
 8.0000000000000
  44
 2.0000000000000
  45
0.0
  46
 3.1250000000000
  47
0.0
  48
0.0
 140
 3.1500000000000
 141
 1.0000000000000
 142
0.0
 143
 0.39400000000000E-1
 144
 1.0000000000000
 145
0.0
 146
 0.62500000000000
 147
 0.50000000000000
  71
0
  72
0
  73
0
  74
0
  75
0
  76
0
  77
1
  78
8
 170
0
 171
2
 172
1
 173
1
 174
0
 175
0
 176
3
 177
3
 178
3
 270
2
 271
2
 272
0
 273
2
 274
2
 340
3B
 275
0
 280
0
 281
0
 282
0
 283
1
 284
0
 285
0
 286
0
 287
3
 288
0
   0
DIMSTYLE
 105
47
 100
AcDbSymbolTableRecord
 100
AcDbDimStyleTableRecord
   2
GMM012
  70
0
   3
MIN.<>※%%p0.3
   4

   5

   6
_OPEN
   7
_OPEN
  40
 1.0000000000000
  41
 2.5000000000000
  42
 0.50000000000000
  43
 8.0000000000000
  44
 2.0000000000000
  45
0.0
  46
 3.1250000000000
  47
0.0
  48
0.0
 140
 3.1500000000000
 141
 1.0000000000000
 142
0.0
 143
 0.39400000000000E-1
 144
 1.0000000000000
 145
0.0
 146
 0.62500000000000
 147
 0.50000000000000
  71
0
  72
0
  73
0
  74
0
  75
0
  76
0
  77
1
  78
8
 170
0
 171
2
 172
1
 173
1
 174
0
 175
0
 176
3
 177
3
 178
3
 270
2
 271
2
 272
0
 273
2
 274
2
 340
3B
 275
0
 280
0
 281
0
 282
0
 283
1
 284
0
 285
0
 286
0
 287
3
 288
0
   0
ENDTAB
  0
TABLE
  2
BLOCK_RECORD
  5
1
100
AcDbSymbolTable
 70
     0
  0
BLOCK_RECORD
  5
18
100
AcDbSymbolTableRecord
100
AcDbBlockTableRecord
  2
*MODEL_SPACE
  0
BLOCK_RECORD
  5
15
100
AcDbSymbolTableRecord
100
AcDbBlockTableRecord
  2
*PAPER_SPACE
   0
BLOCK_RECORD
   5
48
 100
AcDbSymbolTableRecord
 100
AcDbBlockTableRecord
   2
*D1
   0
BLOCK_RECORD
   5
49
 100
AcDbSymbolTableRecord
 100
AcDbBlockTableRecord
   2
*D3
   0
BLOCK_RECORD
   5
4A
 100
AcDbSymbolTableRecord
 100
AcDbBlockTableRecord
   2
*D4
   0
BLOCK_RECORD
   5
4B
 100
AcDbSymbolTableRecord
 100
AcDbBlockTableRecord
   2
*D5
   0
BLOCK_RECORD
   5
4C
 100
AcDbSymbolTableRecord
 100
AcDbBlockTableRecord
   2
*D6
   0
BLOCK_RECORD
   5
4D
 100
AcDbSymbolTableRecord
 100
AcDbBlockTableRecord
   2
*D7
   0
BLOCK_RECORD
   5
4E
 100
AcDbSymbolTableRecord
 100
AcDbBlockTableRecord
   2
*D8
   0
BLOCK_RECORD
   5
4F
 100
AcDbSymbolTableRecord
 100
AcDbBlockTableRecord
   2
*D9
   0
BLOCK_RECORD
   5
50
 100
AcDbSymbolTableRecord
 100
AcDbBlockTableRecord
   2
*D10
   0
BLOCK_RECORD
   5
51
 100
AcDbSymbolTableRecord
 100
AcDbBlockTableRecord
   2
*D12
   0
BLOCK_RECORD
   5
52
 100
AcDbSymbolTableRecord
 100
AcDbBlockTableRecord
   2
*D13
   0
BLOCK_RECORD
   5
53
 100
AcDbSymbolTableRecord
 100
AcDbBlockTableRecord
   2
*D14
   0
BLOCK_RECORD
   5
54
 100
AcDbSymbolTableRecord
 100
AcDbBlockTableRecord
   2
*D15
   0
BLOCK_RECORD
   5
55
 100
AcDbSymbolTableRecord
 100
AcDbBlockTableRecord
   2
*D17
   0
BLOCK_RECORD
   5
56
 100
AcDbSymbolTableRecord
 100
AcDbBlockTableRecord
   2
*D18
   0
BLOCK_RECORD
   5
57
 100
AcDbSymbolTableRecord
 100
AcDbBlockTableRecord
   2
*D19
   0
BLOCK_RECORD
   5
58
 100
AcDbSymbolTableRecord
 100
AcDbBlockTableRecord
   2
*D20
   0
BLOCK_RECORD
   5
59
 100
AcDbSymbolTableRecord
 100
AcDbBlockTableRecord
   2
*D21
   0
BLOCK_RECORD
   5
5A
 100
AcDbSymbolTableRecord
 100
AcDbBlockTableRecord
   2
*D22
   0
BLOCK_RECORD
   5
5B
 100
AcDbSymbolTableRecord
 100
AcDbBlockTableRecord
   2
_ARCHTICK
   0
BLOCK_RECORD
   5
5C
 100
AcDbSymbolTableRecord
 100
AcDbBlockTableRecord
   2
_BOXBLANK
   0
BLOCK_RECORD
   5
5D
 100
AcDbSymbolTableRecord
 100
AcDbBlockTableRecord
   2
_BOXFILLED
   0
BLOCK_RECORD
   5
5E
 100
AcDbSymbolTableRecord
 100
AcDbBlockTableRecord
   2
_CLOSED
   0
BLOCK_RECORD
   5
5F
 100
AcDbSymbolTableRecord
 100
AcDbBlockTableRecord
   2
_CLOSEDBLANK
   0
BLOCK_RECORD
   5
60
 100
AcDbSymbolTableRecord
 100
AcDbBlockTableRecord
   2
_DATUMBLANK
   0
BLOCK_RECORD
   5
61
 100
AcDbSymbolTableRecord
 100
AcDbBlockTableRecord
   2
_DATUMFILLED
   0
BLOCK_RECORD
   5
62
 100
AcDbSymbolTableRecord
 100
AcDbBlockTableRecord
   2
_DOT
   0
BLOCK_RECORD
   5
63
 100
AcDbSymbolTableRecord
 100
AcDbBlockTableRecord
   2
_DOTBLANK
   0
BLOCK_RECORD
   5
64
 100
AcDbSymbolTableRecord
 100
AcDbBlockTableRecord
   2
_DOTSMALL
   0
BLOCK_RECORD
   5
65
 100
AcDbSymbolTableRecord
 100
AcDbBlockTableRecord
   2
_INTEGRAL
   0
BLOCK_RECORD
   5
66
 100
AcDbSymbolTableRecord
 100
AcDbBlockTableRecord
   2
_NONE
   0
BLOCK_RECORD
   5
67
 100
AcDbSymbolTableRecord
 100
AcDbBlockTableRecord
   2
_OBLIQUE
   0
BLOCK_RECORD
   5
68
 100
AcDbSymbolTableRecord
 100
AcDbBlockTableRecord
   2
_OPEN
   0
BLOCK_RECORD
   5
69
 100
AcDbSymbolTableRecord
 100
AcDbBlockTableRecord
   2
_OPEN30
   0
BLOCK_RECORD
   5
6A
 100
AcDbSymbolTableRecord
 100
AcDbBlockTableRecord
   2
_OPEN90
   0
BLOCK_RECORD
   5
6B
 100
AcDbSymbolTableRecord
 100
AcDbBlockTableRecord
   2
_ORIGIN
   0
ENDTAB
   0
ENDSEC
  0
SECTION
  2
BLOCKS
  0
BLOCK
  5
19
100
AcDbEntity
  8
0
100
AcDbBlockBegin
  2
*MODEL_SPACE
 70
     0
 10
0.0
 20
0.0
 30
0.0
  3
*MODEL_SPACE
  1

  0
ENDBLK
  5
1A
100
AcDbEntity
  8
0
100
AcDbBlockEnd
  0
BLOCK
  5
16
100
AcDbEntity
 67
     1
  8
0
100
AcDbBlockBegin
  2
*PAPER_SPACE
 70
     0
 10
0.0
 20
0.0
 30
0.0
  3
*PAPER_SPACE
  1

  0
ENDBLK
  5
17
100
AcDbEntity
 67
     1
  8
0
100
AcDbBlockEnd
   0
BLOCK
   5
6C
 100
AcDbEntity
   8
0
 100
AcDbBlockBegin
   2
_ARCHTICK
  70
0
  10
0.0
  20
0.0
  30
0.0
   3
_ARCHTICK
   0
POLYLINE
   5
6D
 100
AcDbEntity
   8
0
   6
BYBLOCK
  62
0
 100
AcDb2dPolyline
  66
1
  10
0.0
  20
0.0
  30
0.0
  70
1
  40
 0.15000000000000
  41
 0.15000000000000
   0
VERTEX
   5
6E
 100
AcDbEntity
   8
0
   6
BYBLOCK
  62
0
 100
AcDbVertex
 100
AcDb2dVertex
  10
-0.50000000000000
  20
-0.50000000000000
  30
0.0
  40
 0.15000000000000
  41
 0.15000000000000
   0
VERTEX
   5
6F
 100
AcDbEntity
   8
0
   6
BYBLOCK
  62
0
 100
AcDbVertex
 100
AcDb2dVertex
  10
 0.50000000000000
  20
 0.50000000000000
  30
0.0
  40
 0.15000000000000
  41
 0.15000000000000
   0
SEQEND
   5
70
 100
AcDbEntity
   8
0
   6
BYBLOCK
  62
0
   0
ENDBLK
   5
71
 100
AcDbEntity
   8
0
 100
AcDbBlockEnd
   0
BLOCK
   5
72
 100
AcDbEntity
   8
0
 100
AcDbBlockBegin
   2
_OBLIQUE
  70
0
  10
0.0
  20
0.0
  30
0.0
   3
_OBLIQUE
   0
LINE
   5
73
 100
AcDbEntity
   8
0
 100
AcDbLine
   6
BYBLOCK
  62
0
  10
-0.50000000000000
  20
-0.50000000000000
  30
0.0
  11
 0.50000000000000
  21
 0.50000000000000
  31
0.0
   0
ENDBLK
   5
74
 100
AcDbEntity
   8
0
 100
AcDbBlockEnd
   0
BLOCK
   5
75
 100
AcDbEntity
   8
0
 100
AcDbBlockBegin
   2
_BOXBLANK
  70
0
  10
0.0
  20
0.0
  30
0.0
   3
_BOXBLANK
   0
LINE
   5
76
 100
AcDbEntity
   8
0
 100
AcDbLine
   6
BYBLOCK
  62
0
  10
-0.50000000000000
  20
-0.50000000000000
  30
0.0
  11
 0.50000000000000
  21
-0.50000000000000
  31
0.0
   0
LINE
   5
77
 100
AcDbEntity
   8
0
 100
AcDbLine
   6
BYBLOCK
  62
0
  10
 0.50000000000000
  20
-0.50000000000000
  30
0.0
  11
 0.50000000000000
  21
 0.50000000000000
  31
0.0
   0
LINE
   5
78
 100
AcDbEntity
   8
0
 100
AcDbLine
   6
BYBLOCK
  62
0
  10
 0.50000000000000
  20
 0.50000000000000
  30
0.0
  11
-0.50000000000000
  21
 0.50000000000000
  31
0.0
   0
LINE
   5
79
 100
AcDbEntity
   8
0
 100
AcDbLine
   6
BYBLOCK
  62
0
  10
-0.50000000000000
  20
 0.50000000000000
  30
0.0
  11
-0.50000000000000
  21
-0.50000000000000
  31
0.0
   0
LINE
   5
7A
 100
AcDbEntity
   8
0
 100
AcDbLine
   6
BYBLOCK
  62
0
  10
-0.50000000000000
  20
0.0
  30
0.0
  11
-1.0000000000000
  21
0.0
  31
0.0
   0
ENDBLK
   5
7B
 100
AcDbEntity
   8
0
 100
AcDbBlockEnd
   0
BLOCK
   5
7C
 100
AcDbEntity
   8
0
 100
AcDbBlockBegin
   2
_BOXFILLED
  70
0
  10
0.0
  20
0.0
  30
0.0
   3
_BOXFILLED
   0
SOLID
   5
7D
 100
AcDbEntity
   8
0
 100
AcDbTrace
   6
BYBLOCK
  62
0
  10
-0.50000000000000
  20
 0.50000000000000
  30
0.0
  11
 0.50000000000000
  21
 0.50000000000000
  31
0.0
  12
-0.50000000000000
  22
-0.50000000000000
  32
0.0
  13
 0.50000000000000
  23
-0.50000000000000
  33
0.0
   0
LINE
   5
7E
 100
AcDbEntity
   8
0
 100
AcDbLine
   6
BYBLOCK
  62
0
  10
-0.50000000000000
  20
0.0
  30
0.0
  11
-1.0000000000000
  21
0.0
  31
0.0
   0
ENDBLK
   5
7F
 100
AcDbEntity
   8
0
 100
AcDbBlockEnd
   0
BLOCK
   5
80
 100
AcDbEntity
   8
0
 100
AcDbBlockBegin
   2
_CLOSED
  70
0
  10
0.0
  20
0.0
  30
0.0
   3
_CLOSED
   0
LINE
   5
81
 100
AcDbEntity
   8
0
 100
AcDbLine
   6
BYBLOCK
  62
0
  10
-1.0000000000000
  20
 0.16666666666667
  30
0.0
  11
0.0
  21
0.0
  31
0.0
   0
LINE
   5
82
 100
AcDbEntity
   8
0
 100
AcDbLine
   6
BYBLOCK
  62
0
  10
0.0
  20
0.0
  30
0.0
  11
-1.0000000000000
  21
-0.16666666666667
  31
0.0
   0
LINE
   5
83
 100
AcDbEntity
   8
0
 100
AcDbLine
   6
BYBLOCK
  62
0
  10
-1.0000000000000
  20
 0.16666666666667
  30
0.0
  11
-1.0000000000000
  21
-0.16666666666667
  31
0.0
   0
LINE
   5
84
 100
AcDbEntity
   8
0
 100
AcDbLine
   6
BYBLOCK
  62
0
  10
0.0
  20
0.0
  30
0.0
  11
-1.0000000000000
  21
0.0
  31
0.0
   0
ENDBLK
   5
85
 100
AcDbEntity
   8
0
 100
AcDbBlockEnd
   0
BLOCK
   5
86
 100
AcDbEntity
   8
0
 100
AcDbBlockBegin
   2
_OPEN
  70
0
  10
0.0
  20
0.0
  30
0.0
   3
_OPEN
   0
LINE
   5
87
 100
AcDbEntity
   8
0
 100
AcDbLine
   6
BYBLOCK
  62
0
  10
-1.0000000000000
  20
 0.16666666666667
  30
0.0
  11
0.0
  21
0.0
  31
0.0
   0
LINE
   5
88
 100
AcDbEntity
   8
0
 100
AcDbLine
   6
BYBLOCK
  62
0
  10
0.0
  20
0.0
  30
0.0
  11
-1.0000000000000
  21
-0.16666666666667
  31
0.0
   0
LINE
   5
89
 100
AcDbEntity
   8
0
 100
AcDbLine
   6
BYBLOCK
  62
0
  10
0.0
  20
0.0
  30
0.0
  11
-1.0000000000000
  21
0.0
  31
0.0
   0
ENDBLK
   5
8A
 100
AcDbEntity
   8
0
 100
AcDbBlockEnd
   0
BLOCK
   5
8B
 100
AcDbEntity
   8
0
 100
AcDbBlockBegin
   2
_OPEN30
  70
0
  10
0.0
  20
0.0
  30
0.0
   3
_OPEN30
   0
LINE
   5
8C
 100
AcDbEntity
   8
0
 100
AcDbLine
   6
BYBLOCK
  62
0
  10
-1.0000000000000
  20
 0.26794919243110
  30
0.0
  11
0.0
  21
0.0
  31
0.0
   0
LINE
   5
8D
 100
AcDbEntity
   8
0
 100
AcDbLine
   6
BYBLOCK
  62
0
  10
0.0
  20
0.0
  30
0.0
  11
-1.0000000000000
  21
-0.26794919243110
  31
0.0
   0
LINE
   5
8E
 100
AcDbEntity
   8
0
 100
AcDbLine
   6
BYBLOCK
  62
0
  10
0.0
  20
0.0
  30
0.0
  11
-1.0000000000000
  21
0.0
  31
0.0
   0
ENDBLK
   5
8F
 100
AcDbEntity
   8
0
 100
AcDbBlockEnd
   0
BLOCK
   5
90
 100
AcDbEntity
   8
0
 100
AcDbBlockBegin
   2
_OPEN90
  70
0
  10
0.0
  20
0.0
  30
0.0
   3
_OPEN90
   0
LINE
   5
91
 100
AcDbEntity
   8
0
 100
AcDbLine
   6
BYBLOCK
  62
0
  10
-0.50000000000000
  20
 0.50000000000000
  30
0.0
  11
0.0
  21
0.0
  31
0.0
   0
LINE
   5
92
 100
AcDbEntity
   8
0
 100
AcDbLine
   6
BYBLOCK
  62
0
  10
0.0
  20
0.0
  30
0.0
  11
-0.50000000000000
  21
-0.50000000000000
  31
0.0
   0
LINE
   5
93
 100
AcDbEntity
   8
0
 100
AcDbLine
   6
BYBLOCK
  62
0
  10
0.0
  20
0.0
  30
0.0
  11
-1.0000000000000
  21
0.0
  31
0.0
   0
ENDBLK
   5
94
 100
AcDbEntity
   8
0
 100
AcDbBlockEnd
   0
BLOCK
   5
95
 100
AcDbEntity
   8
0
 100
AcDbBlockBegin
   2
_CLOSEDBLANK
  70
0
  10
0.0
  20
0.0
  30
0.0
   3
_CLOSEDBLANK
   0
LINE
   5
96
 100
AcDbEntity
   8
0
 100
AcDbLine
   6
BYBLOCK
  62
0
  10
-1.0000000000000
  20
 0.16666666666667
  30
0.0
  11
0.0
  21
0.0
  31
0.0
   0
LINE
   5
97
 100
AcDbEntity
   8
0
 100
AcDbLine
   6
BYBLOCK
  62
0
  10
0.0
  20
0.0
  30
0.0
  11
-1.0000000000000
  21
-0.16666666666667
  31
0.0
   0
LINE
   5
98
 100
AcDbEntity
   8
0
 100
AcDbLine
   6
BYBLOCK
  62
0
  10
-1.0000000000000
  20
 0.16666666666667
  30
0.0
  11
-1.0000000000000
  21
-0.16666666666667
  31
0.0
   0
ENDBLK
   5
99
 100
AcDbEntity
   8
0
 100
AcDbBlockEnd
   0
BLOCK
   5
9A
 100
AcDbEntity
   8
0
 100
AcDbBlockBegin
   2
_DOT
  70
0
  10
0.0
  20
0.0
  30
0.0
   3
_DOT
   0
POLYLINE
   5
9B
 100
AcDbEntity
   8
0
   6
BYBLOCK
  62
0
 100
AcDb2dPolyline
  66
1
  10
0.0
  20
0.0
  30
0.0
  70
1
  40
 0.50000000000000
  41
 0.50000000000000
   0
VERTEX
   5
9C
 100
AcDbEntity
   8
0
   6
BYBLOCK
  62
0
 100
AcDbVertex
 100
AcDb2dVertex
  10
-0.25000000000000
  20
0.0
  30
0.0
  42
 1.0000000000000
  40
 0.50000000000000
  41
 0.50000000000000
   0
VERTEX
   5
9D
 100
AcDbEntity
   8
0
   6
BYBLOCK
  62
0
 100
AcDbVertex
 100
AcDb2dVertex
  10
 0.25000000000000
  20
0.0
  30
0.0
  42
 1.0000000000000
  40
 0.50000000000000
  41
 0.50000000000000
   0
SEQEND
   5
9E
 100
AcDbEntity
   8
0
   6
BYBLOCK
  62
0
   0
LINE
   5
9F
 100
AcDbEntity
   8
0
 100
AcDbLine
   6
BYBLOCK
  62
0
  10
-0.50000000000000
  20
0.0
  30
0.0
  11
-1.0000000000000
  21
0.0
  31
0.0
   0
ENDBLK
   5
A0
 100
AcDbEntity
   8
0
 100
AcDbBlockEnd
   0
BLOCK
   5
A1
 100
AcDbEntity
   8
0
 100
AcDbBlockBegin
   2
_DOTSMALL
  70
0
  10
0.0
  20
0.0
  30
0.0
   3
_DOTSMALL
   0
POLYLINE
   5
A2
 100
AcDbEntity
   8
0
   6
BYBLOCK
  62
0
 100
AcDb2dPolyline
  66
1
  10
0.0
  20
0.0
  30
0.0
  70
1
  40
 0.50000000000000
  41
 0.50000000000000
   0
VERTEX
   5
A3
 100
AcDbEntity
   8
0
   6
BYBLOCK
  62
0
 100
AcDbVertex
 100
AcDb2dVertex
  10
-0.62500000000000E-1
  20
0.0
  30
0.0
  42
 1.0000000000000
  40
 0.50000000000000
  41
 0.50000000000000
   0
VERTEX
   5
A4
 100
AcDbEntity
   8
0
   6
BYBLOCK
  62
0
 100
AcDbVertex
 100
AcDb2dVertex
  10
 0.62500000000000E-1
  20
0.0
  30
0.0
  42
 1.0000000000000
  40
 0.50000000000000
  41
 0.50000000000000
   0
SEQEND
   5
A5
 100
AcDbEntity
   8
0
   6
BYBLOCK
  62
0
   0
ENDBLK
   5
A6
 100
AcDbEntity
   8
0
 100
AcDbBlockEnd
   0
BLOCK
   5
A7
 100
AcDbEntity
   8
0
 100
AcDbBlockBegin
   2
_DATUMBLANK
  70
0
  10
0.0
  20
0.0
  30
0.0
   3
_DATUMBLANK
   0
LINE
   5
A8
 100
AcDbEntity
   8
0
 100
AcDbLine
   6
BYBLOCK
  62
0
  10
0.0
  20
 0.57735027000000
  30
0.0
  11
-1.0000000000000
  21
0.0
  31
0.0
   0
LINE
   5
A9
 100
AcDbEntity
   8
0
 100
AcDbLine
   6
BYBLOCK
  62
0
  10
-1.0000000000000
  20
0.0
  30
0.0
  11
0.0
  21
-0.57735027000000
  31
0.0
   0
LINE
   5
AA
 100
AcDbEntity
   8
0
 100
AcDbLine
   6
BYBLOCK
  62
0
  10
0.0
  20
-0.57735027000000
  30
0.0
  11
0.0
  21
 0.57735027000000
  31
0.0
   0
ENDBLK
   5
AB
 100
AcDbEntity
   8
0
 100
AcDbBlockEnd
   0
BLOCK
   5
AC
 100
AcDbEntity
   8
0
 100
AcDbBlockBegin
   2
_DATUMFILLED
  70
0
  10
0.0
  20
0.0
  30
0.0
   3
_DATUMFILLED
   0
SOLID
   5
AD
 100
AcDbEntity
   8
0
 100
AcDbTrace
   6
BYBLOCK
  62
0
  10
0.0
  20
 0.57735027000000
  30
0.0
  11
-1.0000000000000
  21
0.0
  31
0.0
  12
0.0
  22
-0.57735027000000
  32
0.0
  13
0.0
  23
-0.57735027000000
  33
0.0
   0
ENDBLK
   5
AE
 100
AcDbEntity
   8
0
 100
AcDbBlockEnd
   0
BLOCK
   5
AF
 100
AcDbEntity
   8
0
 100
AcDbBlockBegin
   2
_ORIGIN
  70
0
  10
0.0
  20
0.0
  30
0.0
   3
_ORIGIN
   0
CIRCLE
   5
B0
 100
AcDbEntity
   8
0
 100
AcDbCircle
   6
BYBLOCK
  62
0
  10
0.0
  20
0.0
  30
0.0
  40
 0.50000000000000
   0
LINE
   5
B1
 100
AcDbEntity
   8
0
 100
AcDbLine
   6
BYBLOCK
  62
0
  10
0.0
  20
0.0
  30
0.0
  11
-1.0000000000000
  21
0.0
  31
0.0
   0
ENDBLK
   5
B2
 100
AcDbEntity
   8
0
 100
AcDbBlockEnd
   0
BLOCK
   5
B3
 100
AcDbEntity
   8
0
 100
AcDbBlockBegin
   2
_NONE
  70
0
  10
0.0
  20
0.0
  30
0.0
   3
_NONE
   0
CIRCLE
   5
B4
 100
AcDbEntity
   8
0
 100
AcDbCircle
   6
BYBLOCK
  62
0
  10
0.0
  20
0.0
  30
0.0
  40
 0.25000000000000
   0
ENDBLK
   5
B5
 100
AcDbEntity
   8
0
 100
AcDbBlockEnd
   0
BLOCK
   5
B6
 100
AcDbEntity
   8
0
 100
AcDbBlockBegin
   2
_DOTBLANK
  70
0
  10
0.0
  20
0.0
  30
0.0
   3
_DOTBLANK
   0
CIRCLE
   5
B7
 100
AcDbEntity
   8
0
 100
AcDbCircle
   6
BYBLOCK
  62
0
  10
0.0
  20
0.0
  30
0.0
  40
 0.50000000000000
   0
LINE
   5
B8
 100
AcDbEntity
   8
0
 100
AcDbLine
   6
BYBLOCK
  62
0
  10
-0.50000000000000
  20
0.0
  30
0.0
  11
-1.0000000000000
  21
0.0
  31
0.0
   0
ENDBLK
   5
B9
 100
AcDbEntity
   8
0
 100
AcDbBlockEnd
   0
BLOCK
   5
BA
 100
AcDbEntity
   8
0
 100
AcDbBlockBegin
   2
_INTEGRAL
  70
0
  10
0.0
  20
0.0
  30
0.0
   3
_INTEGRAL
   0
ARC
   5
BB
 100
AcDbEntity
   8
0
   6
BYBLOCK
  62
0
 100
AcDbCircle
  10
 0.44488800000000
  20
-0.91335000000000E-1
  30
0.0
  40
 0.45416700000000
 100
AcDbArc
  50
 102.00000000000
  51
 168.00000000000
   0
ARC
   5
BC
 100
AcDbEntity
   8
0
   6
BYBLOCK
  62
0
 100
AcDbCircle
  10
-0.44488800000000
  20
 0.91335000000000E-1
  30
0.0
  40
 0.45416700000000
 100
AcDbArc
  50
 282.00000000000
  51
 348.00000000000
   0
ENDBLK
   5
BD
 100
AcDbEntity
   8
0
 100
AcDbBlockEnd
   0
BLOCK
   5
BE
 100
AcDbEntity
   8
0
 100
AcDbBlockBegin
   2
*D1
  70
65
  10
0.0
  20
0.0
  30
0.0
   3
*D1
   0
LINE
   5
BF
 100
AcDbEntity
   8
LEVEL003
 100
AcDbLine
   6
CONTINUOUS
  62
3
  10
 140.50000000000
  20
 182.00000000000
  30
0.0
  11
 147.00000000000
  21
 182.00000000000
  31
0.0
   0
LINE
   5
C0
 100
AcDbEntity
   8
LEVEL003
 100
AcDbLine
   6
CONTINUOUS
  62
3
  10
 120.50000000000
  20
 205.00000000000
  30
0.0
  11
 147.00000000000
  21
 205.00000000000
  31
0.0
   0
LINE
   5
C1
 100
AcDbEntity
   8
LEVEL003
 100
AcDbLine
   6
CONTINUOUS
  62
3
  10
 145.00000000000
  20
 182.00000000000
  30
0.0
  11
 145.00000000000
  21
 205.00000000000
  31
0.0
   0
INSERT
   5
C2
 100
AcDbEntity
   8
LEVEL003
   6
CONTINUOUS
  62
3
 100
AcDbBlockReference
   2
_OPEN
  10
 145.00000000000
  20
 182.00000000000
  30
0.0
  41
 2.5000000000000
  42
 2.5000000000000
  43
 2.5000000000000
  50
 270.00000000000
   0
INSERT
   5
C3
 100
AcDbEntity
   8
LEVEL003
   6
CONTINUOUS
  62
3
 100
AcDbBlockReference
   2
_OPEN
  10
 145.00000000000
  20
 205.00000000000
  30
0.0
  41
 2.5000000000000
  42
 2.5000000000000
  43
 2.5000000000000
  50
 90.000000000000
   0
MTEXT
   5
C4
 100
AcDbEntity
   8
LEVEL003
  62
3
 100
AcDbMText
  10
 144.50000000000
  20
 193.50000000000
  30
0.0
  40
 3.1500000000000
  41
0.0
  71
8
  72
1
   1
\A1;23
   7
GMM001
  11
0.0
  21
 1.0000000000000
  31
0.0
   0
ENDBLK
   5
C5
 100
AcDbEntity
   8
0
 100
AcDbBlockEnd
   0
BLOCK
   5
C6
 100
AcDbEntity
   8
0
 100
AcDbBlockBegin
   2
*D3
  70
65
  10
0.0
  20
0.0
  30
0.0
   3
*D3
   0
LINE
   5
C7
 100
AcDbEntity
   8
LEVEL003
 100
AcDbLine
   6
CONTINUOUS
  62
3
  10
 53.933627024789
  20
 222.00000000000
  30
0.0
  11
 18.000000000000
  21
 222.00000000000
  31
0.0
   0
LINE
   5
C8
 100
AcDbEntity
   8
LEVEL003
 100
AcDbLine
   6
CONTINUOUS
  62
3
  10
 44.500000000000
  20
 205.00000000000
  30
0.0
  11
 18.000000000000
  21
 205.00000000000
  31
0.0
   0
LINE
   5
C9
 100
AcDbEntity
   8
LEVEL003
 100
AcDbLine
   6
CONTINUOUS
  62
3
  10
 20.000000000000
  20
 222.00000000000
  30
0.0
  11
 20.000000000000
  21
 205.00000000000
  31
0.0
   0
INSERT
   5
CA
 100
AcDbEntity
   8
LEVEL003
   6
CONTINUOUS
  62
3
 100
AcDbBlockReference
   2
_OPEN
  10
 20.000000000000
  20
 222.00000000000
  30
0.0
  41
 2.5000000000000
  42
 2.5000000000000
  43
 2.5000000000000
  50
 90.000000000000
   0
INSERT
   5
CB
 100
AcDbEntity
   8
LEVEL003
   6
CONTINUOUS
  62
3
 100
AcDbBlockReference
   2
_OPEN
  10
 20.000000000000
  20
 205.00000000000
  30
0.0
  41
 2.5000000000000
  42
 2.5000000000000
  43
 2.5000000000000
  50
 270.00000000000
   0
MTEXT
   5
CC
 100
AcDbEntity
   8
LEVEL003
  62
3
 100
AcDbMText
  10
 19.500000000000
  20
 213.50000000000
  30
0.0
  40
 3.1500000000000
  41
0.0
  71
8
  72
1
   1
\A1;17
   7
GMM001
  11
0.0
  21
 1.0000000000000
  31
0.0
   0
ENDBLK
   5
CD
 100
AcDbEntity
   8
0
 100
AcDbBlockEnd
   0
BLOCK
   5
CE
 100
AcDbEntity
   8
0
 100
AcDbBlockBegin
   2
*D4
  70
65
  10
0.0
  20
0.0
  30
0.0
   3
*D4
   0
LINE
   5
CF
 100
AcDbEntity
   8
LEVEL003
 100
AcDbLine
   6
CONTINUOUS
  62
3
  10
 62.000000000000
  20
 230.06637297521
  30
0.0
  11
 62.000000000000
  21
 247.00000000000
  31
0.0
   0
LINE
   5
D0
 100
AcDbEntity
   8
LEVEL003
 100
AcDbLine
   6
CONTINUOUS
  62
3
  10
 108.00000000000
  20
 230.06637297521
  30
0.0
  11
 108.00000000000
  21
 247.00000000000
  31
0.0
   0
LINE
   5
D1
 100
AcDbEntity
   8
LEVEL003
 100
AcDbLine
   6
CONTINUOUS
  62
3
  10
 62.000000000000
  20
 245.00000000000
  30
0.0
  11
 108.00000000000
  21
 245.00000000000
  31
0.0
   0
INSERT
   5
D2
 100
AcDbEntity
   8
LEVEL003
   6
CONTINUOUS
  62
3
 100
AcDbBlockReference
   2
_OPEN
  10
 62.000000000000
  20
 245.00000000000
  30
0.0
  41
 2.5000000000000
  42
 2.5000000000000
  43
 2.5000000000000
  50
 180.00000000000
   0
INSERT
   5
D3
 100
AcDbEntity
   8
LEVEL003
   6
CONTINUOUS
  62
3
 100
AcDbBlockReference
   2
_OPEN
  10
 108.00000000000
  20
 245.00000000000
  30
0.0
  41
 2.5000000000000
  42
 2.5000000000000
  43
 2.5000000000000
  50
0.0
   0
MTEXT
   5
D4
 100
AcDbEntity
   8
LEVEL003
  62
3
 100
AcDbMText
  10
 85.000000000000
  20
 245.50000000000
  30
0.0
  40
 3.1500000000000
  41
0.0
  71
8
  72
1
   1
\A1;46
   7
GMM001
   0
ENDBLK
   5
D5
 100
AcDbEntity
   8
0
 100
AcDbBlockEnd
   0
BLOCK
   5
D6
 100
AcDbEntity
   8
0
 100
AcDbBlockBegin
   2
*D5
  70
65
  10
0.0
  20
0.0
  30
0.0
   3
*D5
   0
LINE
   5
D7
 100
AcDbEntity
   8
LEVEL003
 100
AcDbLine
   6
CONTINUOUS
  62
3
  10
 56.000000000000
  20
 228.50000000000
  30
0.0
  11
 56.000000000000
  21
 254.50000000000
  31
0.0
   0
LINE
   5
D8
 100
AcDbEntity
   8
LEVEL003
 100
AcDbLine
   6
CONTINUOUS
  62
3
  10
 114.00000000000
  20
 228.50000000000
  30
0.0
  11
 114.00000000000
  21
 254.50000000000
  31
0.0
   0
LINE
   5
D9
 100
AcDbEntity
   8
LEVEL003
 100
AcDbLine
   6
CONTINUOUS
  62
3
  10
 56.000000000000
  20
 252.50000000000
  30
0.0
  11
 114.00000000000
  21
 252.50000000000
  31
0.0
   0
INSERT
   5
DA
 100
AcDbEntity
   8
LEVEL003
   6
CONTINUOUS
  62
3
 100
AcDbBlockReference
   2
_OPEN
  10
 56.000000000000
  20
 252.50000000000
  30
0.0
  41
 2.5000000000000
  42
 2.5000000000000
  43
 2.5000000000000
  50
 180.00000000000
   0
INSERT
   5
DB
 100
AcDbEntity
   8
LEVEL003
   6
CONTINUOUS
  62
3
 100
AcDbBlockReference
   2
_OPEN
  10
 114.00000000000
  20
 252.50000000000
  30
0.0
  41
 2.5000000000000
  42
 2.5000000000000
  43
 2.5000000000000
  50
0.0
   0
MTEXT
   5
DC
 100
AcDbEntity
   8
LEVEL003
  62
3
 100
AcDbMText
  10
 85.000000000000
  20
 253.00000000000
  30
0.0
  40
 3.1500000000000
  41
0.0
  71
8
  72
1
   1
\A1;58
   7
GMM001
   0
ENDBLK
   5
DD
 100
AcDbEntity
   8
0
 100
AcDbBlockEnd
   0
BLOCK
   5
DE
 100
AcDbEntity
   8
0
 100
AcDbBlockBegin
   2
*D6
  70
65
  10
0.0
  20
0.0
  30
0.0
   3
*D6
   0
LINE
   5
DF
 100
AcDbEntity
   8
LEVEL003
 100
AcDbLine
   6
CONTINUOUS
  62
3
  10
 44.500000000000
  20
 205.00000000000
  30
0.0
  11
 18.000000000000
  21
 205.00000000000
  31
0.0
   0
LINE
   5
E0
 100
AcDbEntity
   8
LEVEL003
 100
AcDbLine
   6
CONTINUOUS
  62
3
  10
 53.933627024789
  20
 164.00000000000
  30
0.0
  11
 18.000000000000
  21
 164.00000000000
  31
0.0
   0
LINE
   5
E1
 100
AcDbEntity
   8
LEVEL003
 100
AcDbLine
   6
CONTINUOUS
  62
3
  10
 20.000000000000
  20
 205.00000000000
  30
0.0
  11
 20.000000000000
  21
 164.00000000000
  31
0.0
   0
INSERT
   5
E2
 100
AcDbEntity
   8
LEVEL003
   6
CONTINUOUS
  62
3
 100
AcDbBlockReference
   2
_OPEN
  10
 20.000000000000
  20
 205.00000000000
  30
0.0
  41
 2.5000000000000
  42
 2.5000000000000
  43
 2.5000000000000
  50
 90.000000000000
   0
INSERT
   5
E3
 100
AcDbEntity
   8
LEVEL003
   6
CONTINUOUS
  62
3
 100
AcDbBlockReference
   2
_OPEN
  10
 20.000000000000
  20
 164.00000000000
  30
0.0
  41
 2.5000000000000
  42
 2.5000000000000
  43
 2.5000000000000
  50
 270.00000000000
   0
MTEXT
   5
E4
 100
AcDbEntity
   8
LEVEL003
  62
3
 100
AcDbMText
  10
 19.500000000000
  20
 184.50000000000
  30
0.0
  40
 3.1500000000000
  41
0.0
  71
8
  72
1
   1
\A1;41
   7
GMM001
  11
0.0
  21
 1.0000000000000
  31
0.0
   0
ENDBLK
   5
E5
 100
AcDbEntity
   8
0
 100
AcDbBlockEnd
   0
BLOCK
   5
E6
 100
AcDbEntity
   8
0
 100
AcDbBlockBegin
   2
*D7
  70
65
  10
0.0
  20
0.0
  30
0.0
   3
*D7
   0
LINE
   5
E7
 100
AcDbEntity
   8
LEVEL003
 100
AcDbLine
   6
CONTINUOUS
  62
3
  10
 55.500000000000
  20
 228.00000000000
  30
0.0
  11
 13.000000000000
  21
 228.00000000000
  31
0.0
   0
LINE
   5
E8
 100
AcDbEntity
   8
LEVEL003
 100
AcDbLine
   6
CONTINUOUS
  62
3
  10
 55.500000000000
  20
 158.00000000000
  30
0.0
  11
 13.000000000000
  21
 158.00000000000
  31
0.0
   0
LINE
   5
E9
 100
AcDbEntity
   8
LEVEL003
 100
AcDbLine
   6
CONTINUOUS
  62
3
  10
 15.000000000000
  20
 228.00000000000
  30
0.0
  11
 15.000000000000
  21
 158.00000000000
  31
0.0
   0
INSERT
   5
EA
 100
AcDbEntity
   8
LEVEL003
   6
CONTINUOUS
  62
3
 100
AcDbBlockReference
   2
_OPEN
  10
 15.000000000000
  20
 228.00000000000
  30
0.0
  41
 2.5000000000000
  42
 2.5000000000000
  43
 2.5000000000000
  50
 90.000000000000
   0
INSERT
   5
EB
 100
AcDbEntity
   8
LEVEL003
   6
CONTINUOUS
  62
3
 100
AcDbBlockReference
   2
_OPEN
  10
 15.000000000000
  20
 158.00000000000
  30
0.0
  41
 2.5000000000000
  42
 2.5000000000000
  43
 2.5000000000000
  50
 270.00000000000
   0
MTEXT
   5
EC
 100
AcDbEntity
   8
LEVEL003
  62
3
 100
AcDbMText
  10
 14.500000000000
  20
 193.00000000000
  30
0.0
  40
 3.1500000000000
  41
0.0
  71
8
  72
1
   1
\A1;70
   7
GMM001
  11
0.0
  21
 1.0000000000000
  31
0.0
   0
ENDBLK
   5
ED
 100
AcDbEntity
   8
0
 100
AcDbBlockEnd
   0
BLOCK
   5
EE
 100
AcDbEntity
   8
0
 100
AcDbBlockBegin
   2
*D8
  70
65
  10
0.0
  20
0.0
  30
0.0
   3
*D8
   0
LINE
   5
EF
 100
AcDbEntity
   8
LEVEL003
 100
AcDbLine
   6
CONTINUOUS
  62
3
  10
 32.500000000000
  20
 175.50000000000
  30
0.0
  11
 32.500000000000
  21
 165.50000000000
  31
0.0
   0
LINE
   5
F0
 100
AcDbEntity
   8
LEVEL003
 100
AcDbLine
   6
CONTINUOUS
  62
3
  10
 50.500000000000
  20
 179.50000000000
  30
0.0
  11
 50.500000000000
  21
 165.50000000000
  31
0.0
   0
LINE
   5
F1
 100
AcDbEntity
   8
LEVEL003
 100
AcDbLine
   6
CONTINUOUS
  62
3
  10
 32.500000000000
  20
 167.50000000000
  30
0.0
  11
 50.500000000000
  21
 167.50000000000
  31
0.0
   0
INSERT
   5
F2
 100
AcDbEntity
   8
LEVEL003
   6
CONTINUOUS
  62
3
 100
AcDbBlockReference
   2
_OPEN
  10
 32.500000000000
  20
 167.50000000000
  30
0.0
  41
 2.5000000000000
  42
 2.5000000000000
  43
 2.5000000000000
  50
 180.00000000000
   0
INSERT
   5
F3
 100
AcDbEntity
   8
LEVEL003
   6
CONTINUOUS
  62
3
 100
AcDbBlockReference
   2
_OPEN
  10
 50.500000000000
  20
 167.50000000000
  30
0.0
  41
 2.5000000000000
  42
 2.5000000000000
  43
 2.5000000000000
  50
0.0
   0
MTEXT
   5
F4
 100
AcDbEntity
   8
LEVEL003
  62
3
 100
AcDbMText
  10
 41.500000000000
  20
 168.00000000000
  30
0.0
  40
 3.1500000000000
  41
0.0
  71
8
  72
1
   1
\A1;18
   7
GMM001
   0
ENDBLK
   5
F5
 100
AcDbEntity
   8
0
 100
AcDbBlockEnd
   0
BLOCK
   5
F6
 100
AcDbEntity
   8
0
 100
AcDbBlockBegin
   2
*D9
  70
65
  10
0.0
  20
0.0
  30
0.0
   3
*D9
   0
LINE
   5
F7
 100
AcDbEntity
   8
LEVEL003
 100
AcDbLine
   6
CONTINUOUS
  62
3
  10
 32.500000000000
  20
 175.50000000000
  30
0.0
  11
 32.500000000000
  21
 138.00000000000
  31
0.0
   0
LINE
   5
F8
 100
AcDbEntity
   8
LEVEL003
 100
AcDbLine
   6
CONTINUOUS
  62
3
  10
 137.50000000000
  20
 175.50000000000
  30
0.0
  11
 137.50000000000
  21
 138.00000000000
  31
0.0
   0
LINE
   5
F9
 100
AcDbEntity
   8
LEVEL003
 100
AcDbLine
   6
CONTINUOUS
  62
3
  10
 32.500000000000
  20
 140.00000000000
  30
0.0
  11
 137.50000000000
  21
 140.00000000000
  31
0.0
   0
INSERT
   5
FA
 100
AcDbEntity
   8
LEVEL003
   6
CONTINUOUS
  62
3
 100
AcDbBlockReference
   2
_OPEN
  10
 32.500000000000
  20
 140.00000000000
  30
0.0
  41
 2.5000000000000
  42
 2.5000000000000
  43
 2.5000000000000
  50
 180.00000000000
   0
INSERT
   5
FB
 100
AcDbEntity
   8
LEVEL003
   6
CONTINUOUS
  62
3
 100
AcDbBlockReference
   2
_OPEN
  10
 137.50000000000
  20
 140.00000000000
  30
0.0
  41
 2.5000000000000
  42
 2.5000000000000
  43
 2.5000000000000
  50
0.0
   0
MTEXT
   5
FC
 100
AcDbEntity
   8
LEVEL003
  62
3
 100
AcDbMText
  10
 85.000000000000
  20
 140.50000000000
  30
0.0
  40
 3.1500000000000
  41
0.0
  71
8
  72
1
   1
\A1;105
   7
GMM001
   0
ENDBLK
   5
FD
 100
AcDbEntity
   8
0
 100
AcDbBlockEnd
   0
BLOCK
   5
FE
 100
AcDbEntity
   8
0
 100
AcDbBlockBegin
   2
*D10
  70
65
  10
0.0
  20
0.0
  30
0.0
   3
*D10
   0
LINE
   5
FF
 100
AcDbEntity
   8
LEVEL003
 100
AcDbLine
   6
CONTINUOUS
  62
3
  10
 119.50000000000
  20
 179.50000000000
  30
0.0
  11
 119.50000000000
  21
 165.50000000000
  31
0.0
   0
LINE
   5
100
 100
AcDbEntity
   8
LEVEL003
 100
AcDbLine
   6
CONTINUOUS
  62
3
  10
 137.50000000000
  20
 175.50000000000
  30
0.0
  11
 137.50000000000
  21
 165.50000000000
  31
0.0
   0
LINE
   5
101
 100
AcDbEntity
   8
LEVEL003
 100
AcDbLine
   6
CONTINUOUS
  62
3
  10
 119.50000000000
  20
 167.50000000000
  30
0.0
  11
 137.50000000000
  21
 167.50000000000
  31
0.0
   0
INSERT
   5
102
 100
AcDbEntity
   8
LEVEL003
   6
CONTINUOUS
  62
3
 100
AcDbBlockReference
   2
_OPEN
  10
 119.50000000000
  20
 167.50000000000
  30
0.0
  41
 2.5000000000000
  42
 2.5000000000000
  43
 2.5000000000000
  50
 180.00000000000
   0
INSERT
   5
103
 100
AcDbEntity
   8
LEVEL003
   6
CONTINUOUS
  62
3
 100
AcDbBlockReference
   2
_OPEN
  10
 137.50000000000
  20
 167.50000000000
  30
0.0
  41
 2.5000000000000
  42
 2.5000000000000
  43
 2.5000000000000
  50
0.0
   0
MTEXT
   5
104
 100
AcDbEntity
   8
LEVEL003
  62
3
 100
AcDbMText
  10
 128.50000000000
  20
 168.00000000000
  30
0.0
  40
 3.1500000000000
  41
0.0
  71
8
  72
1
   1
\A1;18
   7
GMM001
   0
ENDBLK
   5
105
 100
AcDbEntity
   8
0
 100
AcDbBlockEnd
   0
BLOCK
   5
106
 100
AcDbEntity
   8
0
 100
AcDbBlockBegin
   2
*D12
  70
65
  10
0.0
  20
0.0
  30
0.0
   3
*D12
   0
LINE
   5
107
 100
AcDbEntity
   8
LEVEL003
 100
AcDbLine
   6
CONTINUOUS
  62
3
  10
 124.00000000000
  20
 249.50000000000
  30
0.0
  11
 124.00000000000
  21
 228.00000000000
  31
0.0
   0
LINE
   5
108
 100
AcDbEntity
   8
LEVEL003
 100
AcDbLine
   6
CONTINUOUS
  62
3
  10
 137.50000000000
  20
 247.50000000000
  30
0.0
  11
 137.50000000000
  21
 228.00000000000
  31
0.0
   0
LINE
   5
109
 100
AcDbEntity
   8
LEVEL003
 100
AcDbLine
   6
CONTINUOUS
  62
3
  10
 124.00000000000
  20
 230.00000000000
  30
0.0
  11
 137.50000000000
  21
 230.00000000000
  31
0.0
   0
INSERT
   5
10A
 100
AcDbEntity
   8
LEVEL003
   6
CONTINUOUS
  62
3
 100
AcDbBlockReference
   2
_OPEN
  10
 124.00000000000
  20
 230.00000000000
  30
0.0
  41
 2.5000000000000
  42
 2.5000000000000
  43
 2.5000000000000
  50
 180.00000000000
   0
INSERT
   5
10B
 100
AcDbEntity
   8
LEVEL003
   6
CONTINUOUS
  62
3
 100
AcDbBlockReference
   2
_OPEN
  10
 137.50000000000
  20
 230.00000000000
  30
0.0
  41
 2.5000000000000
  42
 2.5000000000000
  43
 2.5000000000000
  50
0.0
   0
MTEXT
   5
10C
 100
AcDbEntity
   8
LEVEL003
  62
3
 100
AcDbMText
  10
 130.75000000000
  20
 230.50000000000
  30
0.0
  40
 3.1500000000000
  41
0.0
  71
8
  72
1
   1
\A1;13.5
   7
GMM001
   0
ENDBLK
   5
10D
 100
AcDbEntity
   8
0
 100
AcDbBlockEnd
   0
BLOCK
   5
10E
 100
AcDbEntity
   8
0
 100
AcDbBlockBegin
   2
*D13
  70
65
  10
0.0
  20
0.0
  30
0.0
   3
*D13
   0
LINE
   5
10F
 100
AcDbEntity
   8
LEVEL003
 100
AcDbLine
   6
CONTINUOUS
  62
3
  10
 138.00000000000
  20
 252.00000000000
  30
0.0
  11
 147.00000000000
  21
 252.00000000000
  31
0.0
   0
LINE
   5
110
 100
AcDbEntity
   8
LEVEL003
 100
AcDbLine
   6
CONTINUOUS
  62
3
  10
 138.00000000000
  20
 248.00000000000
  30
0.0
  11
 147.00000000000
  21
 248.00000000000
  31
0.0
   0
LINE
   5
111
 100
AcDbEntity
   8
LEVEL003
 100
AcDbLine
   6
CONTINUOUS
  62
3
  10
 145.00000000000
  20
 252.00000000000
  30
0.0
  11
 145.00000000000
  21
 248.00000000000
  31
0.0
   0
LINE
   5
112
 100
AcDbEntity
   8
LEVEL003
 100
AcDbLine
   6
CONTINUOUS
  62
3
  10
 145.00000000000
  20
 252.00000000000
  30
0.0
  11
 145.00000000000
  21
 269.79901960784
  31
0.0
   0
INSERT
   5
113
 100
AcDbEntity
   8
LEVEL003
   6
CONTINUOUS
  62
3
 100
AcDbBlockReference
   2
_OPEN
  10
 145.00000000000
  20
 252.00000000000
  30
0.0
  41
 2.5000000000000
  42
 2.5000000000000
  43
 2.5000000000000
  50
 270.00000000000
   0
INSERT
   5
114
 100
AcDbEntity
   8
LEVEL003
   6
CONTINUOUS
  62
3
 100
AcDbBlockReference
   2
_OPEN
  10
 145.00000000000
  20
 248.00000000000
  30
0.0
  41
 2.5000000000000
  42
 2.5000000000000
  43
 2.5000000000000
  50
 90.000000000000
   0
LINE
   5
115
 100
AcDbEntity
   8
LEVEL003
 100
AcDbLine
   6
CONTINUOUS
  62
3
  10
 145.00000000000
  20
 252.00000000000
  30
0.0
  11
 145.00000000000
  21
 269.79901960784
  31
0.0
   0
LINE
   5
116
 100
AcDbEntity
   8
LEVEL003
 100
AcDbLine
   6
CONTINUOUS
  62
3
  10
 145.00000000000
  20
 248.00000000000
  30
0.0
  11
 145.00000000000
  21
 244.87500000000
  31
0.0
   0
MTEXT
   5
117
 100
AcDbEntity
   8
LEVEL003
  62
3
 100
AcDbMText
  10
 144.50000000000
  20
 261.92401960784
  30
0.0
  40
 3.1500000000000
  41
0.0
  71
8
  72
1
   1
\A1;4P9h9
   7
GMM001
  11
0.0
  21
 1.0000000000000
  31
0.0
   0
ENDBLK
   5
118
 100
AcDbEntity
   8
0
 100
AcDbBlockEnd
   0
BLOCK
   5
119
 100
AcDbEntity
   8
0
 100
AcDbBlockBegin
   2
*D14
  70
65
  10
0.0
  20
0.0
  30
0.0
   3
*D14
   0
POLYLINE
   5
11A
 100
AcDbEntity
   8
LEVEL003
   6
CONTINUOUS
  62
3
 100
AcDb2dPolyline
  66
1
  10
0.0
  20
0.0
  30
0.0
  70
0
   0
VERTEX
   5
11B
 100
AcDbEntity
   8
LEVEL003
   6
CONTINUOUS
  62
3
 100
AcDbVertex
 100
AcDb2dVertex
  10
 132.68328157300
  20
 244.63343685400
  30
0.0
   0
VERTEX
   5
11C
 100
AcDbEntity
   8
LEVEL003
   6
CONTINUOUS
  62
3
 100
AcDbVertex
 100
AcDb2dVertex
  10
 125.00000000000
  20
 260.00000000000
  30
0.0
   0
VERTEX
   5
11D
 100
AcDbEntity
   8
LEVEL003
   6
CONTINUOUS
  62
3
 100
AcDbVertex
 100
AcDb2dVertex
  10
 109.25000000000
  20
 260.00000000000
  30
0.0
   0
SEQEND
   5
11E
 100
AcDbEntity
   8
LEVEL003
   6
CONTINUOUS
  62
3
   0
INSERT
   5
11F
 100
AcDbEntity
   8
LEVEL003
   6
CONTINUOUS
  62
3
 100
AcDbBlockReference
   2
_OPEN
  10
 132.68328157300
  20
 244.63343685400
  30
0.0
  41
 2.5000000000000
  42
 2.5000000000000
  43
 2.5000000000000
  50
 296.56505117708
   0
INSERT
   5
120
 100
AcDbEntity
   8
LEVEL003
   6
CONTINUOUS
  62
3
 100
AcDbBlockReference
   2
_OPEN
  10
 127.31671842700
  20
 255.36656314600
  30
0.0
  41
 2.5000000000000
  42
 2.5000000000000
  43
 2.5000000000000
  50
 116.56505117708
   0
MTEXT
   5
121
 100
AcDbEntity
   8
LEVEL003
  62
3
 100
AcDbMText
  10
 109.25000000000
  20
 260.50000000000
  30
0.0
  40
 3.1500000000000
  41
0.0
  71
7
  72
1
   1
\A1;%%c12h7
   7
GMM001
   0
ENDBLK
   5
122
 100
AcDbEntity
   8
0
 100
AcDbBlockEnd
   0
BLOCK
   5
123
 100
AcDbEntity
   8
0
 100
AcDbBlockBegin
   2
*D15
  70
65
  10
0.0
  20
0.0
  30
0.0
   3
*D15
   0
LINE
   5
124
 100
AcDbEntity
   8
LEVEL003
 100
AcDbLine
   6
CONTINUOUS
  62
3
  10
 163.50000000000
  20
 199.25000000000
  30
0.0
  11
 163.50000000000
  21
 181.25000000000
  31
0.0
   0
LINE
   5
125
 100
AcDbEntity
   8
LEVEL003
 100
AcDbLine
   6
CONTINUOUS
  62
3
  10
 178.50000000000
  20
 196.50000000000
  30
0.0
  11
 178.50000000000
  21
 181.25000000000
  31
0.0
   0
LINE
   5
126
 100
AcDbEntity
   8
LEVEL003
 100
AcDbLine
   6
CONTINUOUS
  62
3
  10
 163.50000000000
  20
 183.25000000000
  30
0.0
  11
 178.50000000000
  21
 183.25000000000
  31
0.0
   0
INSERT
   5
127
 100
AcDbEntity
   8
LEVEL003
   6
CONTINUOUS
  62
3
 100
AcDbBlockReference
   2
_OPEN
  10
 163.50000000000
  20
 183.25000000000
  30
0.0
  41
 2.5000000000000
  42
 2.5000000000000
  43
 2.5000000000000
  50
 180.00000000000
   0
INSERT
   5
128
 100
AcDbEntity
   8
LEVEL003
   6
CONTINUOUS
  62
3
 100
AcDbBlockReference
   2
_OPEN
  10
 178.50000000000
  20
 183.25000000000
  30
0.0
  41
 2.5000000000000
  42
 2.5000000000000
  43
 2.5000000000000
  50
0.0
   0
MTEXT
   5
129
 100
AcDbEntity
   8
LEVEL003
  62
3
 100
AcDbMText
  10
 171.00000000000
  20
 183.75000000000
  30
0.0
  40
 3.1500000000000
  41
0.0
  71
8
  72
1
   1
\A1;15
   7
GMM001
   0
ENDBLK
   5
12A
 100
AcDbEntity
   8
0
 100
AcDbBlockEnd
   0
BLOCK
   5
12B
 100
AcDbEntity
   8
0
 100
AcDbBlockBegin
   2
*D17
  70
65
  10
0.0
  20
0.0
  30
0.0
   3
*D17
   0
LINE
   5
12C
 100
AcDbEntity
   8
LEVEL003
 100
AcDbLine
   6
CONTINUOUS
  62
3
  10
 186.50000000000
  20
 157.50000000000
  30
0.0
  11
 186.50000000000
  21
 135.50000000000
  31
0.0
   0
LINE
   5
12D
 100
AcDbEntity
   8
LEVEL003
 100
AcDbLine
   6
CONTINUOUS
  62
3
  10
 253.50000000000
  20
 157.50000000000
  30
0.0
  11
 253.50000000000
  21
 135.50000000000
  31
0.0
   0
LINE
   5
12E
 100
AcDbEntity
   8
LEVEL003
 100
AcDbLine
   6
CONTINUOUS
  62
3
  10
 186.50000000000
  20
 137.50000000000
  30
0.0
  11
 253.50000000000
  21
 137.50000000000
  31
0.0
   0
INSERT
   5
12F
 100
AcDbEntity
   8
LEVEL003
   6
CONTINUOUS
  62
3
 100
AcDbBlockReference
   2
_OPEN
  10
 186.50000000000
  20
 137.50000000000
  30
0.0
  41
 2.5000000000000
  42
 2.5000000000000
  43
 2.5000000000000
  50
 180.00000000000
   0
INSERT
   5
130
 100
AcDbEntity
   8
LEVEL003
   6
CONTINUOUS
  62
3
 100
AcDbBlockReference
   2
_OPEN
  10
 253.50000000000
  20
 137.50000000000
  30
0.0
  41
 2.5000000000000
  42
 2.5000000000000
  43
 2.5000000000000
  50
0.0
   0
MTEXT
   5
131
 100
AcDbEntity
   8
LEVEL003
  62
3
 100
AcDbMText
  10
 220.00000000000
  20
 138.00000000000
  30
0.0
  40
 3.1500000000000
  41
0.0
  71
8
  72
1
   1
\A1;67
   7
GMM001
   0
ENDBLK
   5
132
 100
AcDbEntity
   8
0
 100
AcDbBlockEnd
   0
BLOCK
   5
133
 100
AcDbEntity
   8
0
 100
AcDbBlockBegin
   2
*D18
  70
65
  10
0.0
  20
0.0
  30
0.0
   3
*D18
   0
LINE
   5
134
 100
AcDbEntity
   8
LEVEL003
 100
AcDbLine
   6
CONTINUOUS
  62
3
  10
 253.50000000000
  20
 157.50000000000
  30
0.0
  11
 253.50000000000
  21
 128.00000000000
  31
0.0
   0
LINE
   5
135
 100
AcDbEntity
   8
LEVEL003
 100
AcDbLine
   6
CONTINUOUS
  62
3
  10
 327.50000000000
  20
 193.30000000000
  30
0.0
  11
 327.50000000000
  21
 128.00000000000
  31
0.0
   0
LINE
   5
136
 100
AcDbEntity
   8
LEVEL003
 100
AcDbLine
   6
CONTINUOUS
  62
3
  10
 253.50000000000
  20
 130.00000000000
  30
0.0
  11
 327.50000000000
  21
 130.00000000000
  31
0.0
   0
INSERT
   5
137
 100
AcDbEntity
   8
LEVEL003
   6
CONTINUOUS
  62
3
 100
AcDbBlockReference
   2
_OPEN
  10
 253.50000000000
  20
 130.00000000000
  30
0.0
  41
 2.5000000000000
  42
 2.5000000000000
  43
 2.5000000000000
  50
 180.00000000000
   0
INSERT
   5
138
 100
AcDbEntity
   8
LEVEL003
   6
CONTINUOUS
  62
3
 100
AcDbBlockReference
   2
_OPEN
  10
 327.50000000000
  20
 130.00000000000
  30
0.0
  41
 2.5000000000000
  42
 2.5000000000000
  43
 2.5000000000000
  50
0.0
   0
MTEXT
   5
139
 100
AcDbEntity
   8
LEVEL003
  62
3
 100
AcDbMText
  10
 290.50000000000
  20
 130.50000000000
  30
0.0
  40
 3.1500000000000
  41
0.0
  71
8
  72
1
   1
\A1;432
   7
GMM001
   0
ENDBLK
   5
13A
 100
AcDbEntity
   8
0
 100
AcDbBlockEnd
   0
BLOCK
   5
13B
 100
AcDbEntity
   8
0
 100
AcDbBlockBegin
   2
*D19
  70
65
  10
0.0
  20
0.0
  30
0.0
   3
*D19
   0
LINE
   5
13C
 100
AcDbEntity
   8
LEVEL003
 100
AcDbLine
   6
CONTINUOUS
  62
3
  10
 253.50000000000
  20
 157.50000000000
  30
0.0
  11
 253.50000000000
  21
 143.00000000000
  31
0.0
   0
LINE
   5
13D
 100
AcDbEntity
   8
LEVEL003
 100
AcDbLine
   6
CONTINUOUS
  62
3
  10
 220.00000000000
  20
 154.50000000000
  30
0.0
  11
 220.00000000000
  21
 143.00000000000
  31
0.0
   0
LINE
   5
13E
 100
AcDbEntity
   8
LEVEL003
 100
AcDbLine
   6
CONTINUOUS
  62
3
  10
 253.50000000000
  20
 145.00000000000
  30
0.0
  11
 220.00000000000
  21
 145.00000000000
  31
0.0
   0
INSERT
   5
13F
 100
AcDbEntity
   8
LEVEL003
   6
CONTINUOUS
  62
3
 100
AcDbBlockReference
   2
_OPEN
  10
 253.50000000000
  20
 145.00000000000
  30
0.0
  41
 2.5000000000000
  42
 2.5000000000000
  43
 2.5000000000000
  50
0.0
   0
INSERT
   5
140
 100
AcDbEntity
   8
LEVEL003
   6
CONTINUOUS
  62
3
 100
AcDbBlockReference
   2
_OPEN
  10
 220.00000000000
  20
 145.00000000000
  30
0.0
  41
 2.5000000000000
  42
 2.5000000000000
  43
 2.5000000000000
  50
 180.00000000000
   0
MTEXT
   5
141
 100
AcDbEntity
   8
LEVEL003
  62
3
 100
AcDbMText
  10
 236.75000000000
  20
 145.50000000000
  30
0.0
  40
 3.1500000000000
  41
0.0
  71
8
  72
1
   1
\A1;33.5
   7
GMM001
   0
ENDBLK
   5
142
 100
AcDbEntity
   8
0
 100
AcDbBlockEnd
   0
BLOCK
   5
143
 100
AcDbEntity
   8
0
 100
AcDbBlockBegin
   2
*D20
  70
65
  10
0.0
  20
0.0
  30
0.0
   3
*D20
   0
LINE
   5
144
 100
AcDbEntity
   8
LEVEL003
 100
AcDbLine
   6
CONTINUOUS
  62
3
  10
 258.00000000000
  20
 226.00000000000
  30
0.0
  11
 272.00000000000
  21
 226.00000000000
  31
0.0
   0
LINE
   5
145
 100
AcDbEntity
   8
LEVEL003
 100
AcDbLine
   6
CONTINUOUS
  62
3
  10
 258.00000000000
  20
 184.00000000000
  30
0.0
  11
 272.00000000000
  21
 184.00000000000
  31
0.0
   0
LINE
   5
146
 100
AcDbEntity
   8
LEVEL003
 100
AcDbLine
   6
CONTINUOUS
  62
3
  10
 270.00000000000
  20
 226.00000000000
  30
0.0
  11
 270.00000000000
  21
 184.00000000000
  31
0.0
   0
INSERT
   5
147
 100
AcDbEntity
   8
LEVEL003
   6
CONTINUOUS
  62
3
 100
AcDbBlockReference
   2
_OPEN
  10
 270.00000000000
  20
 226.00000000000
  30
0.0
  41
 2.5000000000000
  42
 2.5000000000000
  43
 2.5000000000000
  50
 90.000000000000
   0
INSERT
   5
148
 100
AcDbEntity
   8
LEVEL003
   6
CONTINUOUS
  62
3
 100
AcDbBlockReference
   2
_OPEN
  10
 270.00000000000
  20
 184.00000000000
  30
0.0
  41
 2.5000000000000
  42
 2.5000000000000
  43
 2.5000000000000
  50
 270.00000000000
   0
MTEXT
   5
149
 100
AcDbEntity
   8
LEVEL003
  62
3
 100
AcDbMText
  10
 269.50000000000
  20
 205.00000000000
  30
0.0
  40
 3.1500000000000
  41
0.0
  71
8
  72
1
   1
\A1;%%c42
   7
GMM001
  11
0.0
  21
 1.0000000000000
  31
0.0
   0
ENDBLK
   5
14A
 100
AcDbEntity
   8
0
 100
AcDbBlockEnd
   0
BLOCK
   5
14B
 100
AcDbEntity
   8
0
 100
AcDbBlockBegin
   2
*D21
  70
65
  10
0.0
  20
0.0
  30
0.0
   3
*D21
   0
LINE
   5
14C
 100
AcDbEntity
   8
LEVEL003
 100
AcDbLine
   6
CONTINUOUS
  62
3
  10
 323.50000000000
  20
 192.50000000000
  30
0.0
  11
 339.50000000000
  21
 192.50000000000
  31
0.0
   0
LINE
   5
14D
 100
AcDbEntity
   8
LEVEL003
 100
AcDbLine
   6
CONTINUOUS
  62
3
  10
 323.50000000000
  20
 217.50000000000
  30
0.0
  11
 339.50000000000
  21
 217.50000000000
  31
0.0
   0
LINE
   5
14E
 100
AcDbEntity
   8
LEVEL003
 100
AcDbLine
   6
CONTINUOUS
  62
3
  10
 337.50000000000
  20
 192.50000000000
  30
0.0
  11
 337.50000000000
  21
 217.50000000000
  31
0.0
   0
INSERT
   5
14F
 100
AcDbEntity
   8
LEVEL003
   6
CONTINUOUS
  62
3
 100
AcDbBlockReference
   2
_OPEN
  10
 337.50000000000
  20
 192.50000000000
  30
0.0
  41
 2.5000000000000
  42
 2.5000000000000
  43
 2.5000000000000
  50
 270.00000000000
   0
INSERT
   5
150
 100
AcDbEntity
   8
LEVEL003
   6
CONTINUOUS
  62
3
 100
AcDbBlockReference
   2
_OPEN
  10
 337.50000000000
  20
 217.50000000000
  30
0.0
  41
 2.5000000000000
  42
 2.5000000000000
  43
 2.5000000000000
  50
 90.000000000000
   0
MTEXT
   5
151
 100
AcDbEntity
   8
LEVEL003
  62
3
 100
AcDbMText
  10
 337.00000000000
  20
 205.00000000000
  30
0.0
  40
 3.1500000000000
  41
0.0
  71
8
  72
1
   1
\A1;□25
   7
GMM001
  11
0.0
  21
 1.0000000000000
  31
0.0
   0
ENDBLK
   5
152
 100
AcDbEntity
   8
0
 100
AcDbBlockEnd
   0
BLOCK
   5
153
 100
AcDbEntity
   8
0
 100
AcDbBlockBegin
   2
*D22
  70
65
  10
0.0
  20
0.0
  30
0.0
   3
*D22
   0
LINE
   5
154
 100
AcDbEntity
   8
LEVEL003
 100
AcDbLine
   6
CONTINUOUS
  62
3
  10
 163.50000000000
  20
 199.25000000000
  30
0.0
  11
 163.50000000000
  21
 128.00000000000
  31
0.0
   0
LINE
   5
155
 100
AcDbEntity
   8
LEVEL003
 100
AcDbLine
   6
CONTINUOUS
  62
3
  10
 253.50000000000
  20
 157.50000000000
  30
0.0
  11
 253.50000000000
  21
 128.00000000000
  31
0.0
   0
LINE
   5
156
 100
AcDbEntity
   8
LEVEL003
 100
AcDbLine
   6
CONTINUOUS
  62
3
  10
 163.50000000000
  20
 130.00000000000
  30
0.0
  11
 253.50000000000
  21
 130.00000000000
  31
0.0
   0
INSERT
   5
157
 100
AcDbEntity
   8
LEVEL003
   6
CONTINUOUS
  62
3
 100
AcDbBlockReference
   2
_OPEN
  10
 163.50000000000
  20
 130.00000000000
  30
0.0
  41
 2.5000000000000
  42
 2.5000000000000
  43
 2.5000000000000
  50
 180.00000000000
   0
INSERT
   5
158
 100
AcDbEntity
   8
LEVEL003
   6
CONTINUOUS
  62
3
 100
AcDbBlockReference
   2
_OPEN
  10
 253.50000000000
  20
 130.00000000000
  30
0.0
  41
 2.5000000000000
  42
 2.5000000000000
  43
 2.5000000000000
  50
0.0
   0
MTEXT
   5
159
 100
AcDbEntity
   8
LEVEL003
  62
3
 100
AcDbMText
  10
 208.50000000000
  20
 130.50000000000
  30
0.0
  40
 3.1500000000000
  41
0.0
  71
8
  72
1
   1
\A1;MIN.90※%%p0.3
   7
GMM001
   0
ENDBLK
   5
15A
 100
AcDbEntity
   8
0
 100
AcDbBlockEnd
   0
ENDSEC
   0
SECTION
   2
ENTITIES
   0
LINE
   5
15B
 100
AcDbEntity
   8
LEVEL001
 100
AcDbLine
   6
DASHDOT
  62
1
  10
 45.000000000000
  20
 205.00000000000
  30
0.0
  11
 120.00000000000
  21
 205.00000000000
  31
0.0
   0
TEXT
   5
15C
 100
AcDbEntity
   8
LEVEL003
  62
3
 100
AcDbText
  10
 30.000000000000
  20
 240.00000000000
  30
0.0
  40
 3.1500000000000
   1
４－%%c７
   7
STANDARD
 100
AcDbText
   0
LINE
   5
15D
 100
AcDbEntity
   8
LEVEL001
 100
AcDbLine
   6
DASHDOT
  62
1
  10
 70.000000000000
  20
 208.75000000000
  30
0.0
  11
 70.000000000000
  21
 201.25000000000
  31
0.0
   0
LINE
   5
15E
 100
AcDbEntity
   8
LEVEL001
 100
AcDbLine
   6
DASHDOT
  62
1
  10
 30.000000000000
  20
 182.00000000000
  30
0.0
  11
 140.00000000000
  21
 182.00000000000
  31
0.0
   0
DIMENSION
   5
15F
 100
AcDbEntity
   8
LEVEL003
   6
CONTINUOUS
  62
3
 100
AcDbDimension
   2
*D1
  10
 145.00000000000
  20
 205.00000000000
  30
0.0
  11
 145.00000000000
  21
 193.50000000000
  31
0.0
  70
0
   3
GMM001
 100
AcDbAlignedDimension
  13
 140.00000000000
  23
 182.00000000000
  33
0.0
  14
 120.00000000000
  24
 205.00000000000
  34
0.0
  50
 90.000000000000
 100
AcDbRotatedDimension
   0
CIRCLE
   5
160
 100
AcDbEntity
   8
LEVEL001
 100
AcDbCircle
   6
CONTINUOUS
  62
7
  10
 108.00000000000
  20
 222.00000000000
  30
0.0
  40
 3.5000000000000
   0
LINE
   5
161
 100
AcDbEntity
   8
LEVEL001
 100
AcDbLine
   6
DASHDOT
  62
1
  10
 100.43362702479
  20
 222.00000000000
  30
0.0
  11
 115.56637297521
  21
 222.00000000000
  31
0.0
   0
LINE
   5
162
 100
AcDbEntity
   8
LEVEL001
 100
AcDbLine
   6
DASHDOT
  62
1
  10
 108.00000000000
  20
 214.43362702479
  30
0.0
  11
 108.00000000000
  21
 229.56637297521
  31
0.0
   0
CIRCLE
   5
163
 100
AcDbEntity
   8
LEVEL001
 100
AcDbCircle
   6
CONTINUOUS
  62
7
  10
 62.000000000000
  20
 222.00000000000
  30
0.0
  40
 3.5000000000000
   0
LINE
   5
164
 100
AcDbEntity
   8
LEVEL001
 100
AcDbLine
   6
DASHDOT
  62
1
  10
 54.433627024789
  20
 222.00000000000
  30
0.0
  11
 69.566372975211
  21
 222.00000000000
  31
0.0
   0
LINE
   5
165
 100
AcDbEntity
   8
LEVEL001
 100
AcDbLine
   6
DASHDOT
  62
1
  10
 62.000000000000
  20
 214.43362702479
  30
0.0
  11
 62.000000000000
  21
 229.56637297521
  31
0.0
   0
LINE
   5
166
 100
AcDbEntity
   8
LEVEL001
 100
AcDbLine
   6
CONTINUOUS
  62
7
  10
 85.000000000000
  20
 228.00000000000
  30
0.0
  11
 114.00000000000
  21
 228.00000000000
  31
0.0
   0
LINE
   5
167
 100
AcDbEntity
   8
LEVEL001
 100
AcDbLine
   6
CONTINUOUS
  62
7
  10
 56.000000000000
  20
 228.00000000000
  30
0.0
  11
 56.000000000000
  21
 182.00000000000
  31
0.0
   0
LINE
   5
168
 100
AcDbEntity
   8
LEVEL001
 100
AcDbLine
   6
CONTINUOUS
  62
7
  10
 85.000000000000
  20
 228.00000000008
  30
0.0
  11
 56.000000000000
  21
 227.99999999989
  31
0.0
   0
LEADER
   5
169
 100
AcDbEntity
   8
LEVEL003
   6
CONTINUOUS
  62
3
 100
AcDbLeader
   3
GMM002
  73
0
  74
1
  75
0
  40
 3.1500000000000
  41
0.0
  76
3
  10
 59.981608808423
  20
 224.85938752144
  30
0.0
  10
 50.000000000000
  20
 239.00000000000
  30
0.0
  10
 30.000000000000
  20
 239.00000000000
  30
0.0
  77
3
   0
DIMENSION
   5
16A
 100
AcDbEntity
   8
LEVEL003
   6
CONTINUOUS
  62
3
 100
AcDbDimension
   2
*D3
  10
 20.000000000000
  20
 205.00000000000
  30
0.0
  11
 20.000000000000
  21
 213.50000000000
  31
0.0
  70
0
   3
GMM003
 100
AcDbAlignedDimension
  13
 54.433627024789
  23
 222.00000000000
  33
0.0
  14
 45.000000000000
  24
 205.00000000000
  34
0.0
  50
 270.00000000000
 100
AcDbRotatedDimension
   0
DIMENSION
   5
16B
 100
AcDbEntity
   8
LEVEL003
   6
CONTINUOUS
  62
3
 100
AcDbDimension
   2
*D4
  10
 108.00000000000
  20
 245.00000000000
  30
0.0
  11
 85.000000000000
  21
 245.00000000000
  31
0.0
  70
0
   3
GMM001
 100
AcDbAlignedDimension
  13
 62.000000000000
  23
 229.56637297521
  33
0.0
  14
 108.00000000000
  24
 229.56637297521
  34
0.0
 100
AcDbRotatedDimension
   0
DIMENSION
   5
16C
 100
AcDbEntity
   8
LEVEL003
   6
CONTINUOUS
  62
3
 100
AcDbDimension
   2
*D5
  10
 114.00000000000
  20
 252.50000000000
  30
0.0
  11
 85.000000000000
  21
 252.50000000000
  31
0.0
  70
0
   3
GMM001
 100
AcDbAlignedDimension
  13
 56.000000000000
  23
 228.00000000000
  33
0.0
  14
 114.00000000000
  24
 228.00000000000
  34
0.0
 100
AcDbRotatedDimension
   0
LINE
   5
16D
 100
AcDbEntity
   8
LEVEL001
 100
AcDbLine
   6
DASHDOT
  62
1
  10
 100.43362702479
  20
 164.00000000000
  30
0.0
  11
 115.56637297521
  21
 164.00000000000
  31
0.0
   0
LINE
   5
16E
 100
AcDbEntity
   8
LEVEL001
 100
AcDbLine
   6
DASHDOT
  62
1
  10
 108.00000000000
  20
 156.43362702479
  30
0.0
  11
 108.00000000000
  21
 170.56637297521
  31
0.0
   0
CIRCLE
   5
16F
 100
AcDbEntity
   8
LEVEL001
 100
AcDbCircle
   6
CONTINUOUS
  62
7
  10
 108.00000000000
  20
 164.00000000000
  30
0.0
  40
 3.5000000000000
   0
CIRCLE
   5
170
 100
AcDbEntity
   8
LEVEL001
 100
AcDbCircle
   6
CONTINUOUS
  62
7
  10
 62.000000000000
  20
 164.00000000000
  30
0.0
  40
 3.5000000000000
   0
LINE
   5
171
 100
AcDbEntity
   8
LEVEL001
 100
AcDbLine
   6
DASHDOT
  62
1
  10
 69.566372975211
  20
 164.00000000000
  30
0.0
  11
 54.433627024789
  21
 164.00000000000
  31
0.0
   0
LINE
   5
172
 100
AcDbEntity
   8
LEVEL001
 100
AcDbLine
   6
DASHDOT
  62
1
  10
 62.000000000000
  20
 171.56637297521
  30
0.0
  11
 62.000000000000
  21
 156.43362702479
  31
0.0
   0
LINE
   5
173
 100
AcDbEntity
   8
LEVEL001
 100
AcDbLine
   6
CONTINUOUS
  62
7
  10
 56.000000000000
  20
 158.00000000000
  30
0.0
  11
 56.000000000000
  21
 182.00000000000
  31
0.0
   0
LINE
   5
174
 100
AcDbEntity
   8
LEVEL001
 100
AcDbLine
   6
CONTINUOUS
  62
7
  10
 56.000000000000
  20
 158.00000000000
  30
0.0
  11
 114.00000000000
  21
 158.00000000000
  31
0.0
   0
DIMENSION
   5
175
 100
AcDbEntity
   8
LEVEL003
   6
CONTINUOUS
  62
3
 100
AcDbDimension
   2
*D6
  10
 20.000000000000
  20
 164.00000000000
  30
0.0
  11
 20.000000000000
  21
 184.50000000000
  31
0.0
  70
0
   3
GMM001
 100
AcDbAlignedDimension
  13
 45.000000000000
  23
 205.00000000000
  33
0.0
  14
 54.433627024789
  24
 164.00000000000
  34
0.0
  50
 270.00000000000
 100
AcDbRotatedDimension
   0
DIMENSION
   5
176
 100
AcDbEntity
   8
LEVEL003
   6
CONTINUOUS
  62
3
 100
AcDbDimension
   2
*D7
  10
 15.000000000000
  20
 158.00000000000
  30
0.0
  11
 15.000000000000
  21
 193.00000000000
  31
0.0
  70
0
   3
GMM001
 100
AcDbAlignedDimension
  13
 56.000000000000
  23
 228.00000000000
  33
0.0
  14
 56.000000000000
  24
 158.00000000000
  34
0.0
  50
 270.00000000000
 100
AcDbRotatedDimension
   0
ARC
   5
177
 100
AcDbEntity
   8
LEVEL001
   6
DOT
  62
3
 100
AcDbCircle
  10
 85.000000000004
  20
 161.69999183564
  30
0.0
  40
 3.3000030517578
 100
AcDbArc
  50
 0.88764847734094E-4
  51
 25.917863083291
   0
ARC
   5
178
 100
AcDbEntity
   8
LEVEL001
   6
DOT
  62
3
 100
AcDbCircle
  10
 81.499998667721
  20
 168.41481220831
  30
0.0
  40
 3.6563100000000
 100
AcDbArc
  50
 270.00002087733
  51
 293.86490453871
   0
ARC
   5
179
 100
AcDbEntity
   8
LEVEL001
   6
DOT
  62
3
 100
AcDbCircle
  10
 85.000000000000
  20
 171.44589481714
  30
0.0
  40
 6.6873926088305
 100
AcDbArc
  50
 252.41204622600
  51
 287.58795377399
   0
ARC
   5
17A
 100
AcDbEntity
   8
LEVEL001
   6
DOT
  62
3
 100
AcDbCircle
  10
 85.000000000000
  20
 160.81260739106
  30
0.0
  40
 6.6873926088304
 100
AcDbArc
  50
 72.412046226008
  51
 107.58795377400
   0
ARC
   5
17B
 100
AcDbEntity
   8
LEVEL001
   6
DOT
  62
3
 100
AcDbCircle
  10
 81.499998667719
  20
 163.84368999990
  30
0.0
  40
 3.6563100000000
 100
AcDbArc
  50
 66.135095461269
  51
 82.140159029510
   0
ARC
   5
17C
 100
AcDbEntity
   8
LEVEL001
   6
DOT
  62
3
 100
AcDbCircle
  10
 88.500001332281
  20
 168.41481220831
  30
0.0
  40
 3.6563100000000
 100
AcDbArc
  50
 246.13509546127
  51
 269.99997912265
   0
ARC
   5
17D
 100
AcDbEntity
   8
LEVEL001
   6
DOT
  62
3
 100
AcDbCircle
  10
 84.999999999996
  20
 161.69999183564
  30
0.0
  40
 3.3000030517578
 100
AcDbArc
  50
 154.08052957928
  51
 179.99991123515
   0
ARC
   5
17E
 100
AcDbEntity
   8
LEVEL001
   6
DOT
  62
3
 100
AcDbCircle
  10
 81.312419159058
  20
 163.49213372901
  30
0.0
  40
 0.80000000000000
 100
AcDbArc
  50
 334.08052957929
  51
 24.933277703946
   0
ARC
   5
17F
 100
AcDbEntity
   8
LEVEL001
   6
DOT
  62
3
 100
AcDbCircle
  10
 88.687580840942
  20
 163.49213372901
  30
0.0
  40
 0.80000000000000
 100
AcDbArc
  50
 155.06672229607
  51
 205.91947042073
   0
ARC
   5
180
 100
AcDbEntity
   8
LEVEL001
   6
DOT
  62
3
 100
AcDbCircle
  10
 93.402937312222
  20
 161.30000842494
  30
0.0
  40
 6.0000000000000
 100
AcDbArc
  50
 144.80120065478
  51
 155.06672229610
   0
ARC
   5
181
 100
AcDbEntity
   8
LEVEL001
   6
DOT
  62
3
 100
AcDbCircle
  10
 76.597062687778
  20
 161.30000842494
  30
0.0
  40
 6.0000000000000
 100
AcDbArc
  50
 24.933277703899
  51
 35.198844917453
   0
ARC
   5
182
 100
AcDbEntity
   8
LEVEL001
   6
DOT
  62
3
 100
AcDbCircle
  10
 88.500001332279
  20
 163.84368999989
  30
0.0
  40
 3.6563100000000
 100
AcDbArc
  50
 97.093697614596
  51
 113.86490453871
   0
ARC
   5
183
 100
AcDbEntity
   8
LEVEL001
   6
DOT
  62
3
 100
AcDbCircle
  10
 85.000000000000
  20
 159.49999999989
  30
0.0
  40
 1.0000000000000
 100
AcDbArc
  50
 210.00000000000
  51
 330.00000000000
   0
LWPOLYLINE
   5
184
 100
AcDbEntity
   8
LEVEL001
   6
DOT
  62
3
 100
AcDbPolyline
  90
6
  70
1
  10
 85.000000000000
  20
 158.99999999989
  10
 87.399993896484
  20
 158.99999999989
  10
 88.300003051758
  20
 161.69999694814
  10
 85.000000000000
  20
 161.69999694814
  10
 81.699996948242
  20
 161.69999694814
  10
 82.600006103516
  20
 158.99999999989
   0
LINE
   5
185
 100
AcDbEntity
   8
LEVEL001
 100
AcDbLine
   6
DOT
  62
3
  10
 82.979274057836
  20
 167.18739260873
  30
0.0
  11
 82.979274057836
  21
 165.07110959948
  31
0.0
   0
LINE
   5
186
 100
AcDbEntity
   8
LEVEL001
 100
AcDbLine
   6
DOT
  62
3
  10
 85.000000000000
  20
 163.44642252182
  30
0.0
  11
 82.200000000000
  21
 163.44642252182
  31
0.0
   0
LINE
   5
187
 100
AcDbEntity
   8
LEVEL001
 100
AcDbLine
   6
DOT
  62
3
  10
 85.000000000000
  20
 163.44642252182
  30
0.0
  11
 87.800000000000
  21
 163.44642252182
  31
0.0
   0
LINE
   5
188
 100
AcDbEntity
   8
LEVEL001
 100
AcDbLine
   6
DOT
  62
3
  10
 89.041451884327
  20
 165.07110959948
  30
0.0
  11
 88.499995447142
  21
 164.75849957971
  31
0.0
   0
LINE
   5
189
 100
AcDbEntity
   8
LEVEL001
 100
AcDbLine
   6
DOT
  62
3
  10
 82.000000000000
  20
 167.50000000000
  30
0.0
  11
 80.958548115673
  21
 166.89871747430
  31
0.0
   0
LINE
   5
18A
 100
AcDbEntity
   8
LEVEL001
 100
AcDbLine
   6
DOT
  62
3
  10
 82.000000000000
  20
 167.50000000000
  30
0.0
  11
 85.000000000000
  21
 167.50000000000
  31
0.0
   0
LINE
   5
18B
 100
AcDbEntity
   8
LEVEL001
 100
AcDbLine
   6
DOT
  62
3
  10
 80.958548115673
  20
 165.07110959948
  30
0.0
  11
 81.500004552858
  21
 164.75849957971
  31
0.0
   0
LINE
   5
18C
 100
AcDbEntity
   8
LEVEL001
 100
AcDbLine
   6
DOT
  62
3
  10
 88.000000000000
  20
 167.50000000000
  30
0.0
  11
 89.041451884327
  21
 166.89871747430
  31
0.0
   0
LINE
   5
18D
 100
AcDbEntity
   8
LEVEL001
 100
AcDbLine
   6
DOT
  62
3
  10
 89.041451884327
  20
 165.07110959948
  30
0.0
  11
 89.041451884327
  21
 166.89871747426
  31
0.0
   0
LINE
   5
18E
 100
AcDbEntity
   8
LEVEL001
 100
AcDbLine
   6
DOT
  62
3
  10
 87.020725942164
  20
 167.18739260873
  30
0.0
  11
 87.020725942164
  21
 165.07110959948
  31
0.0
   0
LINE
   5
18F
 100
AcDbEntity
   8
LEVEL001
 100
AcDbLine
   6
DOT
  62
3
  10
 80.958548115673
  20
 166.89871747430
  30
0.0
  11
 80.958548115673
  21
 165.07110959948
  31
0.0
   0
LINE
   5
190
 100
AcDbEntity
   8
LEVEL001
 100
AcDbLine
   6
DOT
  62
3
  10
 88.000000000000
  20
 167.50000000000
  30
0.0
  11
 85.000000000000
  21
 167.50000000000
  31
0.0
   0
LINE
   5
191
 100
AcDbEntity
   8
LEVEL001
 100
AcDbLine
   6
DASHDOT
  62
1
  10
 85.000000000000
  20
 232.50000000000
  30
0.0
  11
 85.000000000000
  21
 155.00000000000
  31
0.0
   0
LINE
   5
192
 100
AcDbEntity
   8
LEVEL001
 100
AcDbLine
   6
DASHDOT
  62
1
  10
 45.000000000000
  20
 190.00000000000
  30
0.0
  11
 45.000000000000
  21
 174.00000000000
  31
0.0
   0
LINE
   5
193
 100
AcDbEntity
   8
LEVEL001
 100
AcDbLine
   6
CONTINUOUS
  62
7
  10
 50.500000000000
  20
 184.00000000000
  30
0.0
  11
 50.500000000000
  21
 180.00000000000
  31
0.0
   0
ARC
   5
194
 100
AcDbEntity
   8
LEVEL001
   6
CONTINUOUS
  62
7
 100
AcDbCircle
  10
 50.500000000000
  20
 182.00000000000
  30
0.0
  40
 2.0000000000000
 100
AcDbArc
  50
 270.00000000000
  51
 90.000000000000
   0
LINE
   5
195
 100
AcDbEntity
   8
LEVEL001
 100
AcDbLine
   6
CONTINUOUS
  62
7
  10
 32.500000000000
  20
 188.00000000000
  30
0.0
  11
 32.500000000000
  21
 176.00000000000
  31
0.0
   0
LINE
   5
196
 100
AcDbEntity
   8
LEVEL001
 100
AcDbLine
   6
CONTINUOUS
  62
7
  10
 32.500000000000
  20
 184.00000000000
  30
0.0
  11
 50.500000000000
  21
 184.00000000000
  31
0.0
   0
DIMENSION
   5
197
 100
AcDbEntity
   8
LEVEL003
   6
CONTINUOUS
  62
3
 100
AcDbDimension
   2
*D8
  10
 50.500000000000
  20
 167.50000000000
  30
0.0
  11
 41.500000000000
  21
 167.50000000000
  31
0.0
  70
0
   3
GMM001
 100
AcDbAlignedDimension
  13
 32.500000000000
  23
 176.00000000000
  33
0.0
  14
 50.500000000000
  24
 180.00000000000
  34
0.0
 100
AcDbRotatedDimension
   0
LINE
   5
198
 100
AcDbEntity
   8
LEVEL001
 100
AcDbLine
   6
CONTINUOUS
  62
7
  10
 50.500000000000
  20
 180.00000000000
  30
0.0
  11
 32.500000000000
  21
 180.00000000000
  31
0.0
   0
DIMENSION
   5
199
 100
AcDbEntity
   8
LEVEL003
   6
CONTINUOUS
  62
3
 100
AcDbDimension
   2
*D9
  10
 137.50000000000
  20
 140.00000000000
  30
0.0
  11
 85.000000000000
  21
 140.00000000000
  31
0.0
  70
0
   3
GMM001
 100
AcDbAlignedDimension
  13
 32.500000000000
  23
 176.00000000000
  33
0.0
  14
 137.50000000000
  24
 176.00000000000
  34
0.0
 100
AcDbRotatedDimension
   0
LINE
   5
19A
 100
AcDbEntity
   8
LEVEL001
 100
AcDbLine
   6
DASHDOT
  62
1
  10
 130.00000000000
  20
 189.00000000000
  30
0.0
  11
 130.00000000000
  21
 175.00000000000
  31
0.0
   0
LINE
   5
19B
 100
AcDbEntity
   8
LEVEL001
 100
AcDbLine
   6
CONTINUOUS
  62
7
  10
 119.50000000000
  20
 184.00000000000
  30
0.0
  11
 119.50000000000
  21
 180.00000000000
  31
0.0
   0
ARC
   5
19C
 100
AcDbEntity
   8
LEVEL001
   6
CONTINUOUS
  62
7
 100
AcDbCircle
  10
 119.50000000000
  20
 182.00000000000
  30
0.0
  40
 2.0000000000000
 100
AcDbArc
  50
 90.000000000000
  51
 270.00000000000
   0
LINE
   5
19D
 100
AcDbEntity
   8
LEVEL001
 100
AcDbLine
   6
CONTINUOUS
  62
7
  10
 137.50000000000
  20
 188.00000000000
  30
0.0
  11
 137.50000000000
  21
 176.00000000000
  31
0.0
   0
LINE
   5
19E
 100
AcDbEntity
   8
LEVEL001
 100
AcDbLine
   6
CONTINUOUS
  62
7
  10
 119.50000000000
  20
 180.00000000000
  30
0.0
  11
 137.50000000000
  21
 180.00000000000
  31
0.0
   0
DIMENSION
   5
19F
 100
AcDbEntity
   8
LEVEL003
   6
CONTINUOUS
  62
3
 100
AcDbDimension
   2
*D10
  10
 137.50000000000
  20
 167.50000000000
  30
0.0
  11
 128.50000000000
  21
 167.50000000000
  31
0.0
  70
0
   3
GMM001
 100
AcDbAlignedDimension
  13
 119.50000000000
  23
 180.00000000000
  33
0.0
  14
 137.50000000000
  24
 176.00000000000
  34
0.0
 100
AcDbRotatedDimension
   0
LINE
   5
1A0
 100
AcDbEntity
   8
LEVEL001
 100
AcDbLine
   6
CONTINUOUS
  62
7
  10
 137.50000000000
  20
 184.00000000000
  30
0.0
  11
 119.50000000000
  21
 184.00000000000
  31
0.0
   0
LINE
   5
1A1
 100
AcDbEntity
   8
LEVEL001
 100
AcDbLine
   6
CONTINUOUS
  62
7
  10
 56.000000000000
  20
 176.00000000000
  30
0.0
  11
 32.500000000000
  21
 176.00000000000
  31
0.0
   0
LINE
   5
1A2
 100
AcDbEntity
   8
LEVEL001
 100
AcDbLine
   6
CONTINUOUS
  62
7
  10
 56.000000000000
  20
 188.00000000000
  30
0.0
  11
 32.500000000000
  21
 188.00000000000
  31
0.0
   0
LINE
   5
1A3
 100
AcDbEntity
   8
LEVEL001
 100
AcDbLine
   6
DASHDOT
  62
1
  10
 121.90000000000
  20
 250.00000000000
  30
0.0
  11
 138.10000000000
  21
 250.00000000000
  31
0.0
   0
LINE
   5
1A4
 100
AcDbEntity
   8
LEVEL001
 100
AcDbLine
   6
DASHDOT
  62
1
  10
 130.00000000000
  20
 258.10000000000
  30
0.0
  11
 130.00000000000
  21
 241.90000000000
  31
0.0
   0
LEADER
   5
1A5
 100
AcDbEntity
   8
LEVEL003
   6
CONTINUOUS
  62
3
 100
AcDbLeader
   3
GMM004
  73
0
  74
1
  75
0
  40
 3.1500000000000
  41
0.0
  76
2
  10
 135.26956632353
  20
 249.65680941176
  30
0.0
  10
 140.40226104802
  20
 242.80169436044
  30
0.0
  77
3
   0
CIRCLE
   5
1A6
 100
AcDbEntity
   8
LEVEL003
 100
AcDbCircle
   6
CONTINUOUS
  62
3
  10
 142.50000000000
  20
 240.00000000000
  30
0.0
  40
 3.5000000000000
   0
LWPOLYLINE
   5
1A7
 100
AcDbEntity
   8
LEVEL001
   6
CONTINUOUS
  62
7
 100
AcDbPolyline
  90
4
  70
1
  10
 133.50000000000
  20
 248.00000000000
  10
 137.50000000000
  20
 248.00000000000
  10
 137.50000000000
  20
 252.00000000000
  10
 133.50000000000
  20
 252.00000000000
   0
ARC
   5
1A8
 100
AcDbEntity
   8
LEVEL001
   6
CONTINUOUS
  62
7
 100
AcDbCircle
  10
 130.00000000000
  20
 250.00000000000
  30
0.0
  40
 6.0000000000000
 100
AcDbArc
  50
 19.471220634491
  51
 340.52877936551
   0
DIMENSION
   5
1A9
 100
AcDbEntity
   8
LEVEL003
   6
CONTINUOUS
  62
3
 100
AcDbDimension
   2
*D12
  10
 137.50000000000
  20
 230.00000000000
  30
0.0
  11
 130.75000000000
  21
 230.00000000000
  31
0.0
  70
0
   3
GMM005
 100
AcDbAlignedDimension
  13
 124.00000000000
  23
 250.00000000000
  33
0.0
  14
 137.50000000000
  24
 248.00000000000
  34
0.0
 100
AcDbRotatedDimension
   0
DIMENSION
   5
1AA
 100
AcDbEntity
   8
LEVEL003
   6
CONTINUOUS
  62
3
 100
AcDbDimension
   2
*D13
  10
 145.00000000000
  20
 248.00000000000
  30
0.0
  11
 145.00000000000
  21
 261.92401960784
  31
0.0
  70
128
   1
\A1;4P9h9
   3
GMM006
 100
AcDbAlignedDimension
  13
 137.50000000000
  23
 252.00000000000
  33
0.0
  14
 137.50000000000
  24
 248.00000000000
  34
0.0
  50
 270.00000000000
 100
AcDbRotatedDimension
   0
DIMENSION
   5
1AB
 100
AcDbEntity
   8
LEVEL003
   6
CONTINUOUS
  62
3
 100
AcDbDimension
   2
*D14
  10
 132.68328157300
  20
 244.63343685400
  30
0.0
  11
 109.25000000000
  21
 260.00000000000
  31
0.0
  70
131
   1
\A1;%%c12h7
   3
GMM007
 100
AcDbDiametricDimension
  15
 127.31671842700
  25
 255.36656314600
  35
0.0
  40
 5.1803398874989
   0
TEXT
   5
1AC
 100
AcDbEntity
   8
LEVEL003
  62
3
 100
AcDbText
  10
 140.57500000000
  20
 237.90000000000
  30
0.0
  40
 3.6000006000000
   1
3
   7
STANDARD
 100
AcDbText
   0
ARC
   5
1AD
 100
AcDbEntity
   8
LEVEL001
   6
CONTINUOUS
  62
7
 100
AcDbCircle
  10
 179.00000000000
  20
 212.50000000000
  30
0.0
  40
 0.50000000000000
 100
AcDbArc
  50
 90.000000000000
  51
 180.00000000000
   0
ARC
   5
1AE
 100
AcDbEntity
   8
LEVEL001
   6
CONTINUOUS
  62
7
 100
AcDbCircle
  10
 179.00000000000
  20
 197.50000000000
  30
0.0
  40
 0.50000000000000
 100
AcDbArc
  50
 180.00000000000
  51
 270.00000000000
   0
LINE
   5
1AF
 100
AcDbEntity
   8
LEVEL001
 100
AcDbLine
   6
CONTINUOUS
  62
7
  10
 178.50000000000
  20
 197.50000000000
  30
0.0
  11
 178.50000000000
  21
 212.50000000000
  31
0.0
   0
LWPOLYLINE
   5
1B0
 100
AcDbEntity
   8
LEVEL001
   6
CONTINUOUS
  62
7
 100
AcDbPolyline
  90
3
  70
0
  10
 163.50000000000
  20
 210.25000000000
  10
 164.25000000000
  20
 211.00000000000
  10
 175.50000000000
  20
 211.00000000000
   0
ARC
   5
1B1
 100
AcDbEntity
   8
LEVEL001
   6
CONTINUOUS
  62
7
 100
AcDbCircle
  10
 176.25000000000
  20
 211.00000000000
  30
0.0
  40
 0.75000000000000
 100
AcDbArc
  50
 180.00000000000
  51
 270.00000000000
   0
ARC
   5
1B2
 100
AcDbEntity
   8
LEVEL001
   6
CONTINUOUS
  62
7
 100
AcDbCircle
  10
 177.75000000000
  20
 211.00000000000
  30
0.0
  40
 0.75000000000000
 100
AcDbArc
  50
 270.00000000000
  51
0.0
   0
LINE
   5
1B3
 100
AcDbEntity
   8
LEVEL001
 100
AcDbLine
   6
CONTINUOUS
  62
7
  10
 176.25000000000
  20
 210.25000000000
  30
0.0
  11
 177.75000000000
  21
 210.25000000000
  31
0.0
   0
LINE
   5
1B4
 100
AcDbEntity
   8
LEVEL001
 100
AcDbLine
   6
CONTINUOUS
  62
3
  10
 163.50000000000
  20
 210.25000000000
  30
0.0
  11
 176.25000000000
  21
 210.25000000000
  31
0.0
   0
LINE
   5
1B5
 100
AcDbEntity
   8
LEVEL001
 100
AcDbLine
   6
CONTINUOUS
  62
7
  10
 163.50000000000
  20
 205.00000000000
  30
0.0
  11
 163.50000000000
  21
 210.25000000000
  31
0.0
   0
LWPOLYLINE
   5
1B6
 100
AcDbEntity
   8
LEVEL001
   6
CONTINUOUS
  62
7
 100
AcDbPolyline
  90
3
  70
0
  10
 163.50000000000
  20
 199.75000000000
  10
 164.25000000000
  20
 199.00000000000
  10
 175.50000000000
  20
 199.00000000000
   0
ARC
   5
1B7
 100
AcDbEntity
   8
LEVEL001
   6
CONTINUOUS
  62
7
 100
AcDbCircle
  10
 176.25000000000
  20
 199.00000000000
  30
0.0
  40
 0.75000000000000
 100
AcDbArc
  50
 90.000000000004
  51
 180.00000000000
   0
ARC
   5
1B8
 100
AcDbEntity
   8
LEVEL001
   6
CONTINUOUS
  62
7
 100
AcDbCircle
  10
 177.75000000000
  20
 199.00000000000
  30
0.0
  40
 0.75000000000000
 100
AcDbArc
  50
0.0
  51
 90.000000000000
   0
LINE
   5
1B9
 100
AcDbEntity
   8
LEVEL001
 100
AcDbLine
   6
CONTINUOUS
  62
7
  10
 176.25000000000
  20
 199.75000000000
  30
0.0
  11
 177.75000000000
  21
 199.75000000000
  31
0.0
   0
LINE
   5
1BA
 100
AcDbEntity
   8
LEVEL001
 100
AcDbLine
   6
CONTINUOUS
  62
3
  10
 163.50000000000
  20
 199.75000000000
  30
0.0
  11
 176.25000000000
  21
 199.75000000000
  31
0.0
   0
LINE
   5
1BB
 100
AcDbEntity
   8
LEVEL001
 100
AcDbLine
   6
CONTINUOUS
  62
7
  10
 163.50000000000
  20
 205.00000000000
  30
0.0
  11
 163.50000000000
  21
 199.75000000000
  31
0.0
   0
DIMENSION
   5
1BC
 100
AcDbEntity
   8
LEVEL003
   6
CONTINUOUS
  62
3
 100
AcDbDimension
   2
*D15
  10
 178.50000000000
  20
 183.25000000000
  30
0.0
  11
 171.00000000000
  21
 183.25000000000
  31
0.0
  70
0
   3
GMM001
 100
AcDbAlignedDimension
  13
 163.50000000000
  23
 199.75000000000
  33
0.0
  14
 178.50000000000
  24
 197.00000000000
  34
0.0
 100
AcDbRotatedDimension
   0
LINE
   5
1BD
 100
AcDbEntity
   8
LEVEL001
 100
AcDbLine
   6
CONTINUOUS
  62
7
  10
 175.50000000000
  20
 211.00000000000
  30
0.0
  11
 175.50000000000
  21
 199.00000000000
  31
0.0
   0
LINE
   5
1BE
 100
AcDbEntity
   8
LEVEL001
 100
AcDbLine
   6
DASHDOT
  62
1
  10
 159.75000000000
  20
 205.00000000000
  30
0.0
  11
 265.50000000000
  21
 205.00000000000
  31
0.0
   0
LINE
   5
1BF
 100
AcDbEntity
   8
LEVEL001
 100
AcDbLine
   6
DASHDOT
  62
1
  10
 284.19266385879
  20
 219.94292047138
  30
0.0
  11
 286.80733614121
  21
 190.05707952862
  31
0.0
   0
LINE
   5
1C0
 100
AcDbEntity
   8
LEVEL001
 100
AcDbLine
   6
DASHDOT
  62
1
  10
 284.31684939599
  20
 189.83919017175
  30
0.0
  11
 281.70217711356
  21
 219.72503111451
  31
0.0
   0
LINE
   5
1C1
 100
AcDbEntity
   8
LEVEL001
 100
AcDbLine
   6
CONTINUOUS
  62
7
  10
 253.50000000000
  20
 226.00000000000
  30
0.0
  11
 257.50000000000
  21
 226.00000000000
  31
0.0
   0
LINE
   5
1C2
 100
AcDbEntity
   8
LEVEL001
 100
AcDbLine
   6
CONTINUOUS
  62
7
  10
 253.50000000000
  20
 184.00000000000
  30
0.0
  11
 257.50000000000
  21
 184.00000000000
  31
0.0
   0
LINE
   5
1C3
 100
AcDbEntity
   8
LEVEL001
 100
AcDbLine
   6
DASHDOT
  62
1
  10
 264.50000000000
  20
 188.00000000000
  30
0.0
  11
 243.24115427319
  21
 188.00000000000
  31
0.0
   0
LWPOLYLINE
   5
1C4
 100
AcDbEntity
   8
LEVEL001
   6
CONTINUOUS
  62
3
 100
AcDbPolyline
  90
6
  70
1
  10
 257.50000000000
  20
 225.50000000000
  10
 257.50000000000
  20
 218.50000000000
  10
 261.30000000000
  20
 218.50000000000
  10
 261.50000000000
  20
 218.84641016151
  10
 261.50000000000
  20
 225.15358983849
  10
 261.30000000000
  20
 225.50000000000
   0
LINE
   5
1C5
 100
AcDbEntity
   8
LEVEL001
 100
AcDbLine
   6
CONTINUOUS
  62
3
  10
 261.30000000000
  20
 225.50000000000
  30
0.0
  11
 261.30000000000
  21
 218.50000000000
  31
0.0
   0
LWPOLYLINE
   5
1C6
 100
AcDbEntity
   8
LEVEL001
   6
CONTINUOUS
  62
3
 100
AcDbPolyline
  90
6
  70
1
  10
 257.50000000000
  20
 184.50000000000
  10
 257.50000000000
  20
 191.50000000000
  10
 261.30000000000
  20
 191.50000000000
  10
 261.50000000000
  20
 191.15358983849
  10
 261.50000000000
  20
 184.84641016151
  10
 261.30000000000
  20
 184.50000000000
   0
LINE
   5
1C7
 100
AcDbEntity
   8
LEVEL001
 100
AcDbLine
   6
CONTINUOUS
  62
3
  10
 261.30000000000
  20
 184.50000000000
  30
0.0
  11
 261.30000000000
  21
 191.50000000000
  31
0.0
   0
LINE
   5
1C8
 100
AcDbEntity
   8
LEVEL001
 100
AcDbLine
   6
CONTINUOUS
  62
7
  10
 284.40639170593
  20
 217.50000000000
  30
0.0
  11
 323.00000000000
  21
 217.50000000000
  31
0.0
   0
LEADER
   5
1C9
 100
AcDbEntity
   8
LEVEL003
   6
CONTINUOUS
  62
3
 100
AcDbLeader
   3
GMM008
  73
0
  74
1
  75
0
  40
 3.1500000000000
  41
0.0
  76
3
  10
 170.27272727273
  20
 211.00000000000
  30
0.0
  10
 175.50000000000
  20
 220.00000000000
  30
0.0
  10
 150.50000000000
  20
 220.00000000000
  30
0.0
  77
3
   0
TEXT
   5
1CA
 100
AcDbEntity
   8
LEVEL003
  62
3
 100
AcDbText
  10
 150.50000000000
  20
 220.00000000000
  30
0.0
  40
 3.1500000000000
   1
Ｍ１２×１.７５
   7
STANDARD
 100
AcDbText
   0
LINE
   5
1CB
 100
AcDbEntity
   8
LEVEL001
 100
AcDbLine
   6
DASHDOT
  62
1
  10
 270.50000000000
  20
 205.00000000000
  30
0.0
  11
 330.50000000000
  21
 205.00000000000
  31
0.0
   0
LINE
   5
1CC
 100
AcDbEntity
   8
LEVEL001
 100
AcDbLine
   6
CONTINUOUS
  62
7
  10
 186.50000000000
  20
 228.00000000000
  30
0.0
  11
 253.50000000000
  21
 228.00000000000
  31
0.0
   0
LINE
   5
1CD
 100
AcDbEntity
   8
LEVEL001
 100
AcDbLine
   6
DASHDOT
  62
1
  10
 183.00000000000
  20
 164.00000000000
  30
0.0
  11
 258.50000000000
  21
 164.00000000000
  31
0.0
   0
LINE
   5
1CE
 100
AcDbEntity
   8
LEVEL001
 100
AcDbLine
   6
DOT
  62
3
  10
 253.50000000000
  20
 160.50000000000
  30
0.0
  11
 186.50000000000
  21
 160.50000000000
  31
0.0
   0
LINE
   5
1CF
 100
AcDbEntity
   8
LEVEL001
 100
AcDbLine
   6
CONTINUOUS
  62
7
  10
 186.50000000000
  20
 158.00000000000
  30
0.0
  11
 253.50000000000
  21
 158.00000000000
  31
0.0
   0
DIMENSION
   5
1D0
 100
AcDbEntity
   8
LEVEL003
   6
CONTINUOUS
  62
3
 100
AcDbDimension
   2
*D17
  10
 253.50000000000
  20
 137.50000000000
  30
0.0
  11
 220.00000000000
  21
 137.50000000000
  31
0.0
  70
0
   3
GMM009
 100
AcDbAlignedDimension
  13
 186.50000000000
  23
 158.00000000000
  33
0.0
  14
 253.50000000000
  24
 158.00000000000
  34
0.0
 100
AcDbRotatedDimension
   0
DIMENSION
   5
1D1
 100
AcDbEntity
   8
LEVEL003
   6
CONTINUOUS
  62
3
 100
AcDbDimension
   2
*D18
  10
 327.50000000000
  20
 130.00000000000
  30
0.0
  11
 290.50000000000
  21
 130.00000000000
  31
0.0
  70
0
   1
\A1;432
   3
GMM001
 100
AcDbAlignedDimension
  13
 253.50000000000
  23
 158.00000000000
  33
0.0
  14
 327.50000000000
  24
 193.80000000000
  34
0.0
 100
AcDbRotatedDimension
   0
LINE
   5
1D2
 100
AcDbEntity
   8
LEVEL001
 100
AcDbLine
   6
DASHDOT
  62
1
  10
 220.00000000000
  20
 232.50000000000
  30
0.0
  11
 220.00000000000
  21
 155.00000000000
  31
0.0
   0
LINE
   5
1D3
 100
AcDbEntity
   8
LEVEL001
 100
AcDbLine
   6
DASHDOT
  62
1
  10
 207.79344438427
  20
 182.00000000000
  30
0.0
  11
 232.20655561573
  21
 182.00000000000
  31
0.0
   0
DIMENSION
   5
1D4
 100
AcDbEntity
   8
LEVEL003
   6
CONTINUOUS
  62
3
 100
AcDbDimension
   2
*D19
  10
 220.00000000000
  20
 145.00000000000
  30
0.0
  11
 236.75000000000
  21
 145.00000000000
  31
0.0
  70
0
   3
GMM001
 100
AcDbAlignedDimension
  13
 253.50000000000
  23
 158.00000000000
  33
0.0
  14
 220.00000000000
  24
 155.00000000000
  34
0.0
  50
 180.00000000000
 100
AcDbRotatedDimension
   0
LINE
   5
1D5
 100
AcDbEntity
   8
LEVEL001
 100
AcDbLine
   6
CONTINUOUS
  62
7
  10
 286.59360829407
  20
 192.50000000000
  30
0.0
  11
 323.00000000000
  21
 192.50000000000
  31
0.0
   0
LINE
   5
1D6
 100
AcDbEntity
   8
LEVEL001
 100
AcDbLine
   6
CONTINUOUS
  62
7
  10
 327.50000000000
  20
 216.20000000000
  30
0.0
  11
 327.50000000000
  21
 193.80000000000
  31
0.0
   0
LINE
   5
1D7
 100
AcDbEntity
   8
LEVEL001
 100
AcDbLine
   6
CONTINUOUS
  62
7
  10
 323.00000000000
  20
 192.50000000000
  30
0.0
  11
 325.00000000000
  21
 193.80000000000
  31
0.0
   0
LINE
   5
1D8
 100
AcDbEntity
   8
LEVEL001
 100
AcDbLine
   6
CONTINUOUS
  62
7
  10
 323.00000000000
  20
 217.50000000000
  30
0.0
  11
 325.00000000000
  21
 216.20000000000
  31
0.0
   0
DIMENSION
   5
1D9
 100
AcDbEntity
   8
LEVEL003
   6
CONTINUOUS
  62
3
 100
AcDbDimension
   2
*D20
  10
 270.00000000000
  20
 184.00000000000
  30
0.0
  11
 270.00000000000
  21
 205.00000000000
  31
0.0
  70
0
   3
GMM010
 100
AcDbAlignedDimension
  13
 257.50000000000
  23
 226.00000000000
  33
0.0
  14
 257.50000000000
  24
 184.00000000000
  34
0.0
  50
 270.00000000000
 100
AcDbRotatedDimension
   0
DIMENSION
   5
1DA
 100
AcDbEntity
   8
LEVEL003
   6
CONTINUOUS
  62
3
 100
AcDbDimension
   2
*D21
  10
 337.50000000000
  20
 217.50000000000
  30
0.0
  11
 337.50000000000
  21
 205.00000000000
  31
0.0
  70
0
   3
GMM011
 100
AcDbAlignedDimension
  13
 323.00000000000
  23
 192.50000000000
  33
0.0
  14
 323.00000000000
  24
 217.50000000000
  34
0.0
  50
 90.000000000000
 100
AcDbRotatedDimension
   0
DIMENSION
   5
1DB
 100
AcDbEntity
   8
LEVEL003
   6
CONTINUOUS
  62
3
 100
AcDbDimension
   2
*D22
  10
 253.50000000000
  20
 130.00000000000
  30
0.0
  11
 208.50000000000
  21
 130.00000000000
  31
0.0
  70
0
   1
\A1;MIN.90※%%p0.3
   3
GMM012
 100
AcDbAlignedDimension
  13
 163.50000000000
  23
 199.75000000000
  33
0.0
  14
 253.50000000000
  24
 158.00000000000
  34
0.0
 100
AcDbRotatedDimension
   0
LINE
   5
1DC
 100
AcDbEntity
   8
LEVEL001
 100
AcDbLine
   6
DASHDOT
  62
1
  10
 264.50000000000
  20
 222.00000000000
  30
0.0
  11
 243.24115427319
  21
 222.00000000000
  31
0.0
   0
TEXT
   5
1DD
 100
AcDbEntity
   8
LEVEL003
  62
3
 100
AcDbText
  10
 105.00000000000
  20
 270.00000000000
  30
0.0
  40
 3.1500000000000
   1
ＳＥＣ　Ａ－Ａ，Ｂ－Ｂ
   7
STANDARD
 100
AcDbText
   0
LINE
   5
1DE
 100
AcDbEntity
   8
LEVEL003
 100
AcDbLine
   6
CONTINUOUS
  62
3
  10
 105.00000000000
  20
 270.00000000000
  30
0.0
  11
 140.00000000000
  21
 270.00000000000
  31
0.0
   0
TEXT
   5
1DF
 100
AcDbEntity
   8
LEVEL003
  62
3
 100
AcDbText
  10
 126.25000000000
  20
 188.86580086580
  30
0.0
  40
 3.1500000000000
   1
Ｂ
   7
STANDARD
 100
AcDbText
   0
TEXT
   5
1E0
 100
AcDbEntity
   8
LEVEL003
  62
3
 100
AcDbText
  10
 126.25000000000
  20
 171.71266932437
  30
0.0
  40
 3.1500000000000
   1
Ｂ
   7
STANDARD
 100
AcDbText
   0
TEXT
   5
1E1
 100
AcDbEntity
   8
LEVEL003
  62
3
 100
AcDbText
  10
 41.250000000000
  20
 171.63396015476
  30
0.0
  40
 3.1500000000000
   1
Ａ
   7
STANDARD
 100
AcDbText
   0
TEXT
   5
1E2
 100
AcDbEntity
   8
LEVEL003
  62
3
 100
AcDbText
  10
 41.250000000000
  20
 188.78709169618
  30
0.0
  40
 3.1500000000000
   1
Ａ
   7
STANDARD
 100
AcDbText
   0
CIRCLE
   5
1E3
 100
AcDbEntity
   8
LEVEL001
 100
AcDbCircle
   6
CONTINUOUS
  62
3
  10
 85.000000000000
  20
 205.00000000000
  30
0.0
  40
 6.2500000000001
   0
CIRCLE
   5
1E4
 100
AcDbEntity
   8
LEVEL001
 100
AcDbCircle
   6
CONTINUOUS
  62
7
  10
 85.000000000000
  20
 205.00000000000
  30
0.0
  40
 8.0000000000001
   0
CIRCLE
   5
1E5
 100
AcDbEntity
   8
LEVEL001
 100
AcDbCircle
   6
CONTINUOUS
  62
7
  10
 85.000000000000
  20
 205.00000000000
  30
0.0
  40
 6.0000000000000
   0
CIRCLE
   5
1E6
 100
AcDbEntity
   8
LEVEL001
 100
AcDbCircle
   6
CONTINUOUS
  62
3
  10
 84.999999999999
  20
 205.00000000000
  30
0.0
  40
 5.2500000000001
   0
CIRCLE
   5
1E7
 100
AcDbEntity
   8
LEVEL001
 100
AcDbCircle
   6
CONTINUOUS
  62
3
  10
 85.000000000000
  20
 205.00000000000
  30
0.0
  40
 20.000000000000
   0
CIRCLE
   5
1E8
 100
AcDbEntity
   8
LEVEL001
 100
AcDbCircle
   6
CONTINUOUS
  62
7
  10
 85.000000000000
  20
 205.00000000000
  30
0.0
  40
 21.000000000000
   0
CIRCLE
   5
1E9
 100
AcDbEntity
   8
LEVEL001
 100
AcDbCircle
   6
CONTINUOUS
  62
7
  10
 70.000000000000
  20
 205.00000000000
  30
0.0
  40
 2.5000000000000
   0
LINE
   5
1EA
 100
AcDbEntity
   8
LEVEL001
 100
AcDbLine
   6
CONTINUOUS
  62
7
  10
 114.00000000000
  20
 228.00000000000
  30
0.0
  11
 114.00000000000
  21
 158.00000000000
  31
0.0
   0
LINE
   5
1EB
 100
AcDbEntity
   8
LEVEL001
 100
AcDbLine
   6
CONTINUOUS
  62
7
  10
 114.00000000000
  20
 176.00000000000
  30
0.0
  11
 137.50000000000
  21
 176.00000000000
  31
0.0
   0
LINE
   5
1EC
 100
AcDbEntity
   8
LEVEL001
 100
AcDbLine
   6
CONTINUOUS
  62
7
  10
 114.00000000000
  20
 188.00000000000
  30
0.0
  11
 137.50000000000
  21
 188.00000000000
  31
0.0
   0
LINE
   5
1ED
 100
AcDbEntity
   8
LEVEL001
 100
AcDbLine
   6
DASHDOT
  62
1
  10
 100.00000000000
  20
 208.75000000000
  30
0.0
  11
 100.00000000000
  21
 201.25000000000
  31
0.0
   0
CIRCLE
   5
1EE
 100
AcDbEntity
   8
LEVEL001
 100
AcDbCircle
   6
CONTINUOUS
  62
7
  10
 100.00000000000
  20
 205.00000000000
  30
0.0
  40
 2.5000000000000
   0
LINE
   5
1EF
 100
AcDbEntity
   8
LEVEL001
 100
AcDbLine
   6
CONTINUOUS
  62
7
  10
 186.50000000000
  20
 228.00000000000
  30
0.0
  11
 186.50000000000
  21
 158.00000000000
  31
0.0
   0
LINE
   5
1F0
 100
AcDbEntity
   8
LEVEL001
 100
AcDbLine
   6
CONTINUOUS
  62
7
  10
 179.00000000000
  20
 197.00000000000
  30
0.0
  11
 186.50000000000
  21
 197.00000000000
  31
0.0
   0
LINE
   5
1F1
 100
AcDbEntity
   8
LEVEL001
 100
AcDbLine
   6
CONTINUOUS
  62
3
  10
 178.50000000000
  20
 198.75000000000
  30
0.0
  11
 186.50000000000
  21
 198.75000000000
  31
0.0
   0
LINE
   5
1F2
 100
AcDbEntity
   8
LEVEL001
 100
AcDbLine
   6
CONTINUOUS
  62
3
  10
 178.50000000000
  20
 211.25000000000
  30
0.0
  11
 186.50000000000
  21
 211.25000000000
  31
0.0
   0
LINE
   5
1F3
 100
AcDbEntity
   8
LEVEL001
 100
AcDbLine
   6
CONTINUOUS
  62
7
  10
 179.00000000000
  20
 213.00000000000
  30
0.0
  11
 186.50000000000
  21
 213.00000000000
  31
0.0
   0
LINE
   5
1F4
 100
AcDbEntity
   8
LEVEL001
 100
AcDbLine
   6
CONTINUOUS
  62
7
  10
 323.00000000000
  20
 217.50000000000
  30
0.0
  11
 323.00000000000
  21
 192.50000000000
  31
0.0
   0
LINE
   5
1F5
 100
AcDbEntity
   8
LEVEL001
 100
AcDbLine
   6
CONTINUOUS
  62
7
  10
 325.00000000000
  20
 216.20000000000
  30
0.0
  11
 325.00000000000
  21
 193.80000000000
  31
0.0
   0
LINE
   5
1F6
 100
AcDbEntity
   8
LEVEL001
 100
AcDbLine
   6
CONTINUOUS
  62
7
  10
 325.00000000000
  20
 193.80000000000
  30
0.0
  11
 327.50000000000
  21
 193.80000000000
  31
0.0
   0
LINE
   5
1F7
 100
AcDbEntity
   8
LEVEL001
 100
AcDbLine
   6
CONTINUOUS
  62
7
  10
 325.00000000000
  20
 216.20000000000
  30
0.0
  11
 327.50000000000
  21
 216.20000000000
  31
0.0
   0
LINE
   5
1F8
 100
AcDbEntity
   8
LEVEL001
 100
AcDbLine
   6
CONTINUOUS
  62
7
  10
 257.50000000000
  20
 217.50000000000
  30
0.0
  11
 281.89684211207
  21
 217.50000000000
  31
0.0
   0
LINE
   5
1F9
 100
AcDbEntity
   8
LEVEL001
 100
AcDbLine
   6
CONTINUOUS
  62
7
  10
 257.50000000000
  20
 192.50000000000
  30
0.0
  11
 284.08405870022
  21
 192.50000000000
  31
0.0
   0
LINE
   5
1FA
 100
AcDbEntity
   8
LEVEL001
 100
AcDbLine
   6
CONTINUOUS
  62
7
  10
 257.50000000000
  20
 226.00000000000
  30
0.0
  11
 257.50000000000
  21
 184.00000000000
  31
0.0
   0
LINE
   5
1FB
 100
AcDbEntity
   8
LEVEL001
 100
AcDbLine
   6
CONTINUOUS
  62
7
  10
 253.50000000000
  20
 228.00000000000
  30
0.0
  11
 253.50000000000
  21
 158.00000000000
  31
0.0
   0
LINE
   5
1FC
 100
AcDbEntity
   8
LEVEL001
 100
AcDbLine
   6
CONTINUOUS
  62
3
  10
 212.02072594217
  20
 167.18739260883
  30
0.0
  11
 212.02072594217
  21
 165.07110959958
  31
0.0
   0
LINE
   5
1FD
 100
AcDbEntity
   8
LEVEL001
 100
AcDbLine
   6
DASHDOT
  62
1
  10
 210.00000000000
  20
 155.25000000000
  30
0.0
  11
 210.00000000000
  21
 175.40600000023
  31
0.0
   0
LWPOLYLINE
   5
1FE
 100
AcDbEntity
   8
LEVEL001
   6
CONTINUOUS
  62
7
 100
AcDbPolyline
  90
4
  70
1
  10
 212.50000000000
  20
 180.00000000000
  10
 216.50000000000
  20
 180.00000000000
  10
 216.50000000000
  20
 184.00000000000
  10
 212.50000000000
  20
 184.00000000000
   0
ARC
   5
1FF
 100
AcDbEntity
   8
LEVEL001
   6
CONTINUOUS
  62
7
 100
AcDbCircle
  10
 220.00000000000
  20
 182.00000000000
  30
0.0
  40
 6.0000000000000
 100
AcDbArc
  50
 199.47122063449
  51
 160.52877936551
   0
LWPOLYLINE
   5
200
 100
AcDbEntity
   8
LEVEL001
   6
CONTINUOUS
  62
3
 100
AcDbPolyline
  90
6
  70
1
  10
 257.50000000000
  20
 201.50000000000
  10
 257.50000000000
  20
 208.50000000000
  10
 261.30000000000
  20
 208.50000000000
  10
 261.50000000000
  20
 208.15358983849
  10
 261.50000000000
  20
 201.84641016151
  10
 261.30000000000
  20
 201.50000000000
   0
LINE
   5
201
 100
AcDbEntity
   8
LEVEL001
 100
AcDbLine
   6
CONTINUOUS
  62
3
  10
 261.30000000000
  20
 201.50000000000
  30
0.0
  11
 261.30000000000
  21
 208.50000000000
  31
0.0
   0
CIRCLE
   5
202
 100
AcDbEntity
   8
LEVEL001
 100
AcDbCircle
   6
CONTINUOUS
  62
7
  10
 220.00000000000
  20
 182.00000000000
  30
0.0
  40
 12.000000000000
   0
LINE
   5
203
 100
AcDbEntity
   8
LEVEL001
 100
AcDbLine
   6
DASHDOT
  62
1
  10
 183.00000000000
  20
 222.00000000000
  30
0.0
  11
 258.50000000000
  21
 222.00000000000
  31
0.0
   0
LINE
   5
204
 100
AcDbEntity
   8
LEVEL001
 100
AcDbLine
   6
DOT
  62
3
  10
 253.50000000000
  20
 218.50000000000
  30
0.0
  11
 186.50000000000
  21
 218.50000000000
  31
0.0
   0
LINE
   5
205
 100
AcDbEntity
   8
LEVEL001
 100
AcDbLine
   6
DOT
  62
3
  10
 186.50000000000
  20
 225.50000000000
  30
0.0
  11
 253.50000000000
  21
 225.50000000000
  31
0.0
   0
LINE
   5
206
 100
AcDbEntity
   8
LEVEL001
 100
AcDbLine
   6
DOT
  62
3
  10
 78.500000000000
  20
 167.00000000002
  30
0.0
  11
 78.500000000000
  21
 158.00000000000
  31
0.0
   0
ARC
   5
207
 100
AcDbEntity
   8
LEVEL001
   6
DOT
  62
3
 100
AcDbCircle
  10
 79.000000000000
  20
 167.00000000001
  30
0.0
  40
 0.50000000000000
 100
AcDbArc
  50
 90.000000001749
  51
 179.99999999975
   0
LINE
   5
208
 100
AcDbEntity
   8
LEVEL001
 100
AcDbLine
   6
DOT
  62
3
  10
 91.500000000000
  20
 158.00000000000
  30
0.0
  11
 91.500000000000
  21
 167.00000000002
  31
0.0
   0
ARC
   5
209
 100
AcDbEntity
   8
LEVEL001
   6
DOT
  62
3
 100
AcDbCircle
  10
 91.000000000000
  20
 167.00000000002
  30
0.0
  40
 0.50000000000000
 100
AcDbArc
  50
0.0
  51
 89.999999998254
   0
LINE
   5
20A
 100
AcDbEntity
   8
LEVEL001
 100
AcDbLine
   6
DOT
  62
3
  10
 78.999999999985
  20
 167.50000000002
  30
0.0
  11
 91.000000000015
  21
 167.50000000002
  31
0.0
   0
ARC
   5
20B
 100
AcDbEntity
   8
LEVEL001
   6
DOT
  62
3
 100
AcDbCircle
  10
 210.00000000000
  20
 171.44589481724
  30
0.0
  40
 6.6873926088305
 100
AcDbArc
  50
 252.41204622601
  51
 287.58795377399
   0
ARC
   5
20C
 100
AcDbEntity
   8
LEVEL001
   6
DOT
  62
3
 100
AcDbCircle
  10
 210.00000000000
  20
 160.81260739117
  30
0.0
  40
 6.6873926088304
 100
AcDbArc
  50
 72.412046226006
  51
 107.58795377399
   0
ARC
   5
20D
 100
AcDbEntity
   8
LEVEL001
   6
DOT
  62
3
 100
AcDbCircle
  10
 206.49999866772
  20
 168.41481220841
  30
0.0
  40
 3.6563100000000
 100
AcDbArc
  50
 270.00002087733
  51
 293.86490453871
   0
ARC
   5
20E
 100
AcDbEntity
   8
LEVEL001
   6
DOT
  62
3
 100
AcDbCircle
  10
 206.49999866772
  20
 163.84369000000
  30
0.0
  40
 3.6563100000000
 100
AcDbArc
  50
 66.135095461258
  51
 82.140159029499
   0
LINE
   5
20F
 100
AcDbEntity
   8
LEVEL001
 100
AcDbLine
   6
DOT
  62
3
  10
 207.97927405784
  20
 167.18739260883
  30
0.0
  11
 207.97927405784
  21
 165.07110959958
  31
0.0
   0
LINE
   5
210
 100
AcDbEntity
   8
LEVEL001
 100
AcDbLine
   6
DOT
  62
3
  10
 207.00000000000
  20
 167.50000000011
  30
0.0
  11
 205.95854811568
  21
 166.89871747441
  31
0.0
   0
LINE
   5
211
 100
AcDbEntity
   8
LEVEL001
 100
AcDbLine
   6
DOT
  62
3
  10
 205.95854811568
  20
 165.07110959958
  30
0.0
  11
 206.50000455286
  21
 164.75849957982
  31
0.0
   0
LINE
   5
212
 100
AcDbEntity
   8
LEVEL001
 100
AcDbLine
   6
DOT
  62
3
  10
 205.95854811568
  20
 166.89871747441
  30
0.0
  11
 205.95854811568
  21
 165.07110959958
  31
0.0
   0
LINE
   5
213
 100
AcDbEntity
   8
LEVEL001
 100
AcDbLine
   6
DOT
  62
3
  10
 203.99999999999
  20
 167.50000000002
  30
0.0
  11
 207.00000000000
  21
 167.50000000011
  31
0.0
   0
ARC
   5
214
 100
AcDbEntity
   8
LEVEL001
   6
DOT
  62
3
 100
AcDbCircle
  10
 204.00000000000
  20
 167.00000000001
  30
0.0
  40
 0.50000000000000
 100
AcDbArc
  50
 90.000000001749
  51
 179.99999999917
   0
LINE
   5
215
 100
AcDbEntity
   8
LEVEL001
 100
AcDbLine
   6
DOT
  62
3
  10
 203.50000000000
  20
 167.00000000002
  30
0.0
  11
 203.50000000000
  21
 158.00000000000
  31
0.0
   0
ARC
   5
216
 100
AcDbEntity
   8
LEVEL001
   6
DOT
  62
3
 100
AcDbCircle
  10
 216.00000000000
  20
 167.00000000002
  30
0.0
  40
 0.50000000000000
 100
AcDbArc
  50
0.0
  51
 89.999999998254
   0
LINE
   5
217
 100
AcDbEntity
   8
LEVEL001
 100
AcDbLine
   6
DOT
  62
3
  10
 216.50000000000
  20
 158.00000000000
  30
0.0
  11
 216.50000000000
  21
 167.00000000002
  31
0.0
   0
LINE
   5
218
 100
AcDbEntity
   8
LEVEL001
 100
AcDbLine
   6
DOT
  62
3
  10
 213.00000000000
  20
 167.50000000011
  30
0.0
  11
 216.00000000002
  21
 167.50000000002
  31
0.0
   0
LINE
   5
219
 100
AcDbEntity
   8
LEVEL001
 100
AcDbLine
   6
DOT
  62
3
  10
 186.50000000000
  20
 167.50000000000
  30
0.0
  11
 253.50000000000
  21
 167.50000000000
  31
0.0
   0
ARC
   5
21A
 100
AcDbEntity
   8
LEVEL001
   6
DOT
  62
3
 100
AcDbCircle
  10
 210.00000000000
  20
 159.50000000000
  30
0.0
  40
 1.0000000000000
 100
AcDbArc
  50
 209.99999999989
  51
 330.00000000022
   0
ARC
   5
21B
 100
AcDbEntity
   8
LEVEL001
   6
DOT
  62
3
 100
AcDbCircle
  10
 210.00000000001
  20
 161.69999183575
  30
0.0
  40
 3.3000030517578
 100
AcDbArc
  50
 0.88764837371270E-4
  51
 25.917863083280
   0
ARC
   5
21C
 100
AcDbEntity
   8
LEVEL001
   6
DOT
  62
3
 100
AcDbCircle
  10
 213.68758084095
  20
 163.49213372912
  30
0.0
  40
 0.80000000000000
 100
AcDbArc
  50
 155.06672229635
  51
 205.91947042090
   0
LINE
   5
21D
 100
AcDbEntity
   8
LEVEL001
 100
AcDbLine
   6
DOT
  62
3
  10
 210.00000000000
  20
 163.44642252193
  30
0.0
  11
 212.80000000000
  21
 163.44642252193
  31
0.0
   0
ARC
   5
21E
 100
AcDbEntity
   8
LEVEL001
   6
DOT
  62
3
 100
AcDbCircle
  10
 218.40293731222
  20
 161.30000842504
  30
0.0
  40
 6.0000000000000
 100
AcDbArc
  50
 144.80120065475
  51
 155.06672229608
   0
ARC
   5
21F
 100
AcDbEntity
   8
LEVEL001
   6
DOT
  62
3
 100
AcDbCircle
  10
 213.50000133228
  20
 168.41481220841
  30
0.0
  40
 3.6563100000000
 100
AcDbArc
  50
 246.13509546130
  51
 269.99997912268
   0
ARC
   5
220
 100
AcDbEntity
   8
LEVEL001
   6
DOT
  62
3
 100
AcDbCircle
  10
 213.50000133228
  20
 163.84369000000
  30
0.0
  40
 3.6563100000000
 100
AcDbArc
  50
 97.093697614582
  51
 113.86490453869
   0
LINE
   5
221
 100
AcDbEntity
   8
LEVEL001
 100
AcDbLine
   6
DOT
  62
3
  10
 214.04145188433
  20
 165.07110959958
  30
0.0
  11
 213.49999544715
  21
 164.75849957982
  31
0.0
   0
LINE
   5
222
 100
AcDbEntity
   8
LEVEL001
 100
AcDbLine
   6
DOT
  62
3
  10
 213.00000000000
  20
 167.50000000011
  30
0.0
  11
 214.04145188433
  21
 166.89871747441
  31
0.0
   0
LINE
   5
223
 100
AcDbEntity
   8
LEVEL001
 100
AcDbLine
   6
DOT
  62
3
  10
 214.04145188433
  20
 165.07110959958
  30
0.0
  11
 214.04145188433
  21
 166.89871747437
  31
0.0
   0
ARC
   5
224
 100
AcDbEntity
   8
LEVEL001
   6
DOT
  62
3
 100
AcDbCircle
  10
 206.31241915906
  20
 163.49213372912
  30
0.0
  40
 0.80000000000000
 100
AcDbArc
  50
 334.08052957923
  51
 24.933277703853
   0
LINE
   5
225
 100
AcDbEntity
   8
LEVEL001
 100
AcDbLine
   6
DOT
  62
3
  10
 210.00000000000
  20
 163.44642252193
  30
0.0
  11
 207.20000000000
  21
 163.44642252193
  31
0.0
   0
ARC
   5
226
 100
AcDbEntity
   8
LEVEL001
   6
DOT
  62
3
 100
AcDbCircle
  10
 201.59706268778
  20
 161.30000842505
  30
0.0
  40
 6.0000000000000
 100
AcDbArc
  50
 24.933277703879
  51
 35.198844917432
   0
LWPOLYLINE
   5
227
 100
AcDbEntity
   8
LEVEL001
   6
DOT
  62
3
 100
AcDbPolyline
  90
6
  70
1
  10
 210.00000000000
  20
 159.00000000000
  10
 212.39999389649
  20
 159.00000000000
  10
 213.30000305176
  20
 161.69999694824
  10
 210.00000000000
  20
 161.69999694824
  10
 206.69999694825
  20
 161.69999694824
  10
 207.60000610352
  20
 159.00000000000
   0
ARC
   5
228
 100
AcDbEntity
   8
LEVEL001
   6
DOT
  62
3
 100
AcDbCircle
  10
 210.00000000000
  20
 161.69999183575
  30
0.0
  40
 3.3000030517578
 100
AcDbArc
  50
 154.08052957928
  51
 179.99991123515
   0
TEXT
   5
229
 100
AcDbEntity
   8
LEVEL003
  62
7
 100
AcDbText
  10
 336.10583239931
  20
 72.973970384932
  30
0.0
  40
 7.5000000000000
   1
ＯＳＡＫＡ ＪＡＣＫ
   7
STANDARD
 100
AcDbText
   0
CIRCLE
   5
22A
 100
AcDbEntity
   8
LEVEL003
 100
AcDbCircle
   6
CONTINUOUS
  62
7
  10
 322.62302811518
  20
 78.076778411367
  30
0.0
  40
 2.2500000000000
   0
LINE
   5
22B
 100
AcDbEntity
   8
LEVEL003
 100
AcDbLine
   6
CONTINUOUS
  62
7
  10
 327.03677811518
  20
 80.326778411367
  30
0.0
  11
 324.17927811518
  21
 75.376778411367
  31
0.0
   0
LINE
   5
22C
 100
AcDbEntity
   8
LEVEL003
 100
AcDbLine
   6
CONTINUOUS
  62
7
  10
 324.17927811518
  20
 75.376778411367
  30
0.0
  11
 318.46427811518
  21
 75.376778411367
  31
0.0
   0
LINE
   5
22D
 100
AcDbEntity
   8
LEVEL003
 100
AcDbLine
   6
CONTINUOUS
  62
7
  10
 317.81552811518
  20
 74.251778411367
  30
0.0
  11
 328.03052811518
  21
 74.251778411367
  31
0.0
   0
LINE
   5
22E
 100
AcDbEntity
   8
LEVEL003
 100
AcDbLine
   6
CONTINUOUS
  62
7
  10
 328.03052811518
  20
 74.251778411367
  30
0.0
  11
 331.53677811518
  21
 80.326778411367
  31
0.0
   0
LINE
   5
22F
 100
AcDbEntity
   8
LEVEL003
 100
AcDbLine
   6
CONTINUOUS
  62
7
  10
 331.53677811518
  20
 80.326778411367
  30
0.0
  11
 327.03677811518
  21
 80.326778411367
  31
0.0
   0
LINE
   5
230
 100
AcDbEntity
   8
LEVEL003
 100
AcDbLine
   6
CONTINUOUS
  62
7
  10
 318.46427811518
  20
 75.376778411367
  30
0.0
  11
 317.81552811518
  21
 74.251778411367
  31
0.0
   0
TEXT
   5
231
 100
AcDbEntity
   8
LEVEL003
  62
7
 100
AcDbText
  10
 338.28833239931
  20
 85.644070384932
  30
0.0
  40
 4.5000000000000
   1
Model : ＳＷＪ４００Ｕ
   7
STANDARD
 100
AcDbText
   0
ENDSEC
  0
SECTION
  2
OBJECTS
  0
DICTIONARY
  5
C
100
AcDbDictionary
  3
ACAD_GROUP
350
D
  3
ACAD_MLINESTYLE
350
1B
  0
DICTIONARY
  5
D
102
{ACAD_REACTORS
330
C
102
}
100
AcDbDictionary
  0
DICTIONARY
  5
1B
102
{ACAD_REACTORS
330
C
102
}
100
AcDbDictionary
  3
STANDARD
350
1C
  0
MLINESTYLE
  5
1C
102
{ACAD_REACTORS
330
1B
102
}
100
AcDbMlineStyle
  2
STANDARD
 70
     0
  3

 62
   256
 51
90.0
 52
90.0
 71
     2
 49
0.5
 62
   256
  6
BYLAYER
 49
-0.5
 62
   256
  6
BYLAYER
  0
ENDSEC
   0
EOF
